<?xml version="1.0" standalone="no"?>
<!DOCTYPE svg PUBLIC "-//W3C//DTD SVG 1.1//EN" "http://www.w3.org/Graphics/SVG/1.1/DTD/svg11.dtd">
<svg xmlns="http://www.w3.org/2000/svg">
<defs >
<font id="Anaheim" horiz-adv-x="863" ><font-face
    font-family="Anaheim"
    units-per-em="2048"
    panose-1="2 0 5 3 0 0 0 0 0 0"
    ascent="1968"
    descent="-672"
    alphabetic="0" />
<glyph unicode=" " horiz-adv-x="677" />
<glyph unicode="!" horiz-adv-x="446" d="M157 154H295V0H157V154ZM151 1284H288L250 341H191L151 1284Z" />
<glyph unicode="&quot;" horiz-adv-x="634" d="M388 1411H510L503 1217V950H388V1411ZM125 1411H246V1229L237 950H125V1411Z" />
<glyph unicode="#" horiz-adv-x="1082" d="M630 553L674 928H450L408 553H630ZM720 449L679 92H573L615 449H399L359 92H252L294 449H126V553H307L350 928H162V1030H360L399 1364H504L466 1030H681L720 1364H823L786 1030H953V928H774L733 553H918V449H720Z" />
<glyph unicode="$" horiz-adv-x="947" d="M538 -188H459V-10Q243 -6 105 68L133 173Q186 150 219 138T320 111T459 96V616L376 644Q242 689 174 764T105 969Q105 1131 201 1211T458 1300V1465H538V1300Q712 1293 842 1239L819 1137Q674 1191 538 1195V717Q665
671 705 650Q827 586 859 467Q873 416 873 353Q873 194 784 101T538 -7V-188ZM538 590V101Q636 117 690 180T745 355Q745 408 733 445T692 509T629 553T538 590ZM458 746V1193Q233 1172 233 972Q233 890 270 846T417 761L458 746Z" />
<glyph unicode="%" horiz-adv-x="1471" d="M493 939T493 1027T446 1163T331 1211Q265 1211 216 1162T167 1027Q167 938 215 889T331 840Q397 840 445 889ZM590 1157T590 1027T513 825T331 752Q225 752 147 825T69 1027Q69 1157 147 1229T331 1301T513 1229ZM994
1368L1088 1337L522 -44L432 -10L994 1368ZM1306 177T1306 265T1259 401T1144 449Q1078 449 1029 400T980 265Q980 176 1028 127T1144 78Q1210 78 1258 127ZM1404 395T1404 265T1327 63T1144 -10Q1038 -10 960 63T882 265Q882 395 960 467T1144 539T1327 467Z"
/>
<glyph unicode="&amp;" horiz-adv-x="1100" d="M1024 489Q985 313 898 191L1002 54L908 -19L819 100Q697 -10 505 -10Q321 -10 223 67T124 291Q124 356 144 413T204 521T282 607T378 689L312 778Q209 924 209 1041Q209 1106 233 1157T297 1239T386 1285T489 1301Q613
1301 690 1235T768 1038Q768 934 707 847T537 667L824 288Q878 383 915 522L1024 489ZM465 753Q547 822 593 889T640 1033Q640 1196 492 1196Q419 1196 378 1157T337 1044Q337 976 362 919T436 792L465 753ZM449 606Q388 556 349 515T281 416T252 297Q252 96 519
96Q656 96 751 191L449 606Z" />
<glyph unicode="&apos;" horiz-adv-x="371" d="M125 1411H248L239 1212V950H125V1411Z" />
<glyph unicode="(" horiz-adv-x="520" d="M382 -305Q230 -103 152 143T74 650T152 1156T382 1604L461 1528Q335 1337 270 1110T205 645Q205 409 270 184T461 -231L382 -307V-305Z" />
<glyph unicode=")" horiz-adv-x="520" d="M141 -305V-307L62 -231Q188 -42 253 183T318 645Q318 882 253 1109T62 1528L141 1604Q293 1402 371 1156T449 650T371 144T141 -305Z" />
<glyph unicode="*" horiz-adv-x="923" d="M786 1223L812 1138L534 1043L708 807L635 753L460 989L286 753L213 807L386 1043L108 1137L134 1223L415 1130V1425H506V1130L786 1223Z" />
<glyph unicode="+" horiz-adv-x="996" d="M550 1010V645H884V541H550V176H445V541H110V645H445V1010H550Z" />
<glyph unicode="," horiz-adv-x="491" d="M341 39Q341 -51 307 -123T205 -274L158 -221Q239 -96 244 0H149V210H341V39Z" />
<glyph unicode="-" horiz-adv-x="750" d="M114 449V565H633V449H114Z" />
<glyph unicode="." horiz-adv-x="452" d="M305 202V0H145V202H305Z" />
<glyph unicode="/" horiz-adv-x="888" d="M812 1458L178 -121L99 -84L731 1497L812 1458Z" />
<glyph unicode="0" horiz-adv-x="1012" d="M507 1195Q456 1195 417 1179T350 1138T304 1070T275 986T258 882T251 769T249 646Q249 553 252 488T264 355T292 244T338 165T408 113T507 96Q560 96 601 115T669 160T715 237T743 325T757 431T762 537T763 646Q763
739 760 804T748 937T721 1047T675 1126T605 1178T507 1195ZM133 646Q133 749 139 828T159 985T201 1118T269 1216T369 1280T507 1301Q575 1301 629 1283T722 1234T789 1155T834 1054T861 932T875 796T879 646Q879 564 876 497T862 361T834 238T789 136T722 57T629
8T507 -10Q439 -10 384 8T291 58T224 137T178 239T150 362T137 498T133 646Z" />
<glyph unicode="1" horiz-adv-x="799" d="M512 100H704V0H160V100H384V1167L157 1061L119 1154L118 1155L399 1284H512V100Z" />
<glyph unicode="2" horiz-adv-x="961" d="M162 1125L122 1226Q206 1265 278 1283T453 1301Q635 1301 729 1204T824 956Q824 922 820 891T803 827T781 772T748 716T711 666T666 613T620 564T567 511T514 458Q402 346 365 301Q280 196 265 100H798L813 0H131Q131
53 142 104T168 195T211 280T261 355T323 428T387 493T455 558Q473 575 482 584Q536 635 569 671T637 754T690 851T707 952Q707 1195 444 1195Q383 1195 316 1179T216 1150T162 1125Z" />
<glyph unicode="3" horiz-adv-x="1002" d="M441 -10Q266 -10 132 40L159 145Q289 96 446 96Q755 96 755 360Q755 489 668 558T460 627Q370 627 285 608L276 711Q382 725 452 741T584 788T674 865T704 980Q704 1084 638 1139T453 1195Q308 1195 159 1144L132 1245Q303
1301 448 1301Q620 1301 719 1222T819 994Q819 869 757 799T569 691Q691 680 781 581T871 349Q871 270 848 208T784 106T689 39T572 1T441 -10Z" />
<glyph unicode="4" horiz-adv-x="1002" d="M608 0V260H64V356L411 1284H536L201 360H608V797H736V360H896V260H736V0H608Z" />
<glyph unicode="5" horiz-adv-x="999" d="M736 371Q736 524 672 603T497 683Q350 683 250 608L179 637V1284H796V1184H292L277 726Q366 787 498 787Q664 787 764 674T864 369Q864 186 750 88T443 -10Q370 -10 275 8T131 50L157 159Q210 134 297 115T450 96Q588
96 662 167T736 371Z" />
<glyph unicode="6" horiz-adv-x="998" d="M231 727Q307 781 373 803T514 825Q663 825 755 723T848 421Q848 217 751 104T479 -10Q280 -10 188 131T96 551Q96 716 122 838T195 1043T319 1180T486 1261T699 1301L720 1189Q249 1178 231 727ZM224 529Q224 308 283
202T474 96Q600 96 660 175T720 422Q720 573 665 644T499 715Q433 715 373 693T224 613V529Z" />
<glyph unicode="7" horiz-adv-x="875" d="M779 1198Q745 1145 684 1017T552 715T430 343T379 0H243Q250 257 350 539T638 1195H106V1301H769L779 1198Z" />
<glyph unicode="8" horiz-adv-x="1034" d="M512 96Q624 96 696 149T768 321Q768 369 752 411T710 483T646 541T573 588T492 626Q256 507 256 317Q256 203 326 150T512 96ZM545 716Q643 750 705 826T768 987Q768 1082 709 1138T530 1195Q480 1195 439 1185T362
1153T308 1089T288 989Q288 935 307 893T367 818T445 764T545 716ZM160 994Q160 1098 212 1169T345 1270T528 1301Q628 1301 710 1268T844 1164T896 998Q896 896 830 804T654 665Q766 606 831 522T896 306Q896 228 864 166T777 67T655 10T512 -10Q346 -10 237 71T128
304Q128 415 194 517T383 675Q280 728 220 803T160 994Z" />
<glyph unicode="9" horiz-adv-x="1002" d="M720 763Q720 984 661 1089T470 1195Q344 1195 284 1117T224 870Q224 719 279 648T445 577Q511 577 571 599T720 679V763ZM713 565Q637 511 571 489T430 467Q281 467 189 569T96 871Q96 1075 193 1188T465 1301Q665 1301
756 1161T848 741Q848 537 808 394T688 165T500 40T245 -10L224 96Q349 99 444 136T598 238T684 385T713 565Z" />
<glyph unicode=":" horiz-adv-x="481" d="M308 841V639H145V841H308ZM308 243V47H145V243H308Z" />
<glyph unicode=";" horiz-adv-x="462" d="M323 129Q323 37 289 -35T184 -186L138 -133Q217 -9 224 86H150V302H323V129ZM145 846H307V636H145V846Z" />
<glyph unicode="&lt;" horiz-adv-x="1005" d="M233 596L874 150L819 61L108 563V629L819 1116L876 1030L233 596Z" />
<glyph unicode="=" horiz-adv-x="1025" d="M123 467H897V371H123V467ZM123 780H897V684H123V780Z" />
<glyph unicode="&gt;" horiz-adv-x="1009" d="M774 596L130 1030L186 1116L899 629V563L186 61L130 150L774 596Z" />
<glyph unicode="?" horiz-adv-x="881" d="M345 135H470V-6H345V135ZM766 1005Q766 947 748 896T701 806T637 731T567 659T502 589T455 508T437 412Q437 391 444 293H361Q357 305 352 345T344 420L340 455Q340 506 362 557T419 649T493 735T567 819T624 905T647
998Q647 1084 598 1139T458 1195Q365 1195 296 1165T158 1071L102 1151Q157 1214 251 1257T449 1301Q590 1301 678 1220T766 1005Z" />
<glyph unicode="@" horiz-adv-x="1512" d="M1100 256Q988 256 928 375Q895 317 841 280T713 242Q676 242 640 254T570 294T511 362T470 463T454 598Q454 767 533 877T753 987Q780 987 821 982T925 957T1024 903V406Q1024 362 1102 362Q1150 362 1188 415T1245
541T1264 687T1247 830T1191 967T1096 1084T953 1164T763 1195Q664 1195 572 1151T412 1031T302 844T261 607Q261 358 408 197T779 36Q898 36 1058 95L1084 4Q919 -63 773 -63Q650 -63 536 -15T333 117T193 328T140 600Q140 756 188 888T320 1110T515 1250T754
1301Q882 1301 987 1265T1163 1169T1281 1030T1351 866T1372 692Q1372 578 1341 480T1247 319T1100 256ZM736 326Q769 326 813 347T891 405Q923 439 923 648V864Q857 897 761 897Q697 897 651 853T583 744T562 602Q562 490 608 408T736 326Z" />
<glyph unicode="A" horiz-adv-x="1081" d="M769 420L550 1174L323 420H769ZM897 0L800 328H293L193 0H54L454 1284H645L1027 0H897Z" />
<glyph unicode="B" horiz-adv-x="1041" d="M709 687Q821 661 885 584T949 377Q949 284 928 218T870 110T771 43T638 9T467 0H149V1284H470Q586 1284 663 1271T796 1222T877 1126T903 971Q903 847 859 780T709 687ZM821 375Q821 507 743 568T511 629H277V100H474Q545
100 595 106T690 129T763 176T805 255T821 375ZM510 723Q658 723 724 778T791 971Q791 1089 722 1136T494 1184H277V723H510Z" />
<glyph unicode="C" horiz-adv-x="1014" d="M246 638Q246 362 344 229T606 96Q746 96 883 161L923 64Q768 -10 598 -10Q495 -10 409 29T258 145T155 349T118 641Q118 991 231 1146T586 1301Q743 1301 896 1226V984H787V1157Q701 1195 597 1195Q507 1195 446 1172T338
1088T268 916T246 638Z" />
<glyph unicode="D" horiz-adv-x="1099" d="M433 0H149V1284H422Q536 1284 621 1269T768 1219T871 1135T936 1011T971 846T981 636Q981 543 976 472T955 332T914 214T847 123T749 55T612 15T433 0ZM422 1184H277V100H433Q497 100 548 106T641 124T713 157T766 201T804
261T829 332T844 419T851 519T853 636Q853 742 847 814T825 952T779 1058T701 1129T584 1171T422 1184Z" />
<glyph unicode="E" horiz-adv-x="921" d="M277 626V100H822L838 0H149V1284H834L812 1184H277V722H778V626H277Z" />
<glyph unicode="F" horiz-adv-x="852" d="M277 697H733V603H277V0H149V1284H816L797 1184H277V697Z" />
<glyph unicode="G" horiz-adv-x="1094" d="M964 92Q927 72 903 61T827 30T714 0T584 -10Q325 -10 218 146T110 650Q110 995 232 1148T599 1301Q776 1301 929 1226V984H820V1157Q734 1195 610 1195Q538 1195 485 1182T382 1134T303 1040T254 885T235 659Q235 355
313 226T590 96Q746 96 848 145V567H612V665H964V92Z" />
<glyph unicode="H" horiz-adv-x="1134" d="M857 1284H985V0H857V602H277V0H149V1284H277V703H857V1284Z" />
<glyph unicode="I" horiz-adv-x="730" d="M432 1184V100H620V0H110V100H304V1184H110V1284H616V1184H432Z" />
<glyph unicode="J" horiz-adv-x="643" d="M494 1284V91Q494 -86 427 -159T223 -232Q131 -232 47 -200L62 -99Q141 -127 214 -127Q298 -127 332 -77T366 91V1184H105V1284H494Z" />
<glyph unicode="K" horiz-adv-x="1032" d="M277 0H149V1284H277V609L432 778L825 1284H975L550 721L1001 0H860L453 652L277 480V0Z" />
<glyph unicode="L" horiz-adv-x="825" d="M277 1284V100H769L786 0H149V1284H277Z" />
<glyph unicode="M" horiz-adv-x="1362" d="M1012 1099L739 438H624L341 1101L255 0H137L237 1284H379L681 582L975 1284H1116L1225 0H1107L1012 1099Z" />
<glyph unicode="N" horiz-adv-x="1193" d="M928 1284H1044V0H918L271 1081V0H149V1284H285L928 219V1284Z" />
<glyph unicode="O" horiz-adv-x="1128" d="M461 1301T564 1301T744 1273T873 1192T955 1058T999 877T1012 648Q1012 517 1000 419T958 238T878 102T749 20T564 -10T379 19T251 101T170 237T128 419T116 648Q116 778 129 876T173 1057T255 1192T383 1272ZM382 96T564
96T815 222T884 645Q884 942 815 1068T564 1195T314 1069T244 645Q244 349 313 223Z" />
<glyph unicode="P" horiz-adv-x="981" d="M277 640H361Q466 640 519 643T634 659T724 700T770 777T789 903Q789 1064 722 1124T506 1184H277V640ZM498 1284Q600 1284 673 1266T803 1206T888 1088T917 905Q917 814 894 749T830 642T720 578T573 545T384 536H277V0H149V1284H498Z"
/>
<glyph unicode="Q" horiz-adv-x="1132" d="M566 96Q667 96 719 124L596 295L667 351L789 180Q841 243 863 356T886 645Q886 942 817 1069T566 1196T316 1069T246 645Q246 349 315 223T566 96ZM922 -159L787 29Q698 -16 566 -16Q459 -16 381 14T252 97T172 235T130
418T118 648Q118 811 139 928T211 1133T349 1264T566 1308T783 1265T921 1133T992 928T1014 648Q1014 437 980 297T861 80L993 -104L922 -159Z" />
<glyph unicode="R" horiz-adv-x="1053" d="M789 920Q789 972 781 1012T758 1080T716 1127T661 1157T587 1175T500 1182T396 1184H277V662H364Q451 662 509 665T618 679T699 707T750 754T780 823T789 920ZM975 41L870 -25Q663 317 550 573Q478 567 387 567H277V0H149V1284H402Q494
1284 559 1279T686 1261T788 1222T858 1157T903 1059T917 922Q917 775 857 698T669 591Q710 498 786 361T919 132L975 41Z" />
<glyph unicode="S" horiz-adv-x="947" d="M819 1137Q665 1195 514 1195Q233 1195 233 972Q233 890 270 846T417 761L531 720Q542 716 564 708Q608 693 630 685T691 658T751 623T799 580T839 522T863 448T873 353Q873 179 767 85T481 -10Q250 -10 105 68L133 173Q187
150 221 137T326 110T471 96Q599 96 672 160T745 355Q745 401 734 436T706 494T654 537T587 571T499 603L376 644Q242 689 174 764T105 969Q105 1058 135 1123T221 1227T344 1283T497 1301Q692 1301 842 1239L819 1137Z" />
<glyph unicode="T" horiz-adv-x="891" d="M35 1184V1284H856V1184H507V0H379V1184H35Z" />
<glyph unicode="U" horiz-adv-x="1080" d="M482 96T540 96T642 107T716 135T768 184T800 248T818 332T826 427T828 540V1284H956V635Q956 549 954 489T946 361T926 248T893 156T841 81T768 29T669 -5T540 -16T411 -6T312 28T239 81T188 156T154 247T135 360T126
488T124 635V1284H252V540Q252 471 253 428T261 332T279 249T312 185T363 135T438 107Z" />
<glyph unicode="V" horiz-adv-x="1008" d="M188 1285Q253 1031 362 642T504 134Q532 240 641 634T817 1285H952L583 0H425L56 1285H188Z" />
<glyph unicode="W" horiz-adv-x="1337" d="M390 185L623 846H738L981 183L1087 1284H1205L1085 0H943L681 702L427 0H286L157 1284H275L390 185Z" />
<glyph unicode="X" horiz-adv-x="899" d="M70 1284H200L452 745L702 1284H820L535 657L855 0H727L453 569L182 0H44L362 658L70 1284Z" />
<glyph unicode="Y" horiz-adv-x="926" d="M399 586L15 1284H157L463 704L765 1284H911L527 588V0H399V586Z" />
<glyph unicode="Z" horiz-adv-x="927" d="M841 100V0H125L104 98L673 1184H135V1284H804L820 1176L252 100H841Z" />
<glyph unicode="[" horiz-adv-x="604" d="M288 0H544V-103H160V1358H544V1254H288V0Z" />
<glyph unicode="\" horiz-adv-x="884" d="M159 1473L784 -55L709 -96L83 1432L159 1473Z" />
<glyph unicode="]" horiz-adv-x="604" d="M416 1255H160V1358H544V-103H160V1H416V1255Z" />
<glyph unicode="^" horiz-adv-x="943" d="M448 1211L247 775H128L380 1308H517L768 776H654L448 1211Z" />
<glyph unicode="_" horiz-adv-x="1066" d="M100 -219V-125H968V-219H100Z" />
<glyph unicode="`" horiz-adv-x="486" d="M419 1022L366 973Q214 1106 167 1164L68 1283L174 1363L419 1022Z" />
<glyph unicode="a" horiz-adv-x="953" d="M229 278Q229 92 445 92Q509 92 575 111T685 158V473H629Q581 473 541 471T452 462T366 442T297 408T247 354T229 278ZM166 942Q343 1000 474 1000Q548 1000 607 980T712 916T784 797T810 617V0H718L698 66Q662 37 582
14T425 -10Q281 -10 195 65T109 284Q109 330 123 369T173 446T263 509T403 551T597 567H685V599Q684 763 628 829T468 895Q453 895 436 894T405 891T370 885T337 879T299 871T265 862T227 852T191 843L166 942Z" />
<glyph unicode="b" horiz-adv-x="984" d="M268 1358V923Q393 1000 540 1000Q697 1000 786 876T876 493Q876 225 785 108T510 -10Q366 -10 254 50L244 0H140V1358H268ZM268 137Q356 96 463 96H492Q628 96 688 187T748 491Q748 699 695 797T524 895Q417 895 268 809V137Z" />
<glyph unicode="c" horiz-adv-x="864" d="M750 170L798 79Q676 -10 507 -10Q332 -10 220 121T108 495Q108 1000 496 1000Q632 1000 759 940V682L657 672V872Q591 898 494 898Q420 898 369 869T289 784T248 658T236 493Q236 302 313 198T521 94Q638 94 750 170Z" />
<glyph unicode="d" horiz-adv-x="1010" d="M742 1358H870V0H766L756 50Q644 -10 514 -10Q422 -10 350 17T223 103T138 260T108 493Q108 598 128 683T182 827T265 924T368 982T484 1000Q552 1000 611 984T742 923V1358ZM742 137V809Q660 856 606 875T500 895Q378
895 307 794T236 491Q236 96 532 96H560Q654 96 742 137Z" />
<glyph unicode="e" horiz-adv-x="964" d="M508 895Q382 895 315 808T236 559H743V609Q743 740 680 817T508 895ZM525 96Q679 96 805 176L844 75Q776 33 692 12T532 -10Q330 -10 219 112T108 496Q108 747 216 873T507 1000Q672 1000 767 892T862 604Q862 563 854
469H236Q237 380 254 313T297 205T361 139T439 105T525 96Z" />
<glyph unicode="f" horiz-adv-x="686" d="M254 0V893H62V985H254Q254 1098 264 1169T303 1293T382 1368T513 1394Q622 1394 698 1368L682 1268Q661 1274 614 1281T541 1289Q494 1289 467 1279T419 1237T390 1145T382 985H606V893H382V0H254Z" />
<glyph unicode="g" horiz-adv-x="1092" d="M521 -235Q683 -235 764 -180T845 -49Q845 8 816 36T698 65H319Q246 -4 246 -79Q246 -99 248 -113T259 -148T285 -182T332 -209T409 -228T521 -235ZM742 977H1029V883H806Q858 844 886 787T914 674Q914 538 812 458T544
377Q430 377 338 414Q272 307 272 254Q272 230 280 208T296 175L303 165H682Q840 165 902 116T965 -41Q965 -82 953 -121T908 -200T827 -271T698 -321T515 -340Q420 -340 347 -323T231 -280T163 -219T127 -154T118 -93Q118 -37 155 19T229 96Q196 118 177 158T158
237Q158 290 181 337T261 465Q150 558 150 688Q150 845 258 922T539 1000Q584 1000 644 989T742 977ZM545 905Q407 905 343 846T278 689Q278 585 346 530T535 475Q663 475 730 526T797 678Q797 776 733 840T545 905Z" />
<glyph unicode="h" horiz-adv-x="972" d="M268 800V0H140V1358H268V911Q429 1000 567 1000Q708 1000 776 920T844 663V0H716V669Q716 790 681 842T559 895Q444 895 268 800Z" />
<glyph unicode="i" horiz-adv-x="677" d="M283 1264Q283 1306 309 1331T374 1356Q415 1356 439 1333T464 1266T440 1199T374 1176Q334 1176 309 1199T283 1264ZM118 895V985H438V90H630V0H118V90H310V895H118Z" />
<glyph unicode="j" horiz-adv-x="626" d="M202 -182Q284 -182 311 -136T339 28V895H115V985H467V18Q467 -145 402 -220T206 -295Q107 -295 38 -275L54 -166Q119 -182 202 -182ZM310 1264Q310 1306 336 1331T401 1356Q442 1356 466 1333T491 1266T467 1199T401
1176Q361 1176 336 1199T310 1264Z" />
<glyph unicode="k" horiz-adv-x="937" d="M140 0V1358H268V494Q573 820 719 985H872L456 522L908 0H760Q674 96 581 203T436 370L385 429L359 458L268 377V0H140Z" />
<glyph unicode="l" horiz-adv-x="682" d="M72 1358H421V90H632V0H70V90H293V1267H72V1358Z" />
<glyph unicode="m" horiz-adv-x="1501" d="M1080 1000Q1221 1000 1297 918T1373 671V0H1245V672Q1245 895 1084 895Q920 895 817 830Q819 818 824 762T829 664V0H701V668Q701 789 666 842T543 896H541Q487 896 412 879T268 823V0H140V985H258L263 922Q404 1000
560 1000Q715 1000 770 918Q922 1000 1080 1000Z" />
<glyph unicode="n" horiz-adv-x="985" d="M268 822V0H140V985H245L254 921Q352 967 418 983T560 1000Q712 1000 784 917T857 663V0H729V668Q729 790 691 842T553 895Q401 895 268 822Z" />
<glyph unicode="o" horiz-adv-x="984" d="M687 -10T492 -10T203 121T108 495Q108 748 200 874T492 1000T783 874T876 495Q876 253 782 122ZM550 895T492 895T390 876T317 822T270 737T244 627T236 495Q236 401 248 332T288 207T368 124T492 96T616 124T695 207T736
331T748 495Q748 568 741 627T715 737T667 822T594 875Z" />
<glyph unicode="p" horiz-adv-x="982" d="M268 43V-389H140V985H245L257 916Q386 1000 540 1000Q697 1000 786 876T876 493Q876 225 785 108T510 -10Q375 -10 268 43ZM268 809V137Q356 96 463 96H492Q628 96 688 187T748 491Q748 699 695 797T524 895Q417 895 268 809Z" />
<glyph unicode="q" horiz-adv-x="984" d="M716 42Q624 -10 481 -10Q296 -10 202 108T108 493Q108 759 202 879T462 1000Q529 1000 587 984T717 923L738 985H844V-389H716V42ZM487 96Q626 96 716 137V821Q640 865 586 880T474 895Q236 895 236 491Q236 278 294
187T487 96Z" />
<glyph unicode="r" horiz-adv-x="651" d="M273 899Q332 939 422 968T589 1000V893Q502 893 413 867T274 804V0H146V985H268L273 899Z" />
<glyph unicode="s" horiz-adv-x="838" d="M150 167Q200 139 279 118T432 96Q524 96 580 135T637 265Q637 335 605 369T506 425L356 472Q296 491 258 509T186 557T138 630T123 735Q123 869 215 934T447 1000T713 942L675 846Q572 895 456 895Q363 895 304 856T245
730Q245 666 277 640T394 587L541 540Q622 514 667 484T737 402T762 271Q762 196 736 140T664 52T561 5T438 -10Q272 -10 109 69L150 167Z" />
<glyph unicode="t" horiz-adv-x="742" d="M472 -10Q392 -8 341 16T260 91T220 212T209 388V895H56V985H213L238 1267H337V985H645V895H337V386Q337 290 347 230T382 142T434 105T506 96Q609 96 656 103L661 0Q581 -10 472 -10Z" />
<glyph unicode="u" horiz-adv-x="986" d="M717 163V985H845V0H740L731 64Q636 19 570 5T422 -10Q270 -10 199 70T128 321V985H256V316Q256 196 295 146T435 96Q485 96 516 98T604 116T717 163Z" />
<glyph unicode="v" horiz-adv-x="912" d="M463 137L716 985H847L531 0H394L65 985H195L463 137Z" />
<glyph unicode="w" horiz-adv-x="1298" d="M716 763L930 113L1108 985H1233L1009 0H869L657 627L446 0H304L65 985H190L381 113L598 763H716Z" />
<glyph unicode="x" horiz-adv-x="844" d="M664 0L428 423L188 0H58L355 504L70 985H196L427 579L639 985H767L501 503L786 0H664Z" />
<glyph unicode="y" horiz-adv-x="963" d="M285 -390Q211 -390 120 -355L140 -253L141 -252Q231 -279 276 -279Q291 -279 304 -276T328 -264T347 -247T365 -223T380 -196T393 -164T405 -130T418 -93T430 -55L457 26L52 985H189L513 166L778 985H914L568 -16Q539
-100 521 -147T476 -248T424 -328T364 -372T285 -390Z" />
<glyph unicode="z" horiz-adv-x="799" d="M571 895H130V985H700L710 900L260 90H725V0H133L119 96L571 895Z" />
<glyph unicode="{" horiz-adv-x="620" d="M64 712L210 801Q216 879 216 985V1017L215 1146Q215 1206 217 1248T227 1327T244 1387T274 1429T315 1458T373 1474T448 1482T544 1484L552 1392H527Q474 1392 449 1391T395 1381T356 1358T335 1313T322 1242T320 1135V749L175
664L320 579V193Q320 127 322 87T334 15T355 -30T395 -53T449 -63T527 -64H552L544 -156Q487 -156 449 -154T374 -146T316 -130T274 -102T245 -60T228 0T218 79T215 182L216 311V343Q216 449 210 527L64 616V712Z" />
<glyph unicode="|" horiz-adv-x="423" d="M162 -65V1331H269V-65H162Z" />
<glyph unicode="}" horiz-adv-x="620" d="M558 616L412 527Q406 449 406 343V311L407 182Q407 122 405 80T395 1T378 -59T348 -101T307 -130T249 -146T174 -154T78 -156L70 -64H95Q148 -64 173 -63T227 -53T266 -30T287 15T300 86T302 193V579L447 664L302 749V1135Q302
1201 300 1241T288 1313T267 1358T227 1381T173 1391T95 1392H70L78 1484Q135 1484 173 1482T248 1474T306 1458T348 1430T377 1388T394 1328T404 1249T407 1146L406 1017V985Q406 879 412 801L558 712V616Z" />
<glyph unicode="~" horiz-adv-x="1038" d="M108 530Q167 621 219 669T334 717Q372 717 411 700T555 622Q674 553 707 553Q741 553 774 583T854 679L930 620Q905 579 888 555T842 500T778 453T703 437Q661 437 620 455T483 531Q376 599 338 599T266 569T183 469L105
530H108Z" />
<glyph unicode="&#xa0;" horiz-adv-x="667" />
<glyph unicode="&#xa1;" horiz-adv-x="446" d="M289 998H151V1152H289V998ZM295 -132H158L196 811H255L295 -132Z" />
<glyph unicode="&#xa2;" horiz-adv-x="878" d="M445 -15Q284 4 204 134T124 486Q124 944 441 982V1125H539V984Q641 974 719 946L696 844Q594 881 492 881Q420 881 368 851T287 765T243 641T229 487Q229 296 295 191T492 86Q579 86 723 143L751 41Q644 -4 543
-16V-147H445V-15Z" />
<glyph unicode="&#xa3;" horiz-adv-x="913" d="M156 -1L117 117Q261 268 261 455Q261 533 240 616H85V712H218Q178 847 178 954Q178 1124 275 1213T549 1303Q684 1303 797 1221L755 1128Q660 1195 551 1195Q291 1195 291 938Q291 845 328 712H665V616H350Q374
488 374 413Q374 224 250 96H822L823 0L156 -1Z" />
<glyph unicode="&#xa4;" horiz-adv-x="1048" d="M209 333L132 412L245 526Q183 605 183 720T245 914L132 1030L209 1109L329 986Q412 1051 524 1051Q634 1051 719 986L838 1109L916 1030L801 914Q864 835 864 720Q864 606 801 526L916 412L838 333L719 454Q636
388 524 388Q411 388 329 454L209 333ZM767 720Q767 836 695 901T524 966T353 901T280 719T352 538T524 473T695 538T767 720Z" />
<glyph unicode="&#xa5;" horiz-adv-x="1132" d="M239 559V655H473L117 1284H259L565 704L867 1284H1013L656 655H887L886 559H629V452H886V355H629V0H501V355H239V452H501V559H239Z" />
<glyph unicode="&#xa6;" horiz-adv-x="423" d="M162 -65V527H269V-65H162ZM162 776V1331H269V776H162Z" />
<glyph unicode="&#xa7;" horiz-adv-x="935" d="M769 200Q769 59 689 -10T458 -79Q349 -79 276 -55T142 26L185 116Q312 26 460 26Q657 26 657 187Q657 250 634 281T550 339L410 400Q364 420 340 430T284 457T236 485T201 512T173 544T155 581T144 627T141 682Q141
825 280 903Q165 976 165 1124Q165 1267 246 1337T477 1407Q665 1407 768 1313L722 1225Q606 1303 479 1303Q377 1303 327 1263T276 1133Q276 1063 310 1027T418 959Q456 942 507 921T587 889T652 859T707 827T748 792T779 746T796 690T803 616Q803 490 687 395Q768
332 768 199L769 200ZM633 476Q656 503 665 516T685 556T695 617Q695 673 659 708T563 771Q550 777 462 813T353 859Q252 797 252 698Q252 634 279 601T370 545L479 500Q589 455 606 446V444L633 476Z" />
<glyph unicode="&#xa8;" horiz-adv-x="450" d="M139 1126V1000H0V1126H139ZM451 1126V1000H314V1126H451Z" />
<glyph unicode="&#xa9;" horiz-adv-x="1583" d="M237 799T237 646T311 364T512 160T790 84Q941 84 1068 159T1270 364T1345 646T1271 927T1069 1132T790 1208Q640 1208 513 1133T311 928ZM140 514T140 646T191 898T330 1106T537 1245T790 1297T1043 1246T1251
1107T1390 899T1442 646T1390 394T1251 186T1043 47T790 -5T538 46T330 185T192 393ZM814 292Q920 292 1021 346L1054 273Q937 211 807 211Q616 211 508 332T399 640Q399 727 423 805T495 946T620 1047T798 1085Q915 1085 1032 1023V825H943V978Q876 1004 795 1004Q701
1004 633 950T535 815T504 638Q504 482 585 387T814 292Z" />
<glyph unicode="&#xaa;" horiz-adv-x="740" d="M496 863V1007L424 1004H409Q377 1004 359 1003T316 999T276 988T247 968T227 935T220 886Q220 821 247 795T338 769Q442 769 496 863ZM359 1265Q294 1259 255 1244T191 1197L149 1265Q233 1353 379 1353Q498 1353
542 1293T586 1074V845Q586 841 586 835T586 827T586 820T586 813T587 808T589 802T591 798T594 793T598 789L605 693Q554 683 536 683Q507 707 503 762Q415 680 316 680Q226 680 177 732T128 881Q128 985 182 1032T349 1085Q366 1085 424 1084T496 1083Q495 1123
493 1147T485 1196T466 1234T432 1255T381 1264H360L359 1265Z" />
<glyph unicode="&#xab;" horiz-adv-x="967" d="M834 817L561 545L834 279L806 160L447 520L469 600L806 936L834 817ZM493 817L219 545L493 279L463 160L106 520L128 600L463 936L493 817Z" />
<glyph unicode="&#xac;" horiz-adv-x="1151" d="M148 725V831H999V322H881V725H148Z" />
<glyph unicode="&#xad;" horiz-adv-x="1040" d="M153 725V831H886V725H153Z" />
<glyph unicode="&#xae;" horiz-adv-x="1583" d="M1027 853Q1027 886 1019 909T989 949T945 974T879 987T798 993T697 995H635V703H670Q882 703 954 731T1027 853ZM1102 273L1004 226Q889 455 826 628Q759 623 689 623H635V227H527V1079H722Q807 1079 865 1075T978
1056T1064 1017T1115 951T1134 850Q1134 757 1082 707T926 637Q950 575 994 484T1070 333L1102 273ZM237 799T237 646T311 364T512 160T790 84Q941 84 1068 159T1270 364T1345 646T1271 927T1069 1132T790 1208Q640 1208 513 1133T311 928ZM140 514T140 646T191
898T330 1106T537 1245T790 1297T1043 1246T1251 1107T1390 899T1442 646T1390 394T1251 186T1043 47T790 -5T538 46T330 185T192 393Z" />
<glyph unicode="&#xaf;" horiz-adv-x="608" d="M64 1078V1184H544V1078H64Z" />
<glyph unicode="&#xb0;" horiz-adv-x="699" d="M486 1168Q486 1241 449 1284T347 1328Q284 1328 249 1286T213 1170T248 1054T347 1011T448 1054T486 1168ZM350 917Q244 917 178 986T112 1169Q112 1284 179 1352T352 1421Q456 1421 521 1351T586 1169Q586 1056
520 987T351 918L350 917Z" />
<glyph unicode="&#xb1;" horiz-adv-x="1176" d="M641 1042V719H1024V610H641V299H534V610H151V719H534V1042H641ZM151 82V188H1024V82H151Z" />
<glyph unicode="&#xb2;" horiz-adv-x="775" d="M658 946Q658 877 622 813T531 696T420 595T316 486T253 369H637V264H122Q122 307 131 347T150 417T185 484T223 539T271 594T320 642T373 691Q414 728 437 752T486 808T523 873T535 939Q535 1019 496 1059T366 1100Q250
1100 143 1022L102 1122Q174 1161 231 1179T372 1197Q511 1197 584 1126T658 946Z" />
<glyph unicode="&#xb3;" horiz-adv-x="736" d="M82 1158Q223 1201 330 1201Q461 1201 538 1143T616 975Q616 895 578 846T466 768Q548 745 601 679T655 527Q655 456 628 404T552 322T448 280T325 266Q193 266 82 305L108 401Q212 363 328 363Q376 363 413 371T481
397T528 450T545 535Q545 619 485 664T339 709Q275 709 199 693L189 789Q269 799 321 810T419 840T485 891T507 966Q507 1033 463 1068T334 1104Q230 1104 108 1064L82 1158Z" />
<glyph unicode="&#xb4;" horiz-adv-x="410" d="M113 1022L358 1363L464 1283L367 1174Q346 1148 296 1098T206 1010L166 973L113 1022Z" />
<glyph unicode="&#xb6;" horiz-adv-x="1039" d="M564 547V1242Q515 1242 479 1240T401 1229T330 1206T271 1166T225 1105T197 1019T186 904Q186 825 202 767T248 669T325 605T430 566T564 547ZM889 0H824V1241H629V0H564V482Q454 491 379 513T243 581T151 707T121
906Q121 1021 150 1099T238 1221T376 1283T564 1301H889V0Z" />
<glyph unicode="&#xb7;" horiz-adv-x="452" d="M375 746V554H215V746H375Z" />
<glyph unicode="&#xb8;" horiz-adv-x="936" d="M481 -137Q568 -138 617 -174T667 -279Q667 -368 616 -414T483 -461Q417 -461 351 -431L366 -351Q419 -375 463 -375Q505 -375 530 -353T555 -284Q555 -269 553 -257T543 -236T530 -221T512 -209T491 -201T466 -196T441
-192T413 -189T386 -186L387 -70H491L481 -137Z" />
<glyph unicode="&#xb9;" horiz-adv-x="653" d="M410 373H556V280H129V373H298V1085L133 1014L89 1099L316 1196H410V373Z" />
<glyph unicode="&#xba;" horiz-adv-x="754" d="M373 1349Q506 1349 566 1267T626 1017Q626 852 566 766T373 679Q123 679 123 1015Q123 1350 373 1350V1349ZM534 1016Q534 1149 500 1206T373 1264Q281 1264 248 1208T215 1016Q215 888 248 828T373 768Q468 768
501 824T534 1016Z" />
<glyph unicode="&#xbb;" horiz-adv-x="968" d="M497 600L518 520L159 160L131 279L404 545L131 817L159 936L497 600ZM831 608L859 520L502 160L472 279L747 545L472 817L502 936L831 608Z" />
<glyph unicode="&#xbc;" horiz-adv-x="1863" d="M408 373H554V280H127V373H296V1085L131 1014L87 1099L314 1196H408V373ZM1138 1332L612 -120L513 -114L1036 1332H1138ZM1498 0V260H1005V343L1363 1130H1477L1128 347H1498V662H1609V347H1769V260H1609V0H1498Z" />
<glyph unicode="&#xbd;" horiz-adv-x="1686" d="M1120 1332L594 -120L495 -114L1018 1332H1120ZM1614 667Q1614 598 1578 534T1487 417T1376 316T1272 207T1209 90H1593V-15H1078Q1078 28 1087 68T1106 138T1141 205T1179 260T1227 315T1276 363T1329 412Q1370
449 1393 473T1442 529T1479 594T1491 660Q1491 740 1452 780T1322 821Q1206 821 1099 743L1058 843Q1130 882 1187 900T1328 918Q1467 918 1540 847T1614 667ZM638 373H784V280H357V373H526V1085L361 1014L317 1099L544 1196H638V373Z" />
<glyph unicode="&#xbe;" horiz-adv-x="2036" d="M132 1158Q273 1201 380 1201Q511 1201 588 1143T666 975Q666 895 628 846T516 768Q598 745 651 679T705 527Q705 456 678 404T602 322T498 280T375 266Q243 266 132 305L158 401Q262 363 378 363Q426 363 463 371T531
397T578 450T595 535Q595 619 535 664T389 709Q325 709 249 693L239 789Q319 799 371 810T469 840T535 891T557 966Q557 1033 513 1068T384 1104Q280 1104 158 1064L132 1158ZM1279 1332L753 -120L654 -114L1177 1332H1279ZM1639 0V260H1146V343L1504 1130H1618L1269
347H1639V662H1750V347H1910V260H1750V0H1639Z" />
<glyph unicode="&#xbf;" horiz-adv-x="881" d="M523 998H398V1139H523V998ZM102 128Q102 186 120 237T167 327T231 402T301 474T366 544T413 625T431 721Q431 742 424 840H507Q511 828 516 788T524 713L528 678Q528 627 506 576T449 484T375 398T301 314T244 228T221
135Q221 49 270 -6T410 -62Q503 -62 572 -32T710 62L766 -18Q711 -81 617 -124T419 -168Q278 -168 190 -87T102 128Z" />
<glyph unicode="&#xc0;" horiz-adv-x="1081" d="M593 1513L540 1464Q388 1597 341 1655L242 1774L348 1854L593 1513ZM769 420L550 1174L323 420H769ZM897 0L800 328H293L193 0H54L454 1284H645L1027 0H897Z" />
<glyph unicode="&#xc1;" horiz-adv-x="1081" d="M487 1513L732 1854L838 1774L741 1665Q720 1639 670 1589T580 1501L540 1464L487 1513ZM769 420L550 1174L323 420H769ZM897 0L800 328H293L193 0H54L454 1284H645L1027 0H897Z" />
<glyph unicode="&#xc2;" horiz-adv-x="1081" d="M541 1702L328 1464L242 1544Q397 1717 488 1805H593Q684 1717 839 1544L753 1464L541 1702ZM769 420L550 1174L323 420H769ZM897 0L800 328H293L193 0H54L454 1284H645L1027 0H897Z" />
<glyph unicode="&#xc3;" horiz-adv-x="1081" d="M859 1623Q820 1539 782 1503T690 1467Q629 1467 510 1521Q427 1560 399 1560Q373 1560 352 1539T303 1464L222 1510H225Q269 1602 304 1639T388 1676Q437 1676 575 1617Q668 1581 688 1581Q712 1581 731 1599T779
1667L859 1623ZM769 420L550 1174L323 420H769ZM897 0L800 328H293L193 0H54L454 1284H645L1027 0H897Z" />
<glyph unicode="&#xc4;" horiz-adv-x="1081" d="M454 1590V1464H315V1590H454ZM766 1590V1464H629V1590H766ZM769 420L550 1174L323 420H769ZM897 0L800 328H293L193 0H54L454 1284H645L1027 0H897Z" />
<glyph unicode="&#xc5;" horiz-adv-x="1081" d="M686 1489Q686 1553 651 1590T550 1628Q487 1628 450 1590T413 1489Q413 1425 449 1388T550 1351Q613 1351 649 1389T686 1489ZM550 1267Q445 1267 381 1328T316 1489Q316 1591 381 1651T550 1712Q652 1712 717
1650T782 1489Q782 1389 717 1328T550 1267ZM769 420L550 1174L323 420H769ZM897 0L800 328H293L193 0H54L454 1284H645L1027 0H897Z" />
<glyph unicode="&#xc6;" horiz-adv-x="1381" d="M817 626V100H1282L1298 0H689V328H278L114 0H-26L616 1284H1294L1272 1184H817V722H1238V626H817ZM689 1194L316 420H689V1194Z" />
<glyph unicode="&#xc7;" horiz-adv-x="1014" d="M639 -67Q726 -68 775 -104T825 -209Q825 -298 774 -344T641 -391Q575 -391 509 -361L524 -281Q577 -305 621 -305Q663 -305 688 -283T713 -214Q713 -199 711 -187T701 -166T688 -151T670 -139T649 -131T624 -126T599
-122T571 -119T544 -116L545 0H649L639 -67ZM246 638Q246 362 344 229T606 96Q746 96 883 161L923 64Q768 -10 598 -10Q495 -10 409 29T258 145T155 349T118 641Q118 991 231 1146T586 1301Q743 1301 896 1226V984H787V1157Q701 1195 597 1195Q507 1195 446 1172T338
1088T268 916T246 638Z" />
<glyph unicode="&#xc8;" horiz-adv-x="921" d="M547 1513L494 1464Q342 1597 295 1655L196 1774L302 1854L547 1513ZM277 626V100H822L838 0H149V1284H834L812 1184H277V722H778V626H277Z" />
<glyph unicode="&#xc9;" horiz-adv-x="921" d="M441 1513L686 1854L792 1774L695 1665Q674 1639 624 1589T534 1501L494 1464L441 1513ZM277 626V100H822L838 0H149V1284H834L812 1184H277V722H778V626H277Z" />
<glyph unicode="&#xca;" horiz-adv-x="921" d="M494 1702L281 1464L195 1544Q350 1717 441 1805H546Q637 1717 792 1544L706 1464L494 1702ZM277 626V100H822L838 0H149V1284H834L812 1184H277V722H778V626H277Z" />
<glyph unicode="&#xcb;" horiz-adv-x="921" d="M407 1590V1464H268V1590H407ZM719 1590V1464H582V1590H719ZM277 626V100H822L838 0H149V1284H834L812 1184H277V722H778V626H277Z" />
<glyph unicode="&#xcc;" horiz-adv-x="730" d="M418 1513L365 1464Q213 1597 166 1655L67 1774L173 1854L418 1513ZM432 1184V100H620V0H110V100H304V1184H110V1284H616V1184H432Z" />
<glyph unicode="&#xcd;" horiz-adv-x="730" d="M312 1513L557 1854L663 1774L566 1665Q545 1639 495 1589T405 1501L365 1464L312 1513ZM432 1184V100H620V0H110V100H304V1184H110V1284H616V1184H432Z" />
<glyph unicode="&#xce;" horiz-adv-x="730" d="M365 1702L152 1464L66 1544Q221 1717 312 1805H417Q508 1717 663 1544L577 1464L365 1702ZM432 1184V100H620V0H110V100H304V1184H110V1284H616V1184H432Z" />
<glyph unicode="&#xcf;" horiz-adv-x="730" d="M279 1590V1464H140V1590H279ZM591 1590V1464H454V1590H591ZM432 1184V100H620V0H110V100H304V1184H110V1284H616V1184H432Z" />
<glyph unicode="&#xd0;" horiz-adv-x="1099" d="M422 1184H277V712H480V609H277V104H433Q497 104 548 110T641 128T713 161T766 205T804 263T829 334T844 421T851 520T853 636Q853 742 847 814T825 952T779 1058T701 1129T584 1171T422 1184ZM0 609V712H149V1284H422Q536
1284 621 1269T768 1219T871 1135T936 1011T971 846T981 636Q981 543 976 472T955 332T914 214T847 123T749 55T612 15T433 0H149V609H0Z" />
<glyph unicode="&#xd1;" horiz-adv-x="1193" d="M915 1623Q876 1539 838 1503T746 1467Q685 1467 566 1521Q483 1560 455 1560Q429 1560 408 1539T359 1464L278 1510H281Q325 1602 360 1639T444 1676Q493 1676 631 1617Q724 1581 744 1581Q768 1581 787 1599T835
1667L915 1623ZM928 1284H1044V0H918L271 1081V0H149V1284H285L928 219V1284Z" />
<glyph unicode="&#xd2;" horiz-adv-x="1128" d="M617 1513L564 1464Q412 1597 365 1655L266 1774L372 1854L617 1513ZM461 1301T564 1301T744 1273T873 1192T955 1058T999 877T1012 648Q1012 517 1000 419T958 238T878 102T749 20T564 -10T379 19T251 101T170
237T128 419T116 648Q116 778 129 876T173 1057T255 1192T383 1272ZM382 96T564 96T815 222T884 645Q884 942 815 1068T564 1195T314 1069T244 645Q244 349 313 223Z" />
<glyph unicode="&#xd3;" horiz-adv-x="1128" d="M511 1513L756 1854L862 1774L765 1665Q744 1639 694 1589T604 1501L564 1464L511 1513ZM461 1301T564 1301T744 1273T873 1192T955 1058T999 877T1012 648Q1012 517 1000 419T958 238T878 102T749 20T564 -10T379
19T251 101T170 237T128 419T116 648Q116 778 129 876T173 1057T255 1192T383 1272ZM382 96T564 96T815 222T884 645Q884 942 815 1068T564 1195T314 1069T244 645Q244 349 313 223Z" />
<glyph unicode="&#xd4;" horiz-adv-x="1128" d="M565 1702L352 1464L266 1544Q421 1717 512 1805H617Q708 1717 863 1544L777 1464L565 1702ZM461 1301T564 1301T744 1273T873 1192T955 1058T999 877T1012 648Q1012 517 1000 419T958 238T878 102T749 20T564 -10T379
19T251 101T170 237T128 419T116 648Q116 778 129 876T173 1057T255 1192T383 1272ZM382 96T564 96T815 222T884 645Q884 942 815 1068T564 1195T314 1069T244 645Q244 349 313 223Z" />
<glyph unicode="&#xd5;" horiz-adv-x="1128" d="M883 1623Q844 1539 806 1503T714 1467Q653 1467 534 1521Q451 1560 423 1560Q397 1560 376 1539T327 1464L246 1510H249Q293 1602 328 1639T412 1676Q461 1676 599 1617Q692 1581 712 1581Q736 1581 755 1599T803
1667L883 1623ZM461 1301T564 1301T744 1273T873 1192T955 1058T999 877T1012 648Q1012 517 1000 419T958 238T878 102T749 20T564 -10T379 19T251 101T170 237T128 419T116 648Q116 778 129 876T173 1057T255 1192T383 1272ZM382 96T564 96T815 222T884 645Q884
942 815 1068T564 1195T314 1069T244 645Q244 349 313 223Z" />
<glyph unicode="&#xd6;" horiz-adv-x="1128" d="M477 1590V1464H338V1590H477ZM789 1590V1464H652V1590H789ZM461 1301T564 1301T744 1273T873 1192T955 1058T999 877T1012 648Q1012 517 1000 419T958 238T878 102T749 20T564 -10T379 19T251 101T170 237T128
419T116 648Q116 778 129 876T173 1057T255 1192T383 1272ZM382 96T564 96T815 222T884 645Q884 942 815 1068T564 1195T314 1069T244 645Q244 349 313 223Z" />
<glyph unicode="&#xd7;" horiz-adv-x="996" d="M755 925L829 851L572 593L829 335L755 261L497 519L240 261L166 335L423 593L166 851L240 925L498 667L755 925Z" />
<glyph unicode="&#xd8;" horiz-adv-x="1160" d="M461 1301T564 1301T744 1273T873 1192T955 1058T999 877T1012 648Q1012 517 1000 419T958 238T878 102T749 20T564 -10T379 19T251 101T170 237T128 419T116 648Q116 778 129 876T173 1057T255 1192T383 1272ZM382
96T564 96T815 222T884 645Q884 942 815 1068T564 1195T314 1069T244 645Q244 349 313 223ZM935 1668L301 89L222 126L854 1707L935 1668Z" />
<glyph unicode="&#xd9;" horiz-adv-x="1080" d="M593 1513L540 1464Q388 1597 341 1655L242 1774L348 1854L593 1513ZM482 96T540 96T642 107T716 135T768 184T800 248T818 332T826 427T828 540V1284H956V635Q956 549 954 489T946 361T926 248T893 156T841 81T768
29T669 -5T540 -16T411 -6T312 28T239 81T188 156T154 247T135 360T126 488T124 635V1284H252V540Q252 471 253 428T261 332T279 249T312 185T363 135T438 107Z" />
<glyph unicode="&#xda;" horiz-adv-x="1080" d="M487 1513L732 1854L838 1774L741 1665Q720 1639 670 1589T580 1501L540 1464L487 1513ZM482 96T540 96T642 107T716 135T768 184T800 248T818 332T826 427T828 540V1284H956V635Q956 549 954 489T946 361T926 248T893
156T841 81T768 29T669 -5T540 -16T411 -6T312 28T239 81T188 156T154 247T135 360T126 488T124 635V1284H252V540Q252 471 253 428T261 332T279 249T312 185T363 135T438 107Z" />
<glyph unicode="&#xdb;" horiz-adv-x="1080" d="M541 1702L328 1464L242 1544Q397 1717 488 1805H593Q684 1717 839 1544L753 1464L541 1702ZM482 96T540 96T642 107T716 135T768 184T800 248T818 332T826 427T828 540V1284H956V635Q956 549 954 489T946 361T926
248T893 156T841 81T768 29T669 -5T540 -16T411 -6T312 28T239 81T188 156T154 247T135 360T126 488T124 635V1284H252V540Q252 471 253 428T261 332T279 249T312 185T363 135T438 107Z" />
<glyph unicode="&#xdc;" horiz-adv-x="1080" d="M453 1590V1464H314V1590H453ZM765 1590V1464H628V1590H765ZM482 96T540 96T642 107T716 135T768 184T800 248T818 332T826 427T828 540V1284H956V635Q956 549 954 489T946 361T926 248T893 156T841 81T768 29T669
-5T540 -16T411 -6T312 28T239 81T188 156T154 247T135 360T126 488T124 635V1284H252V540Q252 471 253 428T261 332T279 249T312 185T363 135T438 107Z" />
<glyph unicode="&#xdd;" horiz-adv-x="926" d="M410 1513L655 1854L761 1774L664 1665Q643 1639 593 1589T503 1501L463 1464L410 1513ZM399 586L15 1284H157L463 704L765 1284H911L527 588V0H399V586Z" />
<glyph unicode="&#xde;" horiz-adv-x="981" d="M278 1284V1052H467Q550 1052 613 1044T736 1012T834 950T894 847T917 697Q917 606 893 541T825 434T710 369T559 336T369 327H277V0H149V1284H278ZM277 431H366Q437 431 481 432T576 440T655 457T713 487T756 534T780
602T789 695Q789 777 768 829T701 908T605 943T475 952H277V431Z" />
<glyph unicode="&#xdf;" horiz-adv-x="997" d="M802 279Q802 327 781 363T725 423T649 466T565 503T489 541T433 592T411 664Q411 684 416 702T429 736T451 768T479 797T514 824T553 849T598 874T644 898T693 922Q693 1075 648 1135T477 1195Q362 1195 312 1124T261
901V0H133V912Q133 1108 219 1204T481 1301Q585 1301 654 1274T761 1188T815 1051T830 855Q537 761 537 674Q537 653 554 635T599 602T662 571T735 536T807 494T871 439T916 366T933 270Q933 105 802 32Q725 -10 622 -10Q495 -10 380 66L418 156Q449 137 481 123T547
102T611 95Q651 95 685 106T745 138T787 196T802 279Z" />
<glyph unicode="&#xe0;" horiz-adv-x="953" d="M514 1212L461 1163Q309 1296 262 1354L163 1473L269 1553L514 1212ZM229 278Q229 92 445 92Q509 92 575 111T685 158V473H629Q581 473 541 471T452 462T366 442T297 408T247 354T229 278ZM166 942Q343 1000 474
1000Q548 1000 607 980T712 916T784 797T810 617V0H718L698 66Q662 37 582 14T425 -10Q281 -10 195 65T109 284Q109 330 123 369T173 446T263 509T403 551T597 567H685V599Q684 763 628 829T468 895Q453 895 436 894T405 891T370 885T337 879T299 871T265 862T227
852T191 843L166 942Z" />
<glyph unicode="&#xe1;" horiz-adv-x="953" d="M408 1212L653 1553L759 1473L662 1364Q641 1338 591 1288T501 1200L461 1163L408 1212ZM229 278Q229 92 445 92Q509 92 575 111T685 158V473H629Q581 473 541 471T452 462T366 442T297 408T247 354T229 278ZM166
942Q343 1000 474 1000Q548 1000 607 980T712 916T784 797T810 617V0H718L698 66Q662 37 582 14T425 -10Q281 -10 195 65T109 284Q109 330 123 369T173 446T263 509T403 551T597 567H685V599Q684 763 628 829T468 895Q453 895 436 894T405 891T370 885T337 879T299
871T265 862T227 852T191 843L166 942Z" />
<glyph unicode="&#xe2;" horiz-adv-x="953" d="M461 1401L248 1163L162 1243Q317 1416 408 1504H513Q604 1416 759 1243L673 1163L461 1401ZM229 278Q229 92 445 92Q509 92 575 111T685 158V473H629Q581 473 541 471T452 462T366 442T297 408T247 354T229 278ZM166
942Q343 1000 474 1000Q548 1000 607 980T712 916T784 797T810 617V0H718L698 66Q662 37 582 14T425 -10Q281 -10 195 65T109 284Q109 330 123 369T173 446T263 509T403 551T597 567H685V599Q684 763 628 829T468 895Q453 895 436 894T405 891T370 885T337 879T299
871T265 862T227 852T191 843L166 942Z" />
<glyph unicode="&#xe3;" horiz-adv-x="953" d="M780 1322Q741 1238 703 1202T611 1166Q550 1166 431 1220Q348 1259 320 1259Q294 1259 273 1238T224 1163L143 1209H146Q190 1301 225 1338T309 1375Q358 1375 496 1316Q589 1280 609 1280Q633 1280 652 1298T700
1366L780 1322ZM229 278Q229 92 445 92Q509 92 575 111T685 158V473H629Q581 473 541 471T452 462T366 442T297 408T247 354T229 278ZM166 942Q343 1000 474 1000Q548 1000 607 980T712 916T784 797T810 617V0H718L698 66Q662 37 582 14T425 -10Q281 -10 195 65T109
284Q109 330 123 369T173 446T263 509T403 551T597 567H685V599Q684 763 628 829T468 895Q453 895 436 894T405 891T370 885T337 879T299 871T265 862T227 852T191 843L166 942Z" />
<glyph unicode="&#xe4;" horiz-adv-x="953" d="M375 1289V1163H236V1289H375ZM687 1289V1163H550V1289H687ZM229 278Q229 92 445 92Q509 92 575 111T685 158V473H629Q581 473 541 471T452 462T366 442T297 408T247 354T229 278ZM166 942Q343 1000 474 1000Q548
1000 607 980T712 916T784 797T810 617V0H718L698 66Q662 37 582 14T425 -10Q281 -10 195 65T109 284Q109 330 123 369T173 446T263 509T403 551T597 567H685V599Q684 763 628 829T468 895Q453 895 436 894T405 891T370 885T337 879T299 871T265 862T227 852T191
843L166 942Z" />
<glyph unicode="&#xe5;" horiz-adv-x="953" d="M596 1385Q596 1449 561 1486T460 1524Q397 1524 360 1486T323 1385Q323 1321 359 1284T460 1247Q523 1247 559 1285T596 1385ZM460 1163Q355 1163 291 1224T226 1385Q226 1487 291 1547T460 1608Q562 1608 627 1546T692
1385Q692 1285 627 1224T460 1163ZM229 278Q229 92 445 92Q509 92 575 111T685 158V473H629Q581 473 541 471T452 462T366 442T297 408T247 354T229 278ZM166 942Q343 1000 474 1000Q548 1000 607 980T712 916T784 797T810 617V0H718L698 66Q662 37 582 14T425
-10Q281 -10 195 65T109 284Q109 330 123 369T173 446T263 509T403 551T597 567H685V599Q684 763 628 829T468 895Q453 895 436 894T405 891T370 885T337 879T299 871T265 862T227 852T191 843L166 942Z" />
<glyph unicode="&#xe6;" horiz-adv-x="1541" d="M813 559H1126Q1222 559 1271 601T1321 707Q1321 780 1260 838T1099 896Q966 896 896 808T813 559ZM229 278Q229 92 445 92Q530 92 593 117T732 216Q688 319 685 472V473H629Q581 473 541 471T452 462T366 442T297
408T247 354T229 278ZM166 942Q343 1000 474 1000Q540 1000 596 981T699 912T762 789Q855 1000 1087 1000Q1232 1000 1330 908T1429 707Q1429 604 1354 537T1128 469H813Q814 380 831 313T874 205T938 139T1016 105T1102 96Q1256 96 1382 176L1421 75Q1353 33 1269
12T1109 -10Q874 -10 768 149Q717 74 640 32T425 -10Q281 -10 195 65T109 284Q109 330 123 369T173 446T263 509T403 551T597 567H685V599Q684 763 628 829T468 895Q453 895 436 894T405 891T370 885T337 879T299 871T265 862T227 852T191 843L166 942Z" />
<glyph unicode="&#xe7;" horiz-adv-x="864" d="M548 -67Q635 -68 684 -104T734 -209Q734 -298 683 -344T550 -391Q484 -391 418 -361L433 -281Q486 -305 530 -305Q572 -305 597 -283T622 -214Q622 -199 620 -187T610 -166T597 -151T579 -139T558 -131T533 -126T508
-122T480 -119T453 -116L454 0H558L548 -67ZM750 170L798 79Q676 -10 507 -10Q332 -10 220 121T108 495Q108 1000 496 1000Q632 1000 759 940V682L657 672V872Q591 898 494 898Q420 898 369 869T289 784T248 658T236 493Q236 302 313 198T521 94Q638 94 750 170Z"
/>
<glyph unicode="&#xe8;" horiz-adv-x="964" d="M538 1212L485 1163Q333 1296 286 1354L187 1473L293 1553L538 1212ZM508 895Q382 895 315 808T236 559H743V609Q743 740 680 817T508 895ZM525 96Q679 96 805 176L844 75Q776 33 692 12T532 -10Q330 -10 219 112T108
496Q108 747 216 873T507 1000Q672 1000 767 892T862 604Q862 563 854 469H236Q237 380 254 313T297 205T361 139T439 105T525 96Z" />
<glyph unicode="&#xe9;" horiz-adv-x="964" d="M432 1212L677 1553L783 1473L686 1364Q665 1338 615 1288T525 1200L485 1163L432 1212ZM508 895Q382 895 315 808T236 559H743V609Q743 740 680 817T508 895ZM525 96Q679 96 805 176L844 75Q776 33 692 12T532 -10Q330
-10 219 112T108 496Q108 747 216 873T507 1000Q672 1000 767 892T862 604Q862 563 854 469H236Q237 380 254 313T297 205T361 139T439 105T525 96Z" />
<glyph unicode="&#xea;" horiz-adv-x="964" d="M485 1401L272 1163L186 1243Q341 1416 432 1504H537Q628 1416 783 1243L697 1163L485 1401ZM508 895Q382 895 315 808T236 559H743V609Q743 740 680 817T508 895ZM525 96Q679 96 805 176L844 75Q776 33 692 12T532
-10Q330 -10 219 112T108 496Q108 747 216 873T507 1000Q672 1000 767 892T862 604Q862 563 854 469H236Q237 380 254 313T297 205T361 139T439 105T525 96Z" />
<glyph unicode="&#xeb;" horiz-adv-x="964" d="M399 1289V1163H260V1289H399ZM711 1289V1163H574V1289H711ZM508 895Q382 895 315 808T236 559H743V609Q743 740 680 817T508 895ZM525 96Q679 96 805 176L844 75Q776 33 692 12T532 -10Q330 -10 219 112T108 496Q108
747 216 873T507 1000Q672 1000 767 892T862 604Q862 563 854 469H236Q237 380 254 313T297 205T361 139T439 105T525 96Z" />
<glyph unicode="&#xec;" horiz-adv-x="673" d="M412 1212L359 1163Q207 1296 160 1354L61 1473L167 1553L412 1212ZM111 895V985H431V90H623V0H111V90H303V895H111Z" />
<glyph unicode="&#xed;" horiz-adv-x="673" d="M306 1212L551 1553L657 1473L560 1364Q539 1338 489 1288T399 1200L359 1163L306 1212ZM111 895V985H431V90H623V0H111V90H303V895H111Z" />
<glyph unicode="&#xee;" horiz-adv-x="673" d="M359 1401L146 1163L60 1243Q215 1416 306 1504H411Q502 1416 657 1243L571 1163L359 1401ZM111 895V985H431V90H623V0H111V90H303V895H111Z" />
<glyph unicode="&#xef;" horiz-adv-x="673" d="M273 1289V1163H134V1289H273ZM585 1289V1163H448V1289H585ZM111 895V985H431V90H623V0H111V90H303V895H111Z" />
<glyph unicode="&#xf0;" horiz-adv-x="998" d="M761 672Q756 789 707 925T588 1109L382 967L330 1035L513 1161Q392 1230 224 1245L245 1351Q480 1313 612 1229L822 1377L874 1309L684 1175Q777 1091 828 927T879 544Q879 269 783 130T485 -10Q304 -10 196 93T88
394Q88 495 119 574T205 703T328 778T475 804Q564 804 639 769T761 672ZM751 450Q751 507 732 552T682 625T613 670T539 694T469 701Q357 701 287 623T216 395Q216 234 286 165T490 96Q625 96 688 180T751 450Z" />
<glyph unicode="&#xf1;" horiz-adv-x="985" d="M817 1322Q778 1238 740 1202T648 1166Q587 1166 468 1220Q385 1259 357 1259Q331 1259 310 1238T261 1163L180 1209H183Q227 1301 262 1338T346 1375Q395 1375 533 1316Q626 1280 646 1280Q670 1280 689 1298T737
1366L817 1322ZM268 822V0H140V985H245L254 921Q352 967 418 983T560 1000Q712 1000 784 917T857 663V0H729V668Q729 790 691 842T553 895Q401 895 268 822Z" />
<glyph unicode="&#xf2;" horiz-adv-x="984" d="M545 1212L492 1163Q340 1296 293 1354L194 1473L300 1553L545 1212ZM687 -10T492 -10T203 121T108 495Q108 748 200 874T492 1000T783 874T876 495Q876 253 782 122ZM550 895T492 895T390 876T317 822T270 737T244
627T236 495Q236 401 248 332T288 207T368 124T492 96T616 124T695 207T736 331T748 495Q748 568 741 627T715 737T667 822T594 875Z" />
<glyph unicode="&#xf3;" horiz-adv-x="984" d="M439 1212L684 1553L790 1473L693 1364Q672 1338 622 1288T532 1200L492 1163L439 1212ZM687 -10T492 -10T203 121T108 495Q108 748 200 874T492 1000T783 874T876 495Q876 253 782 122ZM550 895T492 895T390 876T317
822T270 737T244 627T236 495Q236 401 248 332T288 207T368 124T492 96T616 124T695 207T736 331T748 495Q748 568 741 627T715 737T667 822T594 875Z" />
<glyph unicode="&#xf4;" horiz-adv-x="984" d="M493 1401L280 1163L194 1243Q349 1416 440 1504H545Q636 1416 791 1243L705 1163L493 1401ZM687 -10T492 -10T203 121T108 495Q108 748 200 874T492 1000T783 874T876 495Q876 253 782 122ZM550 895T492 895T390
876T317 822T270 737T244 627T236 495Q236 401 248 332T288 207T368 124T492 96T616 124T695 207T736 331T748 495Q748 568 741 627T715 737T667 822T594 875Z" />
<glyph unicode="&#xf5;" horiz-adv-x="984" d="M811 1322Q772 1238 734 1202T642 1166Q581 1166 462 1220Q379 1259 351 1259Q325 1259 304 1238T255 1163L174 1209H177Q221 1301 256 1338T340 1375Q389 1375 527 1316Q620 1280 640 1280Q664 1280 683 1298T731
1366L811 1322ZM687 -10T492 -10T203 121T108 495Q108 748 200 874T492 1000T783 874T876 495Q876 253 782 122ZM550 895T492 895T390 876T317 822T270 737T244 627T236 495Q236 401 248 332T288 207T368 124T492 96T616 124T695 207T736 331T748 495Q748 568 741
627T715 737T667 822T594 875Z" />
<glyph unicode="&#xf6;" horiz-adv-x="984" d="M405 1289V1163H266V1289H405ZM717 1289V1163H580V1289H717ZM687 -10T492 -10T203 121T108 495Q108 748 200 874T492 1000T783 874T876 495Q876 253 782 122ZM550 895T492 895T390 876T317 822T270 737T244 627T236
495Q236 401 248 332T288 207T368 124T492 96T616 124T695 207T736 331T748 495Q748 568 741 627T715 737T667 822T594 875Z" />
<glyph unicode="&#xf7;" horiz-adv-x="978" d="M110 548V646H866V548H110ZM453 771Q401 796 401 881Q401 955 453 968H514Q565 942 565 857Q565 783 514 771H453ZM401 282Q401 380 453 414Q533 414 565 352Q565 254 514 219Q431 219 401 281V282Z" />
<glyph unicode="&#xf8;" horiz-adv-x="1016" d="M687 -10T492 -10T203 121T108 495Q108 748 200 874T492 1000T783 874T876 495Q876 253 782 122ZM550 895T492 895T390 876T317 822T270 737T244 627T236 495Q236 401 248 332T288 207T368 124T492 96T616 124T695
207T736 331T748 495Q748 568 741 627T715 737T667 822T594 875Z" />
<glyph unicode="&#xf9;" horiz-adv-x="986" d="M539 1212L486 1163Q334 1296 287 1354L188 1473L294 1553L539 1212ZM717 163V985H845V0H740L731 64Q636 19 570 5T422 -10Q270 -10 199 70T128 321V985H256V316Q256 196 295 146T435 96Q485 96 516 98T604 116T717 163Z" />
<glyph unicode="&#xfa;" horiz-adv-x="986" d="M433 1212L678 1553L784 1473L687 1364Q666 1338 616 1288T526 1200L486 1163L433 1212ZM717 163V985H845V0H740L731 64Q636 19 570 5T422 -10Q270 -10 199 70T128 321V985H256V316Q256 196 295 146T435 96Q485 96
516 98T604 116T717 163Z" />
<glyph unicode="&#xfb;" horiz-adv-x="986" d="M487 1401L274 1163L188 1243Q343 1416 434 1504H539Q630 1416 785 1243L699 1163L487 1401ZM717 163V985H845V0H740L731 64Q636 19 570 5T422 -10Q270 -10 199 70T128 321V985H256V316Q256 196 295 146T435 96Q485
96 516 98T604 116T717 163Z" />
<glyph unicode="&#xfc;" horiz-adv-x="986" d="M400 1289V1163H261V1289H400ZM712 1289V1163H575V1289H712ZM717 163V985H845V0H740L731 64Q636 19 570 5T422 -10Q270 -10 199 70T128 321V985H256V316Q256 196 295 146T435 96Q485 96 516 98T604 116T717 163Z" />
<glyph unicode="&#xfd;" horiz-adv-x="963" d="M430 1212L675 1553L781 1473L684 1364Q663 1338 613 1288T523 1200L483 1163L430 1212ZM285 -390Q211 -390 120 -355L140 -253L141 -252Q231 -279 276 -279Q291 -279 304 -276T328 -264T347 -247T365 -223T380 -196T393
-164T405 -130T418 -93T430 -55L457 26L52 985H189L513 166L778 985H914L568 -16Q539 -100 521 -147T476 -248T424 -328T364 -372T285 -390Z" />
<glyph unicode="&#xfe;" horiz-adv-x="982" d="M268 43V-389H140V1301H268V916Q392 1000 540 1000Q697 1000 786 876T876 493Q876 225 785 108T510 -10Q375 -10 268 43ZM268 809V137Q356 96 463 96H492Q628 96 688 187T748 491Q748 699 695 797T524 895Q417 895 268 809Z" />
<glyph unicode="&#xff;" horiz-adv-x="963" d="M397 1289V1163H258V1289H397ZM709 1289V1163H572V1289H709ZM285 -390Q211 -390 120 -355L140 -253L141 -252Q231 -279 276 -279Q291 -279 304 -276T328 -264T347 -247T365 -223T380 -196T393 -164T405 -130T418
-93T430 -55L457 26L52 985H189L513 166L778 985H914L568 -16Q539 -100 521 -147T476 -248T424 -328T364 -372T285 -390Z" />
<glyph unicode="&#x2013;" horiz-adv-x="894" d="M116 547V643H776V547H116Z" />
<glyph unicode="&#x2014;" horiz-adv-x="1124" d="M116 547V643H1006V547H116Z" />
<glyph unicode="&#x2018;" horiz-adv-x="423" d="M241 958L112 987Q168 1233 244 1397L311 1364Q268 1201 241 958Z" />
<glyph unicode="&#x2019;" horiz-adv-x="431" d="M187 1407L317 1382Q312 1360 300 1309T284 1238T268 1179T247 1112T222 1049T186 973L119 994H118Q119 994 131 1066T161 1241T187 1407Z" />
<glyph unicode="&#x201a;" horiz-adv-x="431" d="M187 121L317 96Q312 74 300 23T284 -48T268 -107T247 -174T222 -237T186 -313L119 -292H118Q119 -292 131 -220T161 -45T187 121Z" />
<glyph unicode="&#x201c;" horiz-adv-x="690" d="M508 958L380 987Q436 1233 512 1397L578 1364Q535 1201 508 958ZM241 958L112 987Q168 1233 244 1397L311 1364Q268 1201 241 958Z" />
<glyph unicode="&#x201d;" horiz-adv-x="700" d="M187 1407L317 1382Q312 1360 300 1309T284 1238T268 1179T247 1112T222 1049T186 973L119 994H118Q119 994 131 1066T161 1241T187 1407ZM456 1407L586 1382Q513 1060 454 973L388 994H386Q387 994 400 1066T430
1241T456 1407Z" />
<glyph unicode="&#x201e;" horiz-adv-x="691" d="M446 121L576 96Q571 76 557 11T536 -75T516 -143T486 -228T446 -313L378 -292Q379 -292 391 -220T420 -45T446 121ZM187 121L317 96Q312 74 300 23T284 -48T268 -107T247 -174T222 -237T186 -313L119 -292H118Q119
-292 131 -220T161 -45T187 121Z" />
<glyph unicode="&#x2022;" horiz-adv-x="707" d="M145 496T145 582T206 729T353 790T500 729T561 582T500 435T353 374T206 435Z" />
<glyph unicode="&#x2039;" horiz-adv-x="621" d="M449 123L109 483V573L449 934L489 823L222 526L489 236L449 123Z" />
<glyph unicode="&#x203a;" horiz-adv-x="620" d="M397 526L130 823L170 934L508 573V483L170 123L130 236L397 526Z" />
</font>
</defs>
</svg>
