<?xml version="1.0" standalone="no"?>
<!DOCTYPE svg PUBLIC "-//W3C//DTD SVG 1.1//EN" "http://www.w3.org/Graphics/SVG/1.1/DTD/svg11.dtd">
<svg xmlns="http://www.w3.org/2000/svg">
<defs >
<font id="Arsenal" horiz-adv-x="551" ><font-face
    font-family="Arsenal"
    units-per-em="1000"
    panose-1="0 0 8 0 0 0 0 0 0 0"
    ascent="1000"
    descent="-254"
    alphabetic="0" />
<glyph unicode=" " glyph-name="space" horiz-adv-x="255" />
<glyph unicode="!" glyph-name="exclam" horiz-adv-x="333" d="M136 230L94 689V750H246V689L203 230H136ZM137 -16T115 5Q91 29 91 64Q91 99 115 124Q137 145 171 145Q204 145 226 124Q250 99 250 64Q250 29 226 5Q204 -16 171 -16Q137 -16 115 5Z" />
<glyph unicode="&quot;" glyph-name="quotedbl" horiz-adv-x="398" d="M43 484L31 750L153 746L106 484H43ZM234 484L222 750L344 746L297 484H234Z" />
<glyph unicode="#" glyph-name="numbersign" horiz-adv-x="518" d="M316 50L262 67L287 186H169L145 69L91 86L112 186H45V250H125L157 399H45V463H170L199 598L253 582L228 463H345L369 579L423 563L402 463H472V399H389L358 250H472V186H344L316 50ZM183 250H300L331
399H214L183 250Z" />
<glyph unicode="$" glyph-name="dollar" horiz-adv-x="417" d="M165 58Q119 63 88 79T40 112T24 132L61 184Q61 182 77 166T117 137T172 123Q209 123 229 142T249 192Q249 222 228 239T165 276Q126 295 103 310T62 353T45 424Q45 482 77 520T163 572L176 700H241L254
577Q280 573 305 566T346 553T366 544L348 477Q343 480 325 489T282 506T235 514Q204 514 187 499T170 459Q170 429 192 411T261 371Q302 351 327 335T370 290T388 220Q388 159 354 117T254 62L244 -50H179L165 58Z" />
<glyph unicode="%" glyph-name="percent" horiz-adv-x="867" d="M125 262T81 317T36 466Q36 557 82 612T210 667Q290 667 337 612T385 466Q385 374 339 318T210 262Q125 262 81 317ZM324 -12L258 8L528 635L595 615L324 -12ZM243 325T259 359T276 468Q276 542
260 573T210 605Q176 605 161 574T146 468Q146 393 161 359T209 325Q243 325 259 359ZM571 -19T527 36T482 185Q482 276 528 331T656 386Q736 386 783 331T831 185Q831 93 785 37T656 -19Q571 -19 527 36ZM689 44T705 78T722 187Q722 261 706 292T656 324Q622 324
607 293T592 187Q592 112 607 78T655 44Q689 44 705 78Z" />
<glyph unicode="&amp;" glyph-name="ampersand" horiz-adv-x="641" d="M144 -11T90 40T36 179Q36 243 73 282T166 341Q79 387 79 488Q79 568 131 614T270 660Q300 660 329 653T379 639T404 629L393 564Q389 566 374 573T337 586T297 593Q256 593 236 567T215 481Q215
375 270 371H382L447 500H499V371H610V305H499V167Q499 120 504 97T521 66T555 58Q575 58 593 64T611 71L615 13Q615 12 604 6T571 -5T514 -11Q432 -11 400 38Q347 -11 256 -11Q144 -11 90 40ZM314 57T338 70T377 101Q373 124 373 159V305H261Q225 304 202 274T178
181Q178 113 201 85T279 57Q314 57 338 70Z" />
<glyph unicode="&apos;" glyph-name="quotesingle" horiz-adv-x="207" d="M43 484L31 750L153 746L106 484H43Z" />
<glyph unicode="(" glyph-name="parenleft" horiz-adv-x="359" d="M271 -192T217 -135T120 24T77 272Q77 419 119 521T214 682T267 732L324 697Q324 706 291 653T232 505T205 272Q205 132 231 39T291 -106T324 -149L271 -183Q271 -192 217 -135Z" />
<glyph unicode=")" glyph-name="parenright" horiz-adv-x="359" d="M35 -149Q35 -158 68 -104T127 46T153 277Q153 413 127 506T68 653T35 697L88 732Q88 741 141 684T238 525T281 277Q281 130 238 28T142 -133T88 -183L35 -149Z" />
<glyph unicode="*" glyph-name="asterisk" horiz-adv-x="410" d="M145 284L47 364L169 485L10 502L48 631L181 534L144 715H267L226 535L362 631L399 502L240 487L363 364L264 284L205 455L145 284Z" />
<glyph unicode="+" glyph-name="plus" horiz-adv-x="456" d="M194 53V238H31V312H194V496H265V312H425V238H265V53H194Z" />
<glyph unicode="," glyph-name="comma" horiz-adv-x="265" d="M59 -130Q92 -100 113 -61T137 15L126 14Q99 14 78 33Q56 54 56 87Q56 119 78 141Q99 160 127 160Q155 160 177 141Q187 130 192 119Q204 94 204 61Q204 3 172 -63T93 -167L59 -130Z" />
<glyph unicode="-" glyph-name="hyphen" horiz-adv-x="333" d="M31 238V312H303V238H31Z" />
<glyph unicode="." glyph-name="period" horiz-adv-x="297" d="M115 -16T92 5Q68 29 68 64Q68 99 92 124Q115 145 148 145Q181 145 203 124Q227 99 227 64Q227 29 203 5Q181 -16 148 -16Q115 -16 92 5Z" />
<glyph unicode="/" glyph-name="slash" horiz-adv-x="457" d="M8 -250L375 750H465L98 -250H8Z" />
<glyph unicode="0" glyph-name="zero" horiz-adv-x="579" d="M44 -11T44 323Q44 660 290 660Q535 660 535 323Q535 161 477 75T290 -11Q44 -11 44 323ZM328 58T348 81T377 160T386 323Q386 430 378 487T349 567T290 591Q252 591 232 568T203 487T194 323Q194 216
202 160T231 81T290 58Q328 58 348 81Z" />
<glyph unicode="1" glyph-name="one" horiz-adv-x="398" d="M168 0V558L69 505L42 565L192 650H299V0H168Z" />
<glyph unicode="2" glyph-name="two" horiz-adv-x="484" d="M34 103Q81 121 142 172T248 299T293 460Q293 533 271 559T198 586Q175 586 147 575T97 553T70 537L56 607Q56 608 83 622T147 648T222 660Q329 660 384 608T440 469Q440 371 366 283T189 125H449V0H34V103Z" />
<glyph unicode="3" glyph-name="three" horiz-adv-x="492" d="M167 -11T125 5T59 40T35 62L71 121Q71 119 92 103T144 74T209 60Q263 60 288 90T313 189Q313 254 296 281T241 309Q216 309 189 282L187 280L146 326L306 524H66L73 650H424V566L264 373H270Q321
373 363 351T430 288T455 188Q455 125 423 80T339 12T226 -11Q167 -11 125 5Z" />
<glyph unicode="4" glyph-name="four" horiz-adv-x="533" d="M306 159H37L30 218Q74 298 120 427T189 666L316 650Q292 545 240 443T117 228H306L342 552H442V228H506V171L442 159V0H306V159Z" />
<glyph unicode="5" glyph-name="five" horiz-adv-x="489" d="M144 -11T105 5T44 39T22 61L62 117Q62 115 79 100T124 73T187 60Q245 60 276 94T308 208Q308 282 282 314T206 346Q181 346 161 337T132 315L127 305L80 312L118 650H416L409 520H172L160 401Q189
410 218 410Q324 410 387 359T450 211Q450 137 414 87T320 13T198 -11Q144 -11 105 5Z" />
<glyph unicode="6" glyph-name="six" horiz-adv-x="530" d="M164 -11T104 56T44 266Q44 291 45 317T49 361Q68 517 128 588T282 660Q314 660 346 652T399 634T427 621L410 554Q405 557 387 565T344 582T295 590Q237 590 209 544T176 380Q228 421 287 421Q380 421
437 367T494 208Q494 105 436 47T273 -11Q164 -11 104 56ZM316 55T333 90T351 210Q351 289 333 323T271 358Q224 358 190 311Q187 284 187 222Q187 158 195 122T222 71T273 55Q316 55 333 90Z" />
<glyph unicode="7" glyph-name="seven" horiz-adv-x="451" d="M124 109T183 230T335 517H36V650H436V545Q376 439 321 284T238 0H94Q124 109 183 230Z" />
<glyph unicode="8" glyph-name="eight" horiz-adv-x="536" d="M156 -11T96 33T36 176Q36 235 73 272T166 329Q116 346 83 383T49 483Q49 568 109 614T268 660Q367 660 427 614T487 482Q487 376 367 331Q423 317 462 281T501 174Q501 77 441 33T268 -11Q156 -11
96 33ZM299 360T321 387T344 479Q344 545 326 571T268 598Q228 598 210 572T192 479Q192 417 214 389T268 354Q299 360 321 387ZM309 51T330 80T351 178Q351 241 325 268T264 300Q233 295 210 268T186 178Q186 109 206 80T268 51Q309 51 330 80Z" />
<glyph unicode="9" glyph-name="nine" horiz-adv-x="530" d="M189 -11T157 -1T108 20T91 33L120 98Q120 97 135 87T175 68T227 59Q282 59 315 105T353 267Q309 223 242 223Q149 223 93 274T36 431Q36 499 64 551T143 631T262 660Q370 660 427 593T485 383Q485
341 483 313Q475 202 439 130T350 23T236 -11Q189 -11 157 -1ZM292 286T313 305T341 355Q343 397 343 427Q343 520 325 557T262 594Q219 594 199 556T178 436Q178 357 196 322T258 286Q292 286 313 305Z" />
<glyph unicode=":" glyph-name="colon" horiz-adv-x="298" d="M115 335T92 356Q68 380 68 415Q68 450 92 475Q115 496 148 496Q181 496 203 475Q227 450 227 415Q227 380 203 356Q181 335 148 335Q115 335 92 356ZM115 -16T92 5Q68 29 68 64Q68 99 92 124Q115
145 148 145Q181 145 203 124Q227 99 227 64Q227 29 203 5Q181 -16 148 -16Q115 -16 92 5Z" />
<glyph unicode=";" glyph-name="semicolon" horiz-adv-x="297" d="M115 335T92 356Q68 380 68 415Q68 450 92 475Q115 496 148 496Q181 496 203 475Q227 450 227 415Q227 380 203 356Q181 335 148 335Q115 335 92 356ZM78 -130Q111 -100 132 -61T156 15L145 14Q118
14 97 33Q75 54 75 87Q75 119 97 141Q118 160 146 160Q174 160 196 141Q206 130 211 119Q223 94 223 61Q223 3 191 -63T112 -167L78 -130Z" />
<glyph unicode="&lt;" glyph-name="less" horiz-adv-x="378" d="M286 90L47 315L286 541L325 495L164 316L329 136L286 90Z" />
<glyph unicode="=" glyph-name="equal" horiz-adv-x="524" d="M31 335V409H494V335H31ZM31 141V215H494V141H31Z" />
<glyph unicode="&gt;" glyph-name="greater" horiz-adv-x="378" d="M92 90L53 136L210 315L53 495L92 541L331 315L92 90Z" />
<glyph unicode="?" glyph-name="question" horiz-adv-x="445" d="M133 269T133 302Q133 337 146 358T188 406Q212 429 226 446T250 493T260 563Q260 631 242 661T181 692Q156 692 131 684T88 666T67 653L57 717Q57 718 80 729T139 750T218 760Q283 760 326 735T391
669T412 582Q412 532 395 498T354 441T290 392Q256 369 237 353T205 312T192 256Q192 248 194 230L147 226Q133 269 133 302ZM144 -16T121 5Q97 29 97 64Q97 99 121 124Q144 145 177 145Q209 145 232 124Q256 99 256 64Q256 29 232 5Q210 -16 177 -16Q144 -16 121
5Z" />
<glyph unicode="@" glyph-name="at" horiz-adv-x="862" d="M245 -249T146 -137T46 184Q46 322 94 425T236 584T467 640Q641 640 730 549T820 289Q820 134 767 58T622 -18Q583 -18 558 -8T520 26Q486 -19 419 -19Q342 -19 296 34T249 192Q249 255 273 304T339 381T433
409Q485 409 524 374L542 391H599V120Q599 73 607 55T635 37Q672 37 693 90T715 286Q715 440 655 510T467 580Q324 580 244 485T164 184Q164 -3 238 -92T452 -181Q517 -181 566 -162T644 -119T673 -93L701 -148Q701 -152 672 -178T587 -226T452 -249Q245 -249 146
-137ZM487 37T506 82V323Q498 335 484 344T446 354Q401 354 382 317T363 192Q363 108 382 73T445 37Q487 37 506 82Z" />
<glyph unicode="A" glyph-name="A" horiz-adv-x="608" d="M19 0L235 650H388L590 0H444L388 182H162L103 0H19ZM182 245H369L280 551H278L182 245Z" />
<glyph unicode="B" glyph-name="B" horiz-adv-x="569" d="M77 650H275Q352 650 403 627T480 565T505 481Q505 431 478 396T408 339Q465 321 499 282T533 187Q533 102 469 51T280 0H77V650ZM297 361Q325 361 347 387T370 473Q370 531 343 558T271 585H215V361H297ZM277
65Q331 65 362 96T393 192Q393 301 304 301H215V65H277Z" />
<glyph unicode="C" glyph-name="C" horiz-adv-x="576" d="M190 -11T113 77T36 320Q36 422 71 499T173 618T332 660Q378 660 422 649T499 624T532 609L518 536Q511 540 484 551T420 574T349 585Q293 585 258 560T206 478T188 325Q188 184 229 124T356 64Q404 64
440 84T499 129T522 157L566 109Q566 104 540 73T462 16T337 -11Q190 -11 113 77Z" />
<glyph unicode="D" glyph-name="D" horiz-adv-x="647" d="M77 650H298Q449 650 530 567T612 323Q612 165 532 83T299 0H77V650ZM300 71Q358 71 392 95T443 174T459 323Q459 417 443 473T391 554T298 579H215V71H300Z" />
<glyph unicode="E" glyph-name="E" horiz-adv-x="524" d="M77 0V650H467V578H215V364H437V294H215V72H481V0H77Z" />
<glyph unicode="F" glyph-name="F" horiz-adv-x="488" d="M77 0V650H472V578H215V338H439V268H215V0H77Z" />
<glyph unicode="G" glyph-name="G" horiz-adv-x="625" d="M182 -11T109 77T36 323Q36 481 115 570T336 660Q382 660 427 649T504 624T537 609L522 536Q515 540 489 551T425 574T354 585Q292 585 256 559T204 475T188 322Q188 186 227 125T339 64Q393 64 417 93T448
154V275H347V343H565V0H505L470 57Q447 27 409 8T315 -11Q182 -11 109 77Z" />
<glyph unicode="H" glyph-name="H" horiz-adv-x="655" d="M77 0V650H215V366H440V650H578V0H440V296H215V0H77Z" />
<glyph unicode="I" glyph-name="I" horiz-adv-x="293" d="M77 0V650H215V0H77Z" />
<glyph unicode="J" glyph-name="J" horiz-adv-x="384" d="M88 -11T60 -2T18 17T4 30L34 88Q36 86 44 79T67 66T103 60Q141 60 159 92T177 214V650H315V214Q315 90 271 40T133 -11Q88 -11 60 -2Z" />
<glyph unicode="K" glyph-name="K" horiz-adv-x="619" d="M77 0V650H215V349L274 392L465 650H561L364 396L607 0H432L258 292L215 262V0H77Z" />
<glyph unicode="L" glyph-name="L" horiz-adv-x="479" d="M77 0V650H215V72H467V0H77Z" />
<glyph unicode="M" glyph-name="M" horiz-adv-x="856" d="M77 0L85 650H252L434 171H438L617 650H772L779 0H644L637 492H634L453 0H350L169 492H166L163 0H77Z" />
<glyph unicode="N" glyph-name="N" horiz-adv-x="651" d="M77 0V650H220L493 209H495L488 254V650H574V0H466L157 488H155L163 430V0H77Z" />
<glyph unicode="O" glyph-name="O" horiz-adv-x="663" d="M189 -11T113 78T36 324Q36 480 112 570T330 660Q472 660 549 570T627 324Q627 169 550 79T330 -11Q189 -11 113 78ZM407 60T440 122T474 324Q474 462 440 525T330 588Q255 588 222 525T188 324Q188 185
221 123T330 60Q407 60 440 122Z" />
<glyph unicode="P" glyph-name="P" horiz-adv-x="533" d="M77 650H276Q387 650 448 595T510 430Q510 352 476 301T389 227T279 203H215V0H77V650ZM263 267Q313 267 337 301T361 424Q361 513 337 549T263 585H215V267H263Z" />
<glyph unicode="Q" glyph-name="Q" horiz-adv-x="663" d="M449 -197T382 -142T282 -8Q163 7 100 94T36 324Q36 480 112 570T330 660Q473 660 550 573T627 331Q627 200 571 112T412 -1Q478 -135 547 -135Q560 -135 575 -129L581 -187Q554 -197 522 -197Q449 -197
382 -142ZM406 60T440 124T474 324Q474 459 440 523T330 588Q256 588 222 524T188 324Q188 187 221 124T330 60Q406 60 440 124Z" />
<glyph unicode="R" glyph-name="R" horiz-adv-x="578" d="M77 650H277Q387 650 449 597T511 446Q511 383 480 337T399 264L549 0H390L268 236H215V0H77V650ZM266 302Q303 302 323 314T353 357T362 440Q362 518 340 551T263 585H215V302H266Z" />
<glyph unicode="S" glyph-name="S" horiz-adv-x="492" d="M162 -11T118 6T53 44T31 68L69 126Q69 124 88 108T141 77T219 63Q266 63 292 88T318 154Q318 180 304 199T270 232T212 267Q164 292 133 315T80 375T58 466Q58 525 85 569T160 636T269 660Q309 660 344
650T404 628T429 614L413 546Q408 549 389 559T339 580T278 590Q240 590 217 569T194 509Q194 467 221 442T304 387Q354 360 384 338T435 279T457 185Q457 124 427 80T344 13T228 -11Q162 -11 118 6Z" />
<glyph unicode="T" glyph-name="T" horiz-adv-x="516" d="M189 0V578H14V650H502V578H328V0H189Z" />
<glyph unicode="U" glyph-name="U" horiz-adv-x="614" d="M189 -11T129 54T68 236V650H207V267Q207 159 236 112T329 65Q396 65 428 114T460 267V650H545V236Q545 118 489 54T307 -11Q189 -11 129 54Z" />
<glyph unicode="V" glyph-name="V" horiz-adv-x="576" d="M204 0L9 650H155L309 101H312L479 650H566L357 0H204Z" />
<glyph unicode="W" glyph-name="W" horiz-adv-x="873" d="M182 0L9 650H156L276 158H278L411 650H522L659 161H662L775 650H863L693 0H575L439 480H437L302 0H182Z" />
<glyph unicode="X" glyph-name="X" horiz-adv-x="581" d="M8 0L210 316L17 650H190L310 417H313L452 650H550L360 350L573 0H401L262 248H259L112 0H8Z" />
<glyph unicode="Y" glyph-name="Y" horiz-adv-x="523" d="M195 0V251L-7 650H148L291 355H293L433 650H529L334 266V0H195Z" />
<glyph unicode="Z" glyph-name="Z" horiz-adv-x="567" d="M42 0V58L355 578H60V650H522V590L209 72H521V0H42Z" />
<glyph unicode="[" glyph-name="bracketleft" horiz-adv-x="386" d="M85 -89V711H378V642H201V-21H378V-89H85Z" />
<glyph unicode="\" glyph-name="backslash" horiz-adv-x="457" d="M360 -250L-7 750H83L449 -250H360Z" />
<glyph unicode="]" glyph-name="bracketright" horiz-adv-x="386" d="M7 -89V-21H184V642H7V710H301V-89H7Z" />
<glyph unicode="^" glyph-name="asciicircum" horiz-adv-x="357" d="M69 487L30 531L178 698L327 531L288 487L178 593L69 487Z" />
<glyph unicode="_" glyph-name="underscore" horiz-adv-x="679" d="M31 -162V-88H648V-162H31Z" />
<glyph unicode="`" glyph-name="grave" horiz-adv-x="242" d="M93 574L-36 703L70 738L155 591L93 574Z" />
<glyph unicode="a" glyph-name="a" horiz-adv-x="513" d="M111 -11T69 24T27 120Q27 208 109 247T302 296V325Q302 393 283 418T219 444Q198 444 172 436T126 419T100 407L87 471Q93 474 115 483T172 502T242 511Q336 511 385 472T435 336V109Q435 56 456 56Q464
56 475 59T490 63L494 11Q489 9 470 4T427 -6T383 -11Q354 -11 338 3T317 51H312Q312 48 299 33T256 3T181 -11Q111 -11 69 24ZM249 56T266 68T293 94T302 111V243Q235 236 201 212T166 137Q166 97 182 77T225 56Q249 56 266 68Z" />
<glyph unicode="b" glyph-name="b" horiz-adv-x="545" d="M267 -15T238 -4T192 19T175 34H173L151 0H60V746L193 754V467H197Q197 469 210 481T250 504T317 515Q376 515 421 483T491 393T516 260Q516 136 461 61T307 -15Q267 -15 238 -4ZM327 61T350 105T373 257Q373
326 364 365T333 420T277 437Q251 437 232 426T203 401T193 385V98Q193 96 202 87T228 69T272 61Q327 61 350 105Z" />
<glyph unicode="c" glyph-name="c" horiz-adv-x="446" d="M152 -11T91 55T29 247Q29 369 93 440T270 511Q301 511 333 503T388 485T416 472L403 408Q398 411 378 419T332 436T285 444Q247 444 223 428T186 370T173 249Q173 138 201 97T281 56Q316 56 341 71T381
104T395 125L442 95Q442 89 424 63T367 13T267 -11Q152 -11 91 55Z" />
<glyph unicode="d" glyph-name="d" horiz-adv-x="545" d="M176 -11T129 20T55 107T29 239Q29 320 54 381T125 476T232 510Q271 510 297 502T336 484T349 472H352V746L485 754V0H374L359 45H358Q358 42 346 28T308 2T238 -11Q176 -11 129 20ZM293 67T311 77T341
99T352 113V401Q350 404 341 411T314 426T273 434Q219 434 196 391T172 243Q172 173 182 135T213 82T268 67Q293 67 311 77Z" />
<glyph unicode="e" glyph-name="e" horiz-adv-x="474" d="M152 -11T91 50T29 241Q29 371 89 440T251 510Q344 510 395 452T447 284Q447 259 444 242T439 221H170Q171 131 196 94T279 56Q313 56 339 70T380 102T395 122L440 87Q440 83 420 58T360 11T263 -11Q152
-11 91 50ZM323 286V309Q323 385 307 415T251 446Q223 446 207 432T181 384T170 286H323Z" />
<glyph unicode="f" glyph-name="f" horiz-adv-x="346" d="M84 423H35V483L84 497V571Q84 661 121 710T242 760Q267 760 292 753T333 737T354 726L337 669Q334 671 322 676T294 687T266 693Q247 693 237 683T222 644T217 556V500H342V423H217V0H84V423Z" />
<glyph unicode="g" glyph-name="g" horiz-adv-x="461" d="M121 -262T66 -217T10 -95Q10 -11 73 28Q62 52 62 82Q62 142 106 180Q70 203 50 241T29 330Q29 420 87 465T235 510Q275 510 311 499L446 498V439L398 436Q426 394 426 330Q426 241 374 194T232 147Q198
147 163 155Q144 140 144 118Q144 98 167 88T246 77Q356 77 409 37T462 -81Q462 -169 405 -215T234 -262Q121 -262 66 -217ZM263 208T280 237T297 332Q297 398 280 422T228 446Q193 446 175 422T157 330Q157 265 175 237T229 208Q263 208 280 237ZM293 -194T322
-173T351 -112Q351 -72 320 -54T225 -36Q166 -36 128 -20Q103 -47 103 -92Q103 -141 135 -167T234 -194Q293 -194 322 -173Z" />
<glyph unicode="h" glyph-name="h" horiz-adv-x="537" d="M60 746L193 754V466H197Q197 468 213 479T259 500T327 510Q405 510 443 469T481 339V0H349V328Q349 386 334 406T281 427Q256 427 237 419T205 402T193 391V0H60V746Z" />
<glyph unicode="i" glyph-name="i" horiz-adv-x="253" d="M97 575T74 595Q51 618 51 652Q51 685 74 708Q95 728 127 728Q158 728 178 709Q200 686 200 652Q200 617 178 594Q156 575 127 575Q97 575 74 595ZM60 0V500H193V0H60Z" />
<glyph unicode="j" glyph-name="j" horiz-adv-x="280" d="M124 575T101 595Q78 618 78 652Q78 685 101 708Q122 728 154 728Q185 728 205 709Q227 686 227 652Q227 617 205 594Q183 575 154 575Q124 575 101 595ZM14 -261T-6 -255T-38 -240T-50 -231L-28 -171Q-26
-172 -19 -177T1 -186T25 -190Q57 -190 71 -155T86 -29V500H219V-29Q219 -150 172 -205T43 -261Q14 -261 -6 -255Z" />
<glyph unicode="k" glyph-name="k" horiz-adv-x="491" d="M59 0V746L192 754V288L261 335L367 500H449L319 314L481 0H329L217 234L192 218V0H59Z" />
<glyph unicode="l" glyph-name="l" horiz-adv-x="254" d="M60 0V746L193 754V0H60Z" />
<glyph unicode="m" glyph-name="m" horiz-adv-x="760" d="M60 500H167L184 455H187Q187 457 205 471T252 498T319 510Q360 510 387 497T429 457Q446 471 458 479T501 499T571 510Q642 510 673 473T704 349V0H571V339Q571 393 559 410T518 428Q493 428 475 416T447
390Q449 366 449 351V0H316V339Q316 392 304 410T264 428Q238 428 219 415T193 392V0H60V500Z" />
<glyph unicode="n" glyph-name="n" horiz-adv-x="538" d="M60 500H167L184 459H188Q188 461 204 474T252 498T329 510Q406 510 444 469T483 339V0H350V312Q350 379 336 403T283 427Q257 427 237 419T205 402T193 391V0H60V500Z" />
<glyph unicode="o" glyph-name="o" horiz-adv-x="525" d="M150 -11T90 57T29 250Q29 375 89 443T262 511Q375 511 435 443T496 250Q496 126 434 58T262 -11Q150 -11 90 57ZM295 55T314 74T343 135T352 250Q352 323 343 365T315 425T262 444Q228 444 209 426T181
365T172 251Q172 178 181 136T209 74T262 55Q295 55 314 74Z" />
<glyph unicode="p" glyph-name="p" horiz-adv-x="545" d="M60 500H167L185 455H188Q188 457 205 471T252 498T324 511Q413 511 464 443T515 260Q515 179 491 118T423 23T317 -11Q278 -11 251 -3T210 15T196 27H193V-250L60 -254V500ZM305 65T327 83T361 142T372
257Q372 326 362 364T331 418T277 433Q253 433 235 424T206 405T193 390V98Q195 95 203 88T227 73T267 65Q305 65 327 83Z" />
<glyph unicode="q" glyph-name="q" horiz-adv-x="545" d="M351 36H347Q347 34 334 22T295 0T228 -11Q169 -11 124 20T55 107T30 239Q30 320 56 381T130 477T239 511Q276 511 304 502T348 482T364 469H365L395 500H484V-250L351 -254V36ZM308 67T326 82T351 109V403Q344
412 326 423T277 435Q224 435 198 394T172 243Q172 171 184 133T217 81T273 67Q308 67 326 82Z" />
<glyph unicode="r" glyph-name="r" horiz-adv-x="355" d="M60 500H154L176 416H180Q180 422 188 445T217 490T275 511Q295 511 320 505T354 497L342 404Q334 406 307 412T259 418Q236 418 222 405T200 376T193 358V0H60V500Z" />
<glyph unicode="s" glyph-name="s" horiz-adv-x="417" d="M142 -11T103 5T44 41T24 64L61 116Q61 114 77 98T117 69T172 55Q209 55 229 74T249 124Q249 154 228 171T165 208Q126 227 103 242T62 285T45 356Q45 430 96 470T222 511Q254 511 286 503T339 487T366
476L348 409Q343 412 325 421T282 438T235 446Q204 446 187 431T170 391Q170 361 192 343T261 303Q302 283 327 267T370 222T388 152Q388 79 340 34T200 -11Q142 -11 103 5Z" />
<glyph unicode="t" glyph-name="t" horiz-adv-x="353" d="M146 -11T112 24T78 142V423H30V483L79 497L143 666H211V500H321V423H211V176Q211 129 215 105T230 71T258 61Q278 61 294 65T310 70L318 13Q318 12 307 6T274 -5T217 -11Q146 -11 112 24Z" />
<glyph unicode="u" glyph-name="u" horiz-adv-x="538" d="M133 -11T95 30T56 160V500H189V188Q189 122 205 97T257 72Q281 72 300 80T330 98T344 110V500H477V0H370L351 44H349Q349 42 333 28T286 1T210 -11Q133 -11 95 30Z" />
<glyph unicode="v" glyph-name="v" horiz-adv-x="472" d="M180 0L5 500H166L264 144H268L380 500H467L290 0H180Z" />
<glyph unicode="w" glyph-name="w" horiz-adv-x="700" d="M149 0L6 500H157L230 167H233L328 500H419L524 167H527L608 500H694L547 0H441L351 326V327H348L255 0H149Z" />
<glyph unicode="x" glyph-name="x" horiz-adv-x="473" d="M9 0L163 242L17 500H176L259 323L353 500H444L305 273L464 0H305L211 187L102 0H9Z" />
<glyph unicode="y" glyph-name="y" horiz-adv-x="481" d="M77 -261T60 -258T33 -251T22 -246L33 -168Q37 -170 53 -174T85 -179Q130 -179 158 -144T220 -20L7 500H168L290 144L393 500H476L303 -11Q272 -96 245 -149T182 -231T100 -261Q77 -261 60 -258Z" />
<glyph unicode="z" glyph-name="z" horiz-adv-x="434" d="M26 0V60L255 432H45L42 500H407V440L180 68H398L400 0H26Z" />
<glyph unicode="{" glyph-name="braceleft" horiz-adv-x="406" d="M250 -165T202 -127T154 -10Q154 27 170 103Q172 111 177 141T183 194Q183 222 153 238T95 255V328Q123 328 153 345T183 390Q183 418 170 481Q154 555 154 594Q154 646 173 679T241 730T374 748V683Q318
683 293 662T268 597Q268 567 282 489Q297 418 297 380Q297 319 228 292Q297 263 297 203Q297 167 282 94Q268 18 268 -13Q268 -56 293 -77T374 -99V-165Q250 -165 202 -127Z" />
<glyph unicode="|" glyph-name="bar" horiz-adv-x="342" d="M133 -250V750H210V-250H133Z" />
<glyph unicode="}" glyph-name="braceright" horiz-adv-x="406" d="M56 -99Q112 -99 137 -78T162 -13Q162 18 148 94Q133 167 133 203Q133 263 202 292Q133 319 133 380Q133 418 148 489Q162 567 162 597Q162 640 137 661T56 683V748Q180 748 228 710T277 594Q277
555 261 481Q256 456 252 432T247 390Q247 362 277 345T336 328V255Q308 255 278 239T247 194Q247 169 261 103Q277 27 277 -10Q277 -88 229 -126T56 -165V-99Z" />
<glyph unicode="~" glyph-name="asciitilde" horiz-adv-x="598" d="M382 219T349 235T271 282Q232 310 206 323T146 337Q119 337 102 326T77 303T68 287L25 317Q25 327 38 361T87 427T184 459Q234 459 271 442T354 392Q392 366 416 354T469 342Q493 342 507 352T528
374T534 389L575 363Q575 354 562 319T516 251T426 219Q382 219 349 235Z" />
<glyph unicode="&#xa0;" glyph-name="uni00A0" horiz-adv-x="255" />
<glyph unicode="&#xa1;" glyph-name="exclamdown" horiz-adv-x="333" d="M129 355T106 376Q82 400 82 435Q82 470 106 495Q129 516 162 516Q194 516 217 495Q241 470 241 435Q241 400 217 376Q195 355 162 355Q129 355 106 376ZM87 -250V-189L130 269H197L240
-189V-250H87Z" />
<glyph unicode="&#xa2;" glyph-name="cent" horiz-adv-x="446" d="M209 63Q121 79 75 143T29 317Q29 420 76 488T208 575L219 700H284L297 579Q324 575 350 567T394 552T416 542L403 478Q398 481 378 489T332 506T285 514Q247 514 223 498T186 440T173 319Q173
208 201 167T281 126Q316 126 341 141T381 174T395 195L442 165Q442 160 427 137T380 90T297 60L288 -50H222L209 63Z" />
<glyph unicode="&#xa3;" glyph-name="sterling" horiz-adv-x="531" d="M40 122H81Q128 153 128 233Q128 255 125 279L40 286V350H116Q106 426 106 468Q106 563 158 611T306 660Q338 660 370 651T423 632T450 619L430 554Q426 557 410 565T373 580T335 588Q306
588 289 578T264 541T255 460Q255 395 251 350H456V277H243Q226 175 185 122H509V0H40V122Z" />
<glyph unicode="&#xa4;" glyph-name="currency" horiz-adv-x="546" d="M374 162Q330 124 274 124Q218 124 174 160L91 59L42 126L137 205Q109 253 109 315Q109 374 136 422L41 504L91 571L172 466Q216 505 274 505Q330 505 372 469L455 570L504 504L410 426Q440
377 440 315Q440 254 411 206L504 125L456 58L374 162ZM315 199T341 230T367 315Q367 369 341 400T273 431Q232 431 207 401T182 316Q182 262 207 231T273 199Q315 199 341 230Z" />
<glyph unicode="&#xa5;" glyph-name="yen" horiz-adv-x="590" d="M228 0V144H101V208H228V251L216 274H101V337H184L26 650H181L324 355H326L466 650H562L403 337H485V274H371L367 266V208H485V144H367V0H228Z" />
<glyph unicode="&#xa6;" glyph-name="brokenbar" horiz-adv-x="342" d="M133 350V750H210V350H133ZM133 -250V150H210V-250H133Z" />
<glyph unicode="&#xa7;" glyph-name="section" horiz-adv-x="505" d="M184 -68T149 -55T95 -27T76 -10L102 48Q102 46 117 34T158 10T216 -1Q258 -1 278 16T298 63Q298 91 276 107T208 142Q161 162 132 179T82 230T60 315Q60 398 120 445Q102 472 102 512Q102
581 149 620T277 660Q311 660 344 650T401 627T426 613L412 553Q407 556 388 565T343 584T296 593Q260 593 243 576T226 532Q226 500 250 482T325 444Q373 424 401 407T451 359T472 279Q472 201 405 146Q422 117 422 79Q422 13 372 -27T233 -68Q184 -68 149 -55ZM388
216T388 252Q388 283 360 302T271 346Q197 375 161 401Q144 379 144 346Q144 320 159 302T198 271T264 241Q298 228 322 217T366 190Q388 216 388 252Z" />
<glyph unicode="&#xa8;" glyph-name="dieresis" horiz-adv-x="422" d="M40 582T21 600Q1 620 1 652Q1 683 21 704Q41 721 67 721Q93 721 113 704Q133 681 133 652Q133 622 113 600Q94 582 67 582Q40 582 21 600ZM225 582T207 600Q187 620 187 652Q187 683 207
704Q226 721 253 721Q279 721 299 704Q319 681 319 652Q319 622 299 600Q280 582 253 582Q225 582 207 600Z" />
<glyph unicode="&#xa9;" glyph-name="copyright" horiz-adv-x="729" d="M216 -19T138 73T59 323Q59 427 94 504T198 624T363 667Q459 667 528 625T634 505T670 323Q670 219 635 142T530 23T363 -19Q216 -19 138 73ZM476 38T542 112T608 322Q608 411 578 476T493
576T362 611Q249 611 185 534T121 322Q121 187 184 113T362 38Q476 38 542 112ZM306 143T262 190T217 319Q217 373 238 413T297 475T380 496Q406 496 428 489T463 473T479 462L461 415Q458 417 448 424T423 437T392 443Q354 443 335 415T315 319Q315 253 335 225T393
197Q417 197 434 208T460 233T469 248L498 219Q498 214 487 196T448 160T373 143Q306 143 262 190Z" />
<glyph unicode="&#xaa;" glyph-name="ordfeminine" horiz-adv-x="413" d="M89 307T59 335T28 413Q28 481 94 512T243 550V555Q243 596 229 614T180 633Q155 633 134 624T101 604T85 591L60 626Q60 629 75 643T123 670T203 683Q281 683 321 650T361 546V320H270L246
360Q242 344 221 326T147 307Q89 307 59 335ZM220 367T230 379T243 403V507Q192 501 168 482T144 424Q144 396 156 382T193 367Q220 367 230 379Z" />
<glyph unicode="&#xab;" glyph-name="guillemotleft" horiz-adv-x="536" d="M256 59L79 250L257 436L291 399L202 249L291 98L256 59ZM441 59L264 250L442 436L476 399L387 249L476 98L441 59Z" />
<glyph unicode="&#xac;" glyph-name="logicalnot" horiz-adv-x="495" d="M376 115V279H50V352H444V115H376Z" />
<glyph unicode="&#xad;" glyph-name="uni00AD" horiz-adv-x="358" d="M43 238V312H315V238H43Z" />
<glyph unicode="&#xae;" glyph-name="registered" horiz-adv-x="669" d="M242 100T178 141T80 256T46 430Q46 528 81 602T181 718T333 759Q421 759 487 718T588 603T624 430Q624 332 590 257T491 141T333 100Q242 100 178 141ZM439 157T500 230T562 429Q562 512
535 574T455 671T332 705Q261 705 211 670T134 573T107 429Q107 303 166 230T332 157Q439 157 500 230ZM332 387H305V274H235V584H333Q458 584 458 488Q458 458 444 436T402 400L458 273H380L332 387ZM335 426Q356 426 367 440T379 487Q379 517 368 530T334 543H305V426H335Z"
/>
<glyph unicode="&#xaf;" glyph-name="overscore" horiz-adv-x="428" d="M108 624V682H322V624H108Z" />
<glyph unicode="&#xb0;" glyph-name="degree" horiz-adv-x="421" d="M125 360T81 415T36 564Q36 655 82 710T210 765Q290 765 337 710T385 564Q385 472 339 416T210 360Q125 360 81 415ZM243 423T259 457T276 566Q276 640 260 671T210 703Q176 703 161 672T146
566Q146 491 161 457T209 423Q243 423 259 457Z" />
<glyph unicode="&#xb1;" glyph-name="plusminus" horiz-adv-x="524" d="M230 303V488H67V562H230V746H301V562H461V488H301V303H230ZM31 129V203H494V129H31Z" />
<glyph unicode="&#xb2;" glyph-name="uni00B2" horiz-adv-x="414" d="M41 325Q80 340 126 380T204 477T237 592Q237 650 220 672T165 695Q149 695 127 686T89 668T68 655L54 713Q54 714 76 726T131 749T198 760Q281 760 325 716T369 601Q369 528 316 463T185 344H373V230H41V325Z"
/>
<glyph unicode="&#xb3;" glyph-name="uni00B3" horiz-adv-x="413" d="M143 219T109 232T55 260T36 278L65 332Q65 331 80 318T120 295T172 284Q210 284 229 307T249 381Q249 431 239 451T206 472Q191 472 176 457L167 446L130 489L250 635H72L79 750H355V673L235
529Q272 528 303 510T354 458T373 378Q373 299 320 259T191 219Q143 219 109 232Z" />
<glyph unicode="&#xb4;" glyph-name="acute" horiz-adv-x="242" d="M118 569L61 578L131 730L239 699L118 569Z" />
<glyph unicode="&#xb5;" glyph-name="uni00B5" horiz-adv-x="542" d="M61 500H194V188Q194 122 210 97T262 72Q286 72 305 80T335 98T349 110V500H482V0H375L356 44H354Q354 42 338 28T291 1T215 -11Q203 -11 185 -9Q197 -169 198 -250H61V500Z" />
<glyph unicode="&#xb6;" glyph-name="paragraph" horiz-adv-x="640" d="M262 232Q36 232 36 444Q36 547 95 598T288 650H604V562H541V0H440V562H360V0H262V232Z" />
<glyph unicode="&#xb7;" glyph-name="middot" horiz-adv-x="297" d="M115 284T92 305Q68 329 68 364Q68 399 92 424Q115 445 148 445Q181 445 203 424Q227 399 227 364Q227 329 203 305Q181 284 148 284Q115 284 92 305Z" />
<glyph unicode="&#xb8;" glyph-name="cedilla" horiz-adv-x="249" d="M88 -251T67 -241T35 -219T25 -205L51 -176Q53 -178 59 -185T78 -198T106 -205Q156 -205 156 -148Q156 -124 141 -115T111 -102T96 -98L108 -1H152L146 -58Q146 -59 170 -67T214 -96T235 -150Q235
-196 206 -223T121 -251Q88 -251 67 -241Z" />
<glyph unicode="&#xb9;" glyph-name="uni00B9" horiz-adv-x="413" d="M164 230V653L89 601L61 669L187 750H284V230H164Z" />
<glyph unicode="&#xba;" glyph-name="ordmasculine" horiz-adv-x="439" d="M125 307T77 356T29 495Q29 584 77 633T219 683Q313 683 361 634T409 495Q409 407 360 357T219 307Q125 307 77 356ZM254 357T268 389T283 495Q283 567 269 599T219 631Q185 631 170 599T155
496Q155 423 170 390T219 357Q254 357 268 389Z" />
<glyph unicode="&#xbb;" glyph-name="guillemotright" horiz-adv-x="536" d="M95 59L59 95L149 245L60 397L96 436L271 245L95 59ZM280 59L244 95L334 245L245 397L281 436L456 245L280 59Z" />
<glyph unicode="&#xbc;" glyph-name="onequarter" horiz-adv-x="805" d="M164 230V653L89 601L61 669L187 750H284V230H164ZM275 -40L220 -9L558 596L612 566L275 -40ZM598 -124H413L407 -68Q436 -9 462 91T501 284L618 270Q601 185 565 98T485 -59H598V-20L632
191H723V-59H765V-111L723 -123V-250H598V-124Z" />
<glyph unicode="&#xbd;" glyph-name="onehalf" horiz-adv-x="843" d="M164 230V653L89 601L61 669L187 750H284V230H164ZM275 -40L220 -9L558 596L612 566L275 -40ZM476 -156Q515 -141 561 -100T639 -3T672 112Q672 170 655 192T599 215Q583 215 562 206T524 188T502
175L488 232Q488 233 511 245T566 268T633 279Q716 279 759 235T803 120Q803 47 750 -18T620 -136H807V-250H476V-156Z" />
<glyph unicode="&#xbe;" glyph-name="threequarters" horiz-adv-x="847" d="M146 219T112 232T58 260T39 278L68 332Q68 331 83 318T123 295T175 284Q213 284 232 307T252 381Q252 431 242 451T209 472Q194 472 179 457L170 446L133 489L253 635H75L82 750H358V673L238
529Q275 528 306 510T357 458T376 378Q376 299 323 259T194 219Q146 219 112 232ZM317 -40L262 -9L600 596L654 566L317 -40ZM640 -124H455L449 -68Q478 -9 504 91T543 284L660 270Q643 185 607 98T527 -59H640V-20L674 191H765V-59H807V-111L765 -123V-250H640V-124Z"
/>
<glyph unicode="&#xbf;" glyph-name="questiondown" horiz-adv-x="445" d="M234 355T211 376Q187 400 187 435Q187 470 211 495Q234 516 267 516Q299 516 322 495Q346 470 346 435Q346 400 322 376Q300 355 267 355Q234 355 211 376ZM170 -261T120 -236T46 -170T23
-84Q23 -34 40 0T81 56T146 103Q180 125 199 140T232 179T245 236Q245 243 243 261L298 265Q308 226 308 198Q308 160 294 138T249 91Q225 70 210 53T185 6T174 -65Q174 -134 193 -163T262 -193Q285 -193 305 -187T339 -175T355 -166L383 -227Q383 -228 366 -237T319
-253T248 -261Q170 -261 120 -236Z" />
<glyph unicode="&#xc0;" glyph-name="Agrave" horiz-adv-x="608" d="M296 709L167 838L273 873L358 726L296 709ZM19 0L235 650H388L590 0H444L388 182H162L103 0H19ZM182 245H369L280 551H278L182 245Z" />
<glyph unicode="&#xc1;" glyph-name="Aacute" horiz-adv-x="608" d="M319 704L262 713L332 865L440 834L319 704ZM19 0L235 650H388L590 0H444L388 182H162L103 0H19ZM182 245H369L280 551H278L182 245Z" />
<glyph unicode="&#xc2;" glyph-name="Acircumflex" horiz-adv-x="608" d="M201 721L172 766L270 888H340L437 766L409 721L305 806L201 721ZM19 0L235 650H388L590 0H444L388 182H162L103 0H19ZM182 245H369L280 551H278L182 245Z" />
<glyph unicode="&#xc3;" glyph-name="Atilde" horiz-adv-x="608" d="M356 726T339 732T294 751Q273 762 257 768T223 774Q207 774 194 764T174 743T165 729L129 765Q129 769 144 792T186 835T252 855Q279 855 298 848T342 828Q363 818 376 813T404 808Q420 808
431 815T447 830T454 840L490 805Q490 801 478 781T441 744T378 726Q356 726 339 732ZM19 0L235 650H388L590 0H444L388 182H162L103 0H19ZM182 245H369L280 551H278L182 245Z" />
<glyph unicode="&#xc4;" glyph-name="Adieresis" horiz-adv-x="608" d="M186 717T166 735Q146 755 146 787Q146 818 166 839Q186 856 212 856Q238 856 258 839Q278 816 278 787Q278 757 258 735Q239 717 212 717Q186 717 166 735ZM370 717T352 735Q332 755 332
787Q332 818 352 839Q371 856 398 856Q424 856 444 839Q464 816 464 787Q464 757 444 735Q425 717 398 717Q370 717 352 735ZM19 0L235 650H388L590 0H444L388 182H162L103 0H19ZM182 245H369L280 551H278L182 245Z" />
<glyph unicode="&#xc5;" glyph-name="Aring" horiz-adv-x="608" d="M257 683T229 711T200 791Q200 841 229 869T305 898Q350 898 380 869T410 791Q410 741 381 712T305 683Q257 683 229 711ZM332 726T348 742T364 792Q364 823 348 839T305 856Q279 856 263 840T246
792Q246 759 262 743T305 726Q332 726 348 742ZM19 0L235 650H388L590 0H444L388 182H162L103 0H19ZM182 245H369L280 551H278L182 245Z" />
<glyph unicode="&#xc6;" glyph-name="AE" horiz-adv-x="822" d="M-14 0L348 650H774V578H523V364H745V294H523V72H788V0H385V188H175L73 0H-14ZM209 252H385V578H378L209 252Z" />
<glyph unicode="&#xc7;" glyph-name="Ccedilla" horiz-adv-x="576" d="M275 -251T254 -241T222 -219T212 -205L238 -176Q240 -178 246 -185T265 -198T293 -205Q343 -205 343 -148Q343 -124 328 -115T298 -102T283 -98L294 -9Q168 4 102 90T36 320Q36 422 71 499T173
618T332 660Q378 660 422 649T499 624T532 609L518 536Q511 540 484 551T420 574T349 585Q293 585 258 560T206 478T188 325Q188 184 229 124T356 64Q404 64 440 84T499 129T522 157L566 109Q566 104 540 74T463 16T338 -11L333 -58Q333 -59 357 -67T401 -96T422
-150Q422 -196 393 -223T308 -251Q275 -251 254 -241Z" />
<glyph unicode="&#xc8;" glyph-name="Egrave" horiz-adv-x="524" d="M279 709L150 838L256 873L341 726L279 709ZM77 0V650H467V578H215V364H437V294H215V72H481V0H77Z" />
<glyph unicode="&#xc9;" glyph-name="Eacute" horiz-adv-x="524" d="M301 704L244 713L314 865L422 834L301 704ZM77 0V650H467V578H215V364H437V294H215V72H481V0H77Z" />
<glyph unicode="&#xca;" glyph-name="Ecircumflex" horiz-adv-x="524" d="M185 721L156 766L254 888H324L421 766L393 721L289 806L185 721ZM77 0V650H467V578H215V364H437V294H215V72H481V0H77Z" />
<glyph unicode="&#xcb;" glyph-name="Edieresis" horiz-adv-x="524" d="M154 717T134 735Q114 755 114 787Q114 818 134 839Q154 856 180 856Q206 856 226 839Q246 816 246 787Q246 757 226 735Q207 717 180 717Q154 717 134 735ZM338 717T320 735Q300 755 300
787Q300 818 320 839Q339 856 366 856Q392 856 412 839Q432 816 432 787Q432 757 412 735Q393 717 366 717Q338 717 320 735ZM77 0V650H467V578H215V364H437V294H215V72H481V0H77Z" />
<glyph unicode="&#xcc;" glyph-name="Igrave" horiz-adv-x="293" d="M133 709L4 838L110 873L195 726L133 709ZM77 0V650H215V0H77Z" />
<glyph unicode="&#xcd;" glyph-name="Iacute" horiz-adv-x="293" d="M157 704L100 713L170 865L278 834L157 704ZM77 0V650H215V0H77Z" />
<glyph unicode="&#xce;" glyph-name="Icircumflex" horiz-adv-x="293" d="M41 721L12 766L110 888H180L277 766L249 721L145 806L41 721ZM77 0V650H215V0H77Z" />
<glyph unicode="&#xcf;" glyph-name="Idieresis" horiz-adv-x="293" d="M24 717T4 735Q-16 755 -16 787Q-16 818 4 839Q24 856 50 856Q76 856 96 839Q116 816 116 787Q116 757 96 735Q77 717 50 717Q24 717 4 735ZM208 717T190 735Q170 755 170 787Q170 818 190
839Q209 856 236 856Q262 856 282 839Q302 816 302 787Q302 757 282 735Q263 717 236 717Q208 717 190 735ZM77 0V650H215V0H77Z" />
<glyph unicode="&#xd0;" glyph-name="Eth" horiz-adv-x="658" d="M77 289H21V355H77V650H298Q449 650 530 567T612 323Q612 165 532 83T299 0H77V289ZM300 71Q358 71 392 95T443 174T459 323Q459 417 443 473T391 554T298 579H215V355H357V289H215V71H300Z" />
<glyph unicode="&#xd1;" glyph-name="Ntilde" horiz-adv-x="651" d="M390 726T373 732T328 751Q307 762 291 768T257 774Q241 774 228 764T208 743T199 729L163 765Q163 769 178 792T220 835T286 855Q313 855 332 848T376 828Q397 818 410 813T438 808Q454 808
465 815T481 830T488 840L524 805Q524 801 512 781T475 744T412 726Q390 726 373 732ZM77 0V650H220L493 209H495L488 254V650H574V0H466L157 488H155L163 430V0H77Z" />
<glyph unicode="&#xd2;" glyph-name="Ograve" horiz-adv-x="663" d="M318 709L189 838L295 873L380 726L318 709ZM189 -11T113 78T36 324Q36 480 112 570T330 660Q472 660 549 570T627 324Q627 169 550 79T330 -11Q189 -11 113 78ZM407 60T440 122T474 324Q474
462 440 525T330 588Q255 588 222 525T188 324Q188 185 221 123T330 60Q407 60 440 122Z" />
<glyph unicode="&#xd3;" glyph-name="Oacute" horiz-adv-x="663" d="M341 704L284 713L354 865L462 834L341 704ZM189 -11T113 78T36 324Q36 480 112 570T330 660Q472 660 549 570T627 324Q627 169 550 79T330 -11Q189 -11 113 78ZM407 60T440 122T474 324Q474
462 440 525T330 588Q255 588 222 525T188 324Q188 185 221 123T330 60Q407 60 440 122Z" />
<glyph unicode="&#xd4;" glyph-name="Ocircumflex" horiz-adv-x="663" d="M226 721L197 766L295 888H365L462 766L434 721L330 806L226 721ZM189 -11T113 78T36 324Q36 480 112 570T330 660Q472 660 549 570T627 324Q627 169 550 79T330 -11Q189 -11 113 78ZM407
60T440 122T474 324Q474 462 440 525T330 588Q255 588 222 525T188 324Q188 185 221 123T330 60Q407 60 440 122Z" />
<glyph unicode="&#xd5;" glyph-name="Otilde" horiz-adv-x="663" d="M379 726T362 732T317 751Q296 762 280 768T246 774Q230 774 217 764T197 743T188 729L152 765Q152 769 167 792T209 835T275 855Q302 855 321 848T365 828Q386 818 399 813T427 808Q443 808
454 815T470 830T477 840L513 805Q513 801 501 781T464 744T401 726Q379 726 362 732ZM189 -11T113 78T36 324Q36 480 112 570T330 660Q472 660 549 570T627 324Q627 169 550 79T330 -11Q189 -11 113 78ZM407 60T440 122T474 324Q474 462 440 525T330 588Q255 588
222 525T188 324Q188 185 221 123T330 60Q407 60 440 122Z" />
<glyph unicode="&#xd6;" glyph-name="Odieresis" horiz-adv-x="663" d="M208 717T188 735Q168 755 168 787Q168 818 188 839Q208 856 234 856Q260 856 280 839Q300 816 300 787Q300 757 280 735Q261 717 234 717Q208 717 188 735ZM392 717T374 735Q354 755 354
787Q354 818 374 839Q393 856 420 856Q446 856 466 839Q486 816 486 787Q486 757 466 735Q447 717 420 717Q392 717 374 735ZM189 -11T113 78T36 324Q36 480 112 570T330 660Q472 660 549 570T627 324Q627 169 550 79T330 -11Q189 -11 113 78ZM407 60T440 122T474
324Q474 462 440 525T330 588Q255 588 222 525T188 324Q188 185 221 123T330 60Q407 60 440 122Z" />
<glyph unicode="&#xd7;" glyph-name="multiply" horiz-adv-x="423" d="M95 133L46 191L162 319L46 448L93 506L212 374L331 506L378 448L262 319L378 191L330 133L212 263L95 133Z" />
<glyph unicode="&#xd8;" glyph-name="Oslash" horiz-adv-x="663" d="M141 -96L189 19Q114 56 75 134T36 324Q36 480 112 570T330 660Q395 660 452 638L489 726L531 715L490 619Q557 579 592 503T627 324Q627 169 550 79T330 -11Q276 -11 229 3L182 -107L141 -96ZM417
556Q383 588 330 588Q255 588 222 525T188 324Q188 170 228 110L417 556ZM407 60T440 122T474 324Q474 451 445 513L260 77Q287 60 330 60Q407 60 440 122Z" />
<glyph unicode="&#xd9;" glyph-name="Ugrave" horiz-adv-x="614" d="M336 709L207 838L313 873L398 726L336 709ZM189 -11T129 54T68 236V650H207V267Q207 159 236 112T329 65Q396 65 428 114T460 267V650H545V236Q545 118 489 54T307 -11Q189 -11 129 54Z" />
<glyph unicode="&#xda;" glyph-name="Uacute" horiz-adv-x="614" d="M329 704L272 713L342 865L450 834L329 704ZM189 -11T129 54T68 236V650H207V267Q207 159 236 112T329 65Q396 65 428 114T460 267V650H545V236Q545 118 489 54T307 -11Q189 -11 129 54Z" />
<glyph unicode="&#xdb;" glyph-name="Ucircumflex" horiz-adv-x="614" d="M227 721L198 766L296 888H366L463 766L435 721L331 806L227 721ZM189 -11T129 54T68 236V650H207V267Q207 159 236 112T329 65Q396 65 428 114T460 267V650H545V236Q545 118 489 54T307
-11Q189 -11 129 54Z" />
<glyph unicode="&#xdc;" glyph-name="Udieresis" horiz-adv-x="614" d="M208 717T189 735Q169 755 169 787Q169 818 189 839Q209 856 235 856Q261 856 281 839Q301 816 301 787Q301 757 281 735Q261 717 235 717Q208 717 189 735ZM393 717T375 735Q355 755 355
787Q355 818 375 839Q394 856 421 856Q447 856 467 839Q487 816 487 787Q487 757 467 735Q448 717 421 717Q393 717 375 735ZM189 -11T129 54T68 236V650H207V267Q207 159 236 112T329 65Q396 65 428 114T460 267V650H545V236Q545 118 489 54T307 -11Q189 -11 129
54Z" />
<glyph unicode="&#xdd;" glyph-name="Yacute" horiz-adv-x="523" d="M295 704L238 713L308 865L416 834L295 704ZM195 0V251L-7 650H148L291 355H293L433 650H529L334 266V0H195Z" />
<glyph unicode="&#xde;" glyph-name="Thorn" horiz-adv-x="562" d="M98 650H236V560H297Q408 560 469 504T531 333Q531 251 497 197T410 118T300 93H236V0H98V650ZM290 160Q323 160 344 174T377 224T389 327Q389 420 365 455T290 491H236V160H290Z" />
<glyph unicode="&#xdf;" glyph-name="germandbls" horiz-adv-x="561" d="M295 -11T272 -6T238 4T226 11L241 74Q243 73 249 70T269 63T299 60Q342 60 365 99T389 236Q389 314 377 355T337 412T256 428V500Q256 497 278 506T317 537T335 600Q335 649 319 671T268
693Q227 693 210 656T193 524V0H60V524Q60 646 117 703T276 760Q366 760 417 721T469 612Q469 522 375 477Q532 433 532 237Q532 106 480 48T330 -11Q295 -11 272 -6Z" />
<glyph unicode="&#xe0;" glyph-name="agrave" horiz-adv-x="513" d="M244 574L115 703L221 738L306 591L244 574ZM111 -11T69 24T27 120Q27 208 109 247T302 296V325Q302 393 283 418T219 444Q198 444 172 436T126 419T100 407L87 471Q93 474 115 483T172 502T242
511Q336 511 385 472T435 336V109Q435 56 456 56Q464 56 475 59T490 63L494 11Q489 9 470 4T427 -6T383 -11Q354 -11 338 3T317 51H312Q312 48 299 33T256 3T181 -11Q111 -11 69 24ZM249 56T266 68T293 94T302 111V243Q235 236 201 212T166 137Q166 97 182 77T225
56Q249 56 266 68Z" />
<glyph unicode="&#xe1;" glyph-name="aacute" horiz-adv-x="513" d="M267 569L210 578L280 730L388 699L267 569ZM111 -11T69 24T27 120Q27 208 109 247T302 296V325Q302 393 283 418T219 444Q198 444 172 436T126 419T100 407L87 471Q93 474 115 483T172 502T242
511Q336 511 385 472T435 336V109Q435 56 456 56Q464 56 475 59T490 63L494 11Q489 9 470 4T427 -6T383 -11Q354 -11 338 3T317 51H312Q312 48 299 33T256 3T181 -11Q111 -11 69 24ZM249 56T266 68T293 94T302 111V243Q235 236 201 212T166 137Q166 97 182 77T225
56Q249 56 266 68Z" />
<glyph unicode="&#xe2;" glyph-name="acircumflex" horiz-adv-x="513" d="M151 586L122 631L220 753H290L387 631L359 586L255 671L151 586ZM111 -11T69 24T27 120Q27 208 109 247T302 296V325Q302 393 283 418T219 444Q198 444 172 436T126 419T100 407L87 471Q93
474 115 483T172 502T242 511Q336 511 385 472T435 336V109Q435 56 456 56Q464 56 475 59T490 63L494 11Q489 9 470 4T427 -6T383 -11Q354 -11 338 3T317 51H312Q312 48 299 33T256 3T181 -11Q111 -11 69 24ZM249 56T266 68T293 94T302 111V243Q235 236 201 212T166
137Q166 97 182 77T225 56Q249 56 266 68Z" />
<glyph unicode="&#xe3;" glyph-name="atilde" horiz-adv-x="513" d="M305 591T288 597T243 616Q222 627 206 633T172 639Q156 639 143 629T123 608T114 594L78 630Q78 634 93 657T135 700T201 720Q228 720 247 713T291 693Q312 683 325 678T353 673Q369 673 380
680T396 695T403 705L439 670Q439 666 427 646T390 609T327 591Q305 591 288 597ZM111 -11T69 24T27 120Q27 208 109 247T302 296V325Q302 393 283 418T219 444Q198 444 172 436T126 419T100 407L87 471Q93 474 115 483T172 502T242 511Q336 511 385 472T435 336V109Q435
56 456 56Q464 56 475 59T490 63L494 11Q489 9 470 4T427 -6T383 -11Q354 -11 338 3T317 51H312Q312 48 299 33T256 3T181 -11Q111 -11 69 24ZM249 56T266 68T293 94T302 111V243Q235 236 201 212T166 137Q166 97 182 77T225 56Q249 56 266 68Z" />
<glyph unicode="&#xe4;" glyph-name="adieresis" horiz-adv-x="513" d="M132 582T113 600Q93 620 93 652Q93 683 113 704Q133 721 159 721Q185 721 205 704Q225 681 225 652Q225 622 205 600Q185 582 159 582Q132 582 113 600ZM317 582T299 600Q279 620 279 652Q279
683 299 704Q318 721 345 721Q371 721 391 704Q411 681 411 652Q411 622 391 600Q372 582 345 582Q317 582 299 600ZM111 -11T69 24T27 120Q27 208 109 247T302 296V325Q302 393 283 418T219 444Q198 444 172 436T126 419T100 407L87 471Q93 474 115 483T172 502T242
511Q336 511 385 472T435 336V109Q435 56 456 56Q464 56 475 59T490 63L494 11Q489 9 470 4T427 -6T383 -11Q354 -11 338 3T317 51H312Q312 48 299 33T256 3T181 -11Q111 -11 69 24ZM249 56T266 68T293 94T302 111V243Q235 236 201 212T166 137Q166 97 182 77T225
56Q249 56 266 68Z" />
<glyph unicode="&#xe5;" glyph-name="aring" horiz-adv-x="513" d="M207 548T179 576T150 656Q150 706 179 734T255 763Q300 763 330 734T360 656Q360 606 331 577T255 548Q207 548 179 576ZM282 591T298 607T314 657Q314 688 298 704T255 721Q229 721 213 705T196
657Q196 624 212 608T255 591Q282 591 298 607ZM111 -11T69 24T27 120Q27 208 109 247T302 296V325Q302 393 283 418T219 444Q198 444 172 436T126 419T100 407L87 471Q93 474 115 483T172 502T242 511Q336 511 385 472T435 336V109Q435 56 456 56Q464 56 475 59T490
63L494 11Q489 9 470 4T427 -6T383 -11Q354 -11 338 3T317 51H312Q312 48 299 33T256 3T181 -11Q111 -11 69 24ZM249 56T266 68T293 94T302 111V243Q235 236 201 212T166 137Q166 97 182 77T225 56Q249 56 266 68Z" />
<glyph unicode="&#xe6;" glyph-name="ae" horiz-adv-x="748" d="M112 -11T70 26T28 124Q28 213 110 252T302 301V320Q302 371 295 397T271 434T224 444Q203 444 177 436T131 419T105 407L92 471Q98 474 120 483T177 502T247 511Q296 511 327 498T377 457Q435 510
523 510Q616 510 667 452T719 284Q719 259 716 242T711 221H442Q443 131 468 94T551 56Q585 56 611 70T652 102T667 122L712 87Q712 83 692 58T632 11T535 -11Q392 -11 336 85Q319 44 282 17T181 -11Q112 -11 70 26ZM595 286V309Q595 385 579 415T523 446Q495 446
479 432T453 384T442 286H595ZM265 56T282 93T304 183Q301 210 301 241V248Q235 241 201 216T166 141Q166 101 182 79T225 56Q265 56 282 93Z" />
<glyph unicode="&#xe7;" glyph-name="ccedilla" horiz-adv-x="446" d="M208 -251T187 -241T155 -219T145 -205L171 -176Q173 -178 179 -185T198 -198T226 -205Q276 -205 276 -148Q276 -124 261 -115T231 -102T216 -98L227 -9Q131 2 80 67T29 247Q29 369 93 440T270
511Q301 511 333 503T388 485T416 472L403 408Q398 411 378 419T332 436T285 444Q247 444 223 428T186 370T173 249Q173 138 201 97T281 56Q316 56 341 71T381 104T395 125L442 95Q442 90 425 64T369 14T271 -11L266 -58Q266 -59 290 -67T334 -96T355 -150Q355
-196 326 -223T241 -251Q208 -251 187 -241Z" />
<glyph unicode="&#xe8;" glyph-name="egrave" horiz-adv-x="474" d="M239 574L110 703L216 738L301 591L239 574ZM152 -11T91 50T29 241Q29 371 89 440T251 510Q344 510 395 452T447 284Q447 259 444 242T439 221H170Q171 131 196 94T279 56Q313 56 339 70T380
102T395 122L440 87Q440 83 420 58T360 11T263 -11Q152 -11 91 50ZM323 286V309Q323 385 307 415T251 446Q223 446 207 432T181 384T170 286H323Z" />
<glyph unicode="&#xe9;" glyph-name="eacute" horiz-adv-x="474" d="M262 569L205 578L275 730L383 699L262 569ZM152 -11T91 50T29 241Q29 371 89 440T251 510Q344 510 395 452T447 284Q447 259 444 242T439 221H170Q171 131 196 94T279 56Q313 56 339 70T380
102T395 122L440 87Q440 83 420 58T360 11T263 -11Q152 -11 91 50ZM323 286V309Q323 385 307 415T251 446Q223 446 207 432T181 384T170 286H323Z" />
<glyph unicode="&#xea;" glyph-name="ecircumflex" horiz-adv-x="474" d="M147 586L118 631L216 753H286L383 631L355 586L251 671L147 586ZM152 -11T91 50T29 241Q29 371 89 440T251 510Q344 510 395 452T447 284Q447 259 444 242T439 221H170Q171 131 196 94T279
56Q313 56 339 70T380 102T395 122L440 87Q440 83 420 58T360 11T263 -11Q152 -11 91 50ZM323 286V309Q323 385 307 415T251 446Q223 446 207 432T181 384T170 286H323Z" />
<glyph unicode="&#xeb;" glyph-name="edieresis" horiz-adv-x="474" d="M129 582T109 600Q89 620 89 652Q89 683 109 704Q129 721 155 721Q181 721 201 704Q221 681 221 652Q221 622 201 600Q182 582 155 582Q129 582 109 600ZM313 582T295 600Q275 620 275 652Q275
683 295 704Q314 721 341 721Q367 721 387 704Q407 681 407 652Q407 622 387 600Q368 582 341 582Q313 582 295 600ZM152 -11T91 50T29 241Q29 371 89 440T251 510Q344 510 395 452T447 284Q447 259 444 242T439 221H170Q171 131 196 94T279 56Q313 56 339 70T380
102T395 122L440 87Q440 83 420 58T360 11T263 -11Q152 -11 91 50ZM323 286V309Q323 385 307 415T251 446Q223 446 207 432T181 384T170 286H323Z" />
<glyph unicode="&#xec;" glyph-name="igrave" horiz-adv-x="253" d="M112 574L-17 703L89 738L174 591L112 574ZM60 0V500H193V0H60Z" />
<glyph unicode="&#xed;" glyph-name="iacute" horiz-adv-x="253" d="M135 569L78 578L148 730L256 699L135 569ZM60 0V500H193V0H60Z" />
<glyph unicode="&#xee;" glyph-name="icircumflex" horiz-adv-x="253" d="M24 586L-5 631L93 753H163L260 631L232 586L128 671L24 586ZM60 0V500H193V0H60Z" />
<glyph unicode="&#xef;" glyph-name="idieresis" horiz-adv-x="253" d="M6 582T-14 600Q-34 620 -34 652Q-34 683 -14 704Q6 721 32 721Q58 721 78 704Q98 681 98 652Q98 622 78 600Q59 582 32 582Q6 582 -14 600ZM190 582T172 600Q152 620 152 652Q152 683 172
704Q191 721 218 721Q244 721 264 704Q284 681 284 652Q284 622 264 600Q245 582 218 582Q190 582 172 600ZM60 0V500H193V0H60Z" />
<glyph unicode="&#xf0;" glyph-name="eth" horiz-adv-x="532" d="M154 -11T92 57T30 250Q30 374 87 442T248 510Q306 510 356 477Q336 564 291 623L200 572L182 614L261 659Q232 688 200 709L260 746Q302 725 332 699L411 744L430 702L366 666Q428 596 462 495T496
272Q496 132 437 61T263 -11Q154 -11 92 57ZM297 53T316 72T344 134T352 251Q352 357 333 401T263 445Q229 445 209 426T181 365T172 250Q172 176 180 134T209 72T263 53Q297 53 316 72Z" />
<glyph unicode="&#xf1;" glyph-name="ntilde" horiz-adv-x="538" d="M307 591T290 597T245 616Q224 627 208 633T174 639Q158 639 145 629T125 608T116 594L80 630Q80 634 95 657T137 700T203 720Q230 720 249 713T293 693Q314 683 327 678T355 673Q371 673 382
680T398 695T405 705L441 670Q441 666 429 646T392 609T329 591Q307 591 290 597ZM60 500H167L184 459H188Q188 461 204 474T252 498T329 510Q406 510 444 469T483 339V0H350V312Q350 379 336 403T283 427Q257 427 237 419T205 402T193 391V0H60V500Z" />
<glyph unicode="&#xf2;" glyph-name="ograve" horiz-adv-x="525" d="M238 574L109 703L215 738L300 591L238 574ZM150 -11T90 57T29 250Q29 375 89 443T262 511Q375 511 435 443T496 250Q496 126 434 58T262 -11Q150 -11 90 57ZM295 55T314 74T343 135T352 250Q352
323 343 365T315 425T262 444Q228 444 209 426T181 365T172 251Q172 178 181 136T209 74T262 55Q295 55 314 74Z" />
<glyph unicode="&#xf3;" glyph-name="oacute" horiz-adv-x="525" d="M261 569L204 578L274 730L382 699L261 569ZM150 -11T90 57T29 250Q29 375 89 443T262 511Q375 511 435 443T496 250Q496 126 434 58T262 -11Q150 -11 90 57ZM295 55T314 74T343 135T352 250Q352
323 343 365T315 425T262 444Q228 444 209 426T181 365T172 251Q172 178 181 136T209 74T262 55Q295 55 314 74Z" />
<glyph unicode="&#xf4;" glyph-name="ocircumflex" horiz-adv-x="525" d="M145 586L116 631L214 753H284L381 631L353 586L249 671L145 586ZM150 -11T90 57T29 250Q29 375 89 443T262 511Q375 511 435 443T496 250Q496 126 434 58T262 -11Q150 -11 90 57ZM295
55T314 74T343 135T352 250Q352 323 343 365T315 425T262 444Q228 444 209 426T181 365T172 251Q172 178 181 136T209 74T262 55Q295 55 314 74Z" />
<glyph unicode="&#xf5;" glyph-name="otilde" horiz-adv-x="525" d="M298 591T281 597T236 616Q215 627 199 633T165 639Q149 639 136 629T116 608T107 594L71 630Q71 634 86 657T128 700T194 720Q221 720 240 713T284 693Q305 683 318 678T346 673Q362 673 373
680T389 695T396 705L432 670Q432 666 420 646T383 609T320 591Q298 591 281 597ZM150 -11T90 57T29 250Q29 375 89 443T262 511Q375 511 435 443T496 250Q496 126 434 58T262 -11Q150 -11 90 57ZM295 55T314 74T343 135T352 250Q352 323 343 365T315 425T262 444Q228
444 209 426T181 365T172 251Q172 178 181 136T209 74T262 55Q295 55 314 74Z" />
<glyph unicode="&#xf6;" glyph-name="odieresis" horiz-adv-x="525" d="M128 582T108 600Q88 620 88 652Q88 683 108 704Q128 721 154 721Q180 721 200 704Q220 681 220 652Q220 622 200 600Q181 582 154 582Q128 582 108 600ZM312 582T294 600Q274 620 274 652Q274
683 294 704Q313 721 340 721Q366 721 386 704Q406 681 406 652Q406 622 386 600Q367 582 340 582Q312 582 294 600ZM150 -11T90 57T29 250Q29 375 89 443T262 511Q375 511 435 443T496 250Q496 126 434 58T262 -11Q150 -11 90 57ZM295 55T314 74T343 135T352 250Q352
323 343 365T315 425T262 444Q228 444 209 426T181 365T172 251Q172 178 181 136T209 74T262 55Q295 55 314 74Z" />
<glyph unicode="&#xf7;" glyph-name="divide" horiz-adv-x="524" d="M230 374T207 395Q183 419 183 454Q183 489 207 514Q230 535 263 535Q295 535 318 514Q342 489 342 454Q342 419 318 395Q296 374 263 374Q230 374 207 395ZM31 228V302H494V228H31ZM229 -4T206
17Q182 41 182 76Q182 111 206 136Q229 157 262 157Q295 157 317 136Q341 111 341 76Q341 41 317 17Q295 -4 262 -4Q229 -4 206 17Z" />
<glyph unicode="&#xf8;" glyph-name="oslash" horiz-adv-x="529" d="M71 -172L143 15Q87 44 58 104T29 250Q29 375 89 443T262 511Q298 511 333 503L390 650L448 639L386 481Q440 451 468 393T496 250Q496 126 434 58T262 -11Q232 -11 197 -4L128 -183L71 -172ZM306
433Q290 444 262 444Q228 444 209 426T181 365T172 251Q172 165 184 120L306 433ZM295 55T314 74T343 135T352 250Q352 327 342 368L223 63Q238 55 262 55Q295 55 314 74Z" />
<glyph unicode="&#xf9;" glyph-name="ugrave" horiz-adv-x="538" d="M258 574L129 703L235 738L320 591L258 574ZM133 -11T95 30T56 160V500H189V188Q189 122 205 97T257 72Q281 72 300 80T330 98T344 110V500H477V0H370L351 44H349Q349 42 333 28T286 1T210 -11Q133
-11 95 30Z" />
<glyph unicode="&#xfa;" glyph-name="uacute" horiz-adv-x="538" d="M281 569L224 578L294 730L402 699L281 569ZM133 -11T95 30T56 160V500H189V188Q189 122 205 97T257 72Q281 72 300 80T330 98T344 110V500H477V0H370L351 44H349Q349 42 333 28T286 1T210 -11Q133
-11 95 30Z" />
<glyph unicode="&#xfb;" glyph-name="ucircumflex" horiz-adv-x="538" d="M165 586L136 631L234 753H304L401 631L373 586L269 671L165 586ZM133 -11T95 30T56 160V500H189V188Q189 122 205 97T257 72Q281 72 300 80T330 98T344 110V500H477V0H370L351 44H349Q349
42 333 28T286 1T210 -11Q133 -11 95 30Z" />
<glyph unicode="&#xfc;" glyph-name="udieresis" horiz-adv-x="538" d="M148 582T128 600Q108 620 108 652Q108 683 128 704Q148 721 174 721Q200 721 220 704Q240 681 240 652Q240 622 220 600Q201 582 174 582Q148 582 128 600ZM332 582T314 600Q294 620 294
652Q294 683 314 704Q333 721 360 721Q386 721 406 704Q426 681 426 652Q426 622 406 600Q387 582 360 582Q332 582 314 600ZM133 -11T95 30T56 160V500H189V188Q189 122 205 97T257 72Q281 72 300 80T330 98T344 110V500H477V0H370L351 44H349Q349 42 333 28T286
1T210 -11Q133 -11 95 30Z" />
<glyph unicode="&#xfd;" glyph-name="yacute" horiz-adv-x="481" d="M263 569L206 578L276 730L384 699L263 569ZM77 -261T60 -258T33 -251T22 -246L33 -168Q37 -170 53 -174T85 -179Q130 -179 158 -144T220 -20L7 500H168L290 144L393 500H476L303 -11Q272 -96
245 -149T182 -231T100 -261Q77 -261 60 -258Z" />
<glyph unicode="&#xfe;" glyph-name="thorn" horiz-adv-x="543" d="M58 746L191 754V467H195Q195 469 208 481T248 504T315 515Q374 515 419 483T489 393T514 260Q514 136 459 61T305 -15Q235 -15 191 18V-250L58 -254V746ZM325 61T348 105T371 257Q371 326 362
365T331 420T275 437Q240 437 218 418T191 385V98Q191 96 200 87T226 69T270 61Q325 61 348 105Z" />
<glyph unicode="&#xff;" glyph-name="ydieresis" horiz-adv-x="481" d="M130 582T110 600Q90 620 90 652Q90 683 110 704Q130 721 156 721Q182 721 202 704Q222 681 222 652Q222 622 202 600Q182 582 156 582Q130 582 110 600ZM314 582T296 600Q276 620 276 652Q276
683 296 704Q315 721 342 721Q368 721 388 704Q408 681 408 652Q408 622 388 600Q369 582 342 582Q314 582 296 600ZM77 -261T60 -258T33 -251T22 -246L33 -168Q37 -170 53 -174T85 -179Q130 -179 158 -144T220 -20L7 500H168L290 144L393 500H476L303 -11Q272
-96 245 -149T182 -231T100 -261Q77 -261 60 -258Z" />
<glyph unicode="&#x2013;" glyph-name="endash" horiz-adv-x="524" d="M31 238V312H494V238H31Z" />
<glyph unicode="&#x2014;" glyph-name="emdash" horiz-adv-x="678" d="M31 238V312H648V238H31Z" />
<glyph unicode="&#x2018;" glyph-name="quoteleft" horiz-adv-x="181" d="M65 432T45 450Q41 453 35 461Q17 489 17 530Q17 588 49 653T129 758L164 721Q130 691 109 650T85 570H92Q120 570 140 553Q160 530 160 501Q160 472 140 450Q120 432 92 432Q65 432 45 450Z" />
<glyph unicode="&#x2019;" glyph-name="quoteright" horiz-adv-x="180" d="M13 468Q47 498 69 539T92 618H85Q57 618 37 636Q17 656 17 687Q17 719 37 739Q57 757 85 757Q112 757 133 739L136 735Q160 708 160 659Q160 601 128 536T48 431L13 468Z" />
<glyph unicode="&#x201a;" glyph-name="quotesinglbase" horiz-adv-x="180" d="M13 -133Q47 -103 69 -62T92 18H85Q57 18 37 35Q17 55 17 87Q17 118 37 138Q57 156 85 156Q112 156 133 138L137 133Q160 106 160 59Q160 2 128 -64T48 -170L13 -133Z" />
<glyph unicode="&#x201c;" glyph-name="quotedblleft" horiz-adv-x="368" d="M65 432T45 450Q41 453 35 461Q17 489 17 530Q17 588 49 653T129 758L164 721Q130 691 109 650T85 570H92Q120 570 140 553Q160 530 160 501Q160 472 140 450Q120 432 92 432Q65 432
45 450ZM252 432T232 450Q228 453 222 461Q204 490 204 530Q204 588 236 653T316 758L351 721Q317 691 296 650T272 570H279Q307 570 327 553Q347 530 347 501Q347 472 327 450Q308 432 279 432Q252 432 232 450Z" />
<glyph unicode="&#x201d;" glyph-name="quotedblright" horiz-adv-x="368" d="M13 468Q47 498 69 539T92 618H85Q57 618 37 636Q17 656 17 687Q17 719 37 739Q57 757 85 757Q112 757 133 739L136 735Q160 708 160 659Q160 601 128 536T48 431L13 468ZM200 468Q234
498 256 539T279 618H272Q243 618 224 636Q204 656 204 687Q204 719 224 739Q243 757 272 757Q299 757 320 739L323 735Q347 708 347 659Q347 601 315 536T235 431L200 468Z" />
<glyph unicode="&#x201e;" glyph-name="quotedblbase" horiz-adv-x="368" d="M13 -133Q47 -103 69 -62T92 18H85Q57 18 37 35Q17 55 17 87Q17 118 37 138Q57 156 85 156Q112 156 133 138L137 133Q160 106 160 59Q160 2 128 -64T48 -170L13 -133ZM200 -133Q234
-103 256 -62T279 18H272Q244 18 224 35Q204 55 204 87Q204 118 224 138Q244 156 272 156Q299 156 320 138L324 133Q347 106 347 59Q347 2 315 -64T235 -170L200 -133Z" />
<glyph unicode="&#x2022;" glyph-name="bullet" horiz-adv-x="380" d="M133 205T96 237Q78 255 69 279T60 330Q60 384 96 423Q131 454 182 454Q233 454 267 423Q304 383 304 330Q304 304 295 280T267 237Q250 221 228 213T182 205Q133 205 96 237Z" />
<glyph unicode="&#x2039;" glyph-name="guilsinglleft" horiz-adv-x="352" d="M256 59L79 250L257 436L291 399L202 249L291 98L256 59Z" />
<glyph unicode="&#x203a;" glyph-name="guilsinglright" horiz-adv-x="352" d="M95 59L59 95L149 245L60 397L96 436L271 245L95 59Z" />
</font>
</defs>
</svg>
