<?xml version="1.0" standalone="no"?>
<!DOCTYPE svg PUBLIC "-//W3C//DTD SVG 1.1//EN" "http://www.w3.org/Graphics/SVG/1.1/DTD/svg11.dtd">
<svg xmlns="http://www.w3.org/2000/svg">
<defs >
<font id="Arsenal" horiz-adv-x="522" ><font-face
    font-family="Arsenal"
    units-per-em="1000"
    panose-1="0 0 5 0 0 0 0 0 0 0"
    ascent="1000"
    descent="-254"
    alphabetic="0" />
<glyph unicode=" " glyph-name="space" horiz-adv-x="233" />
<glyph unicode="!" glyph-name="exclam" horiz-adv-x="276" d="M274 667L191 212H147L193 667L204 750H285L274 667ZM132 83T150 83Q169 83 181 71Q190 61 190 44Q190 20 172 3Q156 -9 138 -9Q119 -9 108 3Q98 15 98 30Q98 54 117 71Q132 83 150 83Z" />
<glyph unicode="&quot;" glyph-name="quotedbl" horiz-adv-x="299" d="M152 518H111L139 750L206 748L152 518ZM293 518H252L280 750L347 748L293 518Z" />
<glyph unicode="#" glyph-name="numbersign" horiz-adv-x="480" d="M410 431H492L485 389H396L350 259H467L461 218H336L288 80L255 90L299 218H195L151 91L119 101L160 218H80L86 259H174L219 389H104L110 431H234L282 568L314 558L269 431H374L418 557L451 547L410
431ZM209 259H314L359 389H255L209 259Z" />
<glyph unicode="$" glyph-name="dollar" horiz-adv-x="408" d="M86 160T99 144T138 114T201 100Q263 100 295 132T328 208Q328 233 315 249T284 275T232 299Q195 314 172 327T132 363T116 422Q116 482 156 522T262 573L284 700H326L315 575Q345 573 370 564T409
546T428 533L415 490Q411 493 396 503T356 524T304 534Q252 534 220 508T188 441Q188 405 212 387T287 348Q327 331 350 318T389 282T406 223Q406 159 364 113T242 58L223 -50H181L189 56Q143 59 114 75T70 108T56 128L86 163Q86 160 99 144Z" />
<glyph unicode="%" glyph-name="percent" horiz-adv-x="802" d="M432 443T409 393T344 315T245 286Q180 286 146 327T111 439Q111 504 134 555T199 634T298 663Q360 663 396 621T432 507Q432 443 409 393ZM279 2L237 12L608 641L649 631L279 2ZM373 565T352 593T292
621Q237 621 204 574T170 434Q170 384 190 356T250 328Q304 328 338 376T373 515Q373 565 352 593ZM783 143T760 93T695 15T596 -14Q531 -14 497 27T462 139Q462 204 485 255T550 334T649 363Q711 363 747 321T783 207Q783 143 760 93ZM724 265T703 293T643 321Q588
321 555 274T521 134Q521 84 541 56T601 28Q655 28 689 76T724 215Q724 265 703 293Z" />
<glyph unicode="&amp;" glyph-name="ampersand" horiz-adv-x="603" d="M485 313L461 138Q457 104 457 95Q457 61 470 49T511 36Q529 36 544 39T569 45T581 49L577 9Q575 7 564 3T532 -6T482 -10Q445 -10 423 3T392 47Q341 -10 250 -10Q159 -10 114 33T69 146Q69
222 114 270T223 337Q190 354 169 386T148 466Q148 522 173 566T243 634T350 659Q381 659 408 652T451 638T472 628L458 585Q455 587 442 594T407 607T360 614Q294 614 257 572T219 458Q219 410 244 383T302 356H425L478 500H512L491 356H620L614 313H485ZM288
313Q254 312 221 293T167 237T146 150Q146 99 176 68T267 36Q315 36 344 56T388 101Q390 124 392 134L416 313H288Z" />
<glyph unicode="&apos;" glyph-name="quotesingle" horiz-adv-x="158" d="M152 518H111L139 750L206 748L152 518Z" />
<glyph unicode="(" glyph-name="parenleft" horiz-adv-x="307" d="M365 713T327 654T250 498T193 272Q182 189 182 127Q182 41 196 -22T227 -124T244 -158L204 -179Q204 -185 179 -142T134 -26T114 144Q114 213 123 272Q142 409 188 510T282 673T330 728L365 707Q365
713 327 654Z" />
<glyph unicode=")" glyph-name="parenright" horiz-adv-x="307" d="M18 -164T56 -105T133 52T190 277Q200 351 200 419Q200 505 187 569T156 672T139 707L179 728Q179 734 204 691T249 575T269 405Q269 336 260 277Q241 140 195 39T100 -124T52 -179L18 -158Q18
-164 56 -105Z" />
<glyph unicode="*" glyph-name="asterisk" horiz-adv-x="393" d="M255 518L262 704H329L281 518L437 597L447 527L286 492L377 354L316 310L263 471L164 310L116 354L245 490L93 527L124 597L255 518Z" />
<glyph unicode="+" glyph-name="plus" horiz-adv-x="408" d="M269 301H416L409 254H263L239 80H194L218 254H70L77 301H224L249 475H294L269 301Z" />
<glyph unicode="," glyph-name="comma" horiz-adv-x="226" d="M106 98T124 98Q140 98 150 88L154 82Q160 70 160 52Q160 22 144 -19T101 -100T43 -163L25 -140Q61 -111 86 -65T115 18Q96 18 86 28Q78 38 78 52Q78 73 95 88Q106 98 124 98Z" />
<glyph unicode="-" glyph-name="hyphen" horiz-adv-x="297" d="M299 254H70L77 301H305L299 254Z" />
<glyph unicode="." glyph-name="period" horiz-adv-x="243" d="M113 83T131 83Q150 83 162 71Q171 61 171 44Q171 20 153 3Q137 -9 119 -9Q100 -9 89 3Q79 15 79 30Q79 54 98 71Q113 83 131 83Z" />
<glyph unicode="/" glyph-name="slash" horiz-adv-x="417" d="M537 750L22 -250H-34L482 750H537Z" />
<glyph unicode="0" glyph-name="zero" horiz-adv-x="562" d="M473 659T516 590T559 421Q559 291 523 194T423 43T284 -10Q190 -10 142 55T94 241Q94 428 163 543T369 659Q473 659 516 590ZM274 613T222 515T170 222Q170 131 201 84T290 36Q340 36 384 81T456 216T483
429Q483 511 456 562T363 613Q274 613 222 515Z" />
<glyph unicode="1" glyph-name="one" horiz-adv-x="369" d="M350 650L259 0H187L269 592L141 525L130 564L291 650H350Z" />
<glyph unicode="2" glyph-name="two" horiz-adv-x="475" d="M43 0L51 60Q77 69 165 144T327 318T400 506Q400 558 373 584T287 610Q254 610 222 598T165 571T141 555L140 602Q140 603 165 618T227 646T304 659Q392 659 436 619T481 511Q481 394 372 276T131 68H438L429
0H43Z" />
<glyph unicode="3" glyph-name="three" horiz-adv-x="475" d="M412 581H150L164 650H492L485 603L272 368Q284 371 300 371Q371 371 413 329T455 215Q455 147 425 96T341 18T221 -10Q165 -10 127 6T70 42T50 65L80 104Q80 102 98 85T147 53T219 38Q299 38 339
87T380 222Q380 271 354 299T277 328Q261 328 248 323T226 313T215 306L193 336L412 581Z" />
<glyph unicode="4" glyph-name="four" horiz-adv-x="492" d="M307 536T244 422T115 209H344L409 555H466L418 209H489L483 169L412 164L389 0H315L338 164H57L58 202Q111 284 174 411T285 659L353 650Q307 536 244 422Z" />
<glyph unicode="5" glyph-name="five" horiz-adv-x="465" d="M239 580L193 385Q230 398 267 398Q352 398 402 354T452 233Q452 160 418 105T326 20T199 -10Q146 -10 110 6T54 42T34 64L65 101Q65 98 81 82T127 52T199 38Q279 38 327 92T375 231Q375 288 343 322T255
356Q224 356 199 347T166 328L164 325L135 329L210 650H482L468 580H239Z" />
<glyph unicode="6" glyph-name="six" horiz-adv-x="517" d="M470 584T455 591T417 606T367 613Q219 613 172 346Q246 410 330 410Q411 410 456 366T501 244Q501 220 499 208Q490 147 460 98T381 19T266 -10Q178 -10 132 43T86 197Q86 258 100 323Q134 492 203
575T367 659Q398 659 425 652T470 636T491 625L474 581Q470 584 455 591ZM269 369T233 346T174 295Q171 285 167 259T162 203Q161 194 161 177Q161 107 189 71T273 34Q338 34 374 81T422 206Q425 227 425 245Q425 302 398 335T316 369Q269 369 233 346Z" />
<glyph unicode="7" glyph-name="seven" horiz-adv-x="421" d="M402 465T318 301T188 0H109Q155 129 237 275T421 578H122L132 650H493L485 590Q402 465 318 301Z" />
<glyph unicode="8" glyph-name="eight" horiz-adv-x="502" d="M513 438T470 395T365 332Q412 318 446 286T480 192Q480 91 419 41T250 -10Q165 -10 117 26T69 139Q69 220 115 266T228 333Q186 347 157 379T128 468Q128 556 187 607T343 659Q421 659 467 622T513
516Q513 438 470 395ZM204 408T230 383T290 349Q336 354 386 390T436 519Q436 568 411 593T337 618Q274 618 239 576T204 462Q204 408 230 383ZM400 252T370 279T302 314Q255 308 202 271T149 139Q149 85 177 58T256 31Q322 31 361 74T400 196Q400 252 370 279Z"
/>
<glyph unicode="9" glyph-name="nine" horiz-adv-x="517" d="M137 80T151 68T191 46T249 36Q317 36 365 102T436 296Q410 268 372 248T280 227Q199 227 153 273T106 398Q106 465 134 525T217 622T344 659Q430 659 476 606T522 455Q522 419 519 382T512 330Q480
161 414 76T251 -10Q208 -10 178 1T131 26T115 42L137 82Q137 80 151 68ZM344 268T383 296T437 355Q445 401 447 460V476Q447 546 421 580T340 615Q291 615 255 584T200 503T181 396Q181 341 208 305T290 268Q344 268 383 296Z" />
<glyph unicode=":" glyph-name="colon" horiz-adv-x="245" d="M166 462T184 462Q203 462 215 450Q224 440 224 423Q224 399 206 382Q190 370 172 370Q152 370 142 382Q132 394 132 409Q132 433 151 450Q166 462 184 462ZM113 83T131 83Q150 83 162 71Q171 61 171
44Q171 20 153 3Q137 -9 119 -9Q100 -9 89 3Q79 15 79 30Q79 54 98 71Q113 83 131 83Z" />
<glyph unicode=";" glyph-name="semicolon" horiz-adv-x="243" d="M166 462T184 462Q203 462 215 450Q224 440 224 423Q224 399 206 382Q190 370 172 370Q152 370 142 382Q132 394 132 409Q132 433 151 450Q166 462 184 462ZM116 98T134 98Q150 98 160 88L164
82Q170 70 170 52Q170 22 154 -19T111 -100T53 -163L35 -140Q71 -111 96 -65T125 18Q106 18 96 28Q88 38 88 52Q88 73 105 88Q116 98 134 98Z" />
<glyph unicode="&lt;" glyph-name="less" horiz-adv-x="368" d="M318 118L105 318L374 517L394 488L175 317L348 147L318 118Z" />
<glyph unicode="=" glyph-name="equal" horiz-adv-x="470" d="M485 349H84L91 396H492L485 349ZM458 159H57L64 206H465L458 159Z" />
<glyph unicode="&gt;" glyph-name="greater" horiz-adv-x="368" d="M140 517L352 318L84 118L63 147L281 318L111 488L140 517Z" />
<glyph unicode="?" glyph-name="question" horiz-adv-x="411" d="M136 709T157 722T212 747T290 759Q367 759 406 716T445 609Q445 555 430 521T391 466T327 419Q286 393 261 371T215 309T188 210L152 207Q158 274 176 317T218 384T278 435Q310 458 328 477T359
527T371 606Q371 654 345 683T268 713Q233 713 205 702T159 679T141 664L136 707Q136 709 157 722ZM139 83T157 83Q176 83 188 71Q197 61 197 44Q197 20 179 3Q163 -9 145 -9Q126 -9 115 3Q105 15 105 30Q105 54 124 71Q139 83 157 83Z" />
<glyph unicode="@" glyph-name="at" horiz-adv-x="831" d="M568 -13T548 -1T525 40Q507 18 478 2T408 -14Q343 -14 306 26T268 147Q268 221 295 280T370 374T478 408Q539 408 573 368L590 394H622L580 90Q578 72 578 67Q578 43 588 33T617 23Q651 23 685 54T744
157T768 346Q768 467 708 530T529 593Q410 593 323 537T188 372T140 113Q140 -34 210 -109T408 -185Q479 -185 532 -164T616 -118T648 -89L662 -125Q662 -129 630 -156T539 -206T401 -230Q242 -230 159 -143T75 107Q75 264 129 383T286 568T535 634Q677 634 752
559T827 347Q827 228 796 147T715 27T606 -13Q568 -13 548 -1ZM466 23T490 44T529 91L561 321Q555 340 537 356T480 372Q411 372 370 310T329 144Q329 84 354 54T427 23Q466 23 490 44Z" />
<glyph unicode="A" glyph-name="A" horiz-adv-x="568" d="M422 650L546 0H467L427 200H172L76 0H23L333 650H422ZM191 241H419L356 592L191 241Z" />
<glyph unicode="B" glyph-name="B" horiz-adv-x="542" d="M349 650Q439 650 486 612T533 510Q533 448 500 406T417 341Q466 327 494 293T522 208Q522 112 456 56T259 0H94L185 650H349ZM361 356T389 371T439 420T460 504Q460 555 428 580T341 606H254L219 356H338Q361
356 389 371ZM175 44H263Q354 44 400 87T447 211Q447 262 417 288T336 315H213L175 44Z" />
<glyph unicode="C" glyph-name="C" horiz-adv-x="570" d="M588 556T561 570T497 597T421 609Q350 609 293 569T201 449T167 256Q167 152 218 96T357 40Q410 40 451 61T517 108T542 137L565 105Q565 100 537 71T459 16T341 -10Q223 -10 155 61T87 258Q87 375 129
466T248 608T420 659Q466 659 506 647T574 619T602 602L588 555Q588 556 561 570Z" />
<glyph unicode="D" glyph-name="D" horiz-adv-x="634" d="M383 650Q505 650 571 582T637 385Q637 265 596 179T478 46T292 0H94L185 650H383ZM176 48H300Q419 48 488 134T557 393Q557 496 511 549T377 602H254L176 48Z" />
<glyph unicode="E" glyph-name="E" horiz-adv-x="507" d="M466 0H94L185 650H535L529 602H254L219 352H471L464 306H213L177 48H473L466 0Z" />
<glyph unicode="F" glyph-name="F" horiz-adv-x="464" d="M453 297H212L170 0H94L185 650H542L536 602H255L218 343H460L453 297Z" />
<glyph unicode="G" glyph-name="G" horiz-adv-x="620" d="M506 0L497 71Q428 -10 313 -10Q204 -10 146 59T87 255Q87 377 128 468T247 609T431 659Q477 659 518 647T587 619T615 602L599 555Q599 556 572 570T508 597T432 609Q305 609 236 518T167 255Q167 150
210 95T331 40Q407 40 446 77T499 148L520 295H387L394 338H590L543 0H506Z" />
<glyph unicode="H" glyph-name="H" horiz-adv-x="638" d="M543 0H467L510 312H213L170 0H94L185 650H261L220 358H517L558 650H634L543 0Z" />
<glyph unicode="I" glyph-name="I" horiz-adv-x="265" d="M170 0H94L185 650H261L170 0Z" />
<glyph unicode="J" glyph-name="J" horiz-adv-x="362" d="M31 70T40 62T67 46T110 38Q152 38 183 70T227 191L291 650H367L302 191Q286 79 240 35T126 -10Q89 -10 64 -1T27 20T15 33L31 71Q31 70 40 62Z" />
<glyph unicode="K" glyph-name="K" horiz-adv-x="580" d="M185 650H261L211 296L300 366L559 650H620L352 360L560 0H465L288 302L203 240L170 0H94L185 650Z" />
<glyph unicode="L" glyph-name="L" horiz-adv-x="471" d="M459 0H94L185 650H261L176 48H466L459 0Z" />
<glyph unicode="M" glyph-name="M" horiz-adv-x="835" d="M741 0H667L742 557L438 0H377L229 557L149 0H94L188 650H282L433 93H434L741 650H829L741 0Z" />
<glyph unicode="N" glyph-name="N" horiz-adv-x="651" d="M557 0H491L223 554H222L223 523L149 0H94L185 650H264L521 114V138L593 650H648L557 0Z" />
<glyph unicode="O" glyph-name="O" horiz-adv-x="654" d="M657 272T613 180T494 39T330 -10Q216 -10 152 62T88 260Q88 378 127 468T241 609T414 659Q536 659 596 585T657 395Q657 272 613 180ZM577 495T536 553T410 611Q337 611 282 570T197 447T167 249Q167
150 211 94T334 38Q400 38 455 78T544 201T577 403Q577 495 536 553Z" />
<glyph unicode="P" glyph-name="P" horiz-adv-x="496" d="M341 650Q430 650 478 608T527 481Q527 392 492 336T401 254T284 228H202L170 0H94L185 650H341ZM208 270H279Q352 270 399 320T447 482Q447 544 416 575T327 606H254L208 270Z" />
<glyph unicode="Q" glyph-name="Q" horiz-adv-x="654" d="M657 283T620 197T520 58T377 -6Q403 -55 437 -85T510 -116Q528 -116 546 -109L545 -149Q519 -159 490 -159Q430 -159 379 -118T302 -9Q200 0 144 70T88 260Q88 378 127 468T241 609T414 659Q536 659 596
585T657 395Q657 283 620 197ZM577 495T536 553T410 611Q337 611 282 570T197 447T167 249Q167 150 211 94T334 38Q400 38 455 78T544 201T577 403Q577 495 536 553Z" />
<glyph unicode="R" glyph-name="R" horiz-adv-x="539" d="M342 650Q431 650 480 608T529 485Q529 394 487 336T378 255L505 0H418L302 241H204L170 0H94L185 650H342ZM210 286H291Q448 286 448 486Q448 545 417 575T327 606H255L210 286Z" />
<glyph unicode="S" glyph-name="S" horiz-adv-x="490" d="M487 561T469 575T422 601T355 613Q292 613 255 580T217 489Q217 458 232 436T270 398T333 362Q378 338 405 319T452 270T471 195Q471 135 442 89T360 16T242 -10Q178 -10 137 10T76 53T57 81L87 120Q87
116 103 96T153 57T239 39Q311 39 351 78T392 175Q392 206 377 228T339 266T276 302Q232 325 205 343T159 392T140 465Q140 555 200 607T357 659Q401 659 433 647T483 620T502 603L487 559Q487 561 469 575Z" />
<glyph unicode="T" glyph-name="T" horiz-adv-x="461" d="M539 602H353L268 0H192L277 602H92L99 650H546L539 602Z" />
<glyph unicode="U" glyph-name="U" horiz-adv-x="620" d="M211 -10T162 37T112 169Q112 190 115 212L177 650H252L193 229Q190 205 190 184Q190 114 224 78T324 41Q403 41 451 90T511 229L570 650H625L563 212Q549 110 485 50T308 -10Q211 -10 162 37Z" />
<glyph unicode="V" glyph-name="V" horiz-adv-x="548" d="M227 0L106 650H185L291 56L566 650H622L315 0H227Z" />
<glyph unicode="W" glyph-name="W" horiz-adv-x="848" d="M922 650L656 0H586L502 556L264 0H194L106 650H186L255 87L493 650H560L643 90L866 650H922Z" />
<glyph unicode="X" glyph-name="X" horiz-adv-x="541" d="M271 322L117 650H209L331 378H332L538 650H601L358 335L523 0H430L299 279H298L85 0H18L271 322Z" />
<glyph unicode="Y" glyph-name="Y" horiz-adv-x="507" d="M178 650L312 330L535 650H596L330 273L293 0H217L254 269L93 650H178Z" />
<glyph unicode="Z" glyph-name="Z" horiz-adv-x="527" d="M570 609L139 48H492L485 0H40L46 40L476 602H134L140 650H576L570 609Z" />
<glyph unicode="[" glyph-name="bracketleft" horiz-adv-x="334" d="M313 -76H77L186 701H422L416 657H244L147 -31H319L313 -76Z" />
<glyph unicode="\" glyph-name="backslash" horiz-adv-x="417" d="M146 750L380 -250H325L91 750H146Z" />
<glyph unicode="]" glyph-name="bracketright" horiz-adv-x="334" d="M236 -76H0L7 -31H177L274 657H103L109 701H345L236 -76Z" />
<glyph unicode="^" glyph-name="asciicircum" horiz-adv-x="336" d="M375 520L347 494L255 623L127 494L107 520L263 687L375 520Z" />
<glyph unicode="_" glyph-name="underscore" horiz-adv-x="624" d="M569 -146H14L21 -99H576L569 -146Z" />
<glyph unicode="`" glyph-name="grave" horiz-adv-x="207" d="M154 724L217 581L175 573L90 708L154 724Z" />
<glyph unicode="a" glyph-name="a" horiz-adv-x="515" d="M383 0L379 58Q364 35 330 13T236 -10Q158 -10 112 43T66 191Q66 280 96 352T183 467T319 510Q374 510 401 491T436 457L453 500H511L441 0H383ZM307 39T337 62T382 106L426 409Q424 415 414 427T383 450T328
462Q237 462 190 388T142 186Q142 113 173 76T260 39Q307 39 337 62Z" />
<glyph unicode="b" glyph-name="b" horiz-adv-x="515" d="M252 752L208 441H210Q210 444 227 461T275 494T352 510Q429 510 474 457T520 310Q520 221 491 148T406 33T270 -10Q218 -10 189 6T146 39L127 0H74L179 748L252 752ZM158 82Q167 68 190 53T258 38Q349
38 396 112T444 318Q444 388 413 424T325 461Q288 461 261 445T218 411T202 390L201 392L158 82Z" />
<glyph unicode="c" glyph-name="c" horiz-adv-x="423" d="M448 423T430 434T386 456T331 466Q144 466 144 185Q144 108 179 71T274 34Q313 34 340 47T382 75T397 92L426 71Q426 67 408 47T353 8T262 -10Q171 -10 119 42T67 194Q67 340 133 425T325 510Q361 510
391 500T441 477T461 463L448 422Q448 423 430 434Z" />
<glyph unicode="d" glyph-name="d" horiz-adv-x="515" d="M379 0V58Q363 35 329 13T237 -10Q158 -10 112 44T66 193Q66 282 95 354T180 468T312 510Q353 510 380 500T419 477T432 462H433L473 748L547 752L441 0H379ZM307 39T338 63T383 108L426 417Q415 431 393
446T327 462Q233 462 187 388T141 185Q141 112 171 76T259 39Q307 39 338 63Z" />
<glyph unicode="e" glyph-name="e" horiz-adv-x="453" d="M432 66T412 46T354 8T262 -10Q174 -10 120 42T66 192Q66 286 97 358T185 470T316 510Q386 510 426 472T467 378Q467 285 386 256T187 226H142Q141 212 141 183Q141 108 177 71T275 34Q315 34 344 47T389
75T406 93L432 69Q432 66 412 46ZM243 467T201 414T146 264H189Q281 264 341 287T402 382Q402 419 377 443T307 467Q243 467 201 414Z" />
<glyph unicode="f" glyph-name="f" horiz-adv-x="312" d="M105 451L111 493L164 499L174 571Q188 668 224 713T332 759Q356 759 376 753T408 739T423 730L407 691Q405 693 396 698T371 709T338 714Q312 714 295 701T266 655T246 563L237 500H381L374 451H230L161
-41Q130 -260 -11 -260Q-35 -260 -50 -255T-73 -245T-82 -238L-61 -197Q-60 -198 -55 -202T-39 -209T-14 -213Q25 -213 50 -173T88 -41L157 451H105Z" />
<glyph unicode="g" glyph-name="g" horiz-adv-x="451" d="M338 510T367 500L498 499L494 460L427 458Q455 422 455 365Q455 265 400 210T252 155Q220 155 191 163Q151 142 151 109Q151 64 234 64Q436 64 436 -72Q436 -159 376 -209T205 -260Q110 -260 59 -223T8
-114Q8 -54 38 -17T114 36Q99 56 99 86Q99 143 155 179Q124 197 108 229T91 304Q91 410 150 460T301 510Q338 510 367 500ZM385 467T293 467Q234 467 198 429T161 300Q161 249 185 222T255 195Q317 195 351 239T385 369Q385 467 293 467ZM179 1T150 11Q112 -2 88
-31T63 -109Q63 -163 102 -189T211 -215Q288 -215 329 -183T370 -91Q370 -42 333 -21T223 1Q179 1 150 11Z" />
<glyph unicode="h" glyph-name="h" horiz-adv-x="510" d="M252 752L210 456H212Q212 458 231 472T283 498T360 510Q424 510 459 479T494 386Q494 369 491 349L443 0H370L417 340Q419 351 419 372Q419 416 397 436T331 457Q281 457 249 439T203 407L146 0H74L178
748L252 752Z" />
<glyph unicode="i" glyph-name="i" horiz-adv-x="221" d="M188 687T207 687Q225 687 235 677Q243 668 243 651Q243 629 226 612Q210 601 194 601Q176 601 167 612Q158 623 158 638Q158 649 162 659T176 676Q188 687 207 687ZM146 0H74L144 500H216L146 0Z" />
<glyph unicode="j" glyph-name="j" horiz-adv-x="238" d="M206 687T225 687Q243 687 253 677Q261 668 261 651Q261 629 244 612Q228 601 212 601Q194 601 185 612Q176 623 176 638Q176 649 180 659T194 676Q206 687 225 687ZM235 500L159 -41Q128 -260 -13 -260Q-37
-260 -52 -255T-75 -245T-84 -238L-63 -197Q-62 -198 -57 -202T-41 -209T-16 -213Q24 -213 48 -173T86 -41L162 500H235Z" />
<glyph unicode="k" glyph-name="k" horiz-adv-x="455" d="M178 748L252 752L184 270L252 313L427 500H482L288 295L433 0H349L226 252L177 224L146 0H74L178 748Z" />
<glyph unicode="l" glyph-name="l" horiz-adv-x="221" d="M147 0H74L179 748L252 752L147 0Z" />
<glyph unicode="m" glyph-name="m" horiz-adv-x="724" d="M204 500L206 448Q226 468 263 489T354 510Q395 510 419 495T452 448Q472 468 510 489T605 510Q659 510 684 487T710 410Q710 391 707 367L656 0H583L634 359Q637 379 637 393Q637 430 621 444T572 458Q531
458 500 438T456 401L453 368L401 0H329L379 359Q382 379 382 394Q382 430 367 444T319 458Q277 458 247 439T203 404L147 0H74L144 500H204Z" />
<glyph unicode="n" glyph-name="n" horiz-adv-x="511" d="M204 500L208 454Q264 510 361 510Q425 510 459 479T494 386Q494 369 491 349L443 0H370L418 340Q420 351 420 370Q420 457 329 457Q279 457 249 440T204 407L147 0H74L144 500H204Z" />
<glyph unicode="o" glyph-name="o" horiz-adv-x="501" d="M503 210T473 139T385 29T248 -10Q161 -10 114 44T67 196Q67 339 133 424T322 510Q409 510 456 456T503 304Q503 210 473 139ZM230 466T186 392T142 182Q142 112 170 73T257 34Q340 34 384 107T428 317Q428
388 400 427T314 466Q230 466 186 392Z" />
<glyph unicode="p" glyph-name="p" horiz-adv-x="515" d="M204 500L205 439Q220 461 256 485T354 510Q431 510 475 458T520 311Q520 221 491 148T406 33T274 -10Q233 -10 206 0T166 23T152 38H151L111 -250L39 -252L144 500H204ZM277 461T247 438T202 394L158
82Q167 69 190 54T257 38Q348 38 395 110T443 314Q443 389 412 425T324 461Q277 461 247 438Z" />
<glyph unicode="q" glyph-name="q" horiz-adv-x="515" d="M333 -252L377 60H375Q375 57 359 39T311 6T235 -10Q157 -10 112 43T66 191Q66 280 96 353T184 468T317 510Q366 510 395 495T437 463L459 500H511L406 -250L333 -252ZM299 39T326 54T368 86T383 107L427
417Q418 431 395 446T330 462Q238 462 190 390T142 187Q142 39 262 39Q299 39 326 54Z" />
<glyph unicode="r" glyph-name="r" horiz-adv-x="328" d="M367 442T342 448T296 454Q268 454 247 435T213 394T197 361V360L146 0H74L144 500H197L194 397Q194 402 208 431T247 485T309 510Q328 510 354 504T388 494L375 439Q367 442 342 448Z" />
<glyph unicode="s" glyph-name="s" horiz-adv-x="408" d="M77 94T90 78T129 48T192 34Q254 34 286 66T319 142Q319 167 306 183T275 209T223 233Q186 248 163 261T123 297T107 356Q107 427 160 468T295 510Q327 510 355 501T401 480T419 467L406 424Q402 427 387
437T347 458T295 468Q243 468 211 442T179 375Q179 339 203 321T278 282Q318 265 341 252T380 216T397 157Q397 112 375 74T309 13T198 -10Q145 -10 112 6T63 40T47 62L77 97Q77 94 90 78Z" />
<glyph unicode="t" glyph-name="t" horiz-adv-x="326" d="M228 451L186 152Q182 124 182 98Q182 65 192 52T226 38Q251 38 272 43T293 49L292 9Q290 7 279 3T247 -6T197 -10Q151 -10 129 12T107 86Q107 110 111 134L155 451H103L110 493L162 499L212 658H257L235
500H363L356 451H228Z" />
<glyph unicode="u" glyph-name="u" horiz-adv-x="510" d="M376 0L373 48Q315 -10 220 -10Q156 -10 121 22T86 116Q86 133 89 151L138 500H210L164 166Q161 148 161 133Q161 43 250 43Q286 43 314 54T359 79T376 94L434 500H507L436 0H376Z" />
<glyph unicode="v" glyph-name="v" horiz-adv-x="437" d="M84 500H170L241 79L438 500H494L251 0H185L84 500Z" />
<glyph unicode="w" glyph-name="w" horiz-adv-x="661" d="M715 500L511 0H447L387 405L212 0H147L85 500H166L203 92H204L380 500H437L504 92L659 500H715Z" />
<glyph unicode="x" glyph-name="x" horiz-adv-x="443" d="M299 261L430 0H345L241 216L72 0H12L213 249L90 500H176L271 291L428 500H487L299 261Z" />
<glyph unicode="y" glyph-name="y" horiz-adv-x="452" d="M0 -203T11 -206T36 -210Q82 -210 119 -161T210 -7L86 500H172L261 83L455 500H507L263 -7Q205 -128 153 -194T41 -260Q23 -260 10 -257T-9 -251T-17 -247L-3 -201Q0 -203 11 -206Z" />
<glyph unicode="z" glyph-name="z" horiz-adv-x="415" d="M440 460L127 45H379L375 0H35L41 40L355 455H121L124 500H445L440 460Z" />
<glyph unicode="{" glyph-name="braceleft" horiz-adv-x="375" d="M143 316Q164 316 189 330T232 373T250 442Q250 460 248 502Q246 546 246 565Q246 624 261 663T320 725T445 748L439 705Q362 705 335 669T308 562Q308 543 310 497Q312 455 312 436Q312 383 286
347T216 292Q246 279 263 255T281 200Q281 176 274 150T252 85Q237 45 230 17T222 -39Q222 -79 246 -100T323 -121L317 -164Q231 -164 195 -135T159 -50Q159 -17 167 14T192 89Q205 125 211 146T217 188Q217 211 204 229T172 258T135 268L141 306L143 316Z" />
<glyph unicode="|" glyph-name="bar" horiz-adv-x="292" d="M136 -250H86L227 750H277L136 -250Z" />
<glyph unicode="}" glyph-name="braceright" horiz-adv-x="375" d="M120 -121T146 -85T173 22Q173 41 171 87Q169 129 169 148Q169 201 195 238T265 292Q235 305 218 329T200 384Q200 408 207 434T229 499Q244 539 251 567T259 623Q259 663 236 684T159 705L165
748Q251 748 287 719T324 634Q324 601 316 570T291 495Q278 462 272 439T265 396Q265 373 278 355T310 326T346 316L344 306H345L340 268Q318 268 293 254T249 212T231 144Q231 125 233 81Q236 48 236 17Q236 -41 221 -80T162 -141T37 -164L43 -121Q120 -121 146
-85Z" />
<glyph unicode="~" glyph-name="asciitilde" horiz-adv-x="573" d="M593 350T577 325T529 277T451 254Q410 254 383 267T322 308Q290 333 265 345T205 358Q173 358 151 346T116 319T103 302L77 323Q77 328 95 355T147 405T233 429Q277 429 306 415T372 373Q402
349 425 337T480 325Q509 325 528 336T557 359T567 374L593 355Q593 350 577 325Z" />
<glyph unicode="&#xa0;" glyph-name="uni00A0" horiz-adv-x="233" />
<glyph unicode="&#xa1;" glyph-name="exclamdown" horiz-adv-x="276" d="M189 508T207 508Q226 508 238 496Q247 486 247 469Q247 445 229 428Q213 416 195 416Q176 416 165 428Q155 440 155 455Q155 479 174 496Q189 508 207 508ZM73 -167L156 288H200L154 -167L142
-250H61L73 -167Z" />
<glyph unicode="&#xa2;" glyph-name="cent" horiz-adv-x="423" d="M457 490T439 501T395 523T340 533Q153 533 153 252Q153 175 188 138T283 101Q322 101 349 114T391 142T406 159L435 138Q435 135 418 115T366 77T281 57L262 -50H220L229 60Q157 72 117 123T76
261Q76 397 133 480T300 575L322 700H364L354 576Q385 573 410 563T451 543T470 530L457 489Q457 490 439 501Z" />
<glyph unicode="&#xa3;" glyph-name="sterling" horiz-adv-x="508" d="M245 281Q233 206 215 154T164 67H496L486 0H46L56 67H93Q139 96 157 149T179 282L86 285L92 328H181Q183 417 190 478Q200 565 252 612T391 659Q418 659 445 651T490 634T513 622L495 579Q491
581 477 589T441 604T400 611Q344 611 313 580T271 479Q261 409 258 375L252 328H476L469 281H245Z" />
<glyph unicode="&#xa4;" glyph-name="currency" horiz-adv-x="540" d="M470 299T457 261T418 194L502 89L470 52L394 170Q348 133 291 133Q233 133 198 173L87 53L64 90L180 197Q160 234 160 285Q160 373 210 433L126 539L159 576L235 457Q281 495 339 495Q394
495 430 456L542 575L564 538L447 432Q470 393 470 343Q470 299 457 261ZM427 391T402 421T332 451Q276 451 240 407T203 289Q203 237 228 207T297 177Q333 177 362 197T409 254T427 339Q427 391 402 421Z" />
<glyph unicode="&#xa5;" glyph-name="yen" horiz-adv-x="563" d="M296 650L430 330L653 650H714L481 320H602L596 280H453L448 273L436 185H583L577 145H430L411 0H335L355 145H218L224 185H360L372 269L367 280H237L243 320H350L211 650H296Z" />
<glyph unicode="&#xa6;" glyph-name="brokenbar" horiz-adv-x="292" d="M220 350H170L227 750H277L220 350ZM136 -250H86L142 150H192L136 -250Z" />
<glyph unicode="&#xa7;" glyph-name="section" horiz-adv-x="486" d="M108 344T133 378T192 429Q172 455 172 493Q172 537 194 575T260 636T367 659Q400 659 428 649T476 626T495 612L481 572Q477 575 462 585T422 605T370 615Q305 615 275 582T244 507Q244 470
271 451T353 409Q397 392 422 378T466 340T485 277Q485 221 458 186T395 133Q414 108 414 72Q414 3 366 -43T218 -89Q171 -89 140 -75T93 -43T77 -23L100 14Q102 9 115 -5T153 -32T215 -45Q286 -45 314 -15T342 58Q342 93 317 112T238 152Q196 169 170 183T126
223T108 288Q108 344 133 378ZM162 282T178 263T217 231T280 204Q316 190 335 181T371 158Q432 186 432 256Q432 293 403 314T314 357Q308 359 286 368T246 386T216 405Q162 379 162 311Q162 282 178 263Z" />
<glyph unicode="&#xa8;" glyph-name="dieresis" horiz-adv-x="375" d="M157 684T172 684Q186 684 196 674Q204 666 204 651Q204 631 188 615Q175 605 161 605Q146 605 136 615Q128 625 128 638Q128 658 144 674Q157 684 172 684ZM311 684T325 684Q340 684 350
674Q358 664 358 651Q358 631 342 615Q329 605 314 605Q300 605 290 615Q282 625 282 638Q282 658 298 674Q311 684 325 684Z" />
<glyph unicode="&#xa9;" glyph-name="copyright" horiz-adv-x="729" d="M678 158T589 72T361 -14Q243 -14 178 64T113 272Q113 390 155 478T275 615T456 663Q574 663 639 589T705 387Q705 346 700 313Q678 158 589 72ZM666 352T666 381Q666 495 609 561T451 627Q362
627 295 585T190 463T153 276Q153 159 209 91T366 22Q484 22 562 97T661 312Q666 352 666 381ZM520 433T511 440T485 455T448 463Q387 463 351 420T314 297Q314 244 344 210T418 175Q446 175 464 186T492 210T502 225L517 205Q517 201 506 185T469 155T402 140Q364
140 332 160T281 215T261 297Q261 359 285 404T351 473T447 497Q473 497 492 489T523 472T535 461L522 430Q520 433 511 440Z" />
<glyph unicode="&#xaa;" glyph-name="ordfeminine" horiz-adv-x="389" d="M301 351T273 331T194 310Q142 310 116 332T90 395Q90 471 164 502T333 540L336 557Q338 575 338 583Q338 616 321 631T267 646Q239 646 216 637T178 617T163 605L150 629Q150 631 166
644T212 668T284 680Q344 680 373 656T403 581Q403 572 401 552L368 320H317L311 372Q301 351 273 331ZM256 347T276 360T305 389T315 408L329 511Q250 503 202 481T154 404Q154 347 225 347Q256 347 276 360Z" />
<glyph unicode="&#xab;" glyph-name="guillemotleft" horiz-adv-x="484" d="M187 249L274 101L248 74L118 250L297 421L316 395L187 249ZM349 249L436 101L410 74L280 250L459 421L478 395L349 249Z" />
<glyph unicode="&#xac;" glyph-name="logicalnot" horiz-adv-x="447" d="M410 128H367L390 295H95L101 341H440L410 128Z" />
<glyph unicode="&#xad;" glyph-name="uni00AD" horiz-adv-x="310" d="M305 254H76L83 301H311L305 254Z" />
<glyph unicode="&#xae;" glyph-name="registered" horiz-adv-x="617" d="M609 305T530 228T329 150Q225 150 168 221T111 408Q111 512 149 591T256 713T415 757Q518 757 576 689T634 508Q634 481 629 443Q609 305 530 228ZM594 471T594 504Q594 605 546 664T410
723Q331 723 272 684T182 574T150 410Q150 309 198 248T334 186Q438 186 505 252T590 442Q594 471 594 504ZM395 611Q497 611 497 536Q497 492 475 465T414 427L461 294H417L373 422H325L307 294H268L312 611H395ZM328 447H372Q407 447 430 467T453 535Q453 584
392 584H347L328 447Z" />
<glyph unicode="&#xaf;" glyph-name="overscore" horiz-adv-x="395" d="M379 636H194L199 672H384L379 636Z" />
<glyph unicode="&#xb0;" glyph-name="degree" horiz-adv-x="409" d="M446 542T423 492T358 414T259 385Q194 385 160 426T125 538Q125 603 148 654T213 733T312 762Q374 762 410 720T446 606Q446 542 423 492ZM387 664T366 692T306 720Q251 720 218 673T184 533Q184
483 204 455T264 427Q318 427 352 475T387 614Q387 664 366 692Z" />
<glyph unicode="&#xb1;" glyph-name="plusminus" horiz-adv-x="470" d="M336 549H483L476 502H330L306 328H261L285 502H137L144 549H291L316 723H361L336 549ZM457 151H56L63 198H464L457 151Z" />
<glyph unicode="&#xb2;" glyph-name="uni00B2" horiz-adv-x="377" d="M65 230L73 285Q95 293 159 351T277 485T330 633Q330 674 311 694T250 715Q231 715 210 706T173 686T153 673L148 711Q153 715 171 726T216 747T271 758Q337 758 369 724T402 634Q402 544 323
454T146 293H366L357 230H65Z" />
<glyph unicode="&#xb3;" glyph-name="uni00B3" horiz-adv-x="376" d="M350 687H160L171 750H420L414 707L255 525Q267 527 274 527Q324 527 355 493T386 403Q386 348 360 307T291 244T198 221Q156 221 130 229T91 246T79 258L100 294Q100 293 110 285T141 271T191
264Q249 264 285 303T321 410Q321 446 304 467T253 489Q241 489 232 486T216 478T209 473L189 500L350 687Z" />
<glyph unicode="&#xb4;" glyph-name="acute" horiz-adv-x="207" d="M295 706L175 571L138 576L234 721L295 706Z" />
<glyph unicode="&#xb5;" glyph-name="uni00B5" horiz-adv-x="517" d="M382 0L379 48Q321 -10 226 -10Q175 -10 144 9L136 -59Q122 -187 113 -250H39L92 128Q92 139 95 151L144 500H216L170 166Q167 148 167 133Q167 43 256 43Q292 43 320 54T365 79T382 94L440
500H513L442 0H382Z" />
<glyph unicode="&#xb6;" glyph-name="paragraph" horiz-adv-x="597" d="M575 595L492 0H431L514 595H419L336 0H276L310 244Q210 244 159 284T107 412Q107 530 173 590T382 650H641L633 595H575Z" />
<glyph unicode="&#xb7;" glyph-name="middot" horiz-adv-x="243" d="M155 383T173 383Q192 383 204 371Q213 361 213 344Q213 320 195 303Q179 291 161 291Q141 291 131 303Q121 315 121 330Q121 354 140 371Q155 383 173 383Z" />
<glyph unicode="&#xb8;" glyph-name="cedilla" horiz-adv-x="234" d="M115 -69Q115 -70 138 -76T180 -98T200 -145Q200 -192 170 -221T82 -251Q52 -251 33 -242T5 -222T-4 -209L16 -189Q17 -191 24 -199T44 -214T78 -221Q116 -221 135 -202T155 -146Q155 -120
136 -110T98 -97T79 -92L103 -3H132L115 -69Z" />
<glyph unicode="&#xb9;" glyph-name="uni00B9" horiz-adv-x="376" d="M347 750L274 230H208L272 690L176 632L165 674L293 750H347Z" />
<glyph unicode="&#xba;" glyph-name="ordmasculine" horiz-adv-x="419" d="M454 429T402 370T253 310Q179 310 141 349T103 460Q103 561 155 620T305 680Q379 680 416 641T454 529Q454 429 402 370ZM237 645T204 596T170 451Q170 399 192 371T257 343Q320 343
353 392T387 539Q387 590 365 617T299 645Q237 645 204 596Z" />
<glyph unicode="&#xbb;" glyph-name="guillemotright" horiz-adv-x="484" d="M143 421L273 244L95 74L75 100L204 244L117 394L143 421ZM305 421L435 244L257 74L237 100L366 244L279 394L305 421Z" />
<glyph unicode="&#xbc;" glyph-name="onequarter" horiz-adv-x="727" d="M347 750L274 230H208L272 690L176 632L165 674L293 750H347ZM255 0L222 20L604 582L636 561L255 0ZM530 178T485 86T396 -77H545L569 86L600 194H652L613 -77H663L658 -113L607 -119L589
-250H521L539 -119H345V-84Q381 -23 423 76T502 278L564 270Q530 178 485 86Z" />
<glyph unicode="&#xbd;" glyph-name="onehalf" horiz-adv-x="786" d="M347 750L274 230H208L272 690L176 632L165 674L293 750H347ZM255 0L222 20L604 582L636 561L255 0ZM388 -250L396 -195Q418 -187 482 -129T600 5T653 153Q653 194 634 214T573 235Q554 235
533 226T496 206T476 193L471 231Q476 235 494 246T540 267T595 278Q661 278 693 244T725 154Q725 64 647 -25T469 -187H689L680 -250H388Z" />
<glyph unicode="&#xbe;" glyph-name="threequarters" horiz-adv-x="775" d="M351 687H161L172 750H421L415 707L256 525Q268 527 275 527Q325 527 356 493T387 403Q387 348 361 307T292 244T199 221Q157 221 131 229T92 246T80 258L101 294Q101 293 111 285T142
271T192 264Q250 264 286 303T322 410Q322 446 305 467T254 489Q242 489 233 486T217 478T210 473L190 500L351 687ZM302 0L269 20L651 582L683 561L302 0ZM578 178T533 86T444 -77H593L617 86L648 194H700L661 -77H711L706 -113L655 -119L637 -250H569L587 -119H393V-84Q429
-23 471 76T550 278L612 270Q578 178 533 86Z" />
<glyph unicode="&#xbf;" glyph-name="questiondown" horiz-adv-x="411" d="M317 508T335 508Q354 508 366 496Q375 486 375 469Q375 445 357 428Q341 416 323 416Q304 416 293 428Q283 440 283 455Q283 479 302 496Q317 508 335 508ZM324 -209T311 -222T272 -248T209
-260Q122 -260 75 -219T27 -107Q27 -52 43 -17T84 39T150 85Q193 112 218 133T264 191T290 285L325 288Q318 221 300 179T259 115T200 68Q167 45 148 27T117 -23T104 -109Q104 -156 133 -185T222 -214Q247 -214 265 -206T293 -188T304 -177L324 -207Q324 -209 311
-222Z" />
<glyph unicode="&#xc0;" glyph-name="Agrave" horiz-adv-x="568" d="M349 859L412 716L370 708L285 843L349 859ZM422 650L546 0H467L427 200H172L76 0H23L333 650H422ZM191 241H419L356 592L191 241Z" />
<glyph unicode="&#xc1;" glyph-name="Aacute" horiz-adv-x="568" d="M503 841L383 706L346 711L442 856L503 841ZM422 650L546 0H467L427 200H172L76 0H23L333 650H422ZM191 241H419L356 592L191 241Z" />
<glyph unicode="&#xc2;" glyph-name="Acircumflex" horiz-adv-x="568" d="M509 764L486 732L390 829L267 732L252 764L377 878H417L509 764ZM422 650L546 0H467L427 200H172L76 0H23L333 650H422ZM191 241H419L356 592L191 241Z" />
<glyph unicode="&#xc3;" glyph-name="Atilde" horiz-adv-x="568" d="M551 779T539 766T507 742T459 730Q439 730 422 736T382 754Q358 765 343 770T311 776Q294 776 280 768T257 750T246 737L226 762Q226 764 240 780T278 811T331 825Q353 825 371 819T412 800Q432
790 446 785T477 779Q493 779 505 785T524 797T532 806L551 781Q551 779 539 766ZM422 650L546 0H467L427 200H172L76 0H23L333 650H422ZM191 241H419L356 592L191 241Z" />
<glyph unicode="&#xc4;" glyph-name="Adieresis" horiz-adv-x="568" d="M300 819T314 819Q329 819 339 809Q347 801 347 786Q347 766 331 750Q318 740 304 740Q289 740 279 750Q271 760 271 773Q271 793 287 809Q300 819 314 819ZM454 819T468 819Q483 819 493
809Q501 799 501 786Q501 766 485 750Q472 740 457 740Q443 740 433 750Q425 760 425 773Q425 793 441 809Q454 819 468 819ZM422 650L546 0H467L427 200H172L76 0H23L333 650H422ZM191 241H419L356 592L191 241Z" />
<glyph unicode="&#xc5;" glyph-name="Aring" horiz-adv-x="568" d="M473 743T444 715T371 686Q335 686 314 706T293 764Q293 815 322 844T396 873Q430 873 451 852T473 793Q473 743 444 715ZM445 818T431 832T393 846Q362 846 342 826T322 767Q322 740 336 726T375
712Q406 712 425 732T445 791Q445 818 431 832ZM422 650L546 0H467L427 200H172L76 0H23L333 650H422ZM191 241H419L356 592L191 241Z" />
<glyph unicode="&#xc6;" glyph-name="AE" horiz-adv-x="789" d="M823 650L817 602H541L506 352H758L751 306H500L464 48H760L753 0H381L409 205H189L45 0H-12L450 650H823ZM415 246L465 602H461L218 246H415Z" />
<glyph unicode="&#xc7;" glyph-name="Ccedilla" horiz-adv-x="570" d="M588 556T561 570T497 597T421 609Q350 609 293 569T201 449T167 256Q167 152 218 96T357 40Q410 40 451 61T517 108T542 137L565 105Q565 100 537 71T459 16T341 -10H336L321 -69Q321 -70
344 -76T386 -98T406 -145Q406 -192 376 -221T288 -251Q258 -251 239 -242T211 -222T202 -209L222 -189Q223 -191 230 -199T250 -214T284 -221Q322 -221 341 -202T361 -146Q361 -120 342 -110T304 -97T285 -92L307 -8Q204 2 146 72T87 258Q87 375 129 466T248 608T420
659Q466 659 506 647T574 619T602 602L588 555Q588 556 561 570Z" />
<glyph unicode="&#xc8;" glyph-name="Egrave" horiz-adv-x="507" d="M342 859L405 716L363 708L278 843L342 859ZM466 0H94L185 650H535L529 602H254L219 352H471L464 306H213L177 48H473L466 0Z" />
<glyph unicode="&#xc9;" glyph-name="Eacute" horiz-adv-x="507" d="M496 841L376 706L339 711L435 856L496 841ZM466 0H94L185 650H535L529 602H254L219 352H471L464 306H213L177 48H473L466 0Z" />
<glyph unicode="&#xca;" glyph-name="Ecircumflex" horiz-adv-x="507" d="M505 764L482 732L386 829L263 732L248 764L373 878H413L505 764ZM466 0H94L185 650H535L529 602H254L219 352H471L464 306H213L177 48H473L466 0Z" />
<glyph unicode="&#xcb;" glyph-name="Edieresis" horiz-adv-x="507" d="M282 819T296 819Q311 819 321 809Q329 801 329 786Q329 766 313 750Q300 740 286 740Q271 740 261 750Q253 760 253 773Q253 793 269 809Q282 819 296 819ZM436 819T450 819Q465 819 475
809Q483 799 483 786Q483 766 467 750Q454 740 439 740Q425 740 415 750Q407 760 407 773Q407 793 423 809Q436 819 450 819ZM466 0H94L185 650H535L529 602H254L219 352H471L464 306H213L177 48H473L466 0Z" />
<glyph unicode="&#xcc;" glyph-name="Igrave" horiz-adv-x="265" d="M192 859L255 716L213 708L128 843L192 859ZM170 0H94L185 650H261L170 0Z" />
<glyph unicode="&#xcd;" glyph-name="Iacute" horiz-adv-x="265" d="M347 841L227 706L190 711L286 856L347 841ZM170 0H94L185 650H261L170 0Z" />
<glyph unicode="&#xce;" glyph-name="Icircumflex" horiz-adv-x="265" d="M356 764L333 732L237 829L114 732L99 764L224 878H264L356 764ZM170 0H94L185 650H261L170 0Z" />
<glyph unicode="&#xcf;" glyph-name="Idieresis" horiz-adv-x="265" d="M144 819T158 819Q173 819 183 809Q191 801 191 786Q191 766 175 750Q162 740 148 740Q133 740 123 750Q115 760 115 773Q115 793 131 809Q144 819 158 819ZM298 819T312 819Q327 819 337
809Q345 799 345 786Q345 766 329 750Q316 740 301 740Q287 740 277 750Q269 760 269 773Q269 793 285 809Q298 819 312 819ZM170 0H94L185 650H261L170 0Z" />
<glyph unicode="&#xd0;" glyph-name="Eth" horiz-adv-x="638" d="M67 302L74 344H142L185 650H383Q505 650 571 582T637 385Q637 265 596 179T478 46T292 0H94L136 302H67ZM218 344H407L401 302H212L176 48H300Q419 48 488 134T557 393Q557 496 511 549T377 602H254L218
344Z" />
<glyph unicode="&#xd1;" glyph-name="Ntilde" horiz-adv-x="651" d="M595 779T583 766T551 742T503 730Q483 730 466 736T426 754Q402 765 387 770T355 776Q338 776 324 768T301 750T290 737L270 762Q270 764 284 780T322 811T375 825Q397 825 415 819T456 800Q476
790 490 785T521 779Q537 779 549 785T568 797T576 806L595 781Q595 779 583 766ZM557 0H491L223 554H222L223 523L149 0H94L185 650H264L521 114V138L593 650H648L557 0Z" />
<glyph unicode="&#xd2;" glyph-name="Ograve" horiz-adv-x="654" d="M387 859L450 716L408 708L323 843L387 859ZM657 272T613 180T494 39T330 -10Q216 -10 152 62T88 260Q88 378 127 468T241 609T414 659Q536 659 596 585T657 395Q657 272 613 180ZM577 495T536
553T410 611Q337 611 282 570T197 447T167 249Q167 150 211 94T334 38Q400 38 455 78T544 201T577 403Q577 495 536 553Z" />
<glyph unicode="&#xd3;" glyph-name="Oacute" horiz-adv-x="654" d="M541 841L421 706L384 711L480 856L541 841ZM657 272T613 180T494 39T330 -10Q216 -10 152 62T88 260Q88 378 127 468T241 609T414 659Q536 659 596 585T657 395Q657 272 613 180ZM577 495T536
553T410 611Q337 611 282 570T197 447T167 249Q167 150 211 94T334 38Q400 38 455 78T544 201T577 403Q577 495 536 553Z" />
<glyph unicode="&#xd4;" glyph-name="Ocircumflex" horiz-adv-x="654" d="M551 764L528 732L432 829L309 732L294 764L419 878H459L551 764ZM657 272T613 180T494 39T330 -10Q216 -10 152 62T88 260Q88 378 127 468T241 609T414 659Q536 659 596 585T657 395Q657
272 613 180ZM577 495T536 553T410 611Q337 611 282 570T197 447T167 249Q167 150 211 94T334 38Q400 38 455 78T544 201T577 403Q577 495 536 553Z" />
<glyph unicode="&#xd5;" glyph-name="Otilde" horiz-adv-x="654" d="M590 779T578 766T546 742T498 730Q478 730 461 736T421 754Q397 765 382 770T350 776Q333 776 319 768T296 750T285 737L265 762Q265 764 279 780T317 811T370 825Q392 825 410 819T451 800Q471
790 485 785T516 779Q532 779 544 785T563 797T571 806L590 781Q590 779 578 766ZM657 272T613 180T494 39T330 -10Q216 -10 152 62T88 260Q88 378 127 468T241 609T414 659Q536 659 596 585T657 395Q657 272 613 180ZM577 495T536 553T410 611Q337 611 282 570T197
447T167 249Q167 150 211 94T334 38Q400 38 455 78T544 201T577 403Q577 495 536 553Z" />
<glyph unicode="&#xd6;" glyph-name="Odieresis" horiz-adv-x="654" d="M339 819T354 819Q368 819 378 809Q386 801 386 786Q386 766 370 750Q357 740 343 740Q328 740 318 750Q310 760 310 773Q310 793 326 809Q339 819 354 819ZM493 819T507 819Q522 819 532
809Q540 799 540 786Q540 766 524 750Q511 740 496 740Q482 740 472 750Q464 760 464 773Q464 793 480 809Q493 819 507 819ZM657 272T613 180T494 39T330 -10Q216 -10 152 62T88 260Q88 378 127 468T241 609T414 659Q536 659 596 585T657 395Q657 272 613 180ZM577
495T536 553T410 611Q337 611 282 570T197 447T167 249Q167 150 211 94T334 38Q400 38 455 78T544 201T577 403Q577 495 536 553Z" />
<glyph unicode="&#xd7;" glyph-name="multiply" horiz-adv-x="353" d="M253 320L340 198L305 161L217 283L95 161L68 198L190 320L103 442L139 480L227 357L350 480L375 442L253 320Z" />
<glyph unicode="&#xd8;" glyph-name="Oslash" horiz-adv-x="654" d="M657 272T613 180T494 39T330 -10Q273 -10 229 8L170 -101L144 -95L205 19Q149 50 119 112T88 260Q88 378 127 468T241 609T414 659Q483 659 537 632L589 728L615 722L559 619Q608 585 632 527T657
395Q657 272 613 180ZM167 188T184 143T233 71L509 580Q468 611 410 611Q337 611 282 570T197 447T167 249Q167 188 184 143ZM577 506T528 562L255 56Q288 38 334 38Q400 38 455 78T544 201T577 403Q577 506 528 562Z" />
<glyph unicode="&#xd9;" glyph-name="Ugrave" horiz-adv-x="620" d="M387 859L450 716L408 708L323 843L387 859ZM211 -10T162 37T112 169Q112 190 115 212L177 650H252L193 229Q190 205 190 184Q190 114 224 78T324 41Q403 41 451 90T511 229L570 650H625L563
212Q549 110 485 50T308 -10Q211 -10 162 37Z" />
<glyph unicode="&#xda;" glyph-name="Uacute" horiz-adv-x="620" d="M522 841L402 706L365 711L461 856L522 841ZM211 -10T162 37T112 169Q112 190 115 212L177 650H252L193 229Q190 205 190 184Q190 114 224 78T324 41Q403 41 451 90T511 229L570 650H625L563
212Q549 110 485 50T308 -10Q211 -10 162 37Z" />
<glyph unicode="&#xdb;" glyph-name="Ucircumflex" horiz-adv-x="620" d="M544 764L521 732L425 829L302 732L287 764L412 878H452L544 764ZM211 -10T162 37T112 169Q112 190 115 212L177 650H252L193 229Q190 205 190 184Q190 114 224 78T324 41Q403 41 451 90T511
229L570 650H625L563 212Q549 110 485 50T308 -10Q211 -10 162 37Z" />
<glyph unicode="&#xdc;" glyph-name="Udieresis" horiz-adv-x="620" d="M334 819T348 819Q363 819 373 809Q381 801 381 786Q381 766 365 750Q352 740 338 740Q323 740 313 750Q305 760 305 773Q305 793 321 809Q334 819 348 819ZM488 819T502 819Q517 819 527
809Q535 799 535 786Q535 766 519 750Q506 740 491 740Q477 740 467 750Q459 760 459 773Q459 793 475 809Q488 819 502 819ZM211 -10T162 37T112 169Q112 190 115 212L177 650H252L193 229Q190 205 190 184Q190 114 224 78T324 41Q403 41 451 90T511 229L570 650H625L563
212Q549 110 485 50T308 -10Q211 -10 162 37Z" />
<glyph unicode="&#xdd;" glyph-name="Yacute" horiz-adv-x="507" d="M485 841L365 706L328 711L424 856L485 841ZM178 650L312 330L535 650H596L330 273L293 0H217L254 269L93 650H178Z" />
<glyph unicode="&#xde;" glyph-name="Thorn" horiz-adv-x="514" d="M341 541Q429 541 477 498T525 370Q525 279 489 221T398 136T281 109H196L181 0H106L197 650H272L257 541H341ZM203 154H281Q354 154 401 204T449 369Q449 433 419 464T330 495H250L203 154Z" />
<glyph unicode="&#xdf;" glyph-name="germandbls" horiz-adv-x="547" d="M183 653T238 706T380 759Q450 759 489 727T528 639Q528 578 494 541T409 485Q549 452 549 290Q549 143 488 67T316 -10Q279 -10 256 -4T221 8T210 16L227 58Q228 56 236 51T261 41T304
36Q382 36 427 102T473 296Q473 378 435 415T312 452L314 460L318 500Q318 497 356 508T424 550T455 634Q455 672 433 693T370 714Q316 714 285 673T241 547L159 -41Q128 -260 -13 -260Q-37 -260 -52 -255T-75 -245T-84 -238L-63 -197Q-62 -198 -57 -202T-41 -209T-16
-213Q23 -213 48 -173T86 -41L168 547Q183 653 238 706Z" />
<glyph unicode="&#xe0;" glyph-name="agrave" horiz-adv-x="515" d="M324 724L387 581L345 573L260 708L324 724ZM383 0L379 58Q364 35 330 13T236 -10Q158 -10 112 43T66 191Q66 280 96 352T183 467T319 510Q374 510 401 491T436 457L453 500H511L441 0H383ZM307
39T337 62T382 106L426 409Q424 415 414 427T383 450T328 462Q237 462 190 388T142 186Q142 113 173 76T260 39Q307 39 337 62Z" />
<glyph unicode="&#xe1;" glyph-name="aacute" horiz-adv-x="515" d="M479 706L359 571L322 576L418 721L479 706ZM383 0L379 58Q364 35 330 13T236 -10Q158 -10 112 43T66 191Q66 280 96 352T183 467T319 510Q374 510 401 491T436 457L453 500H511L441 0H383ZM307
39T337 62T382 106L426 409Q424 415 414 427T383 450T328 462Q237 462 190 388T142 186Q142 113 173 76T260 39Q307 39 337 62Z" />
<glyph unicode="&#xe2;" glyph-name="acircumflex" horiz-adv-x="515" d="M489 629L466 597L370 694L247 597L232 629L357 743H397L489 629ZM383 0L379 58Q364 35 330 13T236 -10Q158 -10 112 43T66 191Q66 280 96 352T183 467T319 510Q374 510 401 491T436 457L453
500H511L441 0H383ZM307 39T337 62T382 106L426 409Q424 415 414 427T383 450T328 462Q237 462 190 388T142 186Q142 113 173 76T260 39Q307 39 337 62Z" />
<glyph unicode="&#xe3;" glyph-name="atilde" horiz-adv-x="515" d="M528 644T516 631T484 607T436 595Q416 595 399 601T359 619Q335 630 320 635T288 641Q271 641 257 633T234 615T223 602L203 627Q203 629 217 645T255 676T308 690Q330 690 348 684T389 665Q409
655 423 650T454 644Q470 644 482 650T501 662T509 671L528 646Q528 644 516 631ZM383 0L379 58Q364 35 330 13T236 -10Q158 -10 112 43T66 191Q66 280 96 352T183 467T319 510Q374 510 401 491T436 457L453 500H511L441 0H383ZM307 39T337 62T382 106L426 409Q424
415 414 427T383 450T328 462Q237 462 190 388T142 186Q142 113 173 76T260 39Q307 39 337 62Z" />
<glyph unicode="&#xe4;" glyph-name="adieresis" horiz-adv-x="515" d="M277 684T292 684Q306 684 316 674Q324 666 324 651Q324 631 308 615Q295 605 281 605Q266 605 256 615Q248 625 248 638Q248 658 264 674Q277 684 292 684ZM431 684T445 684Q460 684 470
674Q478 664 478 651Q478 631 462 615Q449 605 434 605Q420 605 410 615Q402 625 402 638Q402 658 418 674Q431 684 445 684ZM383 0L379 58Q364 35 330 13T236 -10Q158 -10 112 43T66 191Q66 280 96 352T183 467T319 510Q374 510 401 491T436 457L453 500H511L441
0H383ZM307 39T337 62T382 106L426 409Q424 415 414 427T383 450T328 462Q237 462 190 388T142 186Q142 113 173 76T260 39Q307 39 337 62Z" />
<glyph unicode="&#xe5;" glyph-name="aring" horiz-adv-x="515" d="M453 608T424 580T351 551Q315 551 294 571T273 629Q273 680 302 709T376 738Q410 738 431 717T453 658Q453 608 424 580ZM425 683T411 697T373 711Q342 711 322 691T302 632Q302 605 316 591T355
577Q386 577 405 597T425 656Q425 683 411 697ZM383 0L379 58Q364 35 330 13T236 -10Q158 -10 112 43T66 191Q66 280 96 352T183 467T319 510Q374 510 401 491T436 457L453 500H511L441 0H383ZM307 39T337 62T382 106L426 409Q424 415 414 427T383 450T328 462Q237
462 190 388T142 186Q142 113 173 76T260 39Q307 39 337 62Z" />
<glyph unicode="&#xe6;" glyph-name="ae" horiz-adv-x="742" d="M721 66T701 46T643 8T551 -10Q499 -10 457 9T389 65Q376 43 342 17T244 -10Q160 -10 113 42T66 191Q66 281 96 353T186 468T330 510Q387 510 415 490T453 453Q516 510 605 510Q675 510 715 472T756
378Q756 285 675 256T476 226H431Q430 212 430 183Q430 108 466 71T564 34Q604 34 633 47T678 75T695 93L721 69Q721 66 701 46ZM532 467T490 414T435 264H478Q570 264 630 287T691 382Q691 419 666 443T596 467Q532 467 490 414ZM302 39T330 55T374 93Q355 132
355 192Q355 261 372 318T421 418Q409 435 387 448T328 462Q237 462 190 388T142 186Q142 113 173 76T262 39Q302 39 330 55Z" />
<glyph unicode="&#xe7;" glyph-name="ccedilla" horiz-adv-x="423" d="M448 423T430 434T386 456T331 466Q144 466 144 185Q144 108 179 71T274 34Q313 34 340 47T382 75T397 92L426 71Q426 67 408 47T353 8T262 -10H259L244 -69Q244 -70 267 -76T309 -98T329
-145Q329 -192 299 -221T211 -251Q181 -251 162 -242T134 -222T125 -209L145 -189Q146 -191 153 -199T173 -214T207 -221Q245 -221 264 -202T284 -146Q284 -120 265 -110T227 -97T208 -92L230 -8Q153 0 110 52T67 194Q67 340 133 425T325 510Q361 510 391 500T441
477T461 463L448 422Q448 423 430 434Z" />
<glyph unicode="&#xe8;" glyph-name="egrave" horiz-adv-x="453" d="M294 724L357 581L315 573L230 708L294 724ZM432 66T412 46T354 8T262 -10Q174 -10 120 42T66 192Q66 286 97 358T185 470T316 510Q386 510 426 472T467 378Q467 285 386 256T187 226H142Q141
212 141 183Q141 108 177 71T275 34Q315 34 344 47T389 75T406 93L432 69Q432 66 412 46ZM243 467T201 414T146 264H189Q281 264 341 287T402 382Q402 419 377 443T307 467Q243 467 201 414Z" />
<glyph unicode="&#xe9;" glyph-name="eacute" horiz-adv-x="453" d="M449 706L329 571L292 576L388 721L449 706ZM432 66T412 46T354 8T262 -10Q174 -10 120 42T66 192Q66 286 97 358T185 470T316 510Q386 510 426 472T467 378Q467 285 386 256T187 226H142Q141
212 141 183Q141 108 177 71T275 34Q315 34 344 47T389 75T406 93L432 69Q432 66 412 46ZM243 467T201 414T146 264H189Q281 264 341 287T402 382Q402 419 377 443T307 467Q243 467 201 414Z" />
<glyph unicode="&#xea;" glyph-name="ecircumflex" horiz-adv-x="453" d="M459 629L436 597L340 694L217 597L202 629L327 743H367L459 629ZM432 66T412 46T354 8T262 -10Q174 -10 120 42T66 192Q66 286 97 358T185 470T316 510Q386 510 426 472T467 378Q467 285
386 256T187 226H142Q141 212 141 183Q141 108 177 71T275 34Q315 34 344 47T389 75T406 93L432 69Q432 66 412 46ZM243 467T201 414T146 264H189Q281 264 341 287T402 382Q402 419 377 443T307 467Q243 467 201 414Z" />
<glyph unicode="&#xeb;" glyph-name="edieresis" horiz-adv-x="453" d="M246 684T260 684Q275 684 285 674Q293 666 293 651Q293 631 277 615Q264 605 250 605Q235 605 225 615Q217 625 217 638Q217 658 233 674Q246 684 260 684ZM400 684T414 684Q429 684 439
674Q447 664 447 651Q447 631 431 615Q418 605 403 605Q389 605 379 615Q371 625 371 638Q371 658 387 674Q400 684 414 684ZM432 66T412 46T354 8T262 -10Q174 -10 120 42T66 192Q66 286 97 358T185 470T316 510Q386 510 426 472T467 378Q467 285 386 256T187
226H142Q141 212 141 183Q141 108 177 71T275 34Q315 34 344 47T389 75T406 93L432 69Q432 66 412 46ZM243 467T201 414T146 264H189Q281 264 341 287T402 382Q402 419 377 443T307 467Q243 467 201 414Z" />
<glyph unicode="&#xec;" glyph-name="igrave" horiz-adv-x="221" d="M160 724L223 581L181 573L96 708L160 724ZM146 0H74L144 500H216L146 0Z" />
<glyph unicode="&#xed;" glyph-name="iacute" horiz-adv-x="221" d="M315 706L195 571L158 576L254 721L315 706ZM146 0H74L144 500H216L146 0Z" />
<glyph unicode="&#xee;" glyph-name="icircumflex" horiz-adv-x="221" d="M327 629L304 597L208 694L85 597L70 629L195 743H235L327 629ZM146 0H74L144 500H216L146 0Z" />
<glyph unicode="&#xef;" glyph-name="idieresis" horiz-adv-x="221" d="M114 684T128 684Q143 684 153 674Q161 666 161 651Q161 631 145 615Q132 605 118 605Q103 605 93 615Q85 625 85 638Q85 658 101 674Q114 684 128 684ZM268 684T282 684Q297 684 307 674Q315
664 315 651Q315 631 299 615Q286 605 271 605Q257 605 247 615Q239 625 239 638Q239 658 255 674Q268 684 282 684ZM146 0H74L144 500H216L146 0Z" />
<glyph unicode="&#xf0;" glyph-name="eth" horiz-adv-x="508" d="M68 294T98 365T184 473T315 510Q384 510 430 464Q414 577 347 652L225 588L216 614L327 673Q302 697 273 718L314 740Q348 719 374 697L460 743L469 717L395 678Q448 624 476 543T504 341Q504
309 503 292Q495 151 429 71T249 -10Q159 -10 114 45T68 194Q68 294 98 365ZM231 467T187 394T143 183Q143 110 171 72T256 33Q339 33 383 105T428 312Q428 383 399 425T314 467Q231 467 187 394Z" />
<glyph unicode="&#xf1;" glyph-name="ntilde" horiz-adv-x="511" d="M498 644T486 631T454 607T406 595Q386 595 369 601T329 619Q305 630 290 635T258 641Q241 641 227 633T204 615T193 602L173 627Q173 629 187 645T225 676T278 690Q300 690 318 684T359 665Q379
655 393 650T424 644Q440 644 452 650T471 662T479 671L498 646Q498 644 486 631ZM204 500L208 454Q264 510 361 510Q425 510 459 479T494 386Q494 369 491 349L443 0H370L418 340Q420 351 420 370Q420 457 329 457Q279 457 249 440T204 407L147 0H74L144 500H204Z"
/>
<glyph unicode="&#xf2;" glyph-name="ograve" horiz-adv-x="501" d="M296 724L359 581L317 573L232 708L296 724ZM503 210T473 139T385 29T248 -10Q161 -10 114 44T67 196Q67 339 133 424T322 510Q409 510 456 456T503 304Q503 210 473 139ZM230 466T186 392T142
182Q142 112 170 73T257 34Q340 34 384 107T428 317Q428 388 400 427T314 466Q230 466 186 392Z" />
<glyph unicode="&#xf3;" glyph-name="oacute" horiz-adv-x="501" d="M451 706L331 571L294 576L390 721L451 706ZM503 210T473 139T385 29T248 -10Q161 -10 114 44T67 196Q67 339 133 424T322 510Q409 510 456 456T503 304Q503 210 473 139ZM230 466T186 392T142
182Q142 112 170 73T257 34Q340 34 384 107T428 317Q428 388 400 427T314 466Q230 466 186 392Z" />
<glyph unicode="&#xf4;" glyph-name="ocircumflex" horiz-adv-x="501" d="M461 629L438 597L342 694L219 597L204 629L329 743H369L461 629ZM503 210T473 139T385 29T248 -10Q161 -10 114 44T67 196Q67 339 133 424T322 510Q409 510 456 456T503 304Q503 210 473
139ZM230 466T186 392T142 182Q142 112 170 73T257 34Q340 34 384 107T428 317Q428 388 400 427T314 466Q230 466 186 392Z" />
<glyph unicode="&#xf5;" glyph-name="otilde" horiz-adv-x="501" d="M500 644T488 631T456 607T408 595Q388 595 371 601T331 619Q307 630 292 635T260 641Q243 641 229 633T206 615T195 602L175 627Q175 629 189 645T227 676T280 690Q302 690 320 684T361 665Q381
655 395 650T426 644Q442 644 454 650T473 662T481 671L500 646Q500 644 488 631ZM503 210T473 139T385 29T248 -10Q161 -10 114 44T67 196Q67 339 133 424T322 510Q409 510 456 456T503 304Q503 210 473 139ZM230 466T186 392T142 182Q142 112 170 73T257 34Q340
34 384 107T428 317Q428 388 400 427T314 466Q230 466 186 392Z" />
<glyph unicode="&#xf6;" glyph-name="odieresis" horiz-adv-x="501" d="M248 684T262 684Q277 684 287 674Q295 666 295 651Q295 631 279 615Q266 605 252 605Q237 605 227 615Q219 625 219 638Q219 658 235 674Q248 684 262 684ZM402 684T416 684Q431 684 441
674Q449 664 449 651Q449 631 433 615Q420 605 405 605Q391 605 381 615Q373 625 373 638Q373 658 389 674Q402 684 416 684ZM503 210T473 139T385 29T248 -10Q161 -10 114 44T67 196Q67 339 133 424T322 510Q409 510 456 456T503 304Q503 210 473 139ZM230 466T186
392T142 182Q142 112 170 73T257 34Q340 34 384 107T428 317Q428 388 400 427T314 466Q230 466 186 392Z" />
<glyph unicode="&#xf7;" glyph-name="divide" horiz-adv-x="469" d="M285 487T303 487Q322 487 334 475Q343 465 343 448Q343 424 325 407Q309 395 291 395Q271 395 261 407Q251 419 251 434Q251 458 270 475Q285 487 303 487ZM468 230H67L74 277H475L468 230ZM230
112T248 112Q267 112 279 100Q288 90 288 73Q288 49 270 32Q254 20 236 20Q217 20 206 32Q196 44 196 59Q196 83 215 100Q230 112 248 112Z" />
<glyph unicode="&#xf8;" glyph-name="oslash" horiz-adv-x="510" d="M503 210T473 139T385 29T248 -10Q213 -10 180 0L86 -179L51 -173L149 14Q109 38 88 84T67 196Q67 339 133 424T322 510Q367 510 402 495L484 650L521 644L433 477Q467 452 485 408T503 304Q503
210 473 139ZM230 466T186 392T142 182Q142 103 176 66L377 448Q349 466 314 466Q230 466 186 392ZM428 384T403 421L204 45Q228 34 257 34Q340 34 384 107T428 317Q428 384 403 421Z" />
<glyph unicode="&#xf9;" glyph-name="ugrave" horiz-adv-x="510" d="M304 724L367 581L325 573L240 708L304 724ZM376 0L373 48Q315 -10 220 -10Q156 -10 121 22T86 116Q86 133 89 151L138 500H210L164 166Q161 148 161 133Q161 43 250 43Q286 43 314 54T359 79T376
94L434 500H507L436 0H376Z" />
<glyph unicode="&#xfa;" glyph-name="uacute" horiz-adv-x="510" d="M459 706L339 571L302 576L398 721L459 706ZM376 0L373 48Q315 -10 220 -10Q156 -10 121 22T86 116Q86 133 89 151L138 500H210L164 166Q161 148 161 133Q161 43 250 43Q286 43 314 54T359 79T376
94L434 500H507L436 0H376Z" />
<glyph unicode="&#xfb;" glyph-name="ucircumflex" horiz-adv-x="510" d="M469 629L446 597L350 694L227 597L212 629L337 743H377L469 629ZM376 0L373 48Q315 -10 220 -10Q156 -10 121 22T86 116Q86 133 89 151L138 500H210L164 166Q161 148 161 133Q161 43 250
43Q286 43 314 54T359 79T376 94L434 500H507L436 0H376Z" />
<glyph unicode="&#xfc;" glyph-name="udieresis" horiz-adv-x="510" d="M256 684T270 684Q285 684 295 674Q303 666 303 651Q303 631 287 615Q274 605 260 605Q245 605 235 615Q227 625 227 638Q227 658 243 674Q256 684 270 684ZM410 684T424 684Q439 684 449
674Q457 664 457 651Q457 631 441 615Q428 605 413 605Q399 605 389 615Q381 625 381 638Q381 658 397 674Q410 684 424 684ZM376 0L373 48Q315 -10 220 -10Q156 -10 121 22T86 116Q86 133 89 151L138 500H210L164 166Q161 148 161 133Q161 43 250 43Q286 43 314
54T359 79T376 94L434 500H507L436 0H376Z" />
<glyph unicode="&#xfd;" glyph-name="yacute" horiz-adv-x="452" d="M444 706L324 571L287 576L383 721L444 706ZM0 -203T11 -206T36 -210Q82 -210 119 -161T210 -7L86 500H172L261 83L455 500H507L263 -7Q205 -128 153 -194T41 -260Q23 -260 10 -257T-9 -251T-17
-247L-3 -201Q0 -203 11 -206Z" />
<glyph unicode="&#xfe;" glyph-name="thorn" horiz-adv-x="514" d="M251 752L207 441H209Q209 444 226 461T274 494T351 510Q428 510 473 457T519 310Q519 221 490 148T405 33T269 -10Q223 -10 194 3T150 33L110 -250L37 -252L178 748L251 752ZM157 82Q166 68
189 53T257 38Q348 38 395 112T443 318Q443 388 412 424T324 461Q287 461 260 445T217 411T201 390H200L157 82Z" />
<glyph unicode="&#xff;" glyph-name="ydieresis" horiz-adv-x="452" d="M241 684T256 684Q270 684 280 674Q288 666 288 651Q288 631 272 615Q259 605 245 605Q230 605 220 615Q212 625 212 638Q212 658 228 674Q241 684 256 684ZM395 684T409 684Q424 684 434
674Q442 664 442 651Q442 631 426 615Q413 605 398 605Q384 605 374 615Q366 625 366 638Q366 658 382 674Q395 684 409 684ZM0 -203T11 -206T36 -210Q82 -210 119 -161T210 -7L86 500H172L261 83L455 500H507L263 -7Q205 -128 153 -194T41 -260Q23 -260 10 -257T-9
-251T-17 -247L-3 -201Q0 -203 11 -206Z" />
<glyph unicode="&#x2013;" glyph-name="endash" horiz-adv-x="470" d="M471 254H70L77 301H478L471 254Z" />
<glyph unicode="&#x2014;" glyph-name="emdash" horiz-adv-x="623" d="M625 254H70L77 301H632L625 254Z" />
<glyph unicode="&#x2018;" glyph-name="quoteleft" horiz-adv-x="141" d="M109 507T109 508Q99 519 99 543Q99 574 115 615T159 695T217 757L235 735Q199 706 174 660T144 576H148Q163 576 174 567Q182 557 182 544Q182 522 165 507Q152 496 136 496Q121 496 110
507Q109 507 109 508Z" />
<glyph unicode="&#x2019;" glyph-name="quoteright" horiz-adv-x="141" d="M157 754T173 754Q188 754 199 743L202 737L205 732L206 730Q210 716 210 706Q210 676 194 635T150 554T92 492L73 515Q110 544 135 590T165 673H162Q146 673 136 683Q128 692 128 707Q128
730 144 743Q157 754 173 754Z" />
<glyph unicode="&#x201a;" glyph-name="quotesinglbase" horiz-adv-x="141" d="M63 98T81 98Q98 98 107 88Q108 87 109 86T111 81L113 77L114 75Q118 61 118 51Q118 21 102 -20T58 -101T0 -163L-18 -140Q18 -111 43 -66T73 18H69Q53 18 44 28Q36 37 36 52Q36 75
52 88Q63 98 81 98Z" />
<glyph unicode="&#x201c;" glyph-name="quotedblleft" horiz-adv-x="290" d="M152 496T136 496Q121 496 110 507Q99 520 99 543Q99 574 115 615T159 695T217 757L235 735Q199 706 174 660T144 576H148Q163 576 174 567Q182 557 182 544Q182 522 165 507Q152 496
136 496ZM257 507T257 508Q247 519 247 543Q247 574 263 615T307 695T365 757L383 735Q347 706 322 660T292 576H296Q312 576 322 567Q330 557 330 544Q330 522 313 507Q300 496 284 496Q269 496 258 507Q257 507 257 508Z" />
<glyph unicode="&#x201d;" glyph-name="quotedblright" horiz-adv-x="290" d="M157 754T173 754Q188 754 199 743L202 737L205 732L206 730Q210 716 210 706Q210 676 194 635T150 554T92 492L73 515Q110 544 135 590T165 673H162Q146 673 136 683Q128 692 128
707Q128 730 144 743Q157 754 173 754ZM305 754T321 754Q336 754 347 743L350 737L353 732L354 730Q358 716 358 706Q358 676 342 635T298 554T240 492L221 515Q258 544 283 590T313 673H310Q294 673 284 683Q276 692 276 707Q276 730 292 743Q305 754 321 754Z"
/>
<glyph unicode="&#x201e;" glyph-name="quotedblbase" horiz-adv-x="290" d="M63 98T81 98Q98 98 107 88Q108 87 109 86T111 81L113 77L114 75Q118 61 118 51Q118 21 102 -20T58 -101T0 -163L-18 -140Q18 -111 43 -66T73 18H69Q53 18 44 28Q36 37 36 52Q36 75
52 88Q63 98 81 98ZM211 98T229 98Q246 98 255 88Q256 87 257 86T259 81L261 77L262 75Q266 61 266 51Q266 21 250 -20T206 -101T148 -163L130 -140Q166 -111 191 -66T221 18H217Q201 18 192 28Q184 37 184 52Q184 75 200 88Q211 98 229 98Z" />
<glyph unicode="&#x2022;" glyph-name="bullet" horiz-adv-x="300" d="M171 400T201 400Q232 400 252 380Q268 363 268 334Q268 314 260 295T236 263Q212 243 179 243Q147 243 128 263Q113 281 113 308Q113 328 121 347T145 380Q171 400 201 400Z" />
<glyph unicode="&#x2039;" glyph-name="guilsinglleft" horiz-adv-x="323" d="M187 249L274 101L248 74L118 250L297 421L316 395L187 249Z" />
<glyph unicode="&#x203a;" glyph-name="guilsinglright" horiz-adv-x="323" d="M143 421L273 244L95 74L75 100L204 244L117 394L143 421Z" />
</font>
</defs>
</svg>
