<?xml version="1.0" standalone="no"?>
<!DOCTYPE svg PUBLIC "-//W3C//DTD SVG 1.1//EN" "http://www.w3.org/Graphics/SVG/1.1/DTD/svg11.dtd">
<svg xmlns="http://www.w3.org/2000/svg">
<defs >
<font id="Asap" horiz-adv-x="536" ><font-face
    font-family="Asap Medium"
    units-per-em="1000"
    panose-1="0 0 0 0 0 0 0 0 0 0"
    ascent="934"
    descent="-212"
    alphabetic="0" />
<glyph unicode=" " horiz-adv-x="240" />
<glyph unicode="!" horiz-adv-x="294" d="M141 208Q121 208 113 214T105 233V677Q105 702 151 702H178Q223 702 223 678Q214 567 206 456T189 233Q188 221 181 215T152 208H141ZM137 -2Q91 -2 91 23V96Q91 121 137 121H158Q204 121 204 96V23Q204 -2 158 -2H137Z" />
<glyph unicode="&quot;" horiz-adv-x="320" d="M90 470Q67 470 64 487L42 677Q38 702 88 702H98Q147 702 144 677L121 487Q119 470 95 470H90ZM224 470Q201 470 198 487L176 677Q173 702 222 702H232Q282 702 278 677L255 487Q253 470 230 470H224Z" />
<glyph unicode="#" horiz-adv-x="534" d="M104 -2Q71 -2 71 17Q71 20 73 33T82 82T102 192H35Q13 192 13 228V243Q13 279 35 279H118L143 415H71Q49 415 49 451V466Q49 502 71 502H158L188 661Q190 674 199 680T235 686H242Q274 686 274 669L243 502H355L384 661Q386
674 395 680T431 686H439Q471 686 471 669L442 502H500Q522 502 522 466V451Q522 415 500 415H425L401 279H468Q490 279 490 243V228Q490 192 468 192H384L354 23Q352 11 343 5T307 -2H301Q268 -2 268 17Q268 20 270 33T279 82T299 192H188L157 23Q154 11 146 5T110
-2H104ZM204 279H315L340 415H229L204 279Z" />
<glyph unicode="$" horiz-adv-x="500" d="M247 -6Q200 -7 161 1T93 21Q64 32 48 46T31 71Q31 81 39 96T57 123T74 135Q77 135 82 132T97 124Q121 111 159 98T250 87Q301 90 333 110T366 185Q366 223 347 246T295 285T226 315Q169 339 129 368T66 433T44 517Q44
572 70 614T146 680T267 704Q303 704 343 696T411 673Q423 666 430 659T437 643Q437 634 431 619T415 592T398 580Q394 580 386 584T365 593Q348 600 322 607T257 614Q207 614 177 590T147 523Q147 493 165 473T213 439T277 409Q337 384 380 353T446 284T469 196Q469
102 414 49T247 -6ZM257 -74Q231 -74 231 -54V742Q231 762 257 762H262Q288 762 288 742V-54Q288 -74 262 -74H257Z" />
<glyph unicode="%" horiz-adv-x="765" d="M180 -6Q157 -6 157 5Q157 10 161 16L530 683Q536 694 546 699T571 705H587Q610 705 610 694Q610 692 609 690T606 683L237 16Q232 5 222 0T196 -6H180ZM570 -6Q538 -6 506 6T452 54T430 157Q430 226 451 261T504 309T570
322Q602 322 634 309T689 261T711 157Q711 90 689 55T634 7T570 -6ZM570 57Q599 57 613 72T631 111T636 157Q636 180 632 203T614 243T570 259Q541 259 528 243T510 204T506 157Q506 135 510 112T528 73T570 57ZM195 378Q163 378 131 391T76 439T54 541Q54 610
75 645T128 694T195 707Q227 707 259 694T313 646T335 541Q335 474 314 439T259 391T195 378ZM195 441Q223 441 237 456T255 496T260 541Q260 564 256 587T239 627T195 643Q166 643 152 627T134 588T130 541Q130 520 134 496T152 457T195 441Z" />
<glyph unicode="&amp;" horiz-adv-x="624" d="M266 -7Q225 -7 186 5T114 42T62 108T42 203Q42 253 59 290T104 351T165 386V390Q123 407 94 444T65 537Q65 593 91 630T163 687T268 707Q287 707 308 705T344 695T360 672Q360 663 358 650T349 625T335 613Q329 613
314 617T277 622Q232 622 209 606T177 567T168 523Q168 498 181 473T222 431T293 413H404L417 515Q420 540 455 540H471Q507 540 507 515V413H581Q604 413 604 377V364Q604 328 581 328H507V143Q507 105 521 92T556 78Q573 78 580 80T594 83Q602 83 607 71T615
46T618 29Q618 13 604 6T572 -4T538 -7Q512 -7 484 2T434 36Q404 19 364 6T266 -7ZM278 78Q320 78 360 93T433 127L416 75Q404 101 404 131V328H288Q222 328 185 301T147 205Q147 157 167 130T218 90T278 78Z" />
<glyph unicode="&apos;" horiz-adv-x="192" d="M93 470Q70 470 67 487L45 677Q42 702 91 702H101Q150 702 147 677L124 487Q122 470 99 470H93Z" />
<glyph unicode="(" horiz-adv-x="301" d="M251 -211Q239 -211 228 -198Q175 -142 136 -66T76 99T54 286Q54 385 75 474T136 638T228 771Q239 783 251 783Q258 783 267 779T282 767T289 752Q289 747 287 742T281 731Q215 641 180 529T145 286Q145 157 179 44T280
-158Q284 -163 286 -168T288 -178Q288 -184 282 -192T268 -205T251 -211Z" />
<glyph unicode=")" horiz-adv-x="301" d="M49 -210Q41 -210 32 -206T17 -194T10 -178Q10 -174 12 -170T17 -162Q83 -73 119 41T155 286Q155 416 121 529T20 731Q16 736 14 741T12 751Q12 758 18 765T32 778T49 784Q61 784 72 771Q126 715 164 639T224 474T246
286Q246 189 225 100T164 -65T72 -198Q62 -210 49 -210Z" />
<glyph unicode="*" horiz-adv-x="373" d="M101 413Q93 413 84 420T75 436Q75 444 81 451L148 544L57 574Q40 579 40 591Q40 602 46 610T61 619Q64 619 66 619T72 617L164 587V686Q164 709 187 709Q210 709 210 686V587L302 617Q305 619 307 619T312 619Q320 619
327 612T334 592Q334 579 317 574L225 544L293 451Q298 444 298 436Q298 428 290 421T273 413Q263 413 256 424L187 520L118 424Q111 413 101 413Z" />
<glyph unicode="+" horiz-adv-x="560" d="M276 -1Q240 -1 240 21V193H70Q47 193 47 228V235Q47 271 70 271H240V443Q240 466 276 466H285Q320 466 320 443V271H490Q513 271 513 235V228Q513 193 490 193H320V21Q320 -1 285 -1H276Z" />
<glyph unicode="," horiz-adv-x="198" d="M40 -119Q31 -119 19 -115T7 -102Q7 -96 9 -89T16 -75Q30 -45 40 -7T50 86Q50 102 61 111T96 121H107Q130 121 141 112T153 89Q153 45 141 7T111 -59T73 -103T40 -119Z" />
<glyph unicode="-" horiz-adv-x="320" d="M63 225Q40 225 40 261V270Q40 305 63 305H257Q280 305 280 270V261Q280 225 257 225H63Z" />
<glyph unicode="." horiz-adv-x="198" d="M89 -2Q43 -2 43 23V96Q43 121 89 121H110Q156 121 156 96V23Q156 -2 110 -2H89Z" />
<glyph unicode="/" horiz-adv-x="422" d="M51 -77Q34 -77 27 -74T19 -62Q19 -57 21 -50T27 -35L322 678Q328 693 338 698T366 703H373Q391 703 397 699T403 687Q403 683 401 675T393 655L98 -59Q93 -70 84 -73T59 -77H51Z" />
<glyph unicode="0" horiz-adv-x="535" d="M267 -7Q203 -7 151 32T68 150T37 350Q37 472 68 550T151 668T267 707Q332 707 384 668T468 551T499 350Q499 229 468 150T385 32T267 -7ZM267 78Q301 78 330 105T377 192T395 350Q395 448 377 507T330 594T267 622Q234
622 205 595T159 508T141 350Q141 252 158 193T205 106T267 78Z" />
<glyph unicode="1" horiz-adv-x="535" d="M81 0Q58 0 58 36V49Q58 85 81 85H243V598L78 571Q69 571 64 581T57 606T55 631Q55 649 75 653L312 703Q323 703 334 697T346 681V85H479Q502 85 502 49V36Q502 0 479 0H81Z" />
<glyph unicode="2" horiz-adv-x="535" d="M69 0Q62 0 57 9T49 32T46 57Q46 69 50 73L307 393Q333 427 345 448T361 487T366 524Q366 570 335 595T250 621Q209 621 181 609T136 585T110 573Q102 573 93 583T78 606T71 628Q71 646 89 660T137 684T198 701T256 707Q356
707 413 659T470 529Q470 503 466 481T452 435T421 382T368 312T290 215L184 84H455Q478 84 478 48V36Q478 0 455 0H69Z" />
<glyph unicode="3" horiz-adv-x="535" d="M248 -7Q209 -7 172 -2T106 12T60 33T42 58Q42 68 49 81T65 104T81 115Q91 115 110 106T161 88T236 78Q266 78 296 90T346 129T367 205Q367 274 330 301T226 328H195Q172 328 172 364V377Q172 412 195 412H221Q267 412
294 431T333 478T345 530Q345 550 336 571T303 607T237 621Q194 621 167 614T125 598T101 589Q94 589 85 600T70 625T63 648Q63 661 81 672T127 690T187 702T246 707Q336 707 392 662T449 530Q449 478 420 442T349 390V386Q382 376 410 352T455 290T472 203Q472
148 453 108T401 43T329 5T248 -7Z" />
<glyph unicode="4" horiz-adv-x="535" d="M372 -2Q333 -2 333 23V160H41Q36 160 29 171T18 198T14 223Q14 231 16 234L335 687Q342 695 353 698T377 702H396Q435 702 435 677V245H494Q517 245 517 209V196Q517 160 494 160H435V23Q435 -2 396 -2H372ZM127 245H333V466Q333
484 335 507T340 547L336 549L127 245Z" />
<glyph unicode="5" horiz-adv-x="535" d="M234 -7Q179 -7 136 3T69 28T44 57Q44 67 51 80T68 104T85 115Q94 115 112 106T160 88T233 78Q272 78 303 93T354 138T374 213Q374 276 334 309T210 342H118Q100 342 94 350T88 375L105 667Q106 685 114 692T140 700H414Q437
700 437 664V648Q437 615 414 615H202L190 427H234Q280 427 323 417T401 383T458 317T479 214Q479 149 458 107T400 39T321 4T234 -7Z" />
<glyph unicode="6" horiz-adv-x="535" d="M265 -6Q216 -6 175 10T106 58T62 137T46 249Q46 328 66 392T120 507T193 594T270 655T337 691T379 703Q392 703 400 691T412 663T417 641Q417 637 415 633T408 627Q314 591 254 527T169 381Q194 396 224 404T294 412Q331
412 365 399T426 360T470 296T487 207Q487 155 470 116T421 49T350 8T265 -6ZM269 79Q295 79 321 93T365 134T383 203Q383 247 367 274T323 314T264 327Q230 327 202 317T152 296Q151 282 150 268T149 240Q149 176 167 141T213 93T269 79Z" />
<glyph unicode="7" horiz-adv-x="535" d="M141 -2Q94 -2 94 16Q94 19 95 22T98 30L375 615H76Q53 615 53 651V664Q53 700 76 700H471Q476 700 481 690T490 664T494 638Q494 632 492 626L206 15Q201 7 189 3T160 -2H141Z" />
<glyph unicode="8" horiz-adv-x="535" d="M268 -7Q201 -7 151 17T73 88T45 202Q45 253 59 287T99 344T153 379Q119 400 96 436T72 529Q72 584 97 623T168 685T271 707Q327 707 371 686T441 626T467 533Q467 472 440 437T373 382Q406 368 432 346T474 289T490 199Q490
151 475 113T430 49T360 8T268 -7ZM268 78Q302 78 328 93T370 135T386 201Q386 237 373 259T337 296T286 321T230 343Q196 322 173 290T149 204Q149 143 183 111T268 78ZM289 415Q323 435 344 463T366 530Q366 577 338 599T270 622Q230 622 202 600T174 530Q174
495 190 474T232 439T289 415Z" />
<glyph unicode="9" horiz-adv-x="535" d="M156 -3Q144 -3 136 9T123 37T118 59Q118 63 119 67T127 73Q221 108 281 173T365 319Q341 305 311 297T241 288Q204 288 170 301T109 340T65 404T48 493Q48 545 65 584T114 650T185 692T269 706Q319 706 359 690T429 641T473
562T489 451Q489 372 469 308T415 193T342 105T265 44T198 9T156 -3ZM271 373Q305 373 333 383T382 404Q384 418 385 432T386 460Q386 524 368 558T323 607T265 621Q240 621 213 607T169 566T151 497Q151 453 167 426T211 386T271 373Z" />
<glyph unicode=":" horiz-adv-x="198" d="M89 402Q43 402 43 427V500Q43 525 89 525H110Q156 525 156 500V427Q156 402 110 402H89ZM89 -2Q43 -2 43 23V96Q43 121 89 121H110Q156 121 156 96V23Q156 -2 110 -2H89Z" />
<glyph unicode=";" horiz-adv-x="198" d="M89 402Q43 402 43 427V500Q43 525 89 525H110Q156 525 156 500V427Q156 402 110 402H89ZM40 -119Q31 -119 19 -115T7 -102Q7 -96 9 -89T16 -75Q30 -45 40 -7T50 86Q50 102 61 111T96 121H107Q130 121 141 112T153 89Q153
45 141 7T111 -59T73 -103T40 -119Z" />
<glyph unicode="&lt;" horiz-adv-x="560" d="M498 7Q516 7 516 38V52Q516 68 511 78T491 95L153 232L491 369Q504 374 510 384T516 411V426Q516 456 497 456Q494 456 491 456T482 453L69 278Q45 267 45 241V223Q45 197 69 186L483 10Q491 7 498 7Z" />
<glyph unicode="=" horiz-adv-x="560" d="M70 268Q47 268 47 303V315Q47 351 70 351H490Q513 351 513 315V303Q513 268 490 268H70ZM70 99Q47 99 47 135V146Q47 182 70 182H490Q513 182 513 146V135Q513 99 490 99H70Z" />
<glyph unicode="&gt;" horiz-adv-x="560" d="M63 7Q44 7 44 38V52Q44 68 50 78T69 95L407 232L70 369Q56 374 51 384T45 411V426Q45 456 63 456Q67 456 70 456T78 453L491 278Q516 267 516 241V223Q516 197 491 186L78 10Q71 7 63 7Z" />
<glyph unicode="?" horiz-adv-x="445" d="M170 208Q151 208 143 214T134 232Q134 269 156 309T215 388Q251 426 279 459T308 526Q308 571 280 593T197 616Q166 616 142 608T101 591T76 583Q69 583 60 594T43 620T35 643Q35 658 52 670T96 690T153 702T212 707Q279
707 325 684T396 623T420 536Q420 500 407 470T372 416T326 368Q292 335 263 303T226 230Q224 218 216 213T187 208H170ZM166 -2Q121 -2 121 23V96Q121 121 166 121H188Q233 121 233 96V23Q233 -2 188 -2H166Z" />
<glyph unicode="@" horiz-adv-x="974" d="M421 -125Q324 -125 251 -79T136 48T95 238Q95 337 129 422T225 570T368 670T545 706Q646 706 720 666T836 552T878 381Q878 313 863 254T818 150T749 80T662 55Q628 55 605 67T569 98T557 139V181L573 171Q552 113 514
84T430 55Q406 55 381 64T335 94T301 150T288 237Q288 316 313 376T384 471T491 506Q531 506 559 490T600 459Q607 481 612 491T640 502H647Q663 502 669 496T676 480Q676 480 674 458T668 401T660 326T653 250T647 189T644 157Q644 139 650 131T666 120T683 117Q710
117 735 138T779 195T810 280T822 381Q822 465 787 527T691 624T545 659Q463 659 392 627T267 537T183 403T152 238Q152 144 186 73T280 -38T421 -78Q470 -78 499 -71T545 -56T575 -49Q589 -49 589 -75Q589 -90 571 -99T524 -114T468 -122T421 -125ZM455 128Q472
128 492 138T531 174T565 242Q568 269 571 299T577 358T585 403Q573 413 553 423T504 433Q455 433 427 407T388 338T376 243Q376 179 398 154T455 128Z" />
<glyph unicode="A" horiz-adv-x="613" d="M57 -2Q9 -2 9 16Q9 20 10 23T12 32L244 685Q250 702 289 702H324Q364 702 369 685L601 31Q604 23 604 16Q604 -2 559 -2H541Q524 -2 512 2T496 15L443 167H166L114 15Q110 6 99 2T72 -2H57ZM198 259H411L320 523Q316
537 313 552T307 583H305Q302 568 299 553T290 523L198 259Z" />
<glyph unicode="B" horiz-adv-x="593" d="M124 0Q91 0 91 33V667Q91 700 124 700H308Q425 700 480 651T536 523Q536 490 521 459T481 404T426 371L427 367Q434 366 449 360T485 341T523 309T553 263T565 202Q565 100 500 50T307 0H124ZM198 92H330Q391 92 423
123T455 207Q455 257 419 285T313 313H198V92ZM198 405H300Q357 405 391 435T425 510Q425 560 395 584T298 608H198V405Z" />
<glyph unicode="C" horiz-adv-x="619" d="M378 -7Q212 -7 133 80T54 351Q54 707 380 707Q414 707 446 702T506 689T552 670Q577 656 577 642Q577 633 570 617T552 587T534 574Q528 574 511 584T461 604T381 614Q270 614 217 551T164 350Q164 215 216 150T378 85Q428
85 463 97T519 120T547 132Q557 132 566 119T582 91T589 69Q589 60 581 50T556 32Q537 21 509 13T447 -1T378 -7Z" />
<glyph unicode="D" horiz-adv-x="695" d="M124 0Q91 0 91 33V667Q91 700 124 700H329Q420 700 490 665T601 552T641 350Q641 256 618 190T554 82T455 20T329 0H124ZM198 92H324Q385 92 431 118T504 201T531 350Q531 442 505 498T432 581T324 608H198V92Z" />
<glyph unicode="E" horiz-adv-x="546" d="M125 0Q92 0 92 33V667Q92 700 125 700H474Q497 700 497 664V644Q497 608 474 608H199V404H445Q468 404 468 368V348Q468 312 445 312H199V92H475Q498 92 498 56V36Q498 0 475 0H125Z" />
<glyph unicode="F" horiz-adv-x="503" d="M137 -2Q91 -2 91 23V667Q91 700 124 700H443Q466 700 466 664V644Q466 608 443 608H198V381H428Q451 381 451 345V325Q451 289 428 289H198V23Q198 -2 152 -2H137Z" />
<glyph unicode="G" horiz-adv-x="672" d="M368 -7Q214 -7 134 79T54 346Q54 531 137 619T380 707Q416 707 451 701T515 686T561 666T578 642Q578 633 571 617T554 587T535 574Q530 574 512 584T461 604T381 614Q301 614 254 584T185 495T164 352Q164 296 174 247T208
162T272 106T373 85Q415 85 450 90T508 102L487 56V277H378Q355 277 355 313V333Q355 369 378 369H561Q594 369 594 336V67Q594 45 574 31T520 8T447 -3T368 -7Z" />
<glyph unicode="H" horiz-adv-x="733" d="M138 -2Q92 -2 92 23V677Q92 702 138 702H153Q199 702 199 677V404H535V677Q535 702 581 702H596Q642 702 642 677V23Q642 -2 596 -2H581Q535 -2 535 23V312H199V23Q199 -2 153 -2H138Z" />
<glyph unicode="I" horiz-adv-x="283" d="M133 -2Q87 -2 87 23V677Q87 702 133 702H149Q195 702 195 677V23Q195 -2 149 -2H133Z" />
<glyph unicode="J" horiz-adv-x="402" d="M112 -7Q99 -7 81 -6T45 -1T16 10T4 29Q4 33 6 49T15 80T32 95Q38 95 53 91T93 87Q158 87 187 115T217 204V677Q217 702 262 702H278Q324 702 324 677V204Q324 141 303 94T235 20T112 -7Z" />
<glyph unicode="K" horiz-adv-x="576" d="M135 -2Q89 -2 89 23V677Q89 702 135 702H150Q196 702 196 677V382H200L425 687Q432 695 447 698T481 702H502Q543 702 543 688Q543 679 534 668L300 361L579 30Q587 19 587 12Q587 -2 540 -2H515Q497 -2 482 0T458 13L200
330L196 329V23Q196 -2 150 -2H135Z" />
<glyph unicode="L" horiz-adv-x="484" d="M124 0Q91 0 91 33V677Q91 702 137 702H152Q198 702 198 677V92H456Q479 92 479 56V36Q479 0 456 0H124Z" />
<glyph unicode="M" horiz-adv-x="843" d="M404 187Q386 187 377 202L215 486Q208 496 203 507T191 529L187 528Q189 515 189 502T189 475V23Q189 -2 143 -2H130Q84 -2 84 23V677Q84 702 130 702H171Q190 702 202 697T219 681L401 363Q407 352 413 339T422 313Q427
326 434 340T447 365L627 681Q633 691 644 696T675 702H713Q759 702 759 677V23Q759 -2 713 -2H700Q654 -2 654 23V470Q654 484 654 497T656 524L652 525Q646 513 641 503T628 481L468 202Q459 187 441 187H404Z" />
<glyph unicode="N" horiz-adv-x="719" d="M130 -2Q84 -2 84 23V677Q84 702 130 702H157Q175 702 186 698T206 681L494 243Q505 228 513 214T528 184L532 185Q531 202 531 216T530 253V677Q530 702 576 702H589Q635 702 635 677V23Q635 -2 589 -2H564Q548 -2 538
2T520 16L225 463Q215 478 207 492T191 523L187 522Q189 505 189 491T189 454V23Q189 -2 143 -2H130Z" />
<glyph unicode="O" horiz-adv-x="731" d="M365 -7Q214 -7 134 85T54 351Q54 527 134 617T365 707Q517 707 597 617T677 351Q677 177 597 85T365 -7ZM365 85Q464 85 515 153T567 351Q567 481 516 547T365 614Q267 614 216 548T164 351Q164 221 215 153T365 85Z" />
<glyph unicode="P" horiz-adv-x="570" d="M126 -2Q80 -2 80 23V667Q80 700 113 700H318Q351 700 390 693T464 665T523 604T546 497Q546 442 529 404T485 343T428 308T371 292T328 288H187V23Q187 -2 142 -2H126ZM187 380H324Q339 380 358 384T394 401T423 437T435
497Q435 543 416 567T369 599T314 608H187V380Z" />
<glyph unicode="Q" horiz-adv-x="731" d="M642 -147Q639 -147 618 -140T564 -119T489 -90T404 -56T317 -22T241 9Q148 46 101 130T54 348Q54 523 134 615T365 707Q517 707 597 615T677 348Q677 213 629 128T489 12V8L673 -51Q687 -56 687 -67Q687 -71 684 -84T674
-112T660 -136T642 -147ZM365 82Q462 82 514 150T567 348Q567 477 515 545T365 614Q269 614 217 546T164 348Q164 219 216 151T365 82Z" />
<glyph unicode="R" horiz-adv-x="610" d="M135 -2Q89 -2 89 23V667Q89 700 122 700H298Q418 700 479 657T541 520Q541 458 510 416T425 354V350Q454 341 473 310T510 234L591 31Q595 20 595 15Q595 -2 547 -2H528Q511 -2 499 2T483 15L406 211Q386 262 357 280T271
298H196V23Q196 -2 150 -2H135ZM196 391H317Q349 391 374 406T415 447T431 503Q431 556 398 582T310 608H196V391Z" />
<glyph unicode="S" horiz-adv-x="500" d="M248 -7Q180 -7 130 8T54 42Q33 57 33 71Q33 81 40 96T58 123T75 135Q79 135 85 132T98 124Q118 114 154 100T240 85Q274 85 301 97T344 132T361 189Q361 227 339 249T282 287T209 319Q178 331 149 346T97 382T60 436T46
517Q46 576 75 618T156 684T272 707Q298 707 325 703T377 690T418 671Q439 658 439 643Q439 634 432 619T416 592T400 580Q396 580 389 583T371 592Q355 600 332 607T275 614Q237 614 211 603T170 570T156 518Q156 484 174 464T221 431T284 405Q316 392 349 377T410
338T454 281T471 195Q471 145 455 108T408 45T337 6T248 -7Z" />
<glyph unicode="T" horiz-adv-x="549" d="M268 -2Q222 -2 222 23V608H39Q17 608 17 644V664Q17 700 39 700H510Q532 700 532 664V644Q532 608 510 608H329V23Q329 -2 283 -2H268Z" />
<glyph unicode="U" horiz-adv-x="712" d="M356 -7Q222 -7 150 55T78 227V677Q78 702 124 702H139Q185 702 185 677V228Q185 186 207 154T268 103T356 85Q406 85 444 103T505 154T527 228V677Q527 702 573 702H588Q634 702 634 677V227Q634 117 562 55T356 -7Z" />
<glyph unicode="V" horiz-adv-x="617" d="M290 -2Q273 -2 261 2T246 15L20 669Q19 673 18 676T17 684Q17 702 65 702H82Q99 702 111 698T128 682L285 220Q294 194 300 169T309 125H313Q317 147 324 172T338 220L494 682Q498 693 510 697T540 702H552Q600 702 600
684Q600 678 597 668L372 15Q368 6 356 2T327 -2H290Z" />
<glyph unicode="W" horiz-adv-x="910" d="M238 -2Q220 -2 208 2T193 17L26 668Q25 672 25 675T24 682Q24 702 72 702H87Q106 702 119 698T134 682L239 264Q245 242 250 215T259 162T265 117H269Q273 138 277 159T285 202T295 241L405 684Q407 694 419 698T448
702H471Q488 702 500 698T514 684L619 264Q625 240 630 213T639 160T645 117H649Q653 136 657 158T665 202T674 241L783 682Q785 693 798 697T831 702H838Q886 702 886 682Q886 681 886 677T884 668L714 17Q712 6 699 2T669 -2H619Q602 -2 590 2T574 17L486 360Q477
391 469 438T456 526H452Q448 489 442 449T429 384L333 17Q330 6 317 2T288 -2H238Z" />
<glyph unicode="X" horiz-adv-x="611" d="M67 -2Q40 -2 29 2T17 16Q17 23 25 36L244 365L49 664Q40 677 40 684Q40 692 52 697T91 702H113Q131 702 143 699T161 686L308 461L460 687Q466 696 479 699T508 702H524Q551 702 562 698T574 684Q574 680 572 675T566
664L369 368L587 36Q595 23 595 16Q595 7 584 3T544 -2H522Q504 -2 492 1T474 14L304 272L132 13Q126 4 113 1T84 -2H67Z" />
<glyph unicode="Y" horiz-adv-x="559" d="M272 -2Q226 -2 226 23V352L20 664Q11 677 11 684Q11 692 23 697T62 702H82Q100 702 112 699T130 686L282 449L437 687Q443 695 456 698T487 702H502Q548 701 548 684Q548 680 546 675T540 664L333 349V23Q333 -2 287 -2H272Z" />
<glyph unicode="Z" horiz-adv-x="616" d="M63 0Q57 0 51 11T40 37T35 63Q35 71 38 75L426 608H90Q67 608 67 647V661Q67 700 90 700H547Q552 700 558 689T569 662T574 636Q574 628 570 623L183 92H549Q572 92 572 53V39Q572 0 549 0H63Z" />
<glyph unicode="[" horiz-adv-x="291" d="M116 -138Q83 -138 83 -105V735Q83 768 116 768H238Q261 768 261 736V728Q261 696 238 696H169V-66H238Q261 -66 261 -99V-106Q261 -138 238 -138H116Z" />
<glyph unicode="\" horiz-adv-x="422" d="M363 -77Q347 -77 338 -74T324 -59L29 655Q24 666 22 674T19 687Q19 695 25 699T49 703H56Q74 703 84 698T100 678L395 -35Q398 -42 400 -49T403 -62Q403 -70 396 -73T371 -77H363Z" />
<glyph unicode="]" horiz-adv-x="291" d="M53 -138Q30 -138 30 -106V-99Q30 -66 53 -66H123V696H53Q30 696 30 728V736Q30 768 53 768H176Q208 768 208 735V-105Q208 -138 176 -138H53Z" />
<glyph unicode="^" horiz-adv-x="450" d="M76 319Q48 319 48 339Q48 345 51 353L177 662Q183 675 191 680T214 685H237Q250 685 259 680T273 662L399 353Q402 345 402 339Q402 319 374 319H365Q335 319 325 344L225 590L124 344Q113 319 85 319H76Z" />
<glyph unicode="_" horiz-adv-x="535" d="M3 -138Q-20 -138 -20 -109V-102Q-20 -73 3 -73H533Q556 -73 556 -102V-109Q556 -138 533 -138H3Z" />
<glyph unicode="`" horiz-adv-x="170" d="M142 575Q122 575 108 579T80 601L25 661Q11 676 6 685T0 702Q0 711 12 714T49 718Q73 718 86 715T106 706T118 691L158 616Q163 606 166 600T170 588Q170 582 164 579T142 575Z" />
<glyph unicode="a" horiz-adv-x="545" d="M211 -7Q136 -7 92 31T47 142Q47 196 71 231T138 287T240 316T366 325V368Q366 401 344 423T265 445Q223 445 192 435T142 415T117 405Q109 405 100 417T84 443T77 464Q77 478 103 493T172 519T266 530Q333 530 378 511T445
455T468 370V156Q468 112 471 85T477 44T480 25Q480 17 472 12T451 4T428 0T410 -1Q397 -1 390 10T380 38T373 69Q359 52 336 35T283 5T211 -7ZM228 79Q276 79 308 99T366 146V246Q328 246 291 243T222 231T172 203T153 150Q153 116 172 98T228 79Z" />
<glyph unicode="b" horiz-adv-x="569" d="M326 -7Q283 -7 245 12T175 68Q169 35 159 14Q155 4 147 1T124 -2H118Q80 -2 80 23V728Q80 753 125 753H136Q182 753 182 728V484Q207 504 238 517T313 530Q406 530 462 460T518 262Q518 181 495 121T428 27T326 -7ZM302
80Q356 80 384 128T413 267Q413 352 383 397T290 443Q261 443 233 434T182 406V146Q208 116 239 98T302 80Z" />
<glyph unicode="c" horiz-adv-x="485" d="M297 -7Q174 -7 112 56T49 262Q49 337 68 388T120 471T198 516T292 530Q330 530 365 523T423 504T446 477Q446 469 440 454T425 428T408 416Q407 416 404 417T395 421Q382 427 357 436T293 445Q228 445 193 403T157 265Q157
168 189 123T298 78Q338 78 365 87T407 104Q412 106 415 107T420 108Q428 108 437 97T452 72T459 50Q459 37 444 27T405 10T353 -2T297 -7Z" />
<glyph unicode="d" horiz-adv-x="565" d="M241 -7Q183 -7 140 26T73 120T49 261Q49 390 105 460T254 530Q298 530 329 517T386 484V728Q386 753 431 753H442Q488 753 488 728V156Q488 112 491 85T497 44T500 25Q500 17 492 12T471 4T447 0T429 -1Q416 -1 410 10T400
38T393 68Q362 32 324 13T241 -7ZM266 80Q298 80 329 98T386 146V406Q363 424 336 433T278 443Q217 443 186 398T155 267Q155 177 183 129T266 80Z" />
<glyph unicode="e" horiz-adv-x="539" d="M301 -7Q173 -7 112 60T51 258Q51 350 79 410T160 500T287 530Q359 530 405 498T473 408T496 269Q496 263 489 252T473 232T458 223H159Q165 147 200 113T302 78Q343 78 371 88T417 107T441 117Q449 117 458 106T474 81T481
60Q481 48 466 36T424 15T366 -1T301 -7ZM159 303H391Q391 372 365 408T285 445Q230 445 198 411T159 303Z" />
<glyph unicode="f" horiz-adv-x="325" d="M145 -2Q100 -2 100 23V438H66Q43 438 43 474V487Q43 523 66 523H100V612Q100 656 112 684T143 728T186 751T234 757Q248 757 267 755T300 746T314 722Q314 718 312 705T304 679T290 667Q284 667 277 669T251 672Q237
672 226 667T209 649T202 607V523H278Q301 523 301 487V474Q301 438 278 438H202V23Q202 -2 156 -2H145Z" />
<glyph unicode="g" horiz-adv-x="546" d="M256 -212Q191 -212 143 -199T69 -156T43 -79Q43 -36 67 -4T131 44L132 47Q114 60 103 80T92 127Q92 158 106 181T148 221Q107 242 85 278T63 362Q63 414 87 451T157 509T266 530Q283 530 299 528T330 523H506Q529 523
529 487V474Q529 439 507 439Q497 439 475 441T439 446L438 444Q454 425 460 405T467 362Q467 312 443 275T375 218T268 197Q224 197 204 185T184 144Q184 118 207 106T265 90T340 80Q383 74 419 60T477 19T499 -56Q499 -104 471 -139T389 -193T256 -212ZM267 -129Q335
-129 368 -112T401 -60Q401 -35 382 -23T332 -6T266 3T197 15Q173 4 157 -14T140 -61Q140 -96 169 -112T267 -129ZM265 277Q308 277 339 296T370 363Q370 411 339 430T265 449Q222 449 192 430T161 363Q161 315 191 296T265 277Z" />
<glyph unicode="h" horiz-adv-x="565" d="M130 -2Q85 -2 85 23V728Q85 753 130 753H141Q187 753 187 728V461Q212 487 250 508T336 530Q365 530 392 523T443 497T479 448T493 368V23Q493 -2 447 -2H437Q391 -2 391 23V356Q391 395 369 418T300 442Q275 442 255
433T220 412T197 389T187 376V23Q187 -2 141 -2H130Z" />
<glyph unicode="i" horiz-adv-x="265" d="M128 -2Q82 -2 82 23V500Q82 525 128 525H138Q184 525 184 500V23Q184 -2 138 -2H128ZM133 589Q105 589 93 595T80 614V679Q80 691 92 697T133 704Q161 704 173 698T186 679V614Q186 602 174 596T133 589Z" />
<glyph unicode="j" horiz-adv-x="276" d="M61 -212Q40 -212 21 -209T-9 -198T-21 -176Q-21 -169 -18 -157T-10 -133T4 -122Q10 -122 17 -124T43 -127Q65 -127 78 -114T92 -62V500Q92 525 138 525H149Q195 525 195 500V-67Q195 -110 183 -138T150 -182T107 -205T61
-212ZM143 589Q115 589 103 595T91 614V679Q91 691 103 697T143 704Q172 704 184 698T196 679V614Q196 602 184 596T143 589Z" />
<glyph unicode="k" horiz-adv-x="521" d="M132 -2Q86 -2 86 23V728Q86 753 132 753H143Q188 753 188 728V295H192L363 510Q371 519 386 522T419 525H432Q473 525 473 511Q473 503 463 491L266 245V310L485 30Q493 19 493 12Q493 -2 445 -2H431Q413 -2 398 0T375
13L192 248L188 247V23Q188 -2 143 -2H132Z" />
<glyph unicode="l" horiz-adv-x="297" d="M210 -7Q187 -7 164 0T121 23T89 67T77 138V728Q77 753 122 753H133Q179 753 179 728V143Q179 105 193 92T228 78Q245 78 252 80T266 83Q274 83 279 71T287 46T290 29Q290 13 276 6T244 -4T210 -7Z" />
<glyph unicode="m" horiz-adv-x="848" d="M124 -2Q78 -2 78 23V364Q78 408 75 435T69 476T66 494Q66 502 74 507T95 515T119 519T137 520Q150 520 157 509T167 483T174 454Q198 483 237 506T324 530Q352 530 379 523T428 498T464 449Q491 481 532 505T622 530Q650
530 677 523T726 497T762 448T776 368V23Q776 -2 730 -2H719Q673 -2 673 23V356Q673 395 652 418T588 442Q562 442 542 432T506 407T482 381T472 367L471 414Q476 403 477 391T478 366V23Q478 -2 432 -2H422Q376 -2 376 23V356Q376 395 355 418T290 442Q267 442
247 433T213 412T190 390T181 377V23Q181 -2 135 -2H124Z" />
<glyph unicode="n" horiz-adv-x="557" d="M125 -2Q79 -2 79 23V364Q79 408 76 435T70 476T67 494Q67 502 75 507T96 515T120 519T138 520Q151 520 158 509T168 483T174 454Q203 488 243 509T328 530Q405 530 446 488T487 368V23Q487 -2 441 -2H430Q384 -2 384
23V356Q384 397 362 419T294 442Q261 442 232 423T182 376V23Q182 -2 136 -2H125Z" />
<glyph unicode="o" horiz-adv-x="569" d="M286 -7Q172 -7 112 62T51 260Q51 390 111 460T286 530Q399 530 458 461T518 260Q518 130 460 62T286 -7ZM284 78Q351 78 382 123T413 261Q413 354 382 399T284 445Q218 445 188 400T157 261Q157 168 187 123T284 78Z" />
<glyph unicode="p" horiz-adv-x="573" d="M127 -207Q81 -207 81 -183V364Q81 408 78 435T72 476T69 494Q69 502 77 507T98 515T122 519T140 520Q153 520 160 509T170 483T177 455Q208 491 246 510T328 530Q388 530 431 496T497 402T520 261Q520 133 464 63T315
-7Q272 -7 241 6T184 39V-183Q184 -207 138 -207H127ZM292 80Q354 80 384 125T414 256Q414 346 386 394T304 443Q272 443 241 425T184 377V117Q207 100 234 90T292 80Z" />
<glyph unicode="q" horiz-adv-x="566" d="M433 -207Q387 -207 387 -183V39Q362 20 331 7T256 -7Q163 -7 106 63T49 260Q49 342 73 402T140 496T243 530Q287 530 325 511T394 455Q397 468 400 482T409 509Q412 519 421 522T445 525H451Q489 525 489 500V-183Q489
-207 444 -207H433ZM279 80Q310 80 337 90T387 117V377Q361 407 330 425T267 443Q213 443 184 395T155 256Q155 171 186 126T279 80Z" />
<glyph unicode="r" horiz-adv-x="366" d="M128 -2Q82 -2 82 23V364Q82 408 79 435T73 476T70 494Q70 502 78 507T99 515T122 519T141 520Q154 520 160 509T170 483T177 454Q200 488 228 509T291 530Q322 530 335 519T349 486Q349 477 346 462T338 436T326 424Q316
424 306 429T273 434Q249 434 230 421T198 393T184 376V23Q184 -2 139 -2H128Z" />
<glyph unicode="s" horiz-adv-x="413" d="M197 -9Q154 -9 118 1T59 27T36 56Q36 64 43 77T59 102T76 114Q81 114 95 105T133 86T189 77Q276 77 276 142Q276 177 250 193T182 224Q150 236 119 252T68 299T48 380Q48 425 69 459T129 511T218 530Q251 530 282 525T335
508T356 483Q356 474 350 460T336 434T320 422Q315 422 293 434T230 446Q196 446 174 432T151 388Q151 361 169 346T231 316Q271 303 304 284T358 233T379 152Q379 105 356 69T292 12T197 -9Z" />
<glyph unicode="t" horiz-adv-x="342" d="M232 -7Q209 -7 185 0T142 23T110 67T98 138V438H58Q35 438 35 474V487Q35 523 58 523H98L111 625Q114 650 149 650H165Q201 650 201 625V523H275Q298 523 298 487V474Q298 438 275 438H201V143Q201 105 214 92T250 78Q267
78 274 80T288 83Q296 83 301 71T309 46T312 29Q312 13 298 6T266 -4T232 -7Z" />
<glyph unicode="u" horiz-adv-x="557" d="M229 -7Q153 -7 112 35T70 155V500Q70 525 116 525H127Q173 525 173 500V167Q173 126 195 104T263 81Q296 81 325 100T375 147V500Q375 525 421 525H432Q478 525 478 500V156Q478 112 481 85T487 44T490 25Q490 17 482
12T461 4T437 0T419 -1Q406 -1 399 10T389 38T383 69Q354 36 314 15T229 -7Z" />
<glyph unicode="v" horiz-adv-x="485" d="M226 -2Q209 -2 197 2T181 15L21 492Q20 495 19 499T17 507Q17 525 65 525H79Q96 525 108 521T123 508L210 235Q221 201 230 165T244 100H248Q254 128 263 165T286 246L369 508Q373 517 385 521T415 525H424Q468 525 468
507Q468 501 465 491L304 15Q301 6 289 2T260 -2H226Z" />
<glyph unicode="w" horiz-adv-x="747" d="M206 -2Q188 -2 176 2T162 15L31 487Q30 492 29 497T27 505Q27 515 39 520T78 525Q100 525 113 521T129 508L206 209Q211 190 216 159T227 103H231Q234 126 240 156T252 210L328 507Q331 517 342 521T372 525H384Q400
525 412 521T427 507L504 209Q515 172 519 147T526 101H528Q533 126 538 156T549 208L626 508Q628 517 641 521T672 525Q718 525 718 505Q718 502 718 499T716 491L586 15Q584 6 572 2T542 -2H506Q489 -2 477 2T463 15L390 304Q386 321 383 342T376 385H373Q370
365 367 344T359 305L286 15Q284 6 271 2T241 -2H206Z" />
<glyph unicode="x" horiz-adv-x="485" d="M64 -2Q39 -2 28 2T16 15Q16 23 25 35L183 267L36 487Q27 500 27 508Q27 516 39 520T78 525H93Q111 525 123 522T142 509L227 379Q234 368 238 360T246 347Q250 352 254 360T266 379L352 510Q358 519 371 522T402 525H413Q461
525 461 508Q461 500 452 488L302 269L460 36Q469 23 469 15Q469 7 458 3T418 -2H403Q385 -2 373 1T355 14L259 159Q252 170 248 177T241 190Q238 185 234 178T222 159L125 13Q118 4 105 1T75 -2H64Z" />
<glyph unicode="y" horiz-adv-x="481" d="M149 -207Q108 -207 108 -190Q108 -187 109 -184T113 -173L206 58V-20L19 492Q18 495 17 499T16 507Q16 525 64 525H79Q96 525 108 521T123 508L213 261Q221 239 229 210T244 155H246Q254 180 262 210T278 261L366 508Q369
517 381 521T412 525H421Q466 525 466 507Q466 501 463 491L214 -186Q210 -198 197 -202T165 -207H149Z" />
<glyph unicode="z" horiz-adv-x="489" d="M58 0Q54 0 48 10T38 33T34 58Q34 66 37 70L312 438H76Q53 438 53 474V487Q53 523 76 523H428Q433 523 438 513T446 488T450 464Q450 457 448 452L174 85H429Q452 85 452 49V36Q452 0 429 0H58Z" />
<glyph unicode="{" horiz-adv-x="274" d="M179 -138Q162 -138 143 -128T109 -92T95 -22V145Q95 195 86 225T46 270Q33 276 26 285T19 308V322Q19 337 26 345T46 360Q77 374 86 404T95 485V652Q95 696 109 721T142 757T179 768H226Q249 768 249 736V729Q249 697
227 697H212Q193 697 187 683T180 643V469Q180 423 166 392T135 341T105 314Q117 309 134 291T166 240T180 161V-12Q180 -38 186 -52T211 -67H227Q249 -67 249 -99V-106Q249 -138 226 -138H179Z" />
<glyph unicode="|" horiz-adv-x="250" d="M119 -139Q88 -139 88 -115V745Q88 769 119 769H131Q162 769 162 745V-115Q162 -139 131 -139H119Z" />
<glyph unicode="}" horiz-adv-x="274" d="M50 -138Q27 -138 27 -106V-99Q27 -67 49 -67H65Q84 -67 90 -53T96 -12V161Q96 208 110 240T142 290T171 314Q159 322 142 341T110 391T96 469V643Q96 669 90 683T64 697H48Q27 697 27 729V736Q27 768 50 768H97Q114 768
133 758T167 722T181 652V485Q181 435 190 405T230 360Q243 354 250 346T257 322V308Q257 294 250 285T230 270Q199 256 190 226T181 145V-22Q181 -66 167 -91T134 -127T97 -138H50Z" />
<glyph unicode="~" horiz-adv-x="560" d="M104 212Q97 212 87 217T76 230Q76 240 82 255Q91 279 114 299T181 320Q218 320 253 310T320 290T381 280Q408 280 420 290T440 311T454 322Q460 322 472 317T484 303Q484 299 483 295T479 283Q464 248 439 231T374 214Q340
214 306 224T240 245T181 255Q155 255 141 245T119 223T104 212Z" />
<glyph unicode="&#xa0;" horiz-adv-x="240" />
<glyph unicode="&#xa1;" horiz-adv-x="294" d="M118 -179Q72 -179 72 -156Q72 -148 74 -115T80 -32T88 76T98 189T106 290Q107 303 115 309T143 315H154Q174 315 182 309T190 290V-154Q190 -179 144 -179H118ZM137 402Q91 402 91 427V500Q91 525 137 525H158Q204
525 204 500V427Q204 402 158 402H137Z" />
<glyph unicode="&#xa2;" horiz-adv-x="470" d="M286 -74Q260 -74 260 -54V568Q260 588 286 588H291Q317 588 317 568V-54Q317 -74 291 -74H286ZM283 -7Q160 -7 98 56T36 262Q36 337 55 388T107 471T185 516T278 530Q317 530 352 523T410 504T433 477Q433 469 427
454T412 428T395 416Q393 416 390 418T382 421Q369 427 344 436T279 445Q215 445 180 403T144 265Q144 168 176 123T285 78Q325 78 352 87T393 104Q399 106 402 107T406 108Q415 108 424 97T439 72T446 50Q446 37 431 27T392 10T339 -2T283 -7Z" />
<glyph unicode="&#xa3;" horiz-adv-x="530" d="M81 0Q55 0 55 33V50Q55 65 67 74T96 92T125 118T138 164V331H89Q67 331 67 367V380Q67 416 89 416H138V499Q138 597 188 652T350 707Q363 707 380 706T415 701T443 690T454 671Q454 664 451 651T441 626T427 614Q421
614 405 618T363 623Q299 623 270 595T240 504V416H375Q398 416 398 380V367Q398 331 375 331H240V250Q240 192 232 159T211 110T187 85H451Q474 85 474 49V36Q474 0 451 0H81Z" />
<glyph unicode="&#xa4;" horiz-adv-x="550" d="M125 123Q115 123 105 132L95 142Q86 152 86 162Q86 173 97 185L121 208Q105 230 97 256T89 312Q89 371 121 418L96 442Q84 455 84 466Q84 474 91 482L105 496Q114 505 124 505Q134 505 146 493L172 468Q195 483
221 491T275 500Q304 500 330 492T379 468L405 493Q415 504 426 504Q437 504 447 494L457 484Q467 474 467 465Q467 453 455 442L430 416Q446 394 454 368T463 312Q463 283 455 257T431 209L455 185Q466 173 466 162Q466 152 455 142L446 132Q436 123 426 123Q415
123 404 134L380 158Q358 142 331 134T276 126Q247 126 220 134T171 157L147 133Q137 123 125 123ZM275 202Q306 202 331 217T371 257T387 313Q387 343 372 368T331 408T275 424Q245 424 220 409T180 368T165 313Q165 282 179 257T219 217T275 202Z" />
<glyph unicode="&#xa5;" horiz-adv-x="600" d="M90 348Q67 348 67 378V387Q67 417 90 417H268L301 397L334 417H512Q534 417 534 387V378Q534 348 512 348H90ZM90 193Q67 193 67 223V232Q67 262 90 262H512Q534 262 534 232V223Q534 193 512 193H90ZM293 -2Q247
-2 247 23V352L41 664Q32 677 32 684Q32 692 44 697T83 702H103Q121 702 133 699T151 686L303 449L458 687Q464 695 477 698T508 702H523Q569 701 569 684Q569 676 561 664L354 349V23Q354 -2 308 -2H293Z" />
<glyph unicode="&#xa6;" horiz-adv-x="250" d="M119 396Q88 396 88 421V745Q88 770 119 770H131Q162 770 162 745V421Q162 396 131 396H119ZM119 -140Q88 -140 88 -115V208Q88 233 119 233H131Q162 233 162 208V-115Q162 -140 131 -140H119Z" />
<glyph unicode="&#xa7;" horiz-adv-x="429" d="M206 -6Q185 -6 161 -3T116 6T83 21T70 42Q70 49 76 63T90 90T105 102Q110 102 132 90T194 78Q232 78 250 93T268 130Q268 153 253 165T214 186T163 204Q134 215 108 231T65 277T48 356Q48 393 61 421T96 470Q80
485 69 507T58 561Q58 611 81 643T143 691T225 707Q247 707 271 704T315 694T348 679T361 659Q361 651 355 637T342 611T326 599Q321 599 298 610T236 622Q198 622 181 608T163 570Q163 549 177 537T214 516T263 498Q293 488 320 472T365 426T382 345Q382 308 369
280T333 231Q350 216 361 194T372 141Q372 90 349 58T288 10T206 -6ZM242 273Q260 280 272 295T284 341Q284 368 271 384T236 410T188 428Q172 420 159 405T146 361Q146 334 159 318T194 291T242 273Z" />
<glyph unicode="&#xa8;" horiz-adv-x="258" d="M208 592Q183 592 171 598T159 617V676Q159 688 171 694T208 700Q234 700 246 694T258 676V617Q258 605 246 599T208 592ZM49 592Q23 592 12 598T0 617V676Q0 688 11 694T49 700Q75 700 86 694T98 676V617Q98 605
87 599T49 592Z" />
<glyph unicode="&#xa9;" horiz-adv-x="739" d="M369 -6Q295 -6 230 22T116 99T39 213T11 353Q11 428 39 492T116 605T230 681T369 709Q444 709 509 682T623 606T701 493T729 353Q729 278 701 213T624 99T509 22T369 -6ZM384 141Q288 141 242 192T195 350Q195 559
386 559Q415 559 441 554T484 540T501 522Q501 516 497 506T487 489T476 481Q473 481 463 487T434 500T387 506Q321 506 290 469T259 350Q259 271 290 233T384 194Q414 194 435 201T468 215T484 222Q489 222 495 215T504 199T508 185Q508 175 490 165T444 148T384
141ZM369 47Q433 47 488 71T586 137T652 234T676 353Q676 417 652 471T586 568T489 633T369 657Q306 657 251 634T153 568T87 472T63 353Q63 290 87 235T153 137T250 71T369 47Z" />
<glyph unicode="&#xaa;" horiz-adv-x="319" d="M123 441Q88 441 66 460T44 515Q44 550 63 570T118 597T199 605V625Q199 641 189 649T152 657Q120 657 102 649T79 641Q73 641 66 655T59 674Q59 685 87 696T155 707Q203 707 229 686T256 627V521Q256 488 259 473T262
455Q262 450 254 447T237 443T224 442Q213 442 209 454T203 476Q197 468 186 460T159 447T123 441ZM136 493Q155 493 171 501T199 522V560Q176 560 153 558T115 547T100 521Q100 508 109 501T136 493Z" />
<glyph unicode="&#xab;" horiz-adv-x="470" d="M380 57Q368 57 356 70L227 225Q213 242 213 258Q213 274 227 291L356 446Q368 458 380 458Q387 458 396 453T414 440T422 421Q422 412 413 401L303 258L413 114Q422 103 422 94Q422 87 415 79T398 64T380 57ZM200
57Q188 57 176 70L47 225Q33 242 33 258Q33 274 47 291L176 446Q188 458 200 458Q207 458 217 453T234 440T242 421Q242 412 233 401L123 258L233 114Q242 103 242 94Q242 87 235 79T219 64T200 57Z" />
<glyph unicode="&#xac;" horiz-adv-x="560" d="M472 76Q453 76 445 83T436 100V258H60Q37 258 37 294V305Q37 341 60 341H490Q523 341 523 308V100Q523 90 515 83T487 76H472Z" />
<glyph unicode="&#xad;" horiz-adv-x="320" d="M63 225Q40 225 40 261V270Q40 305 63 305H257Q280 305 280 270V261Q280 225 257 225H63Z" />
<glyph unicode="&#xae;" horiz-adv-x="739" d="M274 148Q247 148 247 163V537Q247 556 266 556H368Q438 556 473 531T509 452Q509 415 491 391T442 355V352Q459 346 470 329T492 285L538 167Q541 162 541 158Q541 148 513 148H503Q481 148 477 158L432 272Q420
302 403 312T353 323H309V163Q309 148 282 148H274ZM309 376H380Q408 376 427 395T446 441Q446 473 427 488T376 503H309V376ZM369 -6Q295 -6 230 22T116 99T39 213T11 353Q11 428 39 492T116 605T230 681T369 709Q444 709 509 682T623 606T701 493T729 353Q729
278 701 213T624 99T509 22T369 -6ZM369 47Q433 47 488 71T586 137T652 234T676 353Q676 417 652 471T586 568T489 633T369 657Q306 657 251 634T153 568T87 472T63 353Q63 290 87 235T153 137T250 71T369 47Z" />
<glyph unicode="&#xaf;" horiz-adv-x="268" d="M23 608Q0 608 0 641V652Q0 685 23 685H245Q268 685 268 652V641Q268 608 245 608H23Z" />
<glyph unicode="&#xb0;" horiz-adv-x="345" d="M172 442Q136 442 106 460T58 508T40 574Q40 611 58 641T106 689T172 707Q209 707 239 689T287 641T305 574Q305 538 287 508T239 460T172 442ZM172 491Q205 491 228 515T251 574Q251 608 228 632T172 657Q140 657
117 633T94 574Q94 540 117 516T172 491Z" />
<glyph unicode="&#xb1;" horiz-adv-x="560" d="M276 136Q240 136 240 159V323H70Q47 323 47 358V365Q47 401 70 401H240V573Q240 596 276 596H285Q320 596 320 573V401H490Q513 401 513 365V358Q513 323 490 323H320V159Q320 136 285 136H276ZM69 1Q47 1 47 34V46Q47
79 69 79H491Q513 79 513 46V34Q513 1 491 1H69Z" />
<glyph unicode="&#xb2;" horiz-adv-x="310" d="M36 350Q30 350 27 360T23 380Q23 386 24 389T29 398L175 580Q191 599 198 611T207 634T210 656Q210 683 191 698T142 713Q118 713 101 707T74 693T59 686Q52 686 45 698T37 717Q37 731 55 741T99 756T145 762Q204
762 237 734T271 659Q271 634 265 616T248 583T223 550L103 399H262Q275 399 275 378V371Q275 350 262 350H36Z" />
<glyph unicode="&#xb3;" horiz-adv-x="310" d="M144 344Q114 344 86 349T41 363T23 382Q23 388 27 395T37 409T47 415Q55 415 76 405T137 394Q155 394 173 401T202 424T214 468Q214 509 193 524T131 540H113Q99 540 99 562V569Q99 590 113 590H128Q155 590 171
601T194 629T201 659Q201 671 196 683T177 704T138 713Q100 713 83 704T58 694Q52 694 44 707T35 728Q35 739 53 746T96 758T143 763Q197 763 229 737T262 660Q262 629 245 608T203 577V574Q232 566 253 539T275 467Q275 424 256 397T207 357T144 344Z" />
<glyph unicode="&#xb4;" horiz-adv-x="170" d="M27 575Q12 575 6 578T0 588Q0 593 3 599T12 616L52 691Q57 700 63 706T83 715T120 718Q145 718 157 715T170 702Q170 694 164 685T145 661L90 601Q76 584 62 580T27 575Z" />
<glyph unicode="&#xb5;" horiz-adv-x="566" d="M125 -207Q79 -207 79 -183V500Q79 525 125 525H136Q182 525 182 500V167Q182 126 204 104T272 81Q305 81 334 100T384 147V500Q384 525 430 525H441Q487 525 487 500V156Q487 112 490 85T496 44T499 25Q499 17 491
12T470 4T446 0T428 -1Q415 -1 408 10T398 38T392 69Q363 35 323 14T240 -7Q213 -7 189 1T146 23L159 50Q169 9 174 -26T180 -99T182 -183Q182 -207 136 -207H125Z" />
<glyph unicode="&#xb6;" horiz-adv-x="515" d="M269 -172Q243 -172 243 -148V247Q187 254 141 285T68 366T41 473Q41 537 71 588T154 670T268 700H478Q501 700 501 674V663Q501 638 478 638H445V-148Q445 -172 419 -172H409Q383 -172 383 -148V638H305V-148Q305
-172 279 -172H269Z" />
<glyph unicode="&#xb7;" horiz-adv-x="267" d="M133 303Q109 303 93 319T77 360Q77 384 93 400T133 417Q157 417 173 401T190 360Q190 336 174 320T133 303Z" />
<glyph unicode="&#xb8;" horiz-adv-x="236" d="M120 -211Q96 -211 68 -206T20 -190T0 -166Q0 -153 6 -145T22 -136Q34 -136 58 -146T117 -156Q127 -156 138 -154T157 -145T165 -125Q165 -109 155 -103T130 -94T104 -88T93 -76Q93 -72 94 -65T101 -42T114 3H163L146
-58L132 -51Q182 -51 209 -70T236 -124Q236 -159 219 -177T176 -203T120 -211Z" />
<glyph unicode="&#xb9;" horiz-adv-x="310" d="M164 348Q154 348 147 352T139 364V702L64 687Q56 687 53 700T50 723Q50 732 61 735L179 763Q186 763 192 759T198 750V364Q198 356 191 352T173 348H164Z" />
<glyph unicode="&#xba;" horiz-adv-x="337" d="M170 441Q113 441 83 474T53 573Q53 638 83 672T170 707Q225 707 254 673T284 573Q284 508 255 475T170 441ZM168 490Q225 490 225 574Q225 657 168 657Q112 657 112 574Q112 490 168 490Z" />
<glyph unicode="&#xbb;" horiz-adv-x="470" d="M270 57Q261 57 252 63T235 78T228 94Q228 103 237 114L347 258L237 401Q228 412 228 421Q228 431 235 439T253 453T270 458Q283 458 294 446L423 291Q437 274 437 258Q437 242 423 225L294 70Q282 57 270 57ZM90
57Q82 57 72 63T55 78T48 94Q48 103 57 114L167 258L57 401Q48 412 48 421Q48 431 55 439T73 453T90 458Q104 458 114 446L243 291Q257 274 257 258Q257 242 243 225L114 70Q103 57 90 57Z" />
<glyph unicode="&#xbc;" horiz-adv-x="750" d="M143 288Q133 288 126 292T118 304V642L42 627Q34 627 31 640T28 663Q28 672 40 675L157 703Q164 703 170 699T177 690V304Q177 296 170 292T151 288H143ZM631 -2Q609 -2 609 13V92H443Q438 92 434 98T426 112T423
127Q423 132 427 136L610 400Q614 405 620 407T634 409H645Q667 409 667 394V141H702Q714 141 714 120V112Q714 92 702 92H667V13Q667 -2 645 -2H631ZM487 141H609V275Q609 289 610 299T614 322L612 323L487 141ZM144 -1Q128 -1 128 7Q128 9 129 12T133 19L527
684Q537 702 558 702H572Q590 702 590 694Q590 692 589 689T586 683L193 18Q187 8 180 4T159 -1H144Z" />
<glyph unicode="&#xbd;" horiz-adv-x="750" d="M143 288Q133 288 126 292T118 304V642L42 627Q34 627 31 640T28 663Q28 672 40 675L157 703Q164 703 170 699T177 690V304Q177 296 170 292T151 288H143ZM454 0Q448 0 445 10T441 30Q441 36 442 39T447 48L593 230Q609
249 616 261T625 284T628 306Q628 333 610 348T560 363Q536 363 519 357T492 343T477 336Q471 336 463 348T455 367Q455 381 473 391T517 406T563 412Q622 412 655 384T689 309Q689 284 683 266T666 233T641 200L521 49H680Q693 49 693 28V21Q693 0 680 0H454ZM119
-1Q103 -1 103 7Q103 9 105 12T109 19L502 684Q513 702 534 702H547Q566 702 566 694Q566 692 565 689T561 683L168 18Q162 8 155 4T135 -1H119Z" />
<glyph unicode="&#xbe;" horiz-adv-x="750" d="M134 284Q104 284 76 289T31 303T13 322Q13 328 17 335T27 349T37 355Q45 355 66 345T127 334Q145 334 163 341T192 364T204 408Q204 449 183 464T121 480H103Q89 480 89 502V509Q89 530 103 530H118Q145 530 161
541T184 569T191 599Q191 611 186 623T167 644T128 653Q90 653 73 644T48 634Q42 634 34 647T25 668Q25 679 43 686T87 698T133 703Q187 703 219 677T252 600Q252 569 235 548T193 517V514Q222 506 243 479T265 407Q265 364 246 337T197 297T134 284ZM631 -2Q609
-2 609 13V92H443Q438 92 434 98T426 112T423 127Q423 132 427 136L610 400Q614 405 620 407T634 409H645Q667 409 667 394V141H702Q714 141 714 120V112Q714 92 702 92H667V13Q667 -2 645 -2H631ZM487 141H609V275Q609 289 610 299T614 322L612 323L487 141ZM173
-1Q157 -1 157 7Q157 9 158 12T162 19L555 684Q566 702 587 702H601Q619 702 619 694Q619 692 618 689T614 683L221 18Q215 8 208 4T188 -1H173Z" />
<glyph unicode="&#xbf;" horiz-adv-x="425" d="M279 315Q298 315 306 309T314 291Q314 254 292 214T233 135Q197 97 169 65T141 -3Q141 -47 169 -70T252 -93Q283 -93 307 -85T348 -68T372 -60Q380 -60 389 -71T406 -97T413 -120Q413 -135 396 -147T353 -167T295
-179T237 -184Q170 -184 124 -161T53 -100T28 -13Q28 24 41 53T77 107T123 155Q157 188 186 220T223 293Q225 305 233 310T261 315H279ZM282 525Q328 525 328 500V427Q328 402 282 402H261Q215 402 215 427V500Q215 525 261 525H282Z" />
<glyph unicode="&#xc0;" horiz-adv-x="613" d="M57 -2Q9 -2 9 16Q9 20 10 23T12 32L244 685Q251 702 289 702H324Q364 702 369 685L601 31Q604 23 604 16Q604 -2 559 -2H541Q524 -2 512 2T496 15L443 167H166L114 15Q110 6 99 2T72 -2H57ZM198 259H411L320 523Q316
537 313 552T307 583H305Q302 568 299 553T290 523L198 259ZM365 751Q340 751 326 755T292 772L229 811Q206 827 199 834T192 849Q192 859 208 863T250 867Q283 867 299 862T329 842L383 784Q389 778 391 773T394 764Q394 751 365 751Z" />
<glyph unicode="&#xc1;" horiz-adv-x="613" d="M57 -2Q9 -2 9 16Q9 20 10 23T12 32L244 685Q251 702 289 702H324Q364 702 369 685L601 31Q604 23 604 16Q604 -2 559 -2H541Q524 -2 512 2T496 15L443 167H166L114 15Q110 6 99 2T72 -2H57ZM198 259H411L320 523Q316
537 313 552T307 583H305Q302 568 299 553T290 523L198 259ZM249 751Q219 751 219 764Q219 768 222 773T231 784L285 842Q299 857 315 862T364 867Q390 867 406 863T422 849Q422 842 415 834T385 811L322 772Q302 759 288 755T249 751Z" />
<glyph unicode="&#xc2;" horiz-adv-x="613" d="M57 -2Q9 -2 9 16Q9 20 10 23T12 32L244 685Q251 702 289 702H324Q364 702 369 685L601 31Q604 23 604 16Q604 -2 559 -2H541Q524 -2 512 2T496 15L443 167H166L114 15Q110 6 99 2T72 -2H57ZM198 259H411L320 523Q316
537 313 552T307 583H305Q302 568 299 553T290 523L198 259ZM199 740Q183 740 178 743T172 750Q172 754 174 759T188 776L241 833Q252 846 263 851T297 856H317Q340 856 350 852T373 833L424 778Q437 764 439 759T442 750Q442 746 437 743T414 740Q403 740 391
743T369 754L307 793L247 755Q235 748 223 744T199 740Z" />
<glyph unicode="&#xc3;" horiz-adv-x="613" d="M57 -2Q9 -2 9 16Q9 20 10 23T12 32L244 685Q251 702 289 702H324Q364 702 369 685L601 31Q604 23 604 16Q604 -2 559 -2H541Q524 -2 512 2T496 15L443 167H166L114 15Q110 6 99 2T72 -2H57ZM198 259H411L320 523Q316
537 313 552T307 583H305Q302 568 299 553T290 523L198 259ZM160 754Q152 754 139 761T126 777Q126 781 127 785T130 794Q143 825 168 844T229 864Q256 864 284 855T338 835T383 825Q404 825 416 835T437 854T454 864Q463 864 475 856T488 839Q488 832 483 823Q468
793 444 774T384 755Q356 755 328 765T274 784T227 794Q207 794 196 785T177 765T160 754Z" />
<glyph unicode="&#xc4;" horiz-adv-x="613" d="M57 -2Q9 -2 9 16Q9 20 10 23T12 32L244 685Q251 702 289 702H324Q364 702 369 685L601 31Q604 23 604 16Q604 -2 559 -2H541Q524 -2 512 2T496 15L443 167H166L114 15Q110 6 99 2T72 -2H57ZM198 259H411L320 523Q316
537 313 552T307 583H305Q302 568 299 553T290 523L198 259ZM391 755Q365 755 353 761T341 779V839Q341 852 353 858T391 864Q417 864 429 858T441 839V779Q441 767 429 761T391 755ZM223 755Q197 755 185 761T173 779V839Q173 852 185 858T223 864Q249 864 261
858T273 839V779Q273 767 261 761T223 755Z" />
<glyph unicode="&#xc5;" horiz-adv-x="613" d="M57 -2Q9 -2 9 16Q9 20 10 23T12 32L244 685Q251 702 289 702H324Q364 702 369 685L601 31Q604 23 604 16Q604 -2 559 -2H541Q524 -2 512 2T496 15L443 167H166L114 15Q110 6 99 2T72 -2H57ZM198 259H411L320 523Q316
537 313 552T307 583H305Q302 568 299 553T290 523L198 259ZM306 739Q268 739 243 764T218 827Q218 865 243 890T306 916Q344 916 369 891T395 827Q395 789 370 764T306 739ZM306 789Q322 789 333 800T345 827Q345 843 334 854T306 865Q291 865 280 854T268 827Q268
811 279 800T306 789Z" />
<glyph unicode="&#xc6;" horiz-adv-x="915" d="M39 -2Q15 -2 5 3T-6 16Q-6 25 -2 33L319 673Q332 700 362 700H813Q836 700 836 664V644Q836 608 813 608H464L507 404H784Q806 404 806 368V348Q806 312 784 312H526L573 92H814Q837 92 837 56V36Q837 0 814 0H514Q498
0 490 7T478 29L449 167H169L95 15Q91 7 80 3T53 -2H39ZM216 259H430L375 524L372 589H370L347 524L216 259Z" />
<glyph unicode="&#xc7;" horiz-adv-x="619" d="M378 -7Q212 -7 133 80T54 351Q54 707 380 707Q414 707 446 702T506 689T552 670Q577 656 577 642Q577 633 570 617T552 587T534 574Q528 574 511 584T461 604T381 614Q270 614 217 551T164 350Q164 215 216 150T378
85Q428 85 463 97T519 120T547 132Q557 132 566 119T582 91T589 69Q589 60 581 50T556 32Q537 21 509 13T447 -1T378 -7ZM334 -211Q310 -211 282 -206T234 -190T214 -166Q214 -153 220 -145T236 -136Q248 -136 272 -146T331 -156Q341 -156 352 -154T371 -145T380
-125Q380 -109 369 -103T344 -94T319 -88T308 -76Q308 -72 309 -65T315 -42T328 3H377L360 -58L346 -51Q396 -51 423 -70T450 -124Q450 -159 433 -177T390 -203T334 -211Z" />
<glyph unicode="&#xc8;" horiz-adv-x="546" d="M125 0Q92 0 92 33V667Q92 700 125 700H474Q497 700 497 664V644Q497 608 474 608H199V404H445Q468 404 468 368V348Q468 312 445 312H199V92H475Q498 92 498 56V36Q498 0 475 0H125ZM352 751Q327 751 313 755T279
772L216 811Q193 827 186 834T179 849Q179 859 194 863T237 867Q270 867 286 862T316 842L370 784Q376 778 378 773T381 764Q381 751 352 751Z" />
<glyph unicode="&#xc9;" horiz-adv-x="546" d="M125 0Q92 0 92 33V667Q92 700 125 700H474Q497 700 497 664V644Q497 608 474 608H199V404H445Q468 404 468 368V348Q468 312 445 312H199V92H475Q498 92 498 56V36Q498 0 475 0H125ZM236 751Q206 751 206 764Q206
768 208 773T218 784L272 842Q286 857 302 862T351 867Q377 867 393 863T409 849Q409 842 402 834T372 811L308 772Q289 759 275 755T236 751Z" />
<glyph unicode="&#xca;" horiz-adv-x="546" d="M125 0Q92 0 92 33V667Q92 700 125 700H474Q497 700 497 664V644Q497 608 474 608H199V404H445Q468 404 468 368V348Q468 312 445 312H199V92H475Q498 92 498 56V36Q498 0 475 0H125ZM186 740Q169 740 164 743T159
750Q159 754 161 759T175 776L228 833Q239 846 250 851T284 856H304Q327 856 337 852T360 833L411 778Q424 764 426 759T428 750Q428 746 423 743T401 740Q390 740 378 743T355 754L294 793L234 755Q222 748 210 744T186 740Z" />
<glyph unicode="&#xcb;" horiz-adv-x="546" d="M125 0Q92 0 92 33V667Q92 700 125 700H474Q497 700 497 664V644Q497 608 474 608H199V404H445Q468 404 468 368V348Q468 312 445 312H199V92H475Q498 92 498 56V36Q498 0 475 0H125ZM378 755Q351 755 340 761T328
779V839Q328 852 339 858T378 864Q404 864 415 858T427 839V779Q427 767 416 761T378 755ZM210 755Q184 755 172 761T160 779V839Q160 852 172 858T210 864Q236 864 248 858T260 839V779Q260 767 248 761T210 755Z" />
<glyph unicode="&#xcc;" horiz-adv-x="283" d="M133 -2Q87 -2 87 23V677Q87 702 133 702H149Q195 702 195 677V23Q195 -2 149 -2H133ZM199 751Q174 751 160 755T126 772L63 811Q40 827 33 834T26 849Q26 859 42 863T84 867Q117 867 133 862T163 842L217 784Q224
778 226 773T229 764Q229 751 199 751Z" />
<glyph unicode="&#xcd;" horiz-adv-x="283" d="M133 -2Q87 -2 87 23V677Q87 702 133 702H149Q195 702 195 677V23Q195 -2 149 -2H133ZM83 751Q54 751 54 764Q54 768 56 773T65 784L119 842Q133 857 149 862T198 867Q224 867 240 863T256 849Q256 842 249 834T219
811L156 772Q136 759 122 755T83 751Z" />
<glyph unicode="&#xce;" horiz-adv-x="283" d="M133 -2Q87 -2 87 23V677Q87 702 133 702H149Q195 702 195 677V23Q195 -2 149 -2H133ZM33 740Q17 740 12 743T6 750Q6 754 8 759T22 776L75 833Q87 846 98 851T131 856H151Q174 856 184 852T207 833L258 778Q271
764 273 759T276 750Q276 746 271 743T249 740Q237 740 225 743T203 754L141 793L81 755Q70 748 58 744T33 740Z" />
<glyph unicode="&#xcf;" horiz-adv-x="283" d="M133 -2Q87 -2 87 23V677Q87 702 133 702H149Q195 702 195 677V23Q195 -2 149 -2H133ZM225 755Q199 755 187 761T175 779V839Q175 852 187 858T225 864Q251 864 263 858T275 839V779Q275 767 263 761T225 755ZM58
755Q31 755 20 761T8 779V839Q8 852 19 858T58 864Q84 864 95 858T107 839V779Q107 767 96 761T58 755Z" />
<glyph unicode="&#xd0;" horiz-adv-x="695" d="M26 312Q3 312 3 347V367Q3 403 26 403H324Q346 403 346 367V347Q346 312 324 312H26ZM124 0Q91 0 91 33V667Q91 700 124 700H329Q420 700 490 665T601 552T641 350Q641 256 618 190T554 82T455 20T329 0H124ZM198
92H324Q385 92 431 118T504 201T531 350Q531 442 505 498T432 581T324 608H198V92Z" />
<glyph unicode="&#xd1;" horiz-adv-x="719" d="M130 -2Q84 -2 84 23V677Q84 702 130 702H157Q175 702 186 698T206 681L494 243Q505 228 513 214T528 184L532 185Q531 202 531 216T530 253V677Q530 702 576 702H589Q635 702 635 677V23Q635 -2 589 -2H564Q548
-2 538 2T520 16L225 463Q215 478 207 492T191 523L187 522Q189 505 189 491T189 454V23Q189 -2 143 -2H130ZM213 754Q205 754 192 761T179 777Q179 781 180 785T183 794Q196 825 221 844T282 864Q309 864 337 855T391 835T436 825Q457 825 469 835T490 854T507
864Q516 864 528 856T541 839Q541 832 536 823Q521 793 497 774T437 755Q409 755 381 765T327 784T280 794Q260 794 249 785T230 765T213 754Z" />
<glyph unicode="&#xd2;" horiz-adv-x="731" d="M365 -7Q214 -7 134 85T54 351Q54 527 134 617T365 707Q517 707 597 617T677 351Q677 177 597 85T365 -7ZM365 85Q464 85 515 153T567 351Q567 481 516 547T365 614Q267 614 216 548T164 351Q164 221 215 153T365
85ZM424 751Q399 751 385 755T351 772L288 811Q265 827 258 834T251 849Q251 859 267 863T309 867Q342 867 358 862T388 842L442 784Q448 778 450 773T453 764Q453 751 424 751Z" />
<glyph unicode="&#xd3;" horiz-adv-x="731" d="M365 -7Q214 -7 134 85T54 351Q54 527 134 617T365 707Q517 707 597 617T677 351Q677 177 597 85T365 -7ZM365 85Q464 85 515 153T567 351Q567 481 516 547T365 614Q267 614 216 548T164 351Q164 221 215 153T365
85ZM308 751Q278 751 278 764Q278 768 281 773T290 784L344 842Q358 857 374 862T423 867Q449 867 465 863T481 849Q481 842 474 834T444 811L381 772Q361 759 347 755T308 751Z" />
<glyph unicode="&#xd4;" horiz-adv-x="731" d="M365 -7Q214 -7 134 85T54 351Q54 527 134 617T365 707Q517 707 597 617T677 351Q677 177 597 85T365 -7ZM365 85Q464 85 515 153T567 351Q567 481 516 547T365 614Q267 614 216 548T164 351Q164 221 215 153T365
85ZM258 740Q242 740 237 743T231 750Q231 754 233 759T247 776L300 833Q311 846 322 851T356 856H376Q399 856 409 852T432 833L483 778Q496 764 498 759T501 750Q501 746 496 743T473 740Q462 740 450 743T428 754L366 793L306 755Q294 748 282 744T258 740Z"
/>
<glyph unicode="&#xd5;" horiz-adv-x="731" d="M365 -7Q214 -7 134 85T54 351Q54 527 134 617T365 707Q517 707 597 617T677 351Q677 177 597 85T365 -7ZM365 85Q464 85 515 153T567 351Q567 481 516 547T365 614Q267 614 216 548T164 351Q164 221 215 153T365
85ZM219 754Q211 754 198 761T185 777Q185 781 186 785T189 794Q202 825 227 844T288 864Q315 864 343 855T397 835T442 825Q463 825 475 835T496 854T513 864Q522 864 534 856T547 839Q547 832 542 823Q527 793 503 774T443 755Q415 755 387 765T333 784T286 794Q266
794 255 785T236 765T219 754Z" />
<glyph unicode="&#xd6;" horiz-adv-x="731" d="M365 -7Q214 -7 134 85T54 351Q54 527 134 617T365 707Q517 707 597 617T677 351Q677 177 597 85T365 -7ZM365 85Q464 85 515 153T567 351Q567 481 516 547T365 614Q267 614 216 548T164 351Q164 221 215 153T365
85ZM450 755Q424 755 412 761T400 779V839Q400 852 412 858T450 864Q476 864 488 858T500 839V779Q500 767 488 761T450 755ZM282 755Q256 755 244 761T232 779V839Q232 852 244 858T282 864Q308 864 320 858T332 839V779Q332 767 320 761T282 755Z" />
<glyph unicode="&#xd7;" horiz-adv-x="560" d="M101 3Q95 3 83 12T62 33T53 51Q53 58 62 67L226 232L62 396Q53 405 53 412Q53 417 62 428T82 450T101 460Q109 460 117 452L281 287L445 452Q453 460 460 460Q467 460 478 451T499 430T508 412Q508 404 500 396L336
232L500 67Q508 60 508 52Q508 44 498 33T477 12T460 3Q453 3 445 11L281 177L117 11Q108 3 101 3Z" />
<glyph unicode="&#xd8;" horiz-adv-x="731" d="M75 7Q68 -3 59 -3Q54 -3 47 2T35 13T30 25Q30 33 37 41L627 699Q635 708 643 708Q649 708 656 704T668 693T673 681Q673 674 666 665L75 7ZM365 -7Q214 -7 134 85T54 351Q54 527 134 617T365 707Q517 707 597 617T677
351Q677 177 597 85T365 -7ZM365 85Q464 85 515 153T567 351Q567 481 516 547T365 614Q267 614 216 548T164 351Q164 221 215 153T365 85Z" />
<glyph unicode="&#xd9;" horiz-adv-x="712" d="M356 -7Q222 -7 150 55T78 227V677Q78 702 124 702H139Q185 702 185 677V228Q185 186 207 154T268 103T356 85Q406 85 444 103T505 154T527 228V677Q527 702 573 702H588Q634 702 634 677V227Q634 117 562 55T356
-7ZM414 751Q389 751 375 755T341 772L278 811Q255 827 248 834T241 849Q241 859 257 863T299 867Q332 867 348 862T378 842L432 784Q438 778 440 773T443 764Q443 751 414 751Z" />
<glyph unicode="&#xda;" horiz-adv-x="712" d="M356 -7Q222 -7 150 55T78 227V677Q78 702 124 702H139Q185 702 185 677V228Q185 186 207 154T268 103T356 85Q406 85 444 103T505 154T527 228V677Q527 702 573 702H588Q634 702 634 677V227Q634 117 562 55T356
-7ZM298 751Q268 751 268 764Q268 768 271 773T280 784L334 842Q348 857 364 862T413 867Q439 867 455 863T471 849Q471 842 464 834T434 811L371 772Q351 759 337 755T298 751Z" />
<glyph unicode="&#xdb;" horiz-adv-x="712" d="M356 -7Q222 -7 150 55T78 227V677Q78 702 124 702H139Q185 702 185 677V228Q185 186 207 154T268 103T356 85Q406 85 444 103T505 154T527 228V677Q527 702 573 702H588Q634 702 634 677V227Q634 117 562 55T356
-7ZM248 740Q232 740 227 743T221 750Q221 754 223 759T237 776L290 833Q301 846 312 851T346 856H366Q389 856 399 852T422 833L473 778Q486 764 488 759T491 750Q491 746 486 743T463 740Q452 740 440 743T418 754L356 793L296 755Q284 748 272 744T248 740Z"
/>
<glyph unicode="&#xdc;" horiz-adv-x="712" d="M356 -7Q222 -7 150 55T78 227V677Q78 702 124 702H139Q185 702 185 677V228Q185 186 207 154T268 103T356 85Q406 85 444 103T505 154T527 228V677Q527 702 573 702H588Q634 702 634 677V227Q634 117 562 55T356
-7ZM440 755Q414 755 402 761T390 779V839Q390 852 402 858T440 864Q466 864 478 858T490 839V779Q490 767 478 761T440 755ZM272 755Q246 755 234 761T222 779V839Q222 852 234 858T272 864Q298 864 310 858T322 839V779Q322 767 310 761T272 755Z" />
<glyph unicode="&#xdd;" horiz-adv-x="559" d="M272 -2Q226 -2 226 23V352L20 664Q11 677 11 684Q11 692 23 697T62 702H82Q100 702 112 699T130 686L282 449L437 687Q443 695 456 698T487 702H502Q548 701 548 684Q548 676 540 664L333 349V23Q333 -2 287 -2H272ZM222
751Q192 751 192 764Q192 768 195 773T204 784L258 842Q272 857 288 862T337 867Q363 867 379 863T395 849Q395 842 388 834T358 811L295 772Q275 759 261 755T222 751Z" />
<glyph unicode="&#xde;" horiz-adv-x="570" d="M126 -2Q80 -2 80 23V677Q80 702 126 702H142Q187 702 187 677V582H318Q351 582 390 575T464 547T523 486T546 380Q546 324 529 287T485 226T428 191T371 174T328 170H187V23Q187 -2 142 -2H126ZM187 262H324Q339
262 358 266T394 284T423 320T435 380Q435 426 416 449T369 481T314 490H187V262Z" />
<glyph unicode="&#xdf;" horiz-adv-x="554" d="M127 -2Q81 -2 81 23V512Q81 571 107 614T179 682T287 707Q344 707 390 689T464 634T492 534Q492 490 465 449T392 387V384Q456 366 487 319T519 207Q519 142 491 96T413 25T299 0H270Q247 0 247 36V49Q247 85 270
85H297Q347 85 380 117T414 207Q414 265 380 298T294 332H270Q247 332 247 367V381Q247 417 269 417H277Q306 417 330 431T370 469T385 523Q385 558 372 579T335 610T285 619Q238 619 211 591T183 516V23Q183 -2 137 -2H127Z" />
<glyph unicode="&#xe0;" horiz-adv-x="545" d="M211 -7Q136 -7 92 31T47 142Q47 196 71 231T138 287T240 316T366 325V368Q366 401 344 423T265 445Q223 445 192 435T142 415T117 405Q109 405 100 417T84 443T77 464Q77 478 103 493T172 519T266 530Q333 530 378
511T445 455T468 370V156Q468 112 471 85T477 44T480 25Q480 17 472 12T451 4T428 0T410 -1Q397 -1 390 10T380 38T373 69Q359 52 336 35T283 5T211 -7ZM228 79Q276 79 308 99T366 146V246Q328 246 291 243T222 231T172 203T153 150Q153 116 172 98T228 79ZM292
575Q272 575 258 579T230 601L175 661Q162 676 156 685T150 702Q150 711 163 714T200 718Q223 718 236 715T257 706T268 691L308 616Q313 606 316 600T320 588Q320 582 314 579T292 575Z" />
<glyph unicode="&#xe1;" horiz-adv-x="545" d="M211 -7Q136 -7 92 31T47 142Q47 196 71 231T138 287T240 316T366 325V368Q366 401 344 423T265 445Q223 445 192 435T142 415T117 405Q109 405 100 417T84 443T77 464Q77 478 103 493T172 519T266 530Q333 530 378
511T445 455T468 370V156Q468 112 471 85T477 44T480 25Q480 17 472 12T451 4T428 0T410 -1Q397 -1 390 10T380 38T373 69Q359 52 336 35T283 5T211 -7ZM228 79Q276 79 308 99T366 146V246Q328 246 291 243T222 231T172 203T153 150Q153 116 172 98T228 79ZM230
575Q215 575 209 578T203 588Q203 593 206 599T214 616L254 691Q260 700 266 706T286 715T323 718Q348 718 360 715T372 702Q372 694 367 685T348 661L293 601Q278 584 265 580T230 575Z" />
<glyph unicode="&#xe2;" horiz-adv-x="545" d="M211 -7Q136 -7 92 31T47 142Q47 196 71 231T138 287T240 316T366 325V368Q366 401 344 423T265 445Q223 445 192 435T142 415T117 405Q109 405 100 417T84 443T77 464Q77 478 103 493T172 519T266 530Q333 530 378
511T445 455T468 370V156Q468 112 471 85T477 44T480 25Q480 17 472 12T451 4T428 0T410 -1Q397 -1 390 10T380 38T373 69Q359 52 336 35T283 5T211 -7ZM228 79Q276 79 308 99T366 146V246Q328 246 291 243T222 231T172 203T153 150Q153 116 172 98T228 79ZM175
575Q147 575 147 588Q147 593 150 599T159 616L200 692Q207 706 219 712T263 718H282Q314 718 326 712T346 692L387 616Q392 606 395 600T398 588Q398 575 371 575Q352 575 342 580T319 599L273 654L227 599Q215 585 205 580T175 575Z" />
<glyph unicode="&#xe3;" horiz-adv-x="545" d="M211 -7Q136 -7 92 31T47 142Q47 196 71 231T138 287T240 316T366 325V368Q366 401 344 423T265 445Q223 445 192 435T142 415T117 405Q109 405 100 417T84 443T77 464Q77 478 103 493T172 519T266 530Q333 530 378
511T445 455T468 370V156Q468 112 471 85T477 44T480 25Q480 17 472 12T451 4T428 0T410 -1Q397 -1 390 10T380 38T373 69Q359 52 336 35T283 5T211 -7ZM228 79Q276 79 308 99T366 146V246Q328 246 291 243T222 231T172 203T153 150Q153 116 172 98T228 79ZM127
589Q123 589 114 591T99 599T92 611Q92 618 95 626Q110 662 133 678T190 695Q215 695 239 687T286 670T331 661Q351 661 361 670T378 688T393 697Q398 697 406 694T422 685T429 674Q429 671 428 667T424 657Q409 625 387 608T329 591Q305 591 280 599T231 617T188
626Q170 626 160 617T143 599T127 589Z" />
<glyph unicode="&#xe4;" horiz-adv-x="545" d="M211 -7Q136 -7 92 31T47 142Q47 196 71 231T138 287T240 316T366 325V368Q366 401 344 423T265 445Q223 445 192 435T142 415T117 405Q109 405 100 417T84 443T77 464Q77 478 103 493T172 519T266 530Q333 530 378
511T445 455T468 370V156Q468 112 471 85T477 44T480 25Q480 17 472 12T451 4T428 0T410 -1Q397 -1 390 10T380 38T373 69Q359 52 336 35T283 5T211 -7ZM228 79Q276 79 308 99T366 146V246Q328 246 291 243T222 231T172 203T153 150Q153 116 172 98T228 79ZM353
592Q327 592 315 598T303 617V676Q303 688 315 694T353 700Q378 700 390 694T402 676V617Q402 605 390 599T353 592ZM193 592Q168 592 156 598T144 617V676Q144 688 156 694T193 700Q219 700 231 694T243 676V617Q243 605 231 599T193 592Z" />
<glyph unicode="&#xe5;" horiz-adv-x="545" d="M211 -7Q136 -7 92 31T47 142Q47 196 71 231T138 287T240 316T366 325V368Q366 401 344 423T265 445Q223 445 192 435T142 415T117 405Q109 405 100 417T84 443T77 464Q77 478 103 493T172 519T266 530Q333 530 378
511T445 455T468 370V156Q468 112 471 85T477 44T480 25Q480 17 472 12T451 4T428 0T410 -1Q397 -1 390 10T380 38T373 69Q359 52 336 35T283 5T211 -7ZM228 79Q276 79 308 99T366 146V246Q328 246 291 243T222 231T172 203T153 150Q153 116 172 98T228 79ZM272
562Q234 562 209 587T183 650Q183 688 208 713T272 739Q310 739 336 714T362 650Q362 612 336 587T272 562ZM272 614Q288 614 298 624T308 650Q308 665 298 675T272 686Q257 686 247 676T237 650Q237 635 247 625T272 614Z" />
<glyph unicode="&#xe6;" horiz-adv-x="819" d="M217 -7Q141 -7 94 31T47 142Q47 189 68 221T127 274T218 304T337 315Q343 369 362 408Q350 425 327 435T265 445Q224 445 193 435T143 415T117 405Q109 405 100 417T84 443T77 464Q77 478 103 493T172 519T266 530Q318
530 357 518T421 485Q478 530 567 530Q639 530 685 500T753 415T776 282Q776 276 770 265T754 245T738 236H443Q446 181 462 146T509 95T582 78Q623 78 651 88T697 107T721 117Q729 117 738 106T754 81T761 60Q761 48 746 36T704 15T646 -1T581 -7Q519 -7 473 10T397
58Q380 43 353 28T292 3T217 -7ZM228 79Q269 79 300 93T354 130Q336 175 334 236Q287 235 246 228T179 203T153 150Q153 116 172 98T228 79ZM442 316H671Q671 379 644 412T565 445Q530 445 504 432T463 390T442 316Z" />
<glyph unicode="&#xe7;" horiz-adv-x="485" d="M297 -7Q174 -7 112 56T49 262Q49 337 68 388T120 471T198 516T292 530Q330 530 365 523T423 504T446 477Q446 469 440 454T425 428T408 416Q407 416 404 418T395 421Q382 427 357 436T293 445Q228 445 193 403T157
265Q157 168 189 123T298 78Q338 78 366 87T407 104Q412 106 415 107T420 108Q428 108 437 97T452 72T459 50Q459 37 444 27T405 10T353 -2T297 -7ZM270 -211Q247 -211 219 -206T171 -190T151 -166Q151 -153 156 -145T172 -136Q185 -136 209 -146T268 -156Q278
-156 289 -154T308 -145T316 -125Q316 -109 305 -103T280 -94T255 -88T244 -76Q244 -72 245 -65T251 -42T265 3H314L296 -58L283 -51Q333 -51 359 -70T386 -124Q386 -159 369 -177T326 -203T270 -211Z" />
<glyph unicode="&#xe8;" horiz-adv-x="539" d="M301 -7Q173 -7 112 60T51 258Q51 350 79 410T160 500T287 530Q359 530 405 498T473 408T496 269Q496 263 489 252T473 232T458 223H159Q165 147 200 113T302 78Q343 78 371 88T417 107T441 117Q449 117 458 106T474
81T481 60Q481 48 466 36T424 15T366 -1T301 -7ZM159 303H391Q391 372 365 408T285 445Q230 445 198 411T159 303ZM296 575Q275 575 262 579T233 601L178 661Q165 676 160 685T154 702Q154 711 166 714T203 718Q227 718 240 715T260 706T272 691L312 616Q317 606
320 600T323 588Q323 582 317 579T296 575Z" />
<glyph unicode="&#xe9;" horiz-adv-x="539" d="M301 -7Q173 -7 112 60T51 258Q51 350 79 410T160 500T287 530Q359 530 405 498T473 408T496 269Q496 263 489 252T473 232T458 223H159Q165 147 200 113T302 78Q343 78 371 88T417 107T441 117Q449 117 458 106T474
81T481 60Q481 48 466 36T424 15T366 -1T301 -7ZM159 303H391Q391 372 365 408T285 445Q230 445 198 411T159 303ZM234 575Q219 575 213 578T206 588Q206 593 209 599T218 616L258 691Q263 700 269 706T289 715T326 718Q351 718 363 715T376 702Q376 694 370 685T351
661L296 601Q282 584 268 580T234 575Z" />
<glyph unicode="&#xea;" horiz-adv-x="539" d="M301 -7Q173 -7 112 60T51 258Q51 350 79 410T160 500T287 530Q359 530 405 498T473 408T496 269Q496 263 489 252T473 232T458 223H159Q165 147 200 113T302 78Q343 78 371 88T417 107T441 117Q449 117 458 106T474
81T481 60Q481 48 466 36T424 15T366 -1T301 -7ZM159 303H391Q391 372 365 408T285 445Q230 445 198 411T159 303ZM178 575Q151 575 151 588Q151 593 154 599T162 616L203 692Q211 706 223 712T266 718H286Q318 718 330 712T349 692L390 616Q395 606 398 600T402
588Q402 575 374 575Q355 575 345 580T323 599L277 654L231 599Q219 585 209 580T178 575Z" />
<glyph unicode="&#xeb;" horiz-adv-x="539" d="M301 -7Q173 -7 112 60T51 258Q51 350 79 410T160 500T287 530Q359 530 405 498T473 408T496 269Q496 263 489 252T473 232T458 223H159Q165 147 200 113T302 78Q343 78 371 88T417 107T441 117Q449 117 458 106T474
81T481 60Q481 48 466 36T424 15T366 -1T301 -7ZM159 303H391Q391 372 365 408T285 445Q230 445 198 411T159 303ZM356 592Q330 592 319 598T307 617V676Q307 688 318 694T356 700Q382 700 393 694T405 676V617Q405 605 394 599T356 592ZM197 592Q171 592 160 598T148
617V676Q148 688 159 694T197 700Q223 700 234 694T246 676V617Q246 605 235 599T197 592Z" />
<glyph unicode="&#xec;" horiz-adv-x="265" d="M128 -2Q82 -2 82 23V500Q82 525 128 525H138Q184 525 184 500V23Q184 -2 138 -2H128ZM152 575Q132 575 118 579T90 601L35 661Q22 676 16 685T10 702Q10 711 23 714T60 718Q83 718 96 715T117 706T128 691L168 616Q173
606 176 600T180 588Q180 582 174 579T152 575Z" />
<glyph unicode="&#xed;" horiz-adv-x="265" d="M128 -2Q82 -2 82 23V500Q82 525 128 525H138Q184 525 184 500V23Q184 -2 138 -2H128ZM90 575Q75 575 69 578T63 588Q63 593 66 599T74 616L114 691Q120 700 126 706T146 715T183 718Q208 718 220 715T232 702Q232
694 227 685T208 661L153 601Q138 584 125 580T90 575Z" />
<glyph unicode="&#xee;" horiz-adv-x="265" d="M128 -2Q82 -2 82 23V500Q82 525 128 525H138Q184 525 184 500V23Q184 -2 138 -2H128ZM35 575Q7 575 7 588Q7 593 10 599T19 616L60 692Q67 706 79 712T123 718H142Q174 718 186 712T206 692L247 616Q252 606 255
600T258 588Q258 575 231 575Q212 575 202 580T179 599L133 654L87 599Q75 585 65 580T35 575Z" />
<glyph unicode="&#xef;" horiz-adv-x="265" d="M128 -2Q82 -2 82 23V500Q82 525 128 525H138Q184 525 184 500V23Q184 -2 138 -2H128ZM213 592Q187 592 175 598T163 617V676Q163 688 175 694T213 700Q238 700 250 694T262 676V617Q262 605 250 599T213 592ZM53
592Q28 592 16 598T4 617V676Q4 688 16 694T53 700Q79 700 91 694T103 676V617Q103 605 91 599T53 592Z" />
<glyph unicode="&#xf0;" horiz-adv-x="569" d="M286 -7Q172 -7 112 62T51 260Q51 390 111 460T286 530Q313 530 337 526T382 512L370 492Q358 524 344 551T316 602Q279 597 263 595T243 592T237 591Q226 591 217 602T208 626Q208 637 224 640L288 649Q277 664
268 677T258 697Q258 709 275 711Q284 712 293 713T312 714Q330 714 342 703Q351 694 359 684T377 660Q413 666 428 668T448 670T452 671Q466 671 473 657T480 636Q480 624 464 622L408 615Q439 567 464 510T503 389T518 260Q518 130 459 62T286 -7ZM284 78Q351
78 382 123T413 261Q413 354 382 399T284 445Q218 445 187 400T156 261Q156 168 187 123T284 78Z" />
<glyph unicode="&#xf1;" horiz-adv-x="557" d="M125 -2Q79 -2 79 23V364Q79 408 76 435T70 476T67 494Q67 502 75 507T96 515T120 519T138 520Q151 520 158 509T168 483T174 454Q203 488 243 509T328 530Q405 530 446 488T487 368V23Q487 -2 441 -2H430Q384 -2
384 23V356Q384 397 362 419T294 442Q261 442 232 423T182 376V23Q182 -2 136 -2H125ZM133 589Q129 589 120 591T105 599T98 611Q98 618 101 626Q116 662 139 678T196 695Q221 695 245 687T292 670T337 661Q357 661 367 670T384 688T399 697Q404 697 412 694T428
685T435 674Q435 671 434 667T430 657Q415 625 393 608T335 591Q311 591 286 599T237 617T194 626Q176 626 166 617T149 599T133 589Z" />
<glyph unicode="&#xf2;" horiz-adv-x="569" d="M286 -7Q172 -7 112 62T51 260Q51 390 111 460T286 530Q399 530 458 461T518 260Q518 130 459 62T286 -7ZM284 78Q351 78 382 123T413 261Q413 354 382 399T284 445Q218 445 188 400T157 261Q157 168 187 123T284
78ZM304 575Q284 575 270 579T242 601L187 661Q174 676 168 685T162 702Q162 711 175 714T212 718Q235 718 248 715T269 706T280 691L320 616Q325 606 328 600T332 588Q332 582 326 579T304 575Z" />
<glyph unicode="&#xf3;" horiz-adv-x="569" d="M286 -7Q172 -7 112 62T51 260Q51 390 111 460T286 530Q399 530 458 461T518 260Q518 130 459 62T286 -7ZM284 78Q351 78 382 123T413 261Q413 354 382 399T284 445Q218 445 188 400T157 261Q157 168 187 123T284
78ZM242 575Q227 575 221 578T215 588Q215 593 218 599T226 616L266 691Q272 700 278 706T298 715T335 718Q360 718 372 715T384 702Q384 694 379 685T360 661L305 601Q290 584 277 580T242 575Z" />
<glyph unicode="&#xf4;" horiz-adv-x="569" d="M286 -7Q172 -7 112 62T51 260Q51 390 111 460T286 530Q399 530 458 461T518 260Q518 130 459 62T286 -7ZM284 78Q351 78 382 123T413 261Q413 354 382 399T284 445Q218 445 188 400T157 261Q157 168 187 123T284
78ZM187 575Q159 575 159 588Q159 593 162 599T171 616L212 692Q219 706 231 712T275 718H294Q326 718 338 712T358 692L399 616Q404 606 407 600T410 588Q410 575 383 575Q364 575 354 580T331 599L285 654L239 599Q227 585 217 580T187 575Z" />
<glyph unicode="&#xf5;" horiz-adv-x="569" d="M286 -7Q172 -7 112 62T51 260Q51 390 111 460T286 530Q399 530 458 461T518 260Q518 130 459 62T286 -7ZM284 78Q351 78 382 123T413 261Q413 354 382 399T284 445Q218 445 188 400T157 261Q157 168 187 123T284
78ZM139 589Q135 589 126 591T111 599T104 611Q104 618 107 626Q122 662 145 678T202 695Q227 695 251 687T298 670T343 661Q363 661 373 670T390 688T405 697Q410 697 418 694T434 685T441 674Q441 671 440 667T436 657Q421 625 399 608T341 591Q317 591 292 599T243
617T200 626Q182 626 172 617T155 599T139 589Z" />
<glyph unicode="&#xf6;" horiz-adv-x="569" d="M286 -7Q172 -7 112 62T51 260Q51 390 111 460T286 530Q399 530 458 461T518 260Q518 130 459 62T286 -7ZM284 78Q351 78 382 123T413 261Q413 354 382 399T284 445Q218 445 188 400T157 261Q157 168 187 123T284
78ZM365 592Q339 592 327 598T315 617V676Q315 688 327 694T365 700Q390 700 402 694T414 676V617Q414 605 402 599T365 592ZM205 592Q180 592 168 598T156 617V676Q156 688 168 694T205 700Q231 700 243 694T255 676V617Q255 605 243 599T205 592Z" />
<glyph unicode="&#xf7;" horiz-adv-x="560" d="M67 188Q44 188 44 223V235Q44 270 67 270H493Q516 270 516 235V223Q516 188 493 188H67ZM277 -2Q231 -2 231 23V80Q231 105 277 105H283Q329 105 329 80V23Q329 -2 283 -2H277ZM277 354Q231 354 231 378V435Q231
460 277 460H283Q329 460 329 435V378Q329 354 283 354H277Z" />
<glyph unicode="&#xf8;" horiz-adv-x="569" d="M87 -2Q82 -2 75 2T62 13T57 26Q57 32 65 42L474 518Q482 528 490 528Q495 528 502 523T514 512T519 500Q519 493 512 484L103 7Q95 -2 87 -2ZM286 -7Q172 -7 112 62T51 260Q51 390 111 460T286 530Q399 530 458
461T518 260Q518 130 460 62T286 -7ZM284 78Q351 78 382 123T413 261Q413 354 382 399T284 445Q218 445 188 400T157 261Q157 168 187 123T284 78Z" />
<glyph unicode="&#xf9;" horiz-adv-x="557" d="M229 -7Q153 -7 112 35T70 155V500Q70 525 116 525H127Q173 525 173 500V167Q173 126 195 104T263 81Q296 81 325 100T375 147V500Q375 525 421 525H432Q478 525 478 500V156Q478 112 481 85T487 44T490 25Q490 17
482 12T461 4T437 0T419 -1Q406 -1 399 10T389 38T383 69Q354 36 314 15T229 -7ZM293 575Q272 575 259 579T230 601L175 661Q162 676 156 685T150 702Q150 711 163 714T200 718Q224 718 237 715T257 706T268 691L308 616Q314 606 317 600T320 588Q320 582 314 579T293
575Z" />
<glyph unicode="&#xfa;" horiz-adv-x="557" d="M229 -7Q153 -7 112 35T70 155V500Q70 525 116 525H127Q173 525 173 500V167Q173 126 195 104T263 81Q296 81 325 100T375 147V500Q375 525 421 525H432Q478 525 478 500V156Q478 112 481 85T487 44T490 25Q490 17
482 12T461 4T437 0T419 -1Q406 -1 399 10T389 38T383 69Q354 36 314 15T229 -7ZM231 575Q216 575 210 578T203 588Q203 593 206 599T215 616L255 691Q260 700 266 706T286 715T323 718Q348 718 360 715T373 702Q373 694 367 685T348 661L293 601Q279 584 265 580T231
575Z" />
<glyph unicode="&#xfb;" horiz-adv-x="557" d="M229 -7Q153 -7 112 35T70 155V500Q70 525 116 525H127Q173 525 173 500V167Q173 126 195 104T263 81Q296 81 325 100T375 147V500Q375 525 421 525H432Q478 525 478 500V156Q478 112 481 85T487 44T490 25Q490 17
482 12T461 4T437 0T419 -1Q406 -1 399 10T389 38T383 69Q354 36 314 15T229 -7ZM175 575Q147 575 147 588Q147 593 150 599T159 616L200 692Q207 706 219 712T263 718H283Q314 718 326 712T346 692L387 616Q392 606 395 600T399 588Q399 575 371 575Q352 575 342
580T320 599L274 654L228 599Q216 585 205 580T175 575Z" />
<glyph unicode="&#xfc;" horiz-adv-x="557" d="M229 -7Q153 -7 112 35T70 155V500Q70 525 116 525H127Q173 525 173 500V167Q173 126 195 104T263 81Q296 81 325 100T375 147V500Q375 525 421 525H432Q478 525 478 500V156Q478 112 481 85T487 44T490 25Q490 17
482 12T461 4T437 0T419 -1Q406 -1 399 10T389 38T383 69Q354 36 314 15T229 -7ZM353 592Q327 592 316 598T304 617V676Q304 688 315 694T353 700Q379 700 390 694T402 676V617Q402 605 391 599T353 592ZM194 592Q168 592 157 598T145 617V676Q145 688 156 694T194
700Q220 700 231 694T243 676V617Q243 605 232 599T194 592Z" />
<glyph unicode="&#xfd;" horiz-adv-x="481" d="M149 -207Q108 -207 108 -190Q108 -187 109 -184T113 -173L206 58V-20L19 492Q18 495 17 499T16 507Q16 525 64 525H79Q96 525 108 521T123 508L213 261Q221 239 229 210T244 155H246Q254 180 262 210T278 261L366
508Q369 517 381 521T412 525H421Q466 525 466 507Q466 501 463 491L214 -186Q210 -198 197 -202T165 -207H149ZM198 575Q183 575 177 578T171 588Q171 593 174 599T182 616L222 691Q228 700 234 706T254 715T291 718Q316 718 328 715T340 702Q340 694 335 685T316
661L261 601Q246 584 233 580T198 575Z" />
<glyph unicode="&#xfe;" horiz-adv-x="573" d="M127 -207Q81 -207 81 -183V728Q81 753 127 753H138Q184 753 184 728V464Q214 496 251 513T328 530Q387 530 430 497T496 403T520 260Q520 133 464 63T315 -7Q272 -7 241 6T184 39V-183Q184 -207 138 -207H127ZM292
80Q354 80 384 125T414 256Q414 346 386 394T304 443Q272 443 241 425T184 377V117Q207 100 234 90T292 80Z" />
<glyph unicode="&#xff;" horiz-adv-x="481" d="M149 -207Q108 -207 108 -190Q108 -187 109 -184T113 -173L206 58V-20L19 492Q18 495 17 499T16 507Q16 525 64 525H79Q96 525 108 521T123 508L213 261Q221 239 229 210T244 155H246Q254 180 262 210T278 261L366
508Q369 517 381 521T412 525H421Q466 525 466 507Q466 501 463 491L214 -186Q210 -198 197 -202T165 -207H149ZM321 592Q295 592 283 598T271 617V676Q271 688 283 694T321 700Q346 700 358 694T370 676V617Q370 605 358 599T321 592ZM161 592Q136 592 124 598T112
617V676Q112 688 124 694T161 700Q187 700 199 694T211 676V617Q211 605 199 599T161 592Z" />
<glyph unicode="&#x2013;" horiz-adv-x="500" d="M73 225Q50 225 50 261V270Q50 305 73 305H427Q450 305 450 270V261Q450 225 427 225H73Z" />
<glyph unicode="&#x2014;" horiz-adv-x="1000" d="M83 225Q60 225 60 261V270Q60 305 83 305H917Q940 305 940 270V261Q940 225 917 225H83Z" />
<glyph unicode="&#x2018;" horiz-adv-x="212" d="M96 504Q73 504 62 513T50 537Q50 581 62 618T93 684T131 728T163 744Q173 744 185 741T197 727Q197 723 195 716T189 703Q174 672 164 634T153 540Q153 524 142 514T108 504H96Z" />
<glyph unicode="&#x2019;" horiz-adv-x="212" d="M59 515Q50 515 38 518T25 532Q25 537 28 544T34 557Q49 588 59 626T69 719Q69 735 80 745T114 755H126Q149 755 160 746T172 722Q172 678 160 641T130 575T92 531T59 515Z" />
<glyph unicode="&#x201a;" horiz-adv-x="198" d="M37 -118Q28 -118 16 -115T4 -101Q4 -96 6 -89T12 -75Q27 -45 37 -7T47 87Q47 102 58 112T93 122H105Q127 122 138 113T150 89Q150 45 138 8T108 -58T70 -102T37 -118Z" />
<glyph unicode="&#x201c;" horiz-adv-x="350" d="M238 504Q216 504 204 513T192 537Q192 581 204 618T235 684T273 728T305 744Q315 744 327 741T339 727Q339 723 337 716T331 703Q317 672 307 634T296 540Q296 524 285 514T250 504H238ZM88 504Q66 504 54 513T42
537Q42 581 54 618T85 684T123 728T155 744Q165 744 177 741T189 727Q189 723 187 716T181 703Q167 672 157 634T146 540Q146 524 135 514T100 504H88Z" />
<glyph unicode="&#x201d;" horiz-adv-x="350" d="M207 515Q197 515 185 518T173 532Q173 537 175 544T182 557Q197 588 207 626T217 719Q217 735 228 745T262 755H274Q297 755 308 746T320 722Q320 678 308 641T277 575T239 531T207 515ZM57 515Q47 515 35 518T23
532Q23 537 25 544T31 557Q46 588 56 626T66 719Q66 735 77 745T112 755H124Q147 755 158 746T170 722Q170 678 158 641T127 575T89 531T57 515Z" />
<glyph unicode="&#x201e;" horiz-adv-x="350" d="M200 -119Q191 -119 179 -115T166 -102Q166 -96 169 -90T175 -76Q190 -46 200 -8T210 86Q210 102 221 111T256 121H267Q290 121 301 112T313 89Q313 45 301 7T271 -59T233 -103T200 -119ZM50 -119Q40 -119 28 -115T16
-102Q16 -96 18 -90T25 -76Q40 -46 50 -8T60 86Q60 102 71 111T105 121H117Q140 121 151 112T163 89Q163 45 151 7T120 -59T82 -103T50 -119Z" />
<glyph unicode="&#x2022;" horiz-adv-x="336" d="M168 199Q133 199 104 216T58 262T41 326Q41 362 58 390T104 436T168 454Q204 454 232 437T278 391T296 326Q296 291 279 262T233 216T168 199Z" />
<glyph unicode="&#x2039;" horiz-adv-x="300" d="M201 57Q189 57 178 70L49 225Q35 242 35 258Q35 274 49 291L178 446Q189 458 201 458Q208 458 218 453T235 440T243 421Q243 412 235 401L124 258L235 114Q243 103 243 94Q243 87 237 79T220 64T201 57Z" />
<glyph unicode="&#x203a;" horiz-adv-x="300" d="M99 57Q90 57 80 63T64 78T57 94Q57 103 65 114L176 258L65 401Q57 412 57 421Q57 431 64 439T82 453T99 458Q112 458 122 446L251 291Q265 274 265 258Q265 242 251 225L122 70Q111 57 99 57Z" />
</font>
</defs>
</svg>
