<?xml version="1.0" standalone="no"?>
<!DOCTYPE svg PUBLIC "-//W3C//DTD SVG 1.1//EN" "http://www.w3.org/Graphics/SVG/1.1/DTD/svg11.dtd">
<svg xmlns="http://www.w3.org/2000/svg">
<defs >
<font id="Asap" horiz-adv-x="536" ><font-face
    font-family="Asap SemiBold"
    units-per-em="1000"
    panose-1="0 0 0 0 0 0 0 0 0 0"
    ascent="934"
    descent="-212"
    alphabetic="0" />
<glyph unicode=" " horiz-adv-x="240" />
<glyph unicode="!" horiz-adv-x="294" d="M123 215Q97 215 90 222T83 244L128 673Q131 702 183 702H218Q246 702 259 695T269 672L181 244Q178 230 169 223T134 215H123ZM93 -2Q65 -2 54 5T43 27L52 110Q53 124 66 131T107 138H134Q163 138 174 131T185 110L176
27Q173 -2 120 -2H93Z" />
<glyph unicode="&quot;" horiz-adv-x="319" d="M106 467Q76 467 76 491V671Q76 702 132 702H140Q197 702 189 669L148 491Q143 467 116 467H106ZM245 467Q216 467 216 491V671Q216 702 272 702H280Q337 702 329 669L288 491Q282 467 255 467H245Z" />
<glyph unicode="#" horiz-adv-x="534" d="M72 -2Q29 -2 36 23L83 187H29Q15 187 10 197T7 230L8 242Q11 266 18 276T40 286H111L147 409H88Q74 409 69 419T65 451L66 463Q69 487 76 497T98 507H175L218 658Q223 672 235 679T274 686H284Q327 686 320 663L274 507H377L420
658Q424 672 437 679T476 686H486Q528 686 521 663L477 507H523Q537 507 542 498T545 465L544 453Q542 429 534 419T512 409H449L413 286H467Q481 286 486 276T489 244L488 232Q486 208 479 198T456 187H385L338 26Q335 12 322 5T284 -2H274Q232 -2 238 23L285
187H183L136 26Q133 12 120 5T82 -2H72ZM211 286H313L350 409H247L211 286Z" />
<glyph unicode="$" horiz-adv-x="500" d="M216 -73Q206 -73 203 -68T199 -53Q199 -49 200 -34T203 -7Q180 -6 151 -2T96 11T52 33Q35 49 35 65Q35 108 38 128T47 154T58 160Q62 160 67 157T81 148Q100 136 133 122T215 107L236 301Q206 314 175 328T118 363T77
414T61 488Q61 557 91 603T170 674T278 705L282 742Q284 753 289 757T304 762H316Q333 762 333 742Q333 740 332 728T330 707Q356 706 380 702T426 690T460 673Q481 657 481 642Q481 631 472 613T449 580T426 565Q422 565 417 567T404 574Q391 580 371 587T318
595L299 414Q337 397 376 375T441 318T467 226Q467 169 450 127T402 57T334 14T254 -5L250 -53Q249 -73 228 -73H216ZM266 112Q297 121 317 143T338 203Q338 229 323 246T284 277L266 112ZM250 437L266 590Q224 582 207 559T189 509Q189 484 206 467T250 437Z"
/>
<glyph unicode="%" horiz-adv-x="765" d="M198 375Q167 375 137 385T88 425T68 509Q68 571 83 610T123 670T177 699T233 707Q264 707 294 697T343 658T363 573Q363 519 350 481T313 420T260 386T198 375ZM539 -7Q509 -7 479 3T429 42T409 126Q409 188 424 227T465
287T519 317T574 325Q605 325 635 314T684 274T704 190Q704 136 691 98T654 37T601 4T539 -7ZM546 65Q573 65 588 85T608 133T614 184Q614 210 605 230T566 250Q544 250 531 238T511 206T502 167T499 130Q499 105 508 85T546 65ZM205 448Q233 448 247 468T267 517T273
568Q273 594 264 613T225 632Q203 632 190 620T169 590T160 551T158 514Q158 489 167 469T205 448ZM154 -1Q127 -1 127 8Q127 12 134 22L574 690Q581 701 605 701H612Q628 701 634 699T640 692Q640 687 632 675L197 15Q190 6 182 3T160 -1H154Z" />
<glyph unicode="&amp;" horiz-adv-x="624" d="M219 -7Q177 -7 140 4T75 38T31 95T15 176Q15 228 33 270T82 341T155 384V388Q119 404 96 436T73 515Q73 576 102 619T182 684T296 707Q315 707 337 706T376 697T393 672Q393 654 386 637T370 610T355 599Q350 599
337 602T303 606Q275 606 255 597T222 574T204 541T198 506Q198 483 209 464T244 432T303 420H406L422 497Q426 515 437 523T479 531H491Q518 531 529 522T538 496L531 420H583Q598 420 603 410T606 377L604 361Q599 318 574 318H520L502 141Q500 115 509 104T538
93Q557 93 565 96T578 100Q586 100 586 89Q586 83 585 70T580 38Q575 13 549 3T499 -7Q468 -7 442 1T398 33Q361 15 319 4T219 -7ZM248 94Q278 94 311 102T375 124Q375 131 377 153T383 206T389 266T395 318H285Q241 318 209 305T161 263T144 190Q144 156 158 135T196
104T248 94Z" />
<glyph unicode="&apos;" horiz-adv-x="183" d="M107 467Q78 467 78 491V671Q78 702 134 702H142Q199 702 191 669L150 491Q144 467 118 467H107Z" />
<glyph unicode="(" horiz-adv-x="301" d="M291 783Q303 783 318 772T334 746Q334 736 326 724Q268 644 229 558T171 379T151 191Q151 100 171 17T233 -150Q237 -157 237 -165Q237 -174 229 -184T209 -202T186 -209Q172 -209 162 -195Q107 -116 77 -15T47 199Q47
306 73 408T148 603T264 769Q276 783 291 783Z" />
<glyph unicode=")" horiz-adv-x="301" d="M112 783Q125 783 135 769Q191 690 221 590T251 377Q251 281 228 180T156 -16T34 -195Q22 -209 7 -209Q-5 -209 -20 -197T-36 -172Q-36 -163 -28 -152Q32 -68 70 20T127 199T146 385Q146 446 138 501T111 611T65 724Q63
728 62 731T60 739Q60 749 68 759T88 776T112 783Z" />
<glyph unicode="*" horiz-adv-x="373" d="M115 412Q106 412 97 420T88 437Q88 446 97 456L167 541L87 568Q71 574 71 587Q71 598 78 609T98 621Q101 621 104 621T110 619L192 592L201 682Q204 708 231 708Q246 708 250 702T255 682L245 592L331 619Q334 620 337
620T343 621Q350 621 357 614T365 593Q365 574 343 568L256 541L310 456Q315 447 315 441Q315 432 305 422T283 412Q271 412 264 425L210 514L136 425Q125 412 115 412Z" />
<glyph unicode="+" horiz-adv-x="560" d="M247 -1Q223 -1 215 6T207 28L224 187H61Q49 187 44 196T40 226L42 245Q44 264 51 272T71 280H234L251 443Q252 457 262 463T296 470H308Q332 470 341 463T348 441L331 280H494Q506 280 511 272T514 245L513 226Q511 204
503 196T483 187H322L305 26Q302 -1 259 -1H247Z" />
<glyph unicode="," horiz-adv-x="198" d="M24 -122Q12 -122 0 -118T-13 -104Q-13 -98 -11 -93T-5 -81Q10 -52 27 -11T51 98Q53 116 67 127T108 138H124Q150 138 161 128T173 102Q172 73 161 42T131 -19T93 -71T55 -108T24 -122Z" />
<glyph unicode="-" horiz-adv-x="320" d="M55 218Q43 218 38 227T34 258L36 276Q38 296 45 304T65 313H266Q278 313 283 304T287 276L285 257Q284 235 276 227T256 218H55Z" />
<glyph unicode="." horiz-adv-x="198" d="M100 138Q128 138 139 131T150 110L141 27Q139 -2 85 -2H58Q28 -2 18 5T8 27L17 110Q19 138 73 138H100Z" />
<glyph unicode="/" horiz-adv-x="422" d="M14 -79Q-9 -79 -17 -75T-25 -65Q-25 -63 -23 -58T-18 -47L353 680Q360 692 372 697T405 702H416Q440 702 449 699T458 688Q458 684 450 667L80 -56Q73 -70 61 -74T27 -79H14Z" />
<glyph unicode="0" horiz-adv-x="535" d="M240 -7Q179 -7 134 24T64 118T39 270Q39 377 61 458T121 595T209 679T315 707Q376 707 421 676T491 582T516 426Q516 321 494 240T433 104T345 21T240 -7ZM250 94Q275 94 299 114T344 177T376 283T389 435Q389 494 378
531T348 587T304 606Q279 606 255 586T211 523T178 415T166 261Q166 204 176 167T206 112T250 94Z" />
<glyph unicode="1" horiz-adv-x="535" d="M53 0Q39 0 34 10T30 43L32 58Q37 101 63 101H210L260 582L114 559Q97 556 92 574T87 611Q87 630 91 641T114 656L361 703Q374 703 386 695T397 677L336 101H456Q471 101 476 91T480 59L478 43Q473 0 446 0H53Z" />
<glyph unicode="2" horiz-adv-x="535" d="M46 0Q40 0 34 13T25 43T21 74Q21 84 23 88L317 410Q343 437 357 468T372 527Q372 565 346 585T277 605Q238 605 212 594T170 571T144 559Q127 559 115 580T102 618Q102 640 122 656T173 684T237 701T298 707Q361 707
406 686T476 627T501 544Q501 507 491 476T457 409T390 326L184 101H440Q467 101 462 58L461 43Q456 0 430 0H46Z" />
<glyph unicode="3" horiz-adv-x="535" d="M221 -7Q195 -7 165 -4T109 6T66 27T49 61Q49 80 56 93T72 114T88 122Q96 122 108 115T146 101T214 94Q238 94 261 101T302 125T330 166T341 225Q341 274 312 296T224 318H192Q165 318 170 360L172 377Q174 400 181 409T204
419H227Q259 419 282 429T321 455T343 491T351 531Q351 551 343 568T316 595T266 605Q225 605 200 598T159 582T135 574Q127 574 119 585T104 611T98 639Q98 656 116 668T163 690T227 703T294 707Q381 707 431 667T481 554Q481 493 449 451T368 388V384Q399 373
422 352T457 299T469 230Q469 171 449 127T393 53T313 8T221 -7Z" />
<glyph unicode="4" horiz-adv-x="535" d="M337 -2Q310 -2 300 5T290 27L303 151H26Q19 151 14 163T6 193T3 222Q3 228 4 233T6 240L360 685Q368 696 381 699T413 702H436Q463 702 474 695T483 673L439 252H490Q504 252 509 243T511 211L509 194Q507 170 500 161T478
151H428L415 27Q414 13 402 6T363 -2H337ZM136 252H314L327 385Q332 422 338 458T351 526L347 527L136 252Z" />
<glyph unicode="5" horiz-adv-x="535" d="M197 -7Q173 -7 145 -4T92 6T52 25T36 54Q36 80 40 97T50 123T62 132Q69 132 85 123T132 104T208 94Q269 94 306 129T344 233Q344 281 312 306T212 332H111Q95 332 87 339T81 369L130 663Q133 683 143 691T173 700H460Q474
700 479 691T482 659L480 642Q477 618 470 609T449 599H240L211 434H246Q293 434 334 425T407 395T455 338T473 250Q473 176 448 126T382 47T293 5T197 -7Z" />
<glyph unicode="6" horiz-adv-x="535" d="M237 -7Q182 -7 136 15T62 83T34 205Q34 296 59 368T126 496T214 590T305 655T383 691T428 703Q442 703 449 691T460 662T464 635Q464 625 462 621T451 613Q364 580 299 524T201 392Q230 408 257 414T316 420Q346 420
376 410T433 378T475 322T491 240Q491 177 469 130T410 53T328 8T237 -7ZM250 94Q277 94 303 110T346 155T363 226Q363 257 351 277T317 308T269 319Q242 319 217 311T170 291Q167 271 164 250T161 207Q161 164 173 140T206 105T250 94Z" />
<glyph unicode="7" horiz-adv-x="535" d="M112 -2Q93 -2 77 0T61 16Q61 23 68 33L389 599H106Q92 599 87 608T85 640L87 657Q89 680 96 690T118 700H507Q516 700 522 689T531 662T534 632Q534 617 530 609L197 17Q191 6 177 2T144 -2H112Z" />
<glyph unicode="8" horiz-adv-x="535" d="M247 -7Q175 -7 126 16T53 80T29 175Q29 217 42 257T83 328T153 377Q126 397 109 428T91 506Q91 562 117 607T194 680T316 707Q374 707 416 687T482 631T505 548Q505 502 490 471T451 418T398 384Q425 371 446 351T480
299T493 223Q493 178 479 137T433 64T356 12T247 -7ZM256 94Q283 94 308 107T349 147T365 209Q365 247 349 269T304 305T240 334Q203 312 180 279T157 194Q157 147 184 121T256 94ZM304 424Q339 443 360 470T381 532Q381 569 358 587T302 606Q268 606 242 585T216
519Q216 492 228 475T260 445T304 424Z" />
<glyph unicode="9" horiz-adv-x="535" d="M121 -3Q108 -3 100 10T89 39T85 65Q85 75 87 79T98 87Q185 120 251 176T349 308Q320 293 292 287T234 280Q204 280 174 290T117 322T75 378T59 460Q59 524 81 570T140 647T222 692T312 707Q369 707 415 685T488 617T516
495Q516 405 491 333T424 205T336 110T244 45T166 9T121 -3ZM281 382Q308 382 333 390T379 409Q383 430 386 451T389 494Q389 537 377 561T344 596T299 606Q272 606 247 591T204 546T187 475Q187 444 199 423T232 392T281 382Z" />
<glyph unicode=":" horiz-adv-x="198" d="M139 525Q167 525 178 518T189 496L180 413Q177 385 125 385H98Q69 385 58 392T47 413L56 496Q59 525 112 525H139ZM98 138Q127 138 138 131T149 110L140 27Q137 -2 84 -2H57Q29 -2 18 5T7 27L16 110Q18 138 71 138H98Z" />
<glyph unicode=";" horiz-adv-x="198" d="M145 525Q173 525 184 518T195 496L186 413Q183 385 131 385H104Q75 385 64 392T53 413L62 496Q64 525 118 525H145ZM5 -122Q-6 -122 -19 -118T-32 -104Q-32 -98 -30 -93T-24 -81Q-8 -52 9 -11T33 98Q35 116 48 127T89
138H105Q131 138 142 128T154 102Q153 73 142 42T113 -19T75 -71T36 -108T5 -122Z" />
<glyph unicode="&lt;" horiz-adv-x="560" d="M472 10Q463 10 447 17L66 188Q50 195 44 203T38 229L39 245Q41 265 48 273T68 287L509 466Q516 468 520 468Q538 468 535 433L533 413Q531 388 524 376T499 357L167 238L469 117Q485 111 491 99T495 64L493 48Q492
30 487 20T472 10Z" />
<glyph unicode="=" horiz-adv-x="560" d="M70 267Q58 267 53 276T49 307L50 326Q52 346 59 354T80 362H502Q514 362 519 354T523 326L521 307Q520 285 512 276T491 267H70ZM52 94Q39 94 34 103T30 133L32 152Q34 172 41 180T62 188H484Q496 188 501 180T505 152L503
133Q501 111 493 103T473 94H52Z" />
<glyph unicode="&gt;" horiz-adv-x="560" d="M39 11Q28 11 24 22T20 52Q20 79 26 96T53 121L380 240L89 354Q70 362 64 377T58 413Q58 441 64 454T83 468Q88 468 96 465T112 459L494 287Q506 282 512 274T517 251L516 234Q515 214 508 205T484 189L61 16Q55 14
50 13T39 11Z" />
<glyph unicode="?" horiz-adv-x="445" d="M162 215Q138 215 130 221T122 241Q122 285 152 326T220 403Q259 438 287 469T316 533Q316 595 231 595Q201 595 177 588T136 572T112 563Q101 563 91 576T74 606T67 633Q67 652 85 666T133 689T195 702T257 707Q320 707
363 688T429 634T452 553Q452 505 434 470T386 406T325 353Q293 326 267 300T231 240Q225 226 215 221T182 215H162ZM135 -2Q105 -2 96 5T86 27L94 110Q97 138 150 138H177Q206 138 216 131T227 110L219 27Q216 -2 162 -2H135Z" />
<glyph unicode="@" horiz-adv-x="974" d="M410 -124Q313 -124 240 -78T125 49T84 239Q84 338 118 423T214 571T357 671T534 707Q635 707 709 667T825 553T867 382Q867 314 850 255T803 152T731 82T642 57Q592 57 566 79T533 130Q514 95 483 76T413 57Q386 57 361
67T317 99T286 155T274 238Q274 318 298 378T367 473T468 507Q506 507 533 491T573 461Q579 483 586 493T619 503H629Q650 503 659 497T668 478Q668 478 666 457T660 402T652 330T644 256T638 197T636 167Q636 152 641 144T655 133T673 129Q699 129 723 149T766
204T795 285T806 382Q806 465 772 526T677 622T534 656Q452 656 382 625T258 536T175 403T145 239Q145 146 178 76T271 -34T410 -73Q458 -73 489 -65T537 -50T560 -42Q566 -42 566 -52Q566 -54 565 -62T562 -78Q560 -91 543 -100T501 -114T451 -122T410 -124ZM449
144Q465 144 480 152T509 178T536 224Q538 253 541 283T547 342T556 395Q545 405 529 413T489 421Q451 421 427 399T392 338T381 245Q381 192 399 168T449 144Z" />
<glyph unicode="A" horiz-adv-x="613" d="M31 -2Q-21 -2 -21 17Q-21 24 -15 35L277 683Q282 694 296 698T330 702H374Q394 702 407 698T424 683L581 35Q582 32 583 27T584 20Q584 11 572 5T533 -2H501Q482 -2 469 2T453 17L419 154H166L105 17Q100 7 88 3T59 -2H31ZM215
266H393L345 486Q341 501 340 517T337 548H334Q330 533 325 517T312 486L215 266Z" />
<glyph unicode="B" horiz-adv-x="593" d="M85 0Q67 0 59 6T52 29L118 663Q122 700 158 700H352Q464 700 515 658T567 545Q567 502 550 467T505 408T441 371L440 367Q458 363 479 352T519 322T550 278T562 220Q562 112 491 56T285 0H85ZM191 112H308Q369 112 398
141T427 221Q427 260 398 280T311 301H211L191 112ZM223 413H310Q366 413 398 439T430 516Q430 589 329 589H242L223 413Z" />
<glyph unicode="C" horiz-adv-x="619" d="M333 -7Q185 -7 113 62T40 276Q40 486 135 596T413 707Q445 707 478 703T539 690T586 670Q596 664 602 657T608 642Q608 632 601 619T583 591T563 568T545 559Q539 559 523 568T477 586T399 595Q291 595 234 518T176 294Q176
199 218 152T345 105Q394 105 429 115T487 137T516 148Q528 148 538 134T553 101T559 74Q559 63 548 51T521 31Q499 20 468 11T401 -2T333 -7Z" />
<glyph unicode="D" horiz-adv-x="695" d="M90 0Q72 0 64 8T57 36L122 663Q126 700 163 700H384Q472 700 535 669T633 574T667 412Q667 308 641 230T566 101T453 25T311 0H90ZM196 112H319Q364 112 402 129T470 182T516 271T532 398Q532 464 513 506T457 568T370
588H247L196 112Z" />
<glyph unicode="E" horiz-adv-x="546" d="M75 0Q57 0 49 7T42 34L107 663Q111 700 148 700H508Q522 700 528 689T532 651L531 639Q528 610 519 599T496 588H232L213 414H449Q464 414 469 403T473 365L472 353Q470 325 461 314T437 302H202L181 112H448Q462 112
468 101T472 63L471 51Q468 22 459 11T436 0H75Z" />
<glyph unicode="F" horiz-adv-x="503" d="M95 -2Q84 -2 72 0T52 8T44 28L111 663Q115 700 151 700H479Q494 700 499 689T503 651L502 639Q500 610 491 599T467 588H235L215 394H440Q455 394 460 383T464 345L463 332Q461 304 452 293T428 282H203L176 27Q174 -2
121 -2H95Z" />
<glyph unicode="G" horiz-adv-x="672" d="M333 -7Q189 -7 117 62T45 276Q45 422 89 517T216 660T417 707Q450 707 485 702T549 688T595 667T613 642Q613 633 607 619T590 592T569 569T550 559Q545 559 528 568T481 586T401 595Q292 595 237 518T181 295Q181 236
198 194T251 128T347 105Q374 105 398 107T443 114L460 267H363Q349 267 343 278T339 316L340 329Q343 357 352 368T375 379H567Q585 379 593 372T600 346L571 69Q568 45 543 30T481 7T405 -4T333 -7Z" />
<glyph unicode="H" horiz-adv-x="733" d="M110 -2Q100 -2 88 0T67 9T61 29L128 673Q130 702 183 702H209Q220 702 232 700T252 692T259 674L232 414H534L561 673Q564 702 617 702H643Q654 702 666 700T686 692T693 674L625 27Q623 -2 570 -2H544Q534 -2 522 0T501
9T494 29L522 301H220L192 27Q189 -2 136 -2H110Z" />
<glyph unicode="I" horiz-adv-x="283" d="M102 -2Q91 -2 79 0T59 8T52 26L119 673Q122 702 175 702H201Q212 702 223 700T243 692T251 674L183 27Q181 -2 128 -2H102Z" />
<glyph unicode="J" horiz-adv-x="402" d="M78 -7Q58 -7 36 -4T0 7T-15 32Q-15 68 -12 85T-5 109T3 116Q13 116 24 112T67 107Q121 107 147 133T180 218L228 673Q231 702 284 702H309Q321 702 332 700T352 692T360 674L310 203Q300 108 245 51T78 -7Z" />
<glyph unicode="K" horiz-adv-x="576" d="M89 -2Q60 -2 49 5T38 27L106 673Q108 702 162 702H187Q216 702 227 695T238 673L208 392H212L441 685Q449 695 464 698T500 702H535Q582 702 582 689Q582 680 572 667L329 367L539 32Q543 26 544 22T545 15Q545 7 534
3T492 -2H452Q429 -2 415 1T395 15L205 325L201 324L170 27Q167 -2 114 -2H89Z" />
<glyph unicode="L" horiz-adv-x="484" d="M74 0Q55 0 47 7T41 33L108 673Q111 702 164 702H190Q201 702 213 700T233 692T240 674L181 112H427Q441 112 447 101T450 63L449 51Q447 22 438 11T415 0H74Z" />
<glyph unicode="M" horiz-adv-x="843" d="M102 -2Q74 -2 63 6T53 30L120 673Q122 702 175 702H221Q242 702 255 697T275 678L412 382Q417 371 422 357T429 332Q432 341 439 354T454 379L655 678Q664 691 678 696T713 702H760Q788 702 799 695T810 673L742 27Q740
-2 687 -2H665Q637 -2 626 6T615 30L657 436Q659 448 660 460T663 484L659 485Q654 476 648 467T635 448L465 194Q454 177 429 177H397Q373 177 363 197L249 444Q245 455 240 468T229 492L225 490Q225 480 225 465T222 434L179 27Q177 -2 124 -2H102Z" />
<glyph unicode="N" horiz-adv-x="719" d="M101 -2Q73 -2 62 5T51 27L119 673Q121 702 174 702H210Q230 702 243 698T265 678L476 298Q489 275 496 260T507 237T512 223L518 225Q517 244 518 269T523 327L560 673Q562 702 615 702H637Q665 702 676 695T687 673L619
27Q617 -2 564 -2H532Q513 -2 500 2T478 21L258 417Q241 447 235 460T226 484L220 482Q221 466 221 445T217 400L178 27Q176 -2 123 -2H101Z" />
<glyph unicode="O" horiz-adv-x="731" d="M350 -7Q211 -7 133 71T55 311Q55 386 71 456T126 583T232 673T403 707Q491 707 556 673T658 566T695 381Q695 262 656 175T539 40T350 -7ZM358 105Q454 105 507 177T560 373Q560 487 515 541T391 595Q292 595 241 523T190
327Q190 211 235 158T358 105Z" />
<glyph unicode="P" horiz-adv-x="570" d="M90 -2Q61 -2 50 6T41 30L106 663Q110 700 146 700H339Q452 700 511 651T571 507Q571 401 509 338T331 274H196L171 27Q170 13 157 6T115 -2H90ZM208 387H332Q382 387 409 417T436 494Q436 540 408 564T322 588H230L208 387Z" />
<glyph unicode="Q" horiz-adv-x="731" d="M634 -160Q630 -160 602 -149T529 -120T433 -80T327 -34T229 10Q138 52 97 125T55 311Q55 383 72 453T130 581T238 673T403 707Q541 707 618 629T695 381Q695 235 639 142T479 19V15L645 -39Q660 -44 660 -64Q660 -107
656 -128T646 -154T634 -160ZM358 105Q454 105 507 177T560 373Q560 487 515 541T391 595Q294 595 242 523T190 324Q190 245 210 197T268 127T358 105Z" />
<glyph unicode="R" horiz-adv-x="610" d="M106 -2Q77 -2 66 6T56 30L122 663Q126 700 162 700H347Q456 700 515 652T574 514Q574 468 557 431T510 369T441 336V332Q462 325 480 301T509 240L571 34Q574 23 574 18Q573 9 560 4T518 -2H488Q468 -2 455 2T438 17L380
213Q372 241 360 257T329 279T277 286H214L186 27Q184 -2 131 -2H106ZM226 399L338 398Q389 398 415 425T442 494Q442 542 415 565T338 588H245L226 399Z" />
<glyph unicode="S" horiz-adv-x="500" d="M214 -7Q193 -7 163 -4T103 8T53 29Q41 37 35 48T29 85Q29 115 32 128T41 146T52 151Q58 151 69 145T95 131Q116 122 144 114T209 105Q237 105 263 114T307 145T325 200Q325 227 309 245T268 278T212 305Q175 322 139
343T79 398T55 486Q55 545 76 587T133 655T214 694T309 707Q356 707 396 697T457 670Q476 656 476 642Q476 631 467 613T444 580T421 565Q416 565 410 568T392 577Q378 583 357 589T306 595Q265 595 240 583T203 552T192 512Q192 485 207 468T247 438T303 412Q346
394 382 369T440 309T462 224Q462 160 441 116T384 45T304 6T214 -7Z" />
<glyph unicode="T" horiz-adv-x="549" d="M236 -2Q225 -2 213 0T192 9T186 31L244 588H74Q60 588 55 599T51 637L52 649Q54 678 63 689T86 700H556Q570 700 576 689T579 651L578 639Q576 610 567 599T544 588H376L317 27Q314 -2 261 -2H236Z" />
<glyph unicode="U" horiz-adv-x="712" d="M328 -7Q196 -7 128 50T70 218L116 673Q118 702 172 702H197Q226 702 237 695T247 673L201 228Q196 171 230 138T340 105Q415 105 458 138T508 236L553 673Q556 702 610 702H634Q663 702 674 695T684 673L638 231Q626
118 545 56T328 -7Z" />
<glyph unicode="V" horiz-adv-x="617" d="M259 -2Q240 -2 227 2T211 18L56 672Q49 702 112 702H138Q158 702 171 697T188 677L283 249Q288 226 292 199T297 153H301Q307 174 316 200T332 244L521 677Q527 691 541 696T575 702H597Q616 702 632 699T649 681Q649
674 645 665L356 17Q352 6 338 2T304 -2H259Z" />
<glyph unicode="W" horiz-adv-x="882" d="M191 -2Q170 -2 157 3T142 19L46 672Q44 688 60 695T104 702H124Q148 702 163 696T179 676L230 313Q236 262 240 219T245 151H249Q255 179 267 220T290 297L426 682Q431 694 443 698T477 702H508Q528 702 541 698T555
682L607 312Q613 267 617 224T622 151H626Q634 183 646 225T668 298L801 676Q805 690 821 696T861 702H870Q899 702 912 695T921 673L685 17Q682 8 667 3T634 -2H572Q552 -2 539 3T524 17L478 341Q474 368 472 396T468 448T466 487H462Q456 459 446 424T424 354L303
17Q299 8 285 3T252 -2H191Z" />
<glyph unicode="X" horiz-adv-x="611" d="M40 -2Q20 -2 4 1T-12 17Q-12 26 -1 39L248 368L90 661Q88 667 86 671T84 680Q84 694 100 698T141 702H164Q184 702 197 699T217 684L328 471L485 685Q493 696 508 699T542 702H573Q593 702 610 699T627 683Q627 679 624
674T617 661L390 363L563 39Q566 34 567 30T569 21Q569 7 553 3T513 -2H490Q468 -2 456 1T438 16L307 259L132 19Q121 5 106 2T72 -2H40Z" />
<glyph unicode="Y" horiz-adv-x="559" d="M239 -2Q211 -2 200 5T189 27L222 344L53 660Q47 671 47 680Q47 694 63 698T105 702H137Q157 702 170 699T189 684L302 459L464 685Q472 695 486 698T521 702H548Q560 702 572 701T592 695T600 683Q600 679 597 673T590
660L353 341L320 27Q318 -2 265 -2H239Z" />
<glyph unicode="Z" horiz-adv-x="616" d="M49 0Q38 0 31 13T21 43T17 73Q17 79 19 84T24 94L431 588H125Q112 588 106 599T102 638L103 651Q106 679 114 689T137 700H588Q598 700 604 687T614 657T617 626Q617 615 611 608L202 112H536Q551 112 557 101T560 63L559
51Q556 22 548 11T524 0H49Z" />
<glyph unicode="[" horiz-adv-x="291" d="M63 -138Q44 -138 37 -131T30 -106L118 731Q121 768 158 768H284Q298 768 303 761T306 733L305 719Q304 699 297 692T274 684H213L136 -54H198Q210 -54 216 -62T220 -89L219 -103Q218 -123 211 -130T191 -138H63Z" />
<glyph unicode="\" horiz-adv-x="422" d="M323 -79Q303 -79 291 -75T275 -56L59 667Q57 677 56 681T54 688Q54 695 64 698T99 702H110Q130 702 142 697T157 680L374 -47Q376 -53 377 -58T379 -65Q379 -71 369 -75T337 -79H323Z" />
<glyph unicode="]" horiz-adv-x="291" d="M23 -138Q10 -138 5 -130T1 -103L2 -89Q4 -69 11 -62T33 -54H94L171 684H109Q97 684 92 692T87 719L88 733Q90 753 97 760T116 768H244Q263 768 271 761T277 736L189 -101Q186 -138 149 -138H23Z" />
<glyph unicode="^" horiz-adv-x="450" d="M83 319Q61 319 53 322T45 332Q45 335 47 340T54 356L212 659Q226 685 254 685H281Q295 685 304 679T318 659L410 356Q414 346 414 341T415 333Q415 326 406 323T374 319H368Q348 319 339 324T324 343L241 624L281 623L136
344Q130 330 121 325T92 319H83Z" />
<glyph unicode="_" horiz-adv-x="534" d="M-37 -141Q-49 -141 -54 -133T-58 -102L-57 -90Q-55 -70 -48 -63T-29 -55H496Q509 -55 514 -62T517 -93L516 -103Q514 -125 507 -133T487 -141H-37Z" />
<glyph unicode="`" horiz-adv-x="181" d="M179 573Q157 573 142 579T113 601L77 648Q58 671 52 681T46 699Q46 709 58 713T99 718Q127 718 141 715T163 705T176 683L205 615Q210 606 212 600T215 588Q215 580 207 577T179 573Z" />
<glyph unicode="a" horiz-adv-x="545" d="M193 -8Q161 -8 132 4T79 43T43 110T30 209Q30 304 58 376T139 489T259 530Q304 530 335 511T383 476Q388 493 393 503T408 519T441 524H451Q475 524 486 517T496 494L460 133Q458 112 465 103T488 93Q500 93 508 96T520
100Q527 100 527 89Q527 86 526 74T521 38Q516 13 490 3T443 -7Q395 -7 369 14T336 80Q312 38 275 15T193 -8ZM236 96Q255 96 273 106T309 138T339 193L353 326Q356 352 358 367T364 397Q350 408 330 418T280 428Q241 428 214 401T172 327T158 217Q158 175 167
148T194 109T236 96Z" />
<glyph unicode="b" horiz-adv-x="569" d="M270 -7Q225 -7 193 11T144 45Q140 30 135 20T119 4T87 -2H77Q52 -2 41 4T30 24L104 725Q107 753 160 753H180Q207 753 218 745T230 725L202 457Q227 493 261 511T336 530Q372 530 405 518T464 480T505 413T520 315Q520
220 489 148T401 34T270 -7ZM245 94Q284 94 311 109T356 153T382 221T391 307Q391 350 380 376T346 414T293 426Q274 426 256 416T220 385T189 332L175 200Q173 181 170 162T164 125Q177 114 197 104T245 94Z" />
<glyph unicode="c" horiz-adv-x="485" d="M263 -7Q150 -7 94 45T38 205Q38 362 110 446T320 530Q352 530 385 523T442 503T465 472Q465 462 455 445T433 414T412 400Q411 400 408 401T396 407Q385 413 365 421T313 429Q243 429 206 375T169 218Q169 155 194 125T277
94Q310 94 333 102T373 118Q379 120 383 121T389 123Q399 123 407 112T422 85T428 59Q428 41 409 29T363 8T308 -3T263 -7Z" />
<glyph unicode="d" horiz-adv-x="565" d="M209 -7Q174 -7 142 5T85 44T46 111T31 209Q31 304 61 376T145 489T270 530Q311 530 340 517T387 488L412 725Q415 753 468 753H488Q515 753 527 745T538 722L477 133Q475 112 482 103T505 93Q517 93 525 96T537 100Q544
100 544 89Q544 86 543 74T538 38Q533 13 508 3T460 -7Q413 -7 387 14T353 80Q329 38 291 16T209 -7ZM252 97Q271 97 289 107T325 139T357 193L378 400Q365 410 345 419T296 429Q261 429 235 414T193 370T168 303T160 217Q160 154 183 126T252 97Z" />
<glyph unicode="e" horiz-adv-x="539" d="M310 530Q368 530 404 516T461 479T490 433T498 389Q498 339 477 304T422 247T347 216T263 206Q220 206 191 210T137 219L166 264V220Q166 170 181 143T222 105T285 94Q327 94 359 105T413 128T440 140Q443 140 445 138T448
127Q448 114 446 94T441 61Q436 41 416 28T370 8T316 -3T270 -7Q217 -7 175 5T101 44T54 111T37 208Q37 315 71 386T167 494T310 530ZM303 429Q248 429 216 392T172 296H228Q249 296 270 299T310 308T343 323T365 345T373 374Q373 401 354 415T303 429Z" />
<glyph unicode="f" horiz-adv-x="325" d="M102 -2Q75 -2 64 6T52 26L93 422H66Q38 422 43 464L45 480Q50 523 76 523H104L112 607Q117 660 139 694T194 743T268 759Q287 759 307 756T342 744T356 718Q356 711 351 695T338 665T322 651Q317 651 310 654T285 657Q265
657 253 646T238 605L229 523H288Q316 523 311 480L310 465Q305 422 279 422H219L178 27Q175 -2 122 -2H102Z" />
<glyph unicode="g" horiz-adv-x="546" d="M220 -212Q169 -212 128 -202T63 -176T39 -141Q39 -95 45 -80T57 -65Q63 -65 80 -76T126 -99T200 -111Q263 -111 298 -69T341 63L349 138L363 113Q340 62 299 33T207 3Q173 3 143 15T88 52T50 117T35 212Q35 306 65 378T149
490T274 530Q318 530 349 512T398 478Q403 495 408 505T424 520T456 525H466Q491 525 501 519T512 501L471 95Q460 -12 430 -80T347 -180T220 -212ZM251 107Q269 107 288 117T324 149T355 204L368 323Q371 344 373 362T379 398Q365 409 345 419T299 429Q263 429
238 414T196 371T172 305T164 220Q164 180 174 155T204 119T251 107Z" />
<glyph unicode="h" horiz-adv-x="565" d="M450 -7Q397 -7 366 22T341 123L363 356Q367 393 352 409T306 425Q284 425 263 415T224 385T191 333L159 27Q156 -2 103 -2H83Q57 -2 45 6T33 26L107 725Q110 753 162 753H182Q209 753 222 745T233 725L204 452Q235 488
276 509T361 530Q430 530 464 495T491 382L467 133Q465 112 472 103T495 93Q507 93 515 96T527 100Q534 100 534 89Q534 86 533 74T528 38Q523 13 497 3T450 -7Z" />
<glyph unicode="i" horiz-adv-x="265" d="M148 -7Q98 -7 67 23T43 129L80 496Q83 525 136 525H155Q182 525 194 517T206 497L169 133Q167 111 173 102T196 93Q208 93 216 96T228 100Q235 100 235 89Q235 86 234 74T229 38Q224 13 198 3T148 -7ZM151 581Q118 581
104 588T90 610L98 682Q99 696 115 703T165 710Q198 710 212 703T225 682L218 610Q215 581 151 581Z" />
<glyph unicode="j" horiz-adv-x="276" d="M10 -212Q-8 -212 -26 -209T-56 -198T-68 -172Q-68 -130 -64 -116T-53 -101Q-48 -101 -39 -106T-10 -111Q10 -111 22 -99T36 -57L94 496Q97 525 150 525H170Q197 525 208 517T220 497L162 -58Q157 -112 136 -145T83 -195T10
-212ZM167 581Q133 581 119 588T106 610L113 682Q115 696 130 703T181 710Q214 710 228 703T241 682L233 610Q231 581 167 581Z" />
<glyph unicode="k" horiz-adv-x="521" d="M85 -2Q57 -2 46 5T35 27L109 725Q111 753 164 753H184Q213 753 224 746T235 725L191 311L195 310L364 508Q373 519 388 522T424 525H449Q497 525 497 512Q497 504 485 491L306 285L464 32Q470 22 470 15Q470 7 459 3T416
-2H388Q368 -2 353 1T331 15L188 247H184L161 27Q158 -2 105 -2H85Z" />
<glyph unicode="l" horiz-adv-x="297" d="M158 -7Q102 -7 73 25T50 134L112 727Q114 741 124 747T160 754H193Q218 754 227 747T237 729L175 133Q173 112 180 103T203 93Q215 93 223 96T235 100Q242 100 242 89Q242 86 242 74T236 38Q232 13 206 3T158 -7Z" />
<glyph unicode="m" horiz-adv-x="848" d="M734 -7Q680 -7 649 24T626 130L648 352Q652 391 636 408T587 425Q562 425 538 409T494 365T463 299L485 393L449 27Q446 -2 393 -2H373Q347 -2 335 7T323 28L356 356Q360 393 344 409T296 425Q276 425 257 415T220 386T188
336L157 27Q154 -2 101 -2H82Q55 -2 43 7T31 28Q35 69 40 117T51 216T61 310T68 389T71 438Q71 456 71 467T70 486Q70 497 84 504T120 514T165 518Q177 518 183 506T192 476T195 442Q195 428 194 414T192 390L176 415Q192 447 219 473T282 514T354 530Q410 530
441 507T482 443Q508 481 553 505T645 530Q714 530 748 495T775 382L752 133Q750 112 757 103T780 93Q792 93 800 96T811 100Q819 100 819 89Q819 86 818 74T813 38Q808 13 782 3T734 -7Z" />
<glyph unicode="n" horiz-adv-x="557" d="M450 -7Q397 -7 366 23T341 130L363 356Q367 393 351 409T302 425Q282 425 261 414T222 382T190 330L159 27Q156 -2 103 -2H83Q57 -2 45 6T33 26L67 348Q70 373 71 399T73 438Q73 456 72 467T71 486Q71 497 85 504T122
514T167 518Q185 518 191 495T197 444Q197 428 196 413T193 389L178 415Q194 447 223 473T288 514T361 530Q430 530 464 495T491 382L467 133Q465 112 472 103T495 93Q507 93 515 96T527 100Q534 100 534 89Q534 86 533 74T528 38Q523 13 497 3T450 -7Z" />
<glyph unicode="o" horiz-adv-x="569" d="M264 -7Q158 -7 101 52T43 217Q43 278 56 334T100 435T181 504T307 530Q412 530 469 471T526 305Q526 151 457 72T264 -7ZM273 94Q397 94 397 299Q397 362 371 395T296 429Q234 429 203 376T171 223Q171 161 197 128T273 94Z" />
<glyph unicode="p" horiz-adv-x="573" d="M65 -207Q39 -207 27 -199T15 -179L72 366Q74 390 75 408T77 438Q77 456 76 467T75 486Q75 497 89 504T126 514T170 518Q180 518 186 511T196 489T200 451Q200 438 199 423T195 395L182 413Q203 466 245 498T341 530Q377
530 409 518T467 480T507 413T522 315Q522 220 492 147T407 34T280 -7Q240 -7 211 8T163 37L141 -178Q138 -207 85 -207H65ZM254 94Q291 94 317 109T360 153T386 221T394 307Q394 349 382 375T349 413T298 426Q279 426 260 416T224 384T192 329L172 125Q184 115
205 105T254 94Z" />
<glyph unicode="q" horiz-adv-x="566" d="M375 -207Q348 -207 336 -199T325 -178L350 66Q325 31 291 12T216 -7Q181 -7 149 5T91 44T51 111T36 209Q36 304 67 376T153 489T283 530Q327 530 359 512T408 478Q413 494 418 504T434 519T465 525H475Q500 525 511 519T522
501L451 -178Q448 -207 395 -207H375ZM260 97Q278 97 296 107T332 138T363 191L377 316Q381 347 388 383T403 449L408 378Q400 387 387 399T354 420T308 429Q270 429 243 414T198 370T172 303T164 217Q164 175 176 149T209 110T260 97Z" />
<glyph unicode="r" horiz-adv-x="366" d="M90 -2Q63 -2 51 6T39 29L74 363Q77 388 78 406T79 437Q79 458 78 469T76 486Q77 504 100 511T171 518Q191 518 197 498T204 453Q224 484 254 507T325 530Q343 530 353 524T368 508T373 487Q373 472 368 454T354 422T338
408Q331 408 322 412T291 417Q268 417 243 403T199 360L165 28Q162 -2 109 -2H90Z" />
<glyph unicode="s" horiz-adv-x="413" d="M167 -7Q145 -7 120 -3T73 10T38 32T24 61Q24 95 30 111T44 128Q52 128 66 120T103 103T157 94Q195 94 216 107T238 148Q238 170 226 183T195 205T153 224Q121 237 97 256T60 301T46 363Q46 418 71 455T141 511T238 530Q258
530 282 528T328 519T363 501T377 474Q377 465 369 450T350 421T331 408Q322 408 304 419T246 430Q212 430 193 418T174 382Q174 361 187 348T220 326T262 308Q288 297 312 280T351 236T367 171Q367 116 342 76T271 14T167 -7Z" />
<glyph unicode="t" horiz-adv-x="342" d="M190 -7Q164 -7 140 -1T99 23T73 68T68 141L97 422H65Q37 422 42 464L44 480Q49 523 76 523H110L129 619Q133 635 145 642T181 650H197Q223 650 234 641T243 617L234 523H292Q307 523 312 513T315 480L313 465Q308 422
282 422H223L194 141Q191 115 201 104T230 93Q248 93 257 96T270 100Q277 100 277 89Q277 86 277 74T271 38Q267 13 241 3T190 -7Z" />
<glyph unicode="u" horiz-adv-x="557" d="M170 -7Q101 -7 67 28T40 141L75 496Q78 525 131 525H151Q178 525 190 517T201 497L168 166Q164 130 180 114T228 98Q248 98 268 108T308 139T340 192L372 496Q375 525 427 525H447Q474 525 486 517T498 497L461 133Q459
112 466 103T488 93Q501 93 509 96T520 100Q528 100 528 89Q528 86 527 74T522 38Q517 13 491 3T443 -7Q390 -7 361 21T333 119L356 112Q338 78 309 51T244 9T170 -7Z" />
<glyph unicode="v" horiz-adv-x="485" d="M199 -2Q179 -2 166 2T150 20L39 497Q33 525 95 525H117Q135 525 149 521T166 506L206 319Q216 276 222 231T233 148H237Q249 188 263 233T296 322L375 506Q380 517 393 521T426 525H448Q465 525 481 522T498 505Q498
497 494 488L284 17Q279 6 266 2T232 -2H199Z" />
<glyph unicode="w" horiz-adv-x="747" d="M177 -2Q156 -2 144 3T129 19L49 498Q45 525 103 525H126Q147 525 160 520T174 504L209 278Q216 235 219 202T224 153H228Q232 174 242 206T266 276L346 504Q351 515 363 520T397 525H418Q437 525 451 520T466 503L499
278Q506 238 509 206T512 153H516Q522 180 532 212T554 276L636 497Q643 513 652 519T688 525H701Q728 525 738 520T748 504Q748 498 744 487L571 17Q567 8 553 3T519 -2H476Q455 -2 443 3T428 19L396 236Q392 264 389 294T387 344H383Q381 331 375 308T356 251L272
17Q269 8 255 3T221 -2H177Z" />
<glyph unicode="x" horiz-adv-x="485" d="M34 -2Q21 -2 9 -1T-12 4T-21 16Q-21 25 -10 38L169 266L48 484Q40 497 40 506Q41 518 58 521T99 525H123Q143 525 156 523T176 507L225 417Q237 395 242 382T250 360Q254 369 262 382T285 414L357 508Q365 520 379 522T413
525H434Q454 525 471 522T488 507Q488 499 478 485L306 267L435 39Q442 27 442 18Q442 5 426 2T384 -2H360Q340 -2 327 1T307 16L249 121Q238 142 234 154T227 175Q223 165 216 153T196 124L112 15Q103 4 89 1T55 -2H34Z" />
<glyph unicode="y" horiz-adv-x="481" d="M106 -207Q57 -207 57 -188Q57 -181 63 -170L178 61L184 -109L37 476Q36 485 34 491T32 502Q32 513 43 519T87 525H113Q131 525 145 521T161 506L213 287Q218 269 222 239T231 181H234Q244 208 254 239T273 287L371 506Q376
517 389 521T423 525H440Q468 525 480 520T492 506Q492 499 487 488L177 -186Q172 -197 158 -202T122 -207H106Z" />
<glyph unicode="z" horiz-adv-x="489" d="M35 0Q28 0 22 11T13 37T9 64Q9 77 16 85L300 422H88Q76 422 70 431T67 468L68 478Q70 502 78 512T99 523H447Q456 523 461 512T468 486T471 459Q471 446 463 436L182 101H412Q425 101 431 92T434 55L432 39Q429 17 421
9T402 0H35Z" />
<glyph unicode="{" horiz-adv-x="274" d="M138 -138Q117 -138 97 -127T67 -91T59 -28L78 175Q81 204 76 222T62 250T41 267Q32 273 24 280T17 303L19 329Q21 344 28 351T51 366Q80 380 93 407T112 484L130 652Q134 691 148 716T185 755T233 768H273Q290 768 296
761T300 733L299 720Q298 699 291 692T267 685H260Q244 685 238 675T228 640L211 468Q206 427 192 397T159 346T123 315Q137 307 151 290T173 248T178 185L161 -15Q159 -38 165 -46T182 -55H189Q203 -55 209 -61T213 -89L212 -103Q211 -122 203 -130T179 -138H138Z"
/>
<glyph unicode="|" horiz-adv-x="250" d="M185 769Q207 769 216 763T223 741L134 -111Q131 -139 90 -139H77Q55 -139 46 -132T38 -111L128 741Q131 769 172 769H185Z" />
<glyph unicode="}" horiz-adv-x="274" d="M4 -138Q-14 -138 -19 -130T-24 -103L-23 -90Q-21 -69 -14 -62T10 -55H17Q32 -55 39 -44T48 -10L66 162Q70 203 84 233T118 284T154 315Q140 324 126 340T104 383T98 445L116 645Q118 668 112 676T94 685H87Q74 685 68
691T63 719L64 733Q66 752 73 760T98 768H138Q160 768 179 757T210 721T218 658L198 455Q194 412 206 393T235 363Q246 357 253 350T260 327L258 301Q257 286 250 279T226 264Q196 251 183 224T165 146L147 -22Q143 -60 129 -86T92 -125T43 -138H4Z" />
<glyph unicode="~" horiz-adv-x="560" d="M97 210Q90 210 79 216T68 230Q68 235 69 241T73 251Q86 283 114 307T191 332Q221 332 255 322T323 301T382 290Q409 290 423 300T447 321T463 332Q470 332 482 325T494 310Q494 306 493 301T488 289Q471 254 445 232T374
210Q342 210 307 221T239 242T178 252Q153 252 138 242T114 221T97 210Z" />
<glyph unicode="&#xa0;" horiz-adv-x="240" />
<glyph unicode="&#xa1;" horiz-adv-x="294" d="M75 -179Q48 -179 35 -172T25 -150L112 279Q115 294 124 301T159 308H170Q196 308 204 301T211 279L166 -150Q163 -179 110 -179H75ZM159 385Q130 385 119 392T109 413L118 496Q120 525 173 525H200Q229 525 240
518T251 496L242 413Q239 385 186 385H159Z" />
<glyph unicode="&#xa2;" horiz-adv-x="470" d="M249 -78Q223 -78 225 -55L291 565Q293 588 319 588H324Q350 588 348 565L282 -55Q280 -78 254 -78H249ZM255 -7Q142 -7 86 45T30 205Q30 362 103 446T312 530Q344 530 378 523T435 503T458 472Q458 462 448 445T426
414T405 400Q404 400 401 401T388 407Q377 413 357 421T306 429Q236 429 199 375T162 218Q162 155 187 125T270 94Q302 94 325 102T366 118Q372 120 376 121T382 123Q392 123 400 112T414 85T420 59Q420 41 402 29T356 8T301 -3T255 -7Z" />
<glyph unicode="&#xa3;" horiz-adv-x="530" d="M61 0Q28 0 32 37L34 55Q35 68 48 77T78 97T108 125T125 169L141 321H97Q83 321 77 332T72 363L74 379Q76 399 83 410T105 422H152L161 507Q171 603 229 655T397 707Q410 707 428 707T464 702T494 691T506 669Q506
657 499 641T483 613T465 601Q460 601 443 605T396 609Q346 609 318 585T284 506L276 422H395Q408 422 414 411T418 380L416 364Q414 344 406 333T385 321H265L257 247Q253 205 243 177T218 131T187 101H437Q463 101 460 59L458 40Q457 17 449 9T427 0H61Z" />
<glyph unicode="&#xa4;" horiz-adv-x="550" d="M456 509Q468 509 477 499L495 478Q504 468 504 458Q504 445 490 432L460 404Q470 385 475 365T480 321Q480 287 469 256T439 198L461 174Q470 164 470 152Q470 140 458 129L435 108Q423 97 410 97Q405 97 399 100T388
108L367 132Q342 117 315 109T259 101Q230 101 204 108T157 130L133 108Q120 97 107 97Q102 97 97 100T87 108L68 129Q60 138 60 148Q60 161 74 174L99 197Q80 234 80 278Q80 313 90 345T122 406L99 432Q90 443 90 453Q90 466 102 478L124 498Q136 509 149 509Q155
509 160 507T171 498L196 471Q219 485 245 492T300 500Q329 500 354 493T401 471L431 498Q444 509 456 509ZM290 404Q260 404 234 389T191 347T175 289Q175 250 202 224T269 197Q299 197 325 212T367 254T384 311Q384 351 358 377T290 404Z" />
<glyph unicode="&#xa5;" horiz-adv-x="600" d="M98 339Q88 339 83 346T79 372L80 381Q82 398 89 405T106 412H283L315 392L349 412H534Q544 412 549 405T552 379L551 370Q550 353 544 346T525 339H98ZM80 193Q70 193 65 200T62 226L63 235Q65 252 71 259T89 266H517Q527
266 532 259T535 233L534 224Q532 207 526 200T508 193H80ZM259 -2Q231 -2 220 5T209 27L242 344L73 660Q67 671 67 680Q67 694 83 698T125 702H157Q177 702 190 699T209 684L322 459L484 685Q492 695 506 698T541 702H568Q580 702 592 701T612 695T620 683Q620
679 617 673T610 660L373 341L340 27Q338 -2 285 -2H259Z" />
<glyph unicode="&#xa6;" horiz-adv-x="250" d="M185 770Q207 770 215 763T223 741Q223 738 221 715T215 654T207 575T198 491T189 416Q186 388 145 388H131Q111 388 102 394T93 413Q93 416 95 440T102 502T110 582T119 667T128 741Q130 770 171 770H185ZM130 242Q152
242 159 235T167 213Q167 210 165 186T159 126T151 47T142 -37T133 -111Q130 -140 90 -140H76Q54 -140 46 -133T38 -111Q38 -108 40 -84T47 -23T55 56T64 139T72 213Q75 242 116 242H130Z" />
<glyph unicode="&#xa7;" horiz-adv-x="429" d="M176 -7Q145 -7 114 -1T62 16T41 44Q41 54 49 71T69 102T88 116Q95 116 115 105T173 94Q205 94 223 106T241 139Q241 157 228 167T195 185T151 201Q114 217 83 248T52 333Q52 370 66 404T108 464Q95 477 87 495T78
542Q78 591 102 628T170 686T273 707Q304 707 335 702T386 685T407 657Q407 647 399 630T380 598T361 584Q354 584 334 595T276 607Q243 607 226 595T208 562Q208 545 221 535T254 517T297 499Q322 489 344 473T381 431T396 368Q396 327 380 293T340 237Q354 224
362 206T370 158Q370 111 346 74T279 15T176 -7ZM248 283Q264 293 272 310T280 345Q280 367 269 380T240 402T200 418Q185 409 177 392T168 355Q168 324 192 309T248 283Z" />
<glyph unicode="&#xa8;" horiz-adv-x="283" d="M261 587Q232 587 220 594T208 615L215 676Q217 691 230 698T273 705Q304 705 316 698T326 676L320 615Q319 601 305 594T261 587ZM90 587Q61 587 49 594T37 615L44 676Q46 691 59 698T102 705Q132 705 145 698T156
676L149 615Q148 601 134 594T90 587Z" />
<glyph unicode="&#xa9;" horiz-adv-x="739" d="M368 708Q443 708 508 680T622 604T699 490T727 351Q727 276 699 211T622 97T508 20T368 -8Q294 -8 229 20T115 97T38 211T10 351Q10 425 38 490T115 604T229 680T368 708ZM384 555Q411 555 437 550T482 536T500
516Q500 510 495 499T483 479T470 470Q467 470 457 475T430 486T384 491Q327 491 300 457T272 351Q272 280 299 245T382 209Q411 209 430 215T462 228T478 235Q485 235 491 226T502 207T506 192Q506 178 486 168T438 152T382 146Q287 146 242 196T196 351Q196 555
384 555ZM368 650Q307 650 253 627T157 562T92 467T68 351Q68 289 92 235T157 139T252 75T368 51Q431 51 485 74T580 139T645 234T669 351Q669 413 645 467T580 562T485 626T368 650Z" />
<glyph unicode="&#xaa;" horiz-adv-x="319" d="M152 440Q128 440 107 451T73 486T60 548Q60 619 94 663T185 708Q208 708 226 699T251 682Q255 695 259 700T280 705H291Q315 705 314 690L295 510Q294 490 309 490Q315 490 319 491T325 493Q329 493 329 488Q329
487 329 481T326 462Q324 451 311 446T287 440Q264 440 251 451T234 488Q220 465 199 453T152 440ZM174 497Q190 497 205 508T231 541L238 604Q239 616 240 623T242 637Q237 643 225 647T197 652Q173 652 158 640T135 605T128 553Q128 524 140 511T174 497Z" />
<glyph unicode="&#xab;" horiz-adv-x="471" d="M177 51Q164 51 153 65L42 220Q35 228 33 238T30 256Q30 271 34 278T49 296L194 451Q207 464 220 464Q228 464 239 458T259 443T267 423Q267 412 256 399L131 258L226 116Q230 112 231 107T233 96Q233 88 224 78T202
59T177 51ZM367 51Q354 51 343 65L231 220Q220 235 220 250Q220 264 224 274T239 296L383 451Q397 464 410 464Q418 464 429 458T448 443T457 423Q457 412 445 399L321 258L416 116Q419 112 420 107T422 96Q422 88 413 78T392 59T367 51Z" />
<glyph unicode="&#xac;" horiz-adv-x="560" d="M448 74Q427 74 418 81T409 103L424 250H58Q45 250 40 259T37 290L38 308Q42 345 68 345H499Q535 345 532 308L510 102Q509 88 497 81T464 74H448Z" />
<glyph unicode="&#xad;" horiz-adv-x="320" d="M55 218Q43 218 38 227T34 258L36 276Q38 296 45 304T65 313H266Q278 313 283 304T287 276L285 257Q284 235 276 227T256 218H55Z" />
<glyph unicode="&#xae;" horiz-adv-x="739" d="M368 -7Q294 -7 229 21T115 98T38 212T10 351Q10 425 38 490T115 604T229 680T368 708Q443 708 508 681T622 604T699 490T727 351Q727 277 699 212T622 98T508 21T368 -7ZM368 51Q431 51 485 74T580 139T645 235T669
351Q669 413 645 467T580 562T485 627T368 650Q307 650 253 627T157 563T92 467T68 351Q68 289 92 235T157 139T252 75T368 51ZM274 152Q244 152 244 168V531Q244 551 264 551H370Q442 551 476 525T510 447Q510 413 492 390T443 354V350Q457 345 468 330T488 293L536
172Q538 169 538 167T539 162Q539 152 509 152H492Q467 152 462 163L418 274Q408 297 394 306T351 316H318V168Q318 152 287 152H274ZM318 380H380Q402 380 418 396T434 436Q434 462 418 475T376 488H318V380Z" />
<glyph unicode="&#xaf;" horiz-adv-x="287" d="M63 602Q35 602 40 639L42 652Q44 669 51 679T72 689H305Q333 689 328 652L326 639Q325 621 318 612T296 602H63Z" />
<glyph unicode="&#xb0;" horiz-adv-x="345" d="M213 707Q264 707 298 673T333 588Q333 548 314 515T262 462T186 442Q133 442 100 476T66 561Q66 600 84 633T136 686T213 707ZM208 651Q170 651 148 625T125 566Q125 538 144 518T191 498Q227 498 250 523T273 583Q273
612 255 631T208 651Z" />
<glyph unicode="&#xb1;" horiz-adv-x="560" d="M262 136Q238 136 230 142T222 164L238 317H74Q62 317 57 326T53 356L55 375Q57 394 64 402T84 410H247L264 573Q266 587 276 593T310 600H322Q345 600 354 593T362 571L345 410H508Q520 410 525 402T528 375L527
356Q525 334 517 326T497 317H335L319 162Q317 136 273 136H262ZM42 0Q30 0 25 9T21 39L23 57Q25 77 32 85T52 93H474Q486 93 491 85T495 57L493 38Q491 17 483 9T463 0H42Z" />
<glyph unicode="&#xb2;" horiz-adv-x="310" d="M49 350Q43 350 40 361T37 384Q37 393 39 397T45 407L208 585Q227 606 235 623T244 658Q244 680 229 692T188 704Q167 704 152 698T126 684T110 677Q100 677 93 689T86 711Q87 727 106 738T152 756T204 763Q260 763
289 737T319 668Q319 634 305 606T267 552L136 409H286Q293 409 297 404T299 384L298 375Q297 363 293 357T279 350H49Z" />
<glyph unicode="&#xb3;" horiz-adv-x="310" d="M158 343Q132 343 105 348T58 362T39 385Q39 391 44 400T57 418T70 426Q78 426 98 415T155 403Q186 403 208 421T230 477Q230 508 211 521T161 535H143Q128 535 130 560L131 569Q132 582 136 588T149 594H163Q186
594 202 603T227 626T236 658Q236 675 223 689T182 703Q146 703 132 694T109 685Q102 685 95 698T87 722Q87 736 104 745T148 758T198 763Q248 763 280 738T312 670Q312 635 293 610T245 574V571Q273 561 289 537T305 480Q305 419 264 381T158 343Z" />
<glyph unicode="&#xb4;" horiz-adv-x="181" d="M67 573Q49 573 42 576T34 586Q34 592 38 598T49 615L95 685Q103 697 110 704T132 714T177 718Q204 718 215 715T227 703Q227 694 218 683T194 657L139 601Q123 586 110 580T67 573Z" />
<glyph unicode="&#xb5;" horiz-adv-x="566" d="M78 -207Q52 -207 40 -198T28 -177L99 496Q102 525 155 525H175Q201 525 213 517T225 497L190 156Q188 128 204 113T252 98Q272 98 292 108T331 139T363 192L395 496Q398 525 451 525H471Q498 525 510 517T521 497L484
130Q483 116 487 108T498 97T516 94Q526 94 533 97T544 100Q551 100 551 90Q551 89 551 75T545 38Q541 13 515 3T467 -7Q419 -7 393 15T360 82Q331 46 295 23T210 -1Q191 -1 169 8T132 32L155 53Q162 -5 162 -62T154 -178Q150 -207 98 -207H78Z" />
<glyph unicode="&#xb6;" horiz-adv-x="515" d="M217 -173Q206 -173 203 -167T201 -149L241 247Q159 258 110 315T61 457Q61 531 96 585T189 670T313 700H526Q538 700 541 696T544 680L542 658Q541 638 520 638H484L401 -151Q400 -160 395 -166T379 -173H357Q337
-173 340 -149L422 638H344L261 -151Q260 -160 255 -166T239 -173H217Z" />
<glyph unicode="&#xb7;" horiz-adv-x="267" d="M139 296Q114 296 97 313T80 354Q80 382 97 402T148 423Q173 423 190 406T207 363Q207 334 189 315T139 296Z" />
<glyph unicode="&#xb8;" horiz-adv-x="243" d="M77 -211Q51 -211 23 -206T-25 -191T-45 -166Q-45 -154 -37 -142T-19 -129Q-7 -129 19 -139T79 -150Q102 -150 113 -143T125 -122Q125 -108 115 -103T91 -94T67 -88T57 -78Q57 -73 62 -57T84 7H144L120 -58L103 -48Q149
-48 176 -64T203 -118Q203 -160 170 -185T77 -211Z" />
<glyph unicode="&#xb9;" horiz-adv-x="310" d="M173 349Q159 349 152 353T145 366L179 692L102 678Q93 677 91 688T88 709Q88 723 91 729T103 736L239 762Q246 764 252 759T258 746L218 366Q217 358 208 354T186 349H173Z" />
<glyph unicode="&#xba;" horiz-adv-x="337" d="M190 441Q82 441 82 560Q82 633 115 670T214 707Q321 707 321 586Q321 441 190 441ZM196 497Q253 497 253 582Q253 651 206 651Q149 651 149 566Q149 497 196 497Z" />
<glyph unicode="&#xbb;" horiz-adv-x="471" d="M293 464Q307 464 317 450L428 295Q435 288 437 278T440 259Q440 244 436 237T421 219L276 64Q263 51 250 51Q242 51 231 57T212 72T203 92Q203 103 214 116L339 257L244 399Q240 404 239 409T237 419Q237 427 246
437T268 456T293 464ZM103 464Q117 464 127 450L239 295Q250 280 250 265Q250 251 246 241T231 219L87 64Q73 51 60 51Q52 51 41 57T22 72T13 92Q13 103 25 116L149 257L54 399Q51 404 50 409T48 419Q48 427 57 437T79 456T103 464Z" />
<glyph unicode="&#xbc;" horiz-adv-x="750" d="M154 289Q140 289 132 293T125 306L160 632L83 618Q74 617 71 628T68 649Q68 663 71 669T83 676L220 702Q227 704 233 699T239 686L198 306Q197 298 189 294T166 289H154ZM593 -1Q565 -1 566 15L574 87H417Q409 87
404 102T399 126Q399 135 404 141L608 398Q612 405 620 406T638 408H652Q681 408 679 391L653 146H682Q689 146 693 141T695 121L694 111Q692 87 674 87H647L639 15Q638 -1 609 -1H593ZM474 146H581L592 254Q595 274 598 287T606 312L604 313L474 146ZM143 -1Q115
-1 115 8Q115 12 122 22L563 690Q570 701 594 701H601Q617 701 623 699T629 692Q629 687 621 675L185 15Q179 6 171 3T149 -1H143Z" />
<glyph unicode="&#xbd;" horiz-adv-x="750" d="M154 289Q140 289 132 293T125 306L160 632L83 618Q74 617 71 628T68 649Q68 663 71 669T83 676L220 702Q227 704 233 699T239 686L198 306Q197 298 189 294T166 289H154ZM433 0Q427 0 424 11T420 34Q420 43 422
47T429 57L592 235Q611 256 619 273T628 308Q628 330 613 342T572 354Q551 354 535 348T509 334T494 327Q484 327 477 339T470 361Q470 377 489 388T536 406T588 413Q643 413 673 387T703 318Q703 284 688 256T650 202L520 59H669Q676 59 680 54T683 34L682 25Q681
13 676 7T662 0H433ZM124 -1Q97 -1 97 8Q97 12 104 22L544 690Q552 701 576 701H582Q599 701 604 699T610 692Q610 687 602 675L167 15Q161 6 153 3T130 -1H124Z" />
<glyph unicode="&#xbe;" horiz-adv-x="750" d="M139 283Q113 283 86 288T39 302T20 325Q20 331 25 340T37 358T51 366Q59 366 79 355T136 343Q167 343 188 361T210 417Q210 448 191 461T141 475H124Q109 475 111 500L112 509Q113 522 117 528T130 534H143Q166
534 182 543T207 566T216 598Q216 615 204 629T163 643Q127 643 113 634T90 625Q83 625 76 638T68 662Q68 676 85 685T128 698T179 703Q229 703 261 678T293 610Q293 575 274 550T226 514V511Q254 501 270 477T286 420Q286 359 245 321T139 283ZM593 -1Q565 -1
566 15L574 87H417Q409 87 404 102T399 126Q399 135 404 141L608 398Q612 405 620 406T638 408H652Q681 408 679 391L653 146H682Q689 146 693 141T695 121L694 111Q692 87 674 87H647L639 15Q638 -1 609 -1H593ZM474 146H581L592 254Q595 274 598 287T606 312L604
313L474 146ZM163 -1Q135 -1 135 8Q135 12 142 22L583 690Q590 701 614 701H621Q637 701 643 699T649 692Q649 687 641 675L205 15Q199 6 191 3T169 -1H163Z" />
<glyph unicode="&#xbf;" horiz-adv-x="425" d="M295 308Q319 308 327 302T335 282Q335 239 305 198T237 120Q198 85 170 55T141 -10Q141 -72 226 -72Q256 -72 280 -64T321 -48T345 -40Q356 -40 366 -53T383 -82T390 -110Q390 -128 372 -142T324 -166T262 -179T200
-184Q138 -184 94 -165T28 -111T5 -30Q5 18 24 53T72 117T132 170Q164 197 190 223T226 283Q231 297 242 302T275 308H295ZM322 525Q352 525 361 518T371 496L363 413Q360 385 307 385H280Q251 385 241 392T230 413L238 496Q241 525 295 525H322Z" />
<glyph unicode="&#xc0;" horiz-adv-x="613" d="M31 -2Q-21 -2 -21 17Q-21 24 -15 35L277 683Q282 694 296 698T330 702H374Q394 702 407 698T424 683L581 35Q582 32 583 27T584 20Q584 11 572 5T533 -2H501Q482 -2 469 2T453 17L419 154H166L105 17Q100 7 88 3T59
-2H31ZM215 266H393L345 486Q341 501 340 517T337 548H334Q330 533 325 517T312 486L215 266ZM410 750Q385 750 372 754T341 770L270 818Q253 830 247 837T241 852Q241 863 258 867T308 871Q342 871 359 865T391 839L436 785Q441 778 443 773T445 764Q445 757 436
754T410 750Z" />
<glyph unicode="&#xc1;" horiz-adv-x="613" d="M31 -2Q-21 -2 -21 17Q-21 24 -15 35L277 683Q282 694 296 698T330 702H374Q394 702 407 698T424 683L581 35Q582 32 583 27T584 20Q584 11 572 5T533 -2H501Q482 -2 469 2T453 17L419 154H166L105 17Q100 7 88 3T59
-2H31ZM215 266H393L345 486Q341 501 340 517T337 548H334Q330 533 325 517T312 486L215 266ZM298 750Q265 750 265 762Q265 767 269 773T279 785L340 844Q356 860 374 865T425 871Q456 871 472 868T488 854Q488 847 480 839T451 818L371 770Q352 759 338 755T298
750Z" />
<glyph unicode="&#xc2;" horiz-adv-x="613" d="M31 -2Q-21 -2 -21 17Q-21 24 -15 35L277 683Q282 694 296 698T330 702H374Q394 702 407 698T424 683L581 35Q582 32 583 27T584 20Q584 11 572 5T533 -2H501Q482 -2 469 2T453 17L419 154H166L105 17Q100 7 88 3T59
-2H31ZM215 266H393L345 486Q341 501 340 517T337 548H334Q330 533 325 517T312 486L215 266ZM242 737Q227 737 221 739T215 746Q215 751 221 758T237 775L298 835Q311 849 323 853T358 858H378Q400 858 412 853T434 835L481 776Q497 754 497 748Q497 743 491 740T468
737Q448 737 436 741T412 752L361 786L303 753Q290 746 277 742T242 737Z" />
<glyph unicode="&#xc3;" horiz-adv-x="613" d="M31 -2Q-21 -2 -21 17Q-21 24 -15 35L277 683Q282 694 296 698T330 702H374Q394 702 407 698T424 683L581 35Q582 32 583 27T584 20Q584 11 572 5T533 -2H501Q482 -2 469 2T453 17L419 154H166L105 17Q100 7 88 3T59
-2H31ZM215 266H393L345 486Q341 501 340 517T337 548H334Q330 533 325 517T312 486L215 266ZM431 753Q401 753 375 762T327 780T289 789Q268 789 256 781T236 763T218 754Q208 754 194 761T179 778Q179 784 180 788T184 797Q196 825 224 847T293 869Q323 869 348
860T396 841T438 832Q460 832 472 841T492 859T509 868Q515 868 523 865T539 856T547 843Q547 840 546 836T542 826Q528 796 499 775T431 753Z" />
<glyph unicode="&#xc4;" horiz-adv-x="613" d="M31 -2Q-21 -2 -21 17Q-21 24 -15 35L277 683Q282 694 296 698T330 702H374Q394 702 407 698T424 683L581 35Q582 32 583 27T584 20Q584 11 572 5T533 -2H501Q482 -2 469 2T453 17L419 154H166L105 17Q100 7 88 3T59
-2H31ZM215 266H393L345 486Q341 501 340 517T337 548H334Q330 533 325 517T312 486L215 266ZM445 750Q418 750 406 755T393 767T391 779L398 843Q399 847 401 853T417 865T458 871Q487 871 498 866T511 855T512 843L506 779Q506 775 503 768T487 756T445 750ZM269
750Q241 750 229 755T216 767T214 779L221 843Q222 847 225 853T240 865T281 871Q309 871 320 866T334 855T335 843L329 779Q329 775 326 769T311 756T269 750Z" />
<glyph unicode="&#xc5;" horiz-adv-x="613" d="M31 -2Q-21 -2 -21 17Q-21 24 -15 35L277 683Q282 694 296 698T330 702H374Q394 702 407 698T424 683L581 35Q582 32 583 27T584 20Q584 11 572 5T533 -2H501Q482 -2 469 2T453 17L419 154H166L105 17Q100 7 88 3T59
-2H31ZM215 266H393L345 486Q341 501 340 517T337 548H334Q330 533 325 517T312 486L215 266ZM356 728Q319 728 295 753T270 813Q270 856 300 886T373 917Q410 917 435 892T460 831Q460 789 430 759T356 728ZM360 783Q377 783 388 795T400 826Q400 841 391 850T368
860Q353 860 341 848T329 817Q329 803 338 793T360 783Z" />
<glyph unicode="&#xc6;" horiz-adv-x="915" d="M13 -2Q-6 -2 -22 1T-39 18Q-39 25 -32 36L356 673Q372 700 401 700H856Q875 700 881 691T886 659L883 631Q881 608 872 598T844 588H515L532 414H797Q816 414 822 405T827 373L824 345Q823 322 814 312T785 302H543L562
112H795Q814 112 820 103T825 71L822 43Q820 20 811 10T783 0H471Q455 0 448 7T438 30L427 154H166L85 17Q78 8 67 3T39 -2H13ZM234 266H417L398 488L403 562H399L367 489L234 266Z" />
<glyph unicode="&#xc7;" horiz-adv-x="619" d="M333 -7Q185 -7 113 62T40 276Q40 486 135 596T413 707Q445 707 478 703T539 690T586 670Q596 664 602 657T608 642Q608 632 601 619T583 591T563 568T545 559Q539 559 523 568T477 586T399 595Q291 595 234 518T176
294Q176 199 218 152T345 105Q394 105 429 115T487 137T516 148Q528 148 538 134T553 101T559 74Q559 63 548 51T521 31Q499 20 468 11T401 -2T333 -7ZM292 -211Q266 -211 238 -206T190 -191T170 -166Q170 -154 178 -142T196 -129Q208 -129 234 -139T294 -150Q317
-150 328 -143T340 -122Q340 -108 330 -103T306 -94T282 -88T272 -78Q272 -73 277 -57T299 7H359L335 -58L318 -48Q364 -48 391 -64T418 -118Q418 -160 385 -185T292 -211Z" />
<glyph unicode="&#xc8;" horiz-adv-x="546" d="M75 0Q57 0 49 7T42 34L107 663Q111 700 148 700H508Q522 700 528 689T532 651L531 639Q528 610 519 599T496 588H232L213 414H449Q464 414 469 403T473 365L472 353Q470 325 461 314T437 302H202L181 112H448Q462
112 468 101T472 63L471 51Q468 22 459 11T436 0H75ZM383 750Q357 750 344 754T314 770L243 818Q226 830 220 837T213 852Q213 863 230 867T280 871Q314 871 331 865T364 839L408 785Q414 778 416 773T418 764Q418 757 409 754T383 750Z" />
<glyph unicode="&#xc9;" horiz-adv-x="546" d="M75 0Q57 0 49 7T42 34L107 663Q111 700 148 700H508Q522 700 528 689T532 651L531 639Q528 610 519 599T496 588H232L213 414H449Q464 414 469 403T473 365L472 353Q470 325 461 314T437 302H202L181 112H448Q462
112 468 101T472 63L471 51Q468 22 459 11T436 0H75ZM270 750Q237 750 237 762Q237 767 241 773T252 785L312 844Q328 860 346 865T398 871Q428 871 444 868T461 854Q461 847 453 839T424 818L344 770Q325 759 311 755T270 750Z" />
<glyph unicode="&#xca;" horiz-adv-x="546" d="M75 0Q57 0 49 7T42 34L107 663Q111 700 148 700H508Q522 700 528 689T532 651L531 639Q528 610 519 599T496 588H232L213 414H449Q464 414 469 403T473 365L472 353Q470 325 461 314T437 302H202L181 112H448Q462
112 468 101T472 63L471 51Q468 22 459 11T436 0H75ZM215 737Q199 737 194 739T188 746Q188 751 193 758T209 775L270 835Q284 849 296 853T330 858H351Q373 858 384 853T407 835L454 776Q470 754 470 748Q470 743 464 740T441 737Q421 737 408 741T385 752L333
786L275 753Q262 746 249 742T215 737Z" />
<glyph unicode="&#xcb;" horiz-adv-x="546" d="M75 0Q57 0 49 7T42 34L107 663Q111 700 148 700H508Q522 700 528 689T532 651L531 639Q528 610 519 599T496 588H232L213 414H449Q464 414 469 403T473 365L472 353Q470 325 461 314T437 302H202L181 112H448Q462
112 468 101T472 63L471 51Q468 22 459 11T436 0H75ZM418 750Q390 750 379 755T366 767T364 779L371 843Q372 847 374 853T389 865T431 871Q459 871 470 866T483 855T485 843L478 779Q478 775 475 768T460 756T418 750ZM241 750Q214 750 202 755T189 767T187 779L194
843Q195 847 197 853T213 865T254 871Q282 871 293 866T306 855T308 843L301 779Q301 775 298 769T283 756T241 750Z" />
<glyph unicode="&#xcc;" horiz-adv-x="283" d="M102 -2Q91 -2 79 0T59 8T52 26L119 673Q122 702 175 702H201Q212 702 223 700T243 692T251 674L183 27Q181 -2 128 -2H102ZM245 750Q220 750 207 754T176 770L105 818Q88 830 82 837T76 852Q76 863 93 867T143 871Q177
871 194 865T226 839L271 785Q276 778 278 773T280 764Q280 757 271 754T245 750Z" />
<glyph unicode="&#xcd;" horiz-adv-x="283" d="M102 -2Q91 -2 79 0T59 8T52 26L119 673Q122 702 175 702H201Q212 702 223 700T243 692T251 674L183 27Q181 -2 128 -2H102ZM133 750Q100 750 100 762Q100 767 104 773T114 785L175 844Q191 860 209 865T260 871Q291
871 307 868T323 854Q323 847 315 839T286 818L206 770Q188 759 174 755T133 750Z" />
<glyph unicode="&#xce;" horiz-adv-x="283" d="M102 -2Q91 -2 79 0T59 8T52 26L119 673Q122 702 175 702H201Q212 702 223 700T243 692T251 674L183 27Q181 -2 128 -2H102ZM78 737Q62 737 56 739T50 746Q50 751 56 758T72 775L133 835Q147 849 159 853T193 858H213Q235
858 247 853T269 835L316 776Q333 754 333 748Q333 743 327 740T303 737Q283 737 271 741T247 752L196 786L138 753Q125 746 112 742T78 737Z" />
<glyph unicode="&#xcf;" horiz-adv-x="283" d="M102 -2Q91 -2 79 0T59 8T52 26L119 673Q122 702 175 702H201Q212 702 223 700T243 692T251 674L183 27Q181 -2 128 -2H102ZM280 750Q253 750 242 755T229 767T227 779L233 843Q234 847 236 853T252 865T294 871Q322
871 333 866T346 855T347 843L341 779Q341 775 338 768T322 756T280 750ZM104 750Q76 750 65 755T52 767T50 779L56 843Q57 847 60 853T75 865T117 871Q145 871 156 866T169 855T170 843L164 779Q164 775 161 769T146 756T104 750Z" />
<glyph unicode="&#xd0;" horiz-adv-x="695" d="M41 300Q26 300 20 311T16 348L18 366Q21 391 28 401T51 412H343Q373 412 367 364L365 349Q363 324 356 312T333 300H41ZM90 0Q72 0 64 8T57 36L122 663Q126 700 163 700H384Q472 700 535 669T633 574T667 412Q667
308 641 230T566 101T453 25T311 0H90ZM196 112H319Q364 112 402 129T470 182T516 271T532 398Q532 464 513 506T457 568T370 588H247L196 112Z" />
<glyph unicode="&#xd1;" horiz-adv-x="719" d="M101 -2Q73 -2 62 5T51 27L119 673Q121 702 174 702H210Q230 702 243 698T265 678L476 298Q489 275 496 260T507 237T512 223L518 225Q517 244 518 269T523 327L560 673Q562 702 615 702H637Q665 702 676 695T687
673L619 27Q617 -2 564 -2H532Q513 -2 500 2T478 21L258 417Q241 447 235 460T226 484L220 482Q221 466 221 445T217 400L178 27Q176 -2 123 -2H101ZM473 753Q444 753 418 762T370 780T332 789Q311 789 299 781T278 763T261 754Q250 754 236 761T222 778Q222 784
223 788T226 797Q238 825 267 847T335 869Q365 869 391 860T439 841T480 832Q502 832 514 841T535 859T551 868Q557 868 566 865T582 856T589 843Q589 840 588 836T584 826Q571 796 541 775T473 753Z" />
<glyph unicode="&#xd2;" horiz-adv-x="731" d="M350 -7Q211 -7 133 71T55 311Q55 386 71 456T126 583T232 673T403 707Q491 707 556 673T658 566T695 381Q695 262 656 175T539 40T350 -7ZM358 105Q454 105 507 177T560 373Q560 487 515 541T391 595Q292 595 241
523T190 327Q190 211 235 158T358 105ZM468 750Q442 750 429 754T399 770L328 818Q311 830 305 837T298 852Q298 863 315 867T365 871Q399 871 416 865T449 839L493 785Q499 778 501 773T503 764Q503 757 494 754T468 750Z" />
<glyph unicode="&#xd3;" horiz-adv-x="731" d="M350 -7Q211 -7 133 71T55 311Q55 386 71 456T126 583T232 673T403 707Q491 707 556 673T658 566T695 381Q695 262 656 175T539 40T350 -7ZM358 105Q454 105 507 177T560 373Q560 487 515 541T391 595Q292 595 241
523T190 327Q190 211 235 158T358 105ZM351 750Q318 750 318 762Q318 767 322 773T333 785L393 844Q409 860 427 865T478 871Q509 871 525 868T542 854Q542 847 533 839T504 818L424 770Q406 759 392 755T351 750Z" />
<glyph unicode="&#xd4;" horiz-adv-x="731" d="M350 -7Q211 -7 133 71T55 311Q55 386 71 456T126 583T232 673T403 707Q491 707 556 673T658 566T695 381Q695 262 656 175T539 40T350 -7ZM358 105Q454 105 507 177T560 373Q560 487 515 541T391 595Q292 595 241
523T190 327Q190 211 235 158T358 105ZM296 737Q280 737 275 739T269 746Q269 751 274 758T290 775L351 835Q365 849 377 853T411 858H431Q453 858 465 853T488 835L535 776Q551 754 551 748Q551 743 545 740T521 737Q502 737 489 741T466 752L414 786L356 753Q343
746 330 742T296 737Z" />
<glyph unicode="&#xd5;" horiz-adv-x="731" d="M350 -7Q211 -7 133 71T55 311Q55 386 71 456T126 583T232 673T403 707Q491 707 556 673T658 566T695 381Q695 262 656 175T539 40T350 -7ZM358 105Q454 105 507 177T560 373Q560 487 515 541T391 595Q292 595 241
523T190 327Q190 211 235 158T358 105ZM485 753Q455 753 429 762T381 780T343 789Q322 789 310 781T290 763T272 754Q261 754 247 761T233 778Q233 784 234 788T237 797Q249 825 278 847T346 869Q377 869 402 860T450 841T492 832Q513 832 525 841T546 859T562
868Q568 868 577 865T593 856T600 843Q600 840 599 836T595 826Q582 796 552 775T485 753Z" />
<glyph unicode="&#xd6;" horiz-adv-x="731" d="M350 -7Q211 -7 133 71T55 311Q55 386 71 456T126 583T232 673T403 707Q491 707 556 673T658 566T695 381Q695 262 656 175T539 40T350 -7ZM358 105Q454 105 507 177T560 373Q560 487 515 541T391 595Q292 595 241
523T190 327Q190 211 235 158T358 105ZM503 750Q475 750 464 755T451 767T449 779L456 843Q457 847 459 853T474 865T516 871Q544 871 555 866T569 855T570 843L563 779Q563 775 560 768T545 756T503 750ZM326 750Q299 750 287 755T274 767T272 779L279 843Q280
847 282 853T298 865T339 871Q367 871 378 866T391 855T393 843L386 779Q386 775 383 769T368 756T326 750Z" />
<glyph unicode="&#xd7;" horiz-adv-x="560" d="M78 7Q70 7 58 17T36 41T27 63Q27 72 37 82L209 237L70 393Q63 400 63 409Q63 418 75 432T102 456T127 467Q135 467 142 459L281 303L453 458Q462 467 471 467Q480 467 491 457T512 434T522 411Q522 401 512 393L340
237L479 82Q486 74 486 66Q486 57 474 43T447 18T423 7Q413 7 407 16L268 172L95 16Q86 7 78 7Z" />
<glyph unicode="&#xd8;" horiz-adv-x="731" d="M50 -8Q45 -8 36 -2T20 14T12 30Q12 37 21 47L632 706Q642 716 651 716Q657 716 666 710T682 696T689 680Q689 671 680 662L70 3Q60 -8 50 -8ZM350 -7Q211 -7 133 71T55 311Q55 386 71 456T126 583T232 673T403 707Q491
707 556 673T658 566T695 381Q695 262 656 175T539 40T350 -7ZM358 105Q454 105 507 177T560 373Q560 487 515 541T391 595Q292 595 241 523T190 327Q190 211 235 158T358 105Z" />
<glyph unicode="&#xd9;" horiz-adv-x="712" d="M328 -7Q196 -7 128 50T70 218L116 673Q118 702 172 702H197Q226 702 237 695T247 673L201 228Q196 171 230 138T340 105Q415 105 458 138T508 236L553 673Q556 702 610 702H634Q663 702 674 695T684 673L638 231Q626
118 545 56T328 -7ZM464 750Q439 750 426 754T395 770L324 818Q307 830 301 837T295 852Q295 863 312 867T362 871Q396 871 413 865T445 839L489 785Q495 778 497 773T499 764Q499 757 490 754T464 750Z" />
<glyph unicode="&#xda;" horiz-adv-x="712" d="M328 -7Q196 -7 128 50T70 218L116 673Q118 702 172 702H197Q226 702 237 695T247 673L201 228Q196 171 230 138T340 105Q415 105 458 138T508 236L553 673Q556 702 610 702H634Q663 702 674 695T684 673L638 231Q626
118 545 56T328 -7ZM352 750Q319 750 319 762Q319 767 323 773T333 785L394 844Q410 860 428 865T479 871Q510 871 526 868T542 854Q542 847 534 839T505 818L425 770Q406 759 392 755T352 750Z" />
<glyph unicode="&#xdb;" horiz-adv-x="712" d="M328 -7Q196 -7 128 50T70 218L116 673Q118 702 172 702H197Q226 702 237 695T247 673L201 228Q196 171 230 138T340 105Q415 105 458 138T508 236L553 673Q556 702 610 702H634Q663 702 674 695T684 673L638 231Q626
118 545 56T328 -7ZM296 737Q281 737 275 739T269 746Q269 751 275 758T291 775L352 835Q365 849 377 853T412 858H432Q454 858 466 853T488 835L535 776Q551 754 551 748Q551 743 545 740T522 737Q502 737 490 741T466 752L415 786L357 753Q343 746 330 742T296
737Z" />
<glyph unicode="&#xdc;" horiz-adv-x="712" d="M328 -7Q196 -7 128 50T70 218L116 673Q118 702 172 702H197Q226 702 237 695T247 673L201 228Q196 171 230 138T340 105Q415 105 458 138T508 236L553 673Q556 702 610 702H634Q663 702 674 695T684 673L638 231Q626
118 545 56T328 -7ZM499 750Q472 750 460 755T447 767T445 779L452 843Q453 847 455 853T471 865T512 871Q541 871 552 866T565 855T566 843L560 779Q560 775 557 768T541 756T499 750ZM323 750Q295 750 284 755T270 767T268 779L275 843Q276 847 279 853T294 865T335
871Q363 871 374 866T388 855T389 843L383 779Q383 775 380 769T365 756T323 750Z" />
<glyph unicode="&#xdd;" horiz-adv-x="559" d="M239 -2Q211 -2 200 5T189 27L222 344L53 660Q47 671 47 680Q47 694 63 698T105 702H137Q157 702 170 699T189 684L302 459L464 685Q472 695 486 698T521 702H548Q560 702 572 701T592 695T600 683Q600 679 597 673T590
660L353 341L320 27Q318 -2 265 -2H239ZM273 750Q240 750 240 762Q240 767 244 773T254 785L315 844Q331 860 349 865T400 871Q431 871 447 868T463 854Q463 847 455 839T426 818L346 770Q327 759 313 755T273 750Z" />
<glyph unicode="&#xde;" horiz-adv-x="567" d="M90 -2Q61 -2 51 5T40 27L107 673Q109 686 120 694T163 702H188Q217 702 227 695T238 673L229 588H327Q440 588 500 539T560 395Q560 288 498 225T319 162H185L171 27Q170 13 156 6T115 -2H90ZM197 275H320Q370 275
397 305T424 383Q424 429 396 452T310 476H217L197 275Z" />
<glyph unicode="&#xdf;" horiz-adv-x="554" d="M84 -2Q56 -2 45 5T35 30L84 501Q91 564 123 610T208 681T324 707Q380 707 424 690T494 639T519 554Q519 519 506 486T468 428T407 387V383Q461 365 486 327T511 236Q511 166 479 113T391 30T261 0H234Q210 0 211
33L215 70Q218 85 225 93T245 101H267Q300 101 326 116T367 159T383 225Q383 269 357 294T282 321H268Q241 321 245 354L249 394Q250 408 258 415T278 422H284Q312 422 335 436T373 474T388 527Q388 550 379 566T353 592T311 601Q269 601 242 576T211 509L160 27Q157
-2 104 -2H84Z" />
<glyph unicode="&#xe0;" horiz-adv-x="545" d="M193 -8Q161 -8 132 4T79 43T43 110T30 209Q30 304 58 376T139 489T259 530Q304 530 335 511T383 476Q388 493 393 503T408 519T441 524H451Q475 524 486 517T496 494L460 133Q458 112 465 103T488 93Q500 93 508
96T520 100Q527 100 527 89Q527 86 526 74T521 38Q516 13 490 3T443 -7Q395 -7 369 14T336 80Q312 38 275 15T193 -8ZM236 96Q255 96 273 106T309 138T339 193L353 326Q356 352 358 367T364 397Q350 408 330 418T280 428Q241 428 214 401T172 327T158 217Q158 175
167 148T194 109T236 96ZM333 573Q311 573 296 579T267 601L230 648Q212 671 206 681T200 699Q200 709 211 713T253 718Q280 718 294 715T316 705T330 683L359 615Q364 606 366 600T368 588Q368 580 361 577T333 573Z" />
<glyph unicode="&#xe1;" horiz-adv-x="545" d="M193 -8Q161 -8 132 4T79 43T43 110T30 209Q30 304 58 376T139 489T259 530Q304 530 335 511T383 476Q388 493 393 503T408 519T441 524H451Q475 524 486 517T496 494L460 133Q458 112 465 103T488 93Q500 93 508
96T520 100Q527 100 527 89Q527 86 526 74T521 38Q516 13 490 3T443 -7Q395 -7 369 14T336 80Q312 38 275 15T193 -8ZM236 96Q255 96 273 106T309 138T339 193L353 326Q356 352 358 367T364 397Q350 408 330 418T280 428Q241 428 214 401T172 327T158 217Q158 175
167 148T194 109T236 96ZM263 573Q244 573 237 576T229 586Q229 592 233 598T244 615L291 685Q298 697 305 704T327 714T373 718Q399 718 410 715T422 703Q422 694 414 683T390 657L334 601Q318 586 305 580T263 573Z" />
<glyph unicode="&#xe2;" horiz-adv-x="545" d="M193 -8Q161 -8 132 4T79 43T43 110T30 209Q30 304 58 376T139 489T259 530Q304 530 335 511T383 476Q388 493 393 503T408 519T441 524H451Q475 524 486 517T496 494L460 133Q458 112 465 103T488 93Q500 93 508
96T520 100Q527 100 527 89Q527 86 526 74T521 38Q516 13 490 3T443 -7Q395 -7 369 14T336 80Q312 38 275 15T193 -8ZM236 96Q255 96 273 106T309 138T339 193L353 326Q356 352 358 367T364 397Q350 408 330 418T280 428Q241 428 214 401T172 327T158 217Q158 175
167 148T194 109T236 96ZM207 573Q189 573 182 576T174 587Q174 593 189 615L240 692Q248 705 261 711T308 718H332Q357 718 371 713T393 692L428 615Q432 606 434 600T437 589Q437 573 403 573Q378 573 367 580T348 598L312 645L266 598Q256 588 245 581T207 573Z"
/>
<glyph unicode="&#xe3;" horiz-adv-x="545" d="M193 -8Q161 -8 132 4T79 43T43 110T30 209Q30 304 58 376T139 489T259 530Q304 530 335 511T383 476Q388 493 393 503T408 519T441 524H451Q475 524 486 517T496 494L460 133Q458 112 465 103T488 93Q500 93 508
96T520 100Q527 100 527 89Q527 86 526 74T521 38Q516 13 490 3T443 -7Q395 -7 369 14T336 80Q312 38 275 15T193 -8ZM236 96Q255 96 273 106T309 138T339 193L353 326Q356 352 358 367T364 397Q350 408 330 418T280 428Q241 428 214 401T172 327T158 217Q158 175
167 148T194 109T236 96ZM173 586Q165 586 151 594T136 612Q136 615 138 620T142 631Q155 661 184 680T249 700Q273 700 295 693T337 678T375 670Q396 670 409 678T432 695T450 704Q458 704 472 694T487 675Q487 672 485 666T479 654Q468 630 440 609T372 588Q350
588 327 595T282 610T243 618Q223 618 211 611T190 595T173 586Z" />
<glyph unicode="&#xe4;" horiz-adv-x="545" d="M193 -8Q161 -8 132 4T79 43T43 110T30 209Q30 304 58 376T139 489T259 530Q304 530 335 511T383 476Q388 493 393 503T408 519T441 524H451Q475 524 486 517T496 494L460 133Q458 112 465 103T488 93Q500 93 508
96T520 100Q527 100 527 89Q527 86 526 74T521 38Q516 13 490 3T443 -7Q395 -7 369 14T336 80Q312 38 275 15T193 -8ZM236 96Q255 96 273 106T309 138T339 193L353 326Q356 352 358 367T364 397Q350 408 330 418T280 428Q241 428 214 401T172 327T158 217Q158 175
167 148T194 109T236 96ZM393 587Q364 587 352 594T340 615L347 676Q349 691 362 698T405 705Q435 705 447 698T458 676L452 615Q451 601 437 594T393 587ZM222 587Q192 587 180 594T169 615L176 676Q178 691 191 698T234 705Q264 705 276 698T287 676L281 615Q280
601 266 594T222 587Z" />
<glyph unicode="&#xe5;" horiz-adv-x="545" d="M193 -8Q161 -8 132 4T79 43T43 110T30 209Q30 304 58 376T139 489T259 530Q304 530 335 511T383 476Q388 493 393 503T408 519T441 524H451Q475 524 486 517T496 494L460 133Q458 112 465 103T488 93Q500 93 508
96T520 100Q527 100 527 89Q527 86 526 74T521 38Q516 13 490 3T443 -7Q395 -7 369 14T336 80Q312 38 275 15T193 -8ZM236 96Q255 96 273 106T309 138T339 193L353 326Q356 352 358 367T364 397Q350 408 330 418T280 428Q241 428 214 401T172 327T158 217Q158 175
167 148T194 109T236 96ZM304 551Q264 551 240 575T215 637Q215 665 229 688T267 725T320 740Q360 740 384 716T409 653Q409 626 395 603T357 565T304 551ZM308 609Q324 609 335 620T347 648Q347 663 338 671T315 680Q300 680 289 669T277 641Q277 627 286 618T308
609Z" />
<glyph unicode="&#xe6;" horiz-adv-x="819" d="M181 -7Q108 -7 67 27T26 122Q26 163 42 196T95 255T190 294T332 309Q342 359 363 398Q351 415 329 422T272 429Q237 429 207 420T156 402T130 393Q121 393 112 406T98 435T92 460Q92 476 120 492T193 519T289 530Q394
530 444 488Q476 510 514 520T597 530Q654 530 690 516T747 480T775 434T783 389Q783 338 762 304T706 249T626 220T533 211Q508 211 488 212T451 216Q448 171 462 145T504 106T570 94Q612 94 644 105T698 128T725 140Q728 140 730 139T733 127Q733 125 732 112T730
85T726 61Q721 41 701 28T655 8T601 -3T555 -7Q496 -7 449 8T370 58Q352 43 323 28T258 3T181 -7ZM212 94Q242 94 274 106T330 140Q326 161 324 181T322 225Q290 225 260 221T207 207T169 182T155 142Q155 120 169 107T212 94ZM458 301Q560 297 609 314T658 374Q658
402 639 415T588 429Q549 429 523 412T481 365T458 301Z" />
<glyph unicode="&#xe7;" horiz-adv-x="485" d="M263 -7Q150 -7 94 45T38 205Q38 362 110 446T320 530Q352 530 385 523T442 503T465 472Q465 462 455 445T433 414T412 400Q411 400 408 401T396 407Q385 413 365 421T313 429Q243 429 206 375T169 218Q169 155 194
125T277 94Q310 94 333 102T373 118Q379 120 383 121T389 123Q399 123 407 112T422 85T428 59Q428 41 409 29T363 8T308 -3T263 -7ZM201 -211Q175 -211 147 -206T99 -191T79 -166Q79 -154 87 -142T105 -129Q117 -129 143 -139T203 -150Q226 -150 237 -143T249 -122Q249
-108 239 -103T215 -94T192 -88T181 -78Q181 -73 186 -57T209 7H269L244 -58L227 -48Q273 -48 300 -64T327 -118Q327 -160 294 -185T201 -211Z" />
<glyph unicode="&#xe8;" horiz-adv-x="539" d="M310 530Q368 530 404 516T461 479T490 433T498 389Q498 339 477 304T422 247T347 216T263 206Q220 206 191 210T137 219L166 264V220Q166 170 181 143T222 105T285 94Q327 94 359 105T413 128T440 140Q443 140 445
138T448 127Q448 114 446 94T441 61Q436 41 416 28T370 8T316 -3T270 -7Q217 -7 175 5T101 44T54 111T37 208Q37 315 71 386T167 494T310 530ZM303 429Q248 429 216 392T172 296H228Q249 296 270 299T310 308T343 323T365 345T373 374Q373 401 354 415T303 429ZM340
573Q317 573 302 579T274 601L237 648Q219 671 213 681T206 699Q206 709 218 713T260 718Q287 718 301 715T323 705T336 683L366 615Q370 606 372 600T375 588Q375 580 368 577T340 573Z" />
<glyph unicode="&#xe9;" horiz-adv-x="539" d="M310 530Q368 530 404 516T461 479T490 433T498 389Q498 339 477 304T422 247T347 216T263 206Q220 206 191 210T137 219L166 264V220Q166 170 181 143T222 105T285 94Q327 94 359 105T413 128T440 140Q443 140 445
138T448 127Q448 114 446 94T441 61Q436 41 416 28T370 8T316 -3T270 -7Q217 -7 175 5T101 44T54 111T37 208Q37 315 71 386T167 494T310 530ZM303 429Q248 429 216 392T172 296H228Q249 296 270 299T310 308T343 323T365 345T373 374Q373 401 354 415T303 429ZM269
573Q251 573 244 576T236 586Q236 592 240 598T251 615L297 685Q305 697 312 704T334 714T379 718Q406 718 417 715T429 703Q429 694 420 683T396 657L341 601Q325 586 312 580T269 573Z" />
<glyph unicode="&#xea;" horiz-adv-x="539" d="M310 530Q368 530 404 516T461 479T490 433T498 389Q498 339 477 304T422 247T347 216T263 206Q220 206 191 210T137 219L166 264V220Q166 170 181 143T222 105T285 94Q327 94 359 105T413 128T440 140Q443 140 445
138T448 127Q448 114 446 94T441 61Q436 41 416 28T370 8T316 -3T270 -7Q217 -7 175 5T101 44T54 111T37 208Q37 315 71 386T167 494T310 530ZM303 429Q248 429 216 392T172 296H228Q249 296 270 299T310 308T343 323T365 345T373 374Q373 401 354 415T303 429ZM213
573Q196 573 189 576T181 587Q181 593 196 615L247 692Q255 705 268 711T314 718H338Q364 718 378 713T400 692L435 615Q439 606 441 600T444 589Q444 573 409 573Q384 573 374 580T355 598L319 645L273 598Q263 588 251 581T213 573Z" />
<glyph unicode="&#xeb;" horiz-adv-x="539" d="M310 530Q368 530 404 516T461 479T490 433T498 389Q498 339 477 304T422 247T347 216T263 206Q220 206 191 210T137 219L166 264V220Q166 170 181 143T222 105T285 94Q327 94 359 105T413 128T440 140Q443 140 445
138T448 127Q448 114 446 94T441 61Q436 41 416 28T370 8T316 -3T270 -7Q217 -7 175 5T101 44T54 111T37 208Q37 315 71 386T167 494T310 530ZM303 429Q248 429 216 392T172 296H228Q249 296 270 299T310 308T343 323T365 345T373 374Q373 401 354 415T303 429ZM400
587Q370 587 358 594T347 615L353 676Q355 691 368 698T412 705Q442 705 454 698T465 676L458 615Q457 601 443 594T400 587ZM229 587Q199 587 187 594T176 615L183 676Q185 691 198 698T241 705Q271 705 283 698T294 676L287 615Q286 601 272 594T229 587Z" />
<glyph unicode="&#xec;" horiz-adv-x="265" d="M148 -7Q98 -7 67 23T43 129L80 496Q83 525 136 525H155Q182 525 194 517T206 497L169 133Q167 111 173 102T196 93Q208 93 216 96T228 100Q235 100 235 89Q235 86 234 74T229 38Q224 13 198 3T148 -7ZM133 573Q111
573 96 579T67 601L31 648Q12 671 6 681T0 699Q0 709 11 713T53 718Q81 718 95 715T116 705T130 683L159 615Q164 606 166 600T168 588Q168 580 161 577T133 573Z" />
<glyph unicode="&#xed;" horiz-adv-x="265" d="M148 -7Q98 -7 67 23T43 129L80 496Q83 525 136 525H155Q182 525 194 517T206 497L169 133Q167 111 173 102T196 93Q208 93 216 96T228 100Q235 100 235 89Q235 86 234 74T229 38Q224 13 198 3T148 -7ZM108 573Q89
573 82 576T74 586Q74 592 78 598T90 615L136 685Q144 697 150 704T172 714T218 718Q244 718 255 715T267 703Q267 694 259 683T235 657L179 601Q164 586 150 580T108 573Z" />
<glyph unicode="&#xee;" horiz-adv-x="265" d="M148 -7Q98 -7 67 23T43 129L80 496Q83 525 136 525H155Q182 525 194 517T206 497L169 133Q167 111 173 102T196 93Q208 93 216 96T228 100Q235 100 235 89Q235 86 234 74T229 38Q224 13 198 3T148 -7ZM62 573Q44
573 37 576T29 587Q29 593 44 615L95 692Q103 705 116 711T163 718H186Q212 718 226 713T248 692L283 615Q287 606 289 600T292 589Q292 573 257 573Q233 573 222 580T203 598L167 645L121 598Q111 588 99 581T62 573Z" />
<glyph unicode="&#xef;" horiz-adv-x="265" d="M148 -7Q98 -7 67 23T43 129L80 496Q83 525 136 525H155Q182 525 194 517T206 497L169 133Q167 111 173 102T196 93Q208 93 216 96T228 100Q235 100 235 89Q235 86 234 74T229 38Q224 13 198 3T148 -7ZM258 587Q229
587 217 594T205 615L212 676Q214 691 227 698T270 705Q300 705 312 698T323 676L316 615Q315 601 301 594T258 587ZM87 587Q57 587 45 594T34 615L41 676Q43 691 56 698T99 705Q129 705 141 698T152 676L146 615Q145 601 131 594T87 587Z" />
<glyph unicode="&#xf0;" horiz-adv-x="569" d="M267 -7Q159 -7 100 54T41 235Q41 326 71 392T157 494T282 530Q322 530 356 517T411 465L391 468Q386 506 370 544T333 616T294 680Q288 689 288 696Q288 705 302 708Q312 711 331 712T362 714Q377 714 385 709T405
686Q465 598 494 499T523 303Q523 207 495 137T410 30T267 -7ZM273 94Q335 94 365 143T395 278Q395 356 370 392T294 429Q234 429 202 382T169 246Q169 169 196 132T273 94ZM271 586Q259 584 250 596T241 620Q241 632 248 635T262 639L495 670Q507 672 515 661T523
636Q523 624 516 621T503 617L271 586Z" />
<glyph unicode="&#xf1;" horiz-adv-x="557" d="M450 -7Q397 -7 366 23T341 130L363 356Q367 393 351 409T302 425Q282 425 261 414T222 382T190 330L159 27Q156 -2 103 -2H83Q57 -2 45 6T33 26L67 348Q70 373 71 399T73 438Q73 456 72 467T71 486Q71 497 85 504T122
514T167 518Q185 518 191 495T197 444Q197 428 196 413T193 389L178 415Q194 447 223 473T288 514T361 530Q430 530 464 495T491 382L467 133Q465 112 472 103T495 93Q507 93 515 96T527 100Q534 100 534 89Q534 86 533 74T528 38Q523 13 497 3T450 -7ZM172 586Q163
586 149 594T135 612Q135 615 136 620T141 631Q154 661 182 680T247 700Q272 700 294 693T336 678T374 670Q395 670 408 678T431 695T448 704Q457 704 471 694T485 675Q485 672 483 666T478 654Q466 630 438 609T371 588Q349 588 326 595T281 610T241 618Q221 618
209 611T188 595T172 586Z" />
<glyph unicode="&#xf2;" horiz-adv-x="569" d="M264 -7Q158 -7 101 52T43 217Q43 278 56 334T100 435T181 504T307 530Q412 530 469 471T526 305Q526 151 457 72T264 -7ZM273 94Q397 94 397 299Q397 362 371 395T296 429Q234 429 203 376T171 223Q171 161 197
128T273 94ZM326 573Q303 573 289 579T260 601L223 648Q205 671 199 681T193 699Q193 709 204 713T246 718Q273 718 287 715T309 705T323 683L352 615Q357 606 359 600T361 588Q361 580 354 577T326 573Z" />
<glyph unicode="&#xf3;" horiz-adv-x="569" d="M264 -7Q158 -7 101 52T43 217Q43 278 56 334T100 435T181 504T307 530Q412 530 469 471T526 305Q526 151 457 72T264 -7ZM273 94Q397 94 397 299Q397 362 371 395T296 429Q234 429 203 376T171 223Q171 161 197
128T273 94ZM256 573Q237 573 230 576T222 586Q222 592 226 598T237 615L283 685Q291 697 298 704T320 714T366 718Q392 718 403 715T415 703Q415 694 407 683T382 657L327 601Q311 586 298 580T256 573Z" />
<glyph unicode="&#xf4;" horiz-adv-x="569" d="M264 -7Q158 -7 101 52T43 217Q43 278 56 334T100 435T181 504T307 530Q412 530 469 471T526 305Q526 151 457 72T264 -7ZM273 94Q397 94 397 299Q397 362 371 395T296 429Q234 429 203 376T171 223Q171 161 197
128T273 94ZM200 573Q182 573 175 576T167 587Q167 593 182 615L233 692Q241 705 254 711T301 718H325Q350 718 364 713T386 692L421 615Q425 606 427 600T430 589Q430 573 396 573Q371 573 360 580T341 598L305 645L259 598Q249 588 238 581T200 573Z" />
<glyph unicode="&#xf5;" horiz-adv-x="569" d="M264 -7Q158 -7 101 52T43 217Q43 278 56 334T100 435T181 504T307 530Q412 530 469 471T526 305Q526 151 457 72T264 -7ZM273 94Q397 94 397 299Q397 362 371 395T296 429Q234 429 203 376T171 223Q171 161 197
128T273 94ZM166 586Q158 586 144 594T129 612Q129 615 131 620T135 631Q148 661 177 680T242 700Q266 700 288 693T330 678T368 670Q389 670 402 678T425 695T443 704Q451 704 465 694T480 675Q480 672 478 666T472 654Q460 630 432 609T365 588Q343 588 320 595T275
610T236 618Q216 618 204 611T183 595T166 586Z" />
<glyph unicode="&#xf6;" horiz-adv-x="569" d="M264 -7Q158 -7 101 52T43 217Q43 278 56 334T100 435T181 504T307 530Q412 530 469 471T526 305Q526 151 457 72T264 -7ZM273 94Q397 94 397 299Q397 362 371 395T296 429Q234 429 203 376T171 223Q171 161 197
128T273 94ZM384 587Q355 587 343 594T331 615L338 676Q340 691 353 698T396 705Q427 705 439 698T450 676L443 615Q442 601 428 594T384 587ZM213 587Q184 587 172 594T160 615L167 676Q169 691 182 698T225 705Q255 705 268 698T279 676L272 615Q271 601 257
594T213 587Z" />
<glyph unicode="&#xf7;" horiz-adv-x="560" d="M54 180Q42 180 37 189T33 219L35 238Q37 258 44 266T64 275H499Q511 275 516 267T520 238L518 219Q517 197 509 189T488 180H54ZM251 -2Q222 -2 211 5T201 27L207 91Q210 119 264 119H272Q301 119 312 112T322 90L315
27Q312 -2 260 -2H251ZM286 335Q256 335 246 342T236 365L243 428Q246 456 299 456H307Q336 456 347 449T358 427L351 364Q348 335 295 335H286Z" />
<glyph unicode="&#xf8;" horiz-adv-x="569" d="M67 -3Q60 -3 51 3T36 18T29 34Q29 43 38 52L478 522Q489 532 497 532Q504 532 513 526T529 511T535 494Q535 485 526 477L86 7Q76 -3 67 -3ZM264 -7Q158 -7 101 52T43 217Q43 278 56 334T100 435T181 504T307 530Q412
530 469 471T526 305Q526 151 457 72T264 -7ZM273 94Q397 94 397 299Q397 362 371 395T296 429Q234 429 203 376T171 223Q171 161 197 128T273 94Z" />
<glyph unicode="&#xf9;" horiz-adv-x="557" d="M170 -7Q101 -7 67 28T40 141L75 496Q78 525 131 525H151Q178 525 190 517T201 497L168 166Q164 130 180 114T228 98Q248 98 268 108T308 139T340 192L372 496Q375 525 427 525H447Q474 525 486 517T498 497L461
133Q459 112 466 103T488 93Q501 93 509 96T520 100Q528 100 528 89Q528 86 527 74T522 38Q517 13 491 3T443 -7Q390 -7 361 21T333 119L356 112Q338 78 309 51T244 9T170 -7ZM322 573Q300 573 285 579T256 601L220 648Q201 671 195 681T189 699Q189 709 200 713T242
718Q270 718 284 715T305 705T319 683L348 615Q353 606 355 600T357 588Q357 580 350 577T322 573Z" />
<glyph unicode="&#xfa;" horiz-adv-x="557" d="M170 -7Q101 -7 67 28T40 141L75 496Q78 525 131 525H151Q178 525 190 517T201 497L168 166Q164 130 180 114T228 98Q248 98 268 108T308 139T340 192L372 496Q375 525 427 525H447Q474 525 486 517T498 497L461
133Q459 112 466 103T488 93Q501 93 509 96T520 100Q528 100 528 89Q528 86 527 74T522 38Q517 13 491 3T443 -7Q390 -7 361 21T333 119L356 112Q338 78 309 51T244 9T170 -7ZM252 573Q233 573 226 576T218 586Q218 592 222 598T234 615L280 685Q288 697 294 704T316
714T362 718Q388 718 399 715T411 703Q411 694 403 683T379 657L323 601Q308 586 294 580T252 573Z" />
<glyph unicode="&#xfb;" horiz-adv-x="557" d="M170 -7Q101 -7 67 28T40 141L75 496Q78 525 131 525H151Q178 525 190 517T201 497L168 166Q164 130 180 114T228 98Q248 98 268 108T308 139T340 192L372 496Q375 525 427 525H447Q474 525 486 517T498 497L461
133Q459 112 466 103T488 93Q501 93 509 96T520 100Q528 100 528 89Q528 86 527 74T522 38Q517 13 491 3T443 -7Q390 -7 361 21T333 119L356 112Q338 78 309 51T244 9T170 -7ZM196 573Q179 573 171 576T163 587Q163 593 179 615L229 692Q237 705 250 711T297 718H321Q346
718 360 713T382 692L417 615Q421 606 423 600T426 589Q426 573 392 573Q367 573 356 580T337 598L301 645L255 598Q245 588 234 581T196 573Z" />
<glyph unicode="&#xfc;" horiz-adv-x="557" d="M170 -7Q101 -7 67 28T40 141L75 496Q78 525 131 525H151Q178 525 190 517T201 497L168 166Q164 130 180 114T228 98Q248 98 268 108T308 139T340 192L372 496Q375 525 427 525H447Q474 525 486 517T498 497L461
133Q459 112 466 103T488 93Q501 93 509 96T520 100Q528 100 528 89Q528 86 527 74T522 38Q517 13 491 3T443 -7Q390 -7 361 21T333 119L356 112Q338 78 309 51T244 9T170 -7ZM382 587Q353 587 341 594T329 615L336 676Q338 691 351 698T394 705Q424 705 436 698T447
676L441 615Q440 601 426 594T382 587ZM211 587Q181 587 169 594T158 615L165 676Q167 691 180 698T223 705Q253 705 265 698T276 676L270 615Q269 601 255 594T211 587Z" />
<glyph unicode="&#xfd;" horiz-adv-x="481" d="M106 -207Q57 -207 57 -188Q57 -181 63 -170L178 61L184 -109L37 476Q36 485 34 491T32 502Q32 513 43 519T87 525H113Q131 525 145 521T161 506L213 287Q218 269 222 239T231 181H234Q244 208 254 239T273 287L371
506Q376 517 389 521T423 525H440Q468 525 480 520T492 506Q492 499 487 488L177 -186Q172 -197 158 -202T122 -207H106ZM228 573Q209 573 202 576T194 586Q194 592 198 598T210 615L256 685Q264 697 270 704T292 714T338 718Q364 718 375 715T387 703Q387 694
379 683T355 657L299 601Q284 586 270 580T228 573Z" />
<glyph unicode="&#xfe;" horiz-adv-x="573" d="M89 -207Q63 -207 51 -199T39 -179L134 725Q137 753 190 753H210Q236 753 248 745T260 726L232 462Q258 495 292 512T365 530Q397 530 426 518T479 479T516 412T530 314Q530 219 502 147T422 34T303 -7Q264 -7 234
7T187 36L165 -178Q164 -192 149 -199T109 -207H89ZM277 94Q310 94 333 109T372 153T395 220T402 306Q402 348 392 374T364 413T321 426Q303 426 285 417T250 388T219 337L196 124Q209 114 229 104T277 94Z" />
<glyph unicode="&#xff;" horiz-adv-x="481" d="M106 -207Q57 -207 57 -188Q57 -181 63 -170L178 61L184 -109L37 476Q36 485 34 491T32 502Q32 513 43 519T87 525H113Q131 525 145 521T161 506L213 287Q218 269 222 239T231 181H234Q244 208 254 239T273 287L371
506Q376 517 389 521T423 525H440Q468 525 480 520T492 506Q492 499 487 488L177 -186Q172 -197 158 -202T122 -207H106ZM358 587Q329 587 317 594T305 615L312 676Q314 691 327 698T370 705Q401 705 413 698T423 676L417 615Q416 601 402 594T358 587ZM187 587Q158
587 146 594T134 615L141 676Q143 691 156 698T199 705Q229 705 241 698T252 676L246 615Q245 601 231 594T187 587Z" />
<glyph unicode="&#x2013;" horiz-adv-x="500" d="M64 218Q51 218 47 226T44 257L46 275Q48 295 55 304T74 313H438Q451 313 455 305T458 277L456 258Q454 236 447 227T427 218H64Z" />
<glyph unicode="&#x2014;" horiz-adv-x="1000" d="M74 218Q61 218 57 226T54 257L56 275Q58 295 65 304T84 313H928Q941 313 945 305T948 277L946 258Q944 236 937 227T917 218H74Z" />
<glyph unicode="&#x2018;" horiz-adv-x="212" d="M101 494Q75 494 63 504T51 530Q53 560 64 591T93 651T131 703T169 740T201 754Q212 754 225 750T238 736Q238 730 235 724T227 707Q211 678 196 639T173 534Q172 516 158 505T116 494H101Z" />
<glyph unicode="&#x2019;" horiz-adv-x="212" d="M87 494Q76 494 63 498T50 512Q50 520 54 528T64 548Q80 577 94 616T114 714Q116 732 130 743T171 754H187Q213 754 224 744T236 718Q235 689 224 658T195 597T157 545T118 508T87 494Z" />
<glyph unicode="&#x201a;" horiz-adv-x="198" d="M14 -152Q2 -152 -11 -148T-24 -134Q-24 -126 -20 -118T-10 -98Q7 -69 21 -30T41 68Q43 86 57 97T98 108H113Q140 108 151 98T163 72Q161 43 150 12T121 -49T83 -101T45 -138T14 -152Z" />
<glyph unicode="&#x201c;" horiz-adv-x="350" d="M257 494Q231 494 220 504T208 530Q209 560 220 591T249 651T287 703T326 740T357 754Q368 754 381 750T394 736Q394 730 391 724T384 707Q367 678 352 639T330 534Q329 516 315 505T273 494H257ZM93 494Q67 494
56 504T44 530Q45 560 56 591T85 651T123 703T162 740T193 754Q204 754 217 750T230 736Q230 730 227 724T219 707Q203 678 188 639T165 534Q164 516 150 505T109 494H93Z" />
<glyph unicode="&#x201d;" horiz-adv-x="350" d="M241 494Q230 494 217 498T204 512Q204 520 208 528T218 548Q234 577 248 616T268 714Q270 732 284 743T325 754H341Q367 754 378 744T390 718Q389 689 378 658T349 597T311 545T272 508T241 494ZM77 494Q65 494
53 498T40 512Q40 520 43 528T53 548Q70 577 84 616T104 714Q106 732 120 743T161 754H176Q203 754 214 744T226 718Q224 689 213 658T184 597T146 545T108 508T77 494Z" />
<glyph unicode="&#x201e;" horiz-adv-x="336" d="M169 -123Q158 -123 145 -119T132 -105Q132 -98 136 -90T146 -70Q162 -40 176 -2T196 97Q198 115 212 126T253 137H269Q295 137 306 127T318 101Q317 72 306 41T276 -20T238 -72T200 -109T169 -123ZM5 -123Q-7
-123 -20 -119T-33 -105Q-33 -98 -29 -90T-19 -70Q-2 -40 12 -2T32 97Q34 115 48 126T89 137H104Q131 137 142 127T154 101Q152 72 141 41T112 -20T74 -72T36 -109T5 -123Z" />
<glyph unicode="&#x2022;" horiz-adv-x="336" d="M154 196Q103 196 70 230T36 313Q36 349 54 382T105 436T181 457Q231 457 264 423T298 340Q298 301 280 269T229 216T154 196Z" />
<glyph unicode="&#x2039;" horiz-adv-x="300" d="M179 51Q166 51 155 65L44 220Q38 228 34 236T30 253Q30 268 35 276T51 296L198 451Q205 459 211 462T225 465Q233 465 243 459T261 442T269 421Q269 416 266 410T257 398L133 258L228 112Q232 107 233 102T235
93Q235 84 226 75T204 58T179 51Z" />
<glyph unicode="&#x203a;" horiz-adv-x="300" d="M120 464Q134 464 144 450L255 295Q261 288 265 280T269 262Q269 248 264 239T248 219L101 64Q94 57 88 54T74 50Q67 50 57 56T38 73T30 94Q30 99 33 105T42 117L166 257L71 403Q67 408 66 413T64 422Q64 431 73
440T95 457T120 464Z" />
</font>
</defs>
</svg>
