<?xml version="1.0" standalone="no"?>
<!DOCTYPE svg PUBLIC "-//W3C//DTD SVG 1.1//EN" "http://www.w3.org/Graphics/SVG/1.1/DTD/svg11.dtd">
<svg xmlns="http://www.w3.org/2000/svg">
<defs >
<font id="Audiowide" horiz-adv-x="1154" ><font-face
    font-family="Audiowide"
    units-per-em="2048"
    panose-1="2 0 5 3 0 0 0 2 0 4"
    ascent="2027"
    descent="-584"
    alphabetic="0" />
<glyph unicode=" " glyph-name="space" horiz-adv-x="666" />
<glyph unicode="!" glyph-name="exclam" horiz-adv-x="533" d="M356 352H177L116 1434H417L356 352ZM397 131Q397 104 387 81T359 40T318 12T268 2Q241 2 218 12T177 39T149 80T139 131Q139 157 149 180T176 221T217 249T268 260Q294 260 317 250T358 222T386
181T397 131Z" />
<glyph unicode="&quot;" glyph-name="quotedbl" horiz-adv-x="783" d="M300 870H134L96 1374H341L300 870ZM648 870H483L444 1374H689L648 870Z" />
<glyph unicode="#" glyph-name="numbersign" horiz-adv-x="1494" d="M239 1044H454L528 1374H771L698 1044H948L1021 1374H1265L1191 1044H1421L1369 811H1140L1087 567H1308L1257 334H1036L962 0H718L792 334H542L468 0H225L298 334H71L126 567H349L403 811H184L239
1044ZM593 567H843L896 811H646L593 567Z" />
<glyph unicode="$" glyph-name="dollar" horiz-adv-x="1088" d="M1013 717Q1013 624 996 554T949 431T883 343T807 287T730 257T661 248V0H427V248H192V481H659Q666 481 679 485T709 501T740 537T765 600H192Q168 600 147 609T110 633T85 670T75 717Q75 803 90
868T129 982T182 1064T239 1118Q271 1143 302 1156T359 1176T403 1184T427 1186V1434H661V1186H896V952H429Q423 952 410 948T380 932T349 897T323 834H896Q921 834 942 825T979 800T1004 763T1013 717Z" />
<glyph unicode="%" glyph-name="percent" horiz-adv-x="1774" d="M1695 365Q1695 295 1669 234T1596 126T1489 54T1357 27Q1286 27 1225 53T1117 126T1044 233T1017 365Q1017 435 1043 496T1116 604T1224 678T1357 705Q1427 705 1488 678T1596 605T1668 497T1695
365ZM1367 1303L630 12H390L1128 1303H1367ZM757 952Q757 881 731 820T658 712T549 639T417 612Q347 612 286 638T178 711T106 819T79 952Q79 1022 105 1083T178 1191T285 1263T417 1290Q487 1290 549 1264T657 1191T730 1084T757 952ZM1486 365Q1486 392 1476
415T1449 457T1408 485T1357 496Q1330 496 1306 486T1265 457T1237 416T1226 365Q1226 338 1236 315T1264 274T1306 246T1357 236Q1384 236 1407 246T1448 273T1476 314T1486 365ZM548 952Q548 979 538 1002T511 1043T469 1071T417 1081Q390 1081 367 1071T326
1044T298 1003T288 952Q288 925 298 901T325 859T366 831T417 821Q445 821 469 831T510 859T538 901T548 952Z" />
<glyph unicode="&amp;" glyph-name="ampersand" horiz-adv-x="1375" d="M1298 365H1181L1179 362Q1179 298 1163 247T1119 158T1056 91T982 46T904 20T829 12H476Q383 12 318 47T210 134T147 247T124 360V481Q124 560 146 617T206 717Q163 771 144 834T124 952Q124
1049 159 1116T247 1224T361 1284T476 1303H1062V1069H476Q449 1069 428 1061T391 1036T367 999T360 952Q360 895 392 865T476 834H829V600H476Q421 600 391 566T360 481V369Q360 315 392 282T476 248H827Q882 248 913 281T945 365Q945 408 960 450T1005 525T1078
579T1179 600H1298V365Z" />
<glyph unicode="&apos;" glyph-name="quotesingle" horiz-adv-x="435" d="M300 870H134L96 1374H341L300 870Z" />
<glyph unicode="(" glyph-name="parenleft" horiz-adv-x="875" d="M861 1655L769 1563Q768 1562 736 1528T655 1433T552 1292T448 1118T369 922T337 717Q337 614 368 512T448 317T551 142T655 1T735 -93T769 -129L861 -221H501Q465 -179 420 -121T327 10T235 164T155
337T99 523T77 717Q77 815 98 910T155 1096T235 1269T327 1424T419 1554T501 1655H861Z" />
<glyph unicode=")" glyph-name="parenright" horiz-adv-x="875" d="M798 717Q798 619 777 524T720 338T640 165T548 10T455 -120T374 -221H14L106 -129Q107 -128 139 -94T219 1T322 142T425 316T504 512T536 717Q536 819 505 921T426 1117T323 1292T219 1433T139
1527T106 1563L14 1655H374Q410 1613 455 1555T547 1424T640 1270T720 1097T776 911T798 717Z" />
<glyph unicode="*" glyph-name="asterisk" horiz-adv-x="1111" d="M452 1176V1434H661V1178L857 1319L980 1149L735 973L980 797L857 627L661 768V512H452V768L253 627L132 797L376 973L132 1149L253 1319L452 1176Z" />
<glyph unicode="+" glyph-name="plus" horiz-adv-x="1104" d="M1021 600H669V248H436V600H83V834H436V1186H669V834H1021V600Z" />
<glyph unicode="," glyph-name="comma" horiz-adv-x="461" d="M229 -184H46L139 319H384L229 -184Z" />
<glyph unicode="-" glyph-name="hyphen" horiz-adv-x="1170" d="M1054 600H116V834H1054V600Z" />
<glyph unicode="." glyph-name="period" horiz-adv-x="420" d="M339 131Q339 104 329 81T301 40T260 12T210 2Q183 2 160 12T119 39T91 80T81 131Q81 157 91 180T118 221T159 249T210 260Q236 260 259 250T300 222T328 181T339 131Z" />
<glyph unicode="/" glyph-name="slash" horiz-adv-x="1350" d="M1269 1434L364 0H85L991 1434H1269Z" />
<glyph unicode="0" glyph-name="zero" horiz-adv-x="1895" d="M1783 600Q1783 512 1761 434T1697 288T1600 168T1478 78T1336 20T1183 0H714Q635 0 560 20T419 77T296 168T200 288T137 433T114 600V834Q114 966 163 1076T296 1265T487 1389T714 1434H1183Q1261
1434 1336 1414T1477 1357T1600 1266T1697 1146T1760 1001T1783 834V600ZM1521 834Q1521 911 1493 974T1419 1082T1311 1151T1183 1174H714Q649 1175 588 1152T479 1084T403 976T374 834V600Q374 522 402 459T477 352T585 283T714 260H1183Q1260 260 1322 285T1429
356T1497 463T1521 600V834ZM1408 1024Q1423 1002 1428 977T1428 927T1409 881T1371 844L669 375Q652 362 634 357T597 352Q565 352 536 367T489 410Q474 432 469 457T468 507T487 553T524 590L1228 1059Q1250 1074 1275 1079T1325 1079T1371 1060T1408 1024Z"
/>
<glyph unicode="1" glyph-name="one" horiz-adv-x="726" d="M567 0H306V1174H71V1434H567V0Z" />
<glyph unicode="2" glyph-name="two" horiz-adv-x="1541" d="M1423 0H106V481Q106 518 114 559T141 642T187 720T256 785T350 831T470 848H1056Q1109 848 1134 874T1160 952V1067Q1160 1120 1134 1147T1058 1174H223V1434H1058Q1124 1434 1177 1417T1270 1372T1340
1306T1387 1229T1414 1147T1423 1069V952Q1423 851 1387 782T1295 669T1177 606T1058 586H470Q438 586 419 577T390 553T374 519T366 481V260H1423V0Z" />
<glyph unicode="3" glyph-name="three" horiz-adv-x="1473" d="M1333 365Q1333 264 1297 195T1206 82T1087 19T968 0H134V260H968Q1021 260 1046 287T1072 365V586H134V848H1072V1067Q1072 1174 968 1174H134V1434H968Q1035 1434 1088 1417T1181 1372T1251 1306T1298
1229T1324 1147T1333 1069V365Z" />
<glyph unicode="4" glyph-name="four" horiz-adv-x="1584" d="M1425 0H1163V586H239Q211 586 187 596T146 624T118 666T108 717V1434H368V848H1163V1434H1425V0Z" />
<glyph unicode="5" glyph-name="five" horiz-adv-x="1537" d="M1445 365Q1445 328 1437 287T1410 206T1363 128T1294 63T1200 17T1081 0H128V260H1081Q1130 260 1156 290T1183 365V481Q1183 532 1157 559T1079 586H493Q392 586 323 622T210 714T148 833T128 952V1434H1326V1174H388V952Q388
900 415 874T493 848H1081Q1135 848 1199 829T1317 766T1408 652T1445 481V365Z" />
<glyph unicode="6" glyph-name="six" horiz-adv-x="1524" d="M382 848H1074Q1129 848 1192 829T1311 766T1402 652T1439 481V365Q1439 328 1431 287T1404 206T1357 128T1288 63T1194 17T1074 0H603Q555 0 501 11T393 46T291 108T204 199T145 323T122 481V952Q122
1040 144 1110T204 1233T290 1325T393 1387T500 1423T603 1434H1255V1174H603Q553 1170 513 1153T443 1108T398 1041T382 952V848ZM382 586V481Q382 430 399 390T447 320T517 276T605 260H1074Q1124 260 1150 290T1177 365V481Q1177 532 1151 559T1072 586H382Z"
/>
<glyph unicode="7" glyph-name="seven" horiz-adv-x="1313" d="M1249 1368Q1266 1337 1266 1303T1249 1237L528 0H227L909 1174H67V1434H1136Q1171 1434 1201 1417T1249 1368Z" />
<glyph unicode="8" glyph-name="eight" horiz-adv-x="1528" d="M1423 365Q1423 328 1415 287T1388 206T1340 128T1271 63T1177 17T1058 0H470Q416 0 352 19T234 81T143 194T106 365V481Q106 519 114 561T141 644T189 722T259 786Q241 828 232 871T223 952V1069Q223
1169 259 1239T350 1352T469 1414T587 1434H939Q1006 1434 1059 1417T1153 1372T1222 1306T1269 1229T1295 1147T1304 1069V952Q1304 854 1269 782Q1301 761 1329 733T1378 667T1411 584T1423 481V365ZM1044 1067Q1044 1120 1017 1147T939 1174H589Q536 1174 511
1147T485 1069V952Q485 900 511 874T587 848H939Q992 848 1018 874T1044 952V1067ZM1160 481Q1160 531 1133 558T1058 586H470Q422 586 394 556T366 481V365Q366 317 395 289T470 260H1058Q1108 260 1134 290T1160 365V481Z" />
<glyph unicode="9" glyph-name="nine" horiz-adv-x="1524" d="M85 952V1069Q85 1105 93 1146T120 1228T167 1306T236 1371T330 1417T450 1434H919Q967 1434 1022 1423T1130 1388T1233 1325T1319 1234T1379 1110T1402 952V481Q1402 393 1380 323T1320 200T1233
109T1131 47T1022 11T919 0H270V260H919Q968 264 1008 280T1078 323T1124 390T1140 481V586H450Q413 586 372 594T291 621T213 668T148 738T102 832T85 952ZM1140 952Q1140 1003 1123 1044T1077 1114T1007 1158T919 1174H450Q402 1174 374 1144T345 1069V952Q345
901 372 875T452 848H1140V952Z" />
<glyph unicode=":" glyph-name="colon" horiz-adv-x="498" d="M378 131Q378 104 368 81T340 40T299 12T249 2Q222 2 199 12T158 39T130 80T120 131Q120 157 130 180T157 221T198 249T249 260Q275 260 298 250T339 222T367 181T378 131ZM378 950Q378 923 368 900T340
859T299 831T249 821Q222 821 199 831T158 858T130 899T120 950Q120 976 130 999T157 1040T198 1068T249 1079Q275 1079 298 1069T339 1041T367 1000T378 950Z" />
<glyph unicode=";" glyph-name="semicolon" horiz-adv-x="515" d="M401 950Q401 923 391 900T363 859T322 831T272 821Q245 821 222 831T181 858T153 899T143 950Q143 976 153 999T180 1040T221 1068T272 1079Q298 1079 321 1069T362 1041T390 1000T401 950ZM243
-184H61L153 319H399L243 -184Z" />
<glyph unicode="&lt;" glyph-name="less" horiz-adv-x="1076" d="M974 1253L378 719L974 197H599L116 621Q71 658 71 719Q71 747 82 772T114 815L603 1253H974Z" />
<glyph unicode="=" glyph-name="equal" horiz-adv-x="1211" d="M1074 834H136V1069H1074V834ZM1074 365H136V600H1074V365Z" />
<glyph unicode="&gt;" glyph-name="greater" horiz-adv-x="1076" d="M472 1253L962 815Q982 797 993 772T1005 719Q1005 690 993 665T960 621L476 197H102L698 719L102 1253H472Z" />
<glyph unicode="?" glyph-name="question" horiz-adv-x="1363" d="M1277 952Q1277 897 1258 833T1196 714T1083 623T913 586H692V352H431V717Q431 744 441 767T468 809T509 837T560 848H913Q964 848 990 874T1017 952V1069Q1017 1120 991 1147T913 1174H79V1434H913Q968
1434 1032 1415T1150 1352T1241 1239T1277 1069V952ZM689 131Q689 104 679 81T652 40T611 12T560 2Q534 2 511 12T470 39T442 80T431 131Q431 157 441 180T469 221T510 249T560 260Q587 260 610 250T651 222T679 181T689 131Z" />
<glyph unicode="@" glyph-name="at" horiz-adv-x="1354" d="M1247 440Q1247 409 1236 373T1200 306T1135 254T1038 233H569Q537 233 501 244T434 280T383 344T362 440Q362 471 373 508T408 576T472 628T569 649H778V467H569Q566 467 562 467T554 464T547 456T544
440Q544 426 552 421T571 416H812Q820 416 825 421T831 442V676Q831 685 828 693T802 702H466V885H804Q835 885 872 874T940 838T992 773T1013 676V440Q1013 434 1012 428T1011 416H1038Q1049 416 1056 419T1064 442V793Q1064 826 1053 852T1023 897T978 926T921
936H452Q419 936 393 925T348 895T319 849T309 793V324Q309 292 320 266T350 220T396 191T452 180H569V-2H452Q403 -2 346 15T240 71T159 172T126 324V793Q126 842 143 899T199 1004T300 1085T452 1118H921Q970 1118 1027 1101T1133 1046T1214 945T1247 793V440Z"
/>
<glyph unicode="A" glyph-name="A" horiz-adv-x="1709" d="M1558 0H1298V352H384V0H124V717Q124 874 178 1006T328 1233T555 1381T841 1434H1427Q1454 1434 1478 1424T1520 1396T1548 1354T1558 1303V0ZM384 612H1298V1174H841Q829 1174 791 1171T702 1153T595
1110T492 1030T415 903T384 717V612Z" />
<glyph unicode="B" glyph-name="B" horiz-adv-x="1657" d="M1582 315Q1582 267 1566 212T1512 110T1414 32T1267 0H280Q252 0 228 10T187 37T159 79T149 131V1303Q149 1330 159 1354T186 1396T228 1424T280 1434H1150Q1198 1434 1253 1417T1355 1363T1434 1265T1466
1118V1069Q1466 1000 1443 921T1369 770Q1413 743 1451 705T1519 617T1565 504T1582 365V315ZM1322 365Q1322 416 1306 456T1261 526T1191 570T1099 586H513V848H982Q1033 848 1074 863T1144 908T1188 977T1204 1069V1118Q1204 1174 1150 1174H409V260H1267Q1274
260 1284 261T1302 267T1316 284T1322 317V365Z" />
<glyph unicode="C" glyph-name="C" horiz-adv-x="1530" d="M1435 0H497Q461 0 420 8T338 35T260 81T195 150T149 244T132 365V1069Q132 1105 140 1146T167 1228T214 1306T283 1371T377 1417T497 1434H1435V1174H497Q446 1174 419 1147T392 1067V365Q392 315 419
288T497 260H1435V0Z" />
<glyph unicode="D" glyph-name="D" horiz-adv-x="1686" d="M1582 600Q1582 469 1537 359T1411 170T1221 45T982 0H280Q252 0 228 10T187 37T159 79T149 131V1303Q149 1330 159 1354T186 1396T228 1424T280 1434H982Q1111 1434 1221 1389T1411 1265T1536 1075T1582
834V600ZM1322 834Q1322 910 1298 973T1228 1080T1121 1149T982 1174H409V260H982Q1058 260 1120 284T1228 353T1297 460T1322 600V834Z" />
<glyph unicode="E" glyph-name="E" horiz-adv-x="1547" d="M1330 586H509V848H1330V586ZM1447 0H509Q455 0 391 19T273 81T182 194T145 365V1303Q145 1330 155 1354T182 1396T224 1424T276 1434H1447V1174H405V365Q405 314 432 287T511 260H1447V0Z" />
<glyph unicode="F" glyph-name="F" horiz-adv-x="1512" d="M1337 586H515V848H1337V586ZM1453 1174H411V0H151V1303Q151 1330 161 1354T188 1396T230 1424T282 1434H1453V1174Z" />
<glyph unicode="G" glyph-name="G" horiz-adv-x="1686" d="M1566 131Q1566 103 1556 79T1529 38T1487 10T1435 0H497Q461 0 420 8T338 35T260 81T195 150T149 244T132 365V1069Q132 1105 140 1146T167 1228T214 1306T283 1371T377 1417T497 1434H1554V1174H497Q446
1174 419 1147T392 1067V365Q392 315 419 288T497 260H1306V586H614V848H1435Q1463 848 1487 838T1528 809T1556 768T1566 717V131Z" />
<glyph unicode="H" glyph-name="H" horiz-adv-x="1739" d="M413 848H1326V1434H1586V0H1326V586H413V0H153V1434H413V848Z" />
<glyph unicode="I" glyph-name="I" horiz-adv-x="566" d="M413 0H153V1434H413V0Z" />
<glyph unicode="J" glyph-name="J" horiz-adv-x="1504" d="M1357 365Q1357 287 1330 220T1255 104T1139 28T993 0H40V260H993Q1041 260 1068 287T1095 365V1434H1357V365Z" />
<glyph unicode="K" glyph-name="K" horiz-adv-x="1666" d="M1654 0H1285L700 586H517V848H700L1285 1434H1654L917 717L1654 0ZM413 0H153V1434H413V0Z" />
<glyph unicode="L" glyph-name="L" horiz-adv-x="1508" d="M1468 0H282Q254 0 230 10T189 37T161 79T151 131V1434H411V260H1468V0Z" />
<glyph unicode="M" glyph-name="M" horiz-adv-x="1971" d="M1820 0H1558V854L1097 43Q1080 12 1050 -4T984 -20Q950 -20 921 -4T874 43L411 854V0H151V1323Q151 1368 177 1403T247 1450Q268 1455 289 1454T329 1445T365 1424T392 1391L984 362L1576 1391Q1599
1429 1639 1445T1724 1450Q1766 1438 1793 1403T1820 1323V0Z" />
<glyph unicode="N" glyph-name="N" horiz-adv-x="1735" d="M1584 111Q1584 83 1574 59T1546 18T1504 -10T1453 -20Q1429 -20 1405 -11T1361 18L411 1010V0H151V1323Q151 1363 173 1395T231 1444Q268 1459 307 1452T374 1415L1324 424V1434H1584V111Z" />
<glyph unicode="O" glyph-name="O" horiz-adv-x="1762" d="M1656 580Q1656 449 1611 339T1486 149T1297 25T1058 -20H706Q577 -20 467 24T277 149T152 339T106 580V854Q106 984 151 1094T277 1284T467 1409T706 1454H1058Q1187 1454 1296 1409T1486 1285T1611
1095T1656 854V580ZM1396 854Q1396 931 1372 993T1303 1100T1196 1169T1058 1194H706Q630 1194 568 1170T460 1101T391 994T366 854V580Q366 503 390 441T460 334T567 265T706 240H1056Q1132 240 1194 264T1302 333T1371 440T1396 580V854Z" />
<glyph unicode="P" glyph-name="P" horiz-adv-x="1651" d="M1580 834Q1580 745 1558 675T1499 552T1412 460T1310 398T1202 363T1099 352H511V612H1099Q1149 616 1189 632T1259 677T1304 744T1320 834V952Q1315 1001 1299 1042T1256 1112T1189 1157T1099 1174H513Q461
1174 434 1147T407 1069V0H147V1069Q147 1169 183 1239T274 1352T393 1414T511 1434H1099Q1187 1434 1257 1412T1380 1352T1471 1265T1533 1163T1569 1055T1580 952V834Z" />
<glyph unicode="Q" glyph-name="Q" horiz-adv-x="1762" d="M1656 580Q1656 480 1630 392T1555 231T1438 105T1285 20L1589 -221H1212L962 -20H706Q577 -20 467 24T277 149T152 339T106 580V854Q106 984 151 1094T277 1284T467 1409T706 1454H1058Q1187 1454 1296
1409T1486 1285T1611 1095T1656 854V580ZM1396 854Q1396 931 1372 993T1303 1100T1196 1169T1058 1194H706Q630 1194 568 1170T460 1101T391 994T366 854V580Q366 503 390 441T460 334T567 265T706 240H1056Q1132 240 1194 264T1302 333T1371 440T1396 580V854Z"
/>
<glyph unicode="R" glyph-name="R" horiz-adv-x="1694" d="M1584 952Q1584 863 1562 793T1503 670T1416 578T1314 516T1206 480T1103 469L1646 0H1244L702 469H515V729H1103Q1152 733 1192 749T1262 794T1308 861T1324 952V1116Q1324 1138 1319 1149T1305 1166T1287
1173T1269 1174H411V0H151V1303Q151 1330 161 1354T188 1396T230 1424T282 1434H1269Q1356 1434 1416 1403T1513 1324T1567 1221T1584 1118V952Z" />
<glyph unicode="S" glyph-name="S" horiz-adv-x="1594" d="M1529 422Q1529 345 1510 284T1458 175T1383 95T1294 41T1201 10T1111 0H108V260H1111Q1186 260 1227 304T1269 422Q1269 458 1258 488T1227 540T1177 574T1111 586H513Q450 586 377 608T242 681T138
812T96 1010Q96 1127 137 1207T241 1338T377 1411T513 1434H1398V1174H513Q439 1174 398 1129T356 1010Q356 935 397 892T513 848H1111H1113Q1155 847 1202 837T1295 804T1384 749T1458 668T1510 560T1529 422Z" />
<glyph unicode="T" glyph-name="T" horiz-adv-x="1487" d="M1447 1174H874V0H614V1174H40V1434H1447V1174Z" />
<glyph unicode="U" glyph-name="U" horiz-adv-x="1707" d="M1556 131Q1556 103 1546 79T1518 38T1476 10T1425 0H839Q756 0 671 18T507 73T357 169T235 306T152 488T122 717V1434H382V717Q382 607 412 531T490 404T593 324T699 281T788 264T839 260H1296V1434H1556V131Z" />
<glyph unicode="V" glyph-name="V" horiz-adv-x="1582" d="M1586 1434L907 51Q891 19 860 0T790 -20Q753 -20 722 -1T673 51L-5 1434H286L790 401L1296 1434H1586Z" />
<glyph unicode="W" glyph-name="W" horiz-adv-x="2053" d="M1982 1434L1742 90Q1734 50 1706 21T1638 -16Q1597 -23 1561 -7T1503 43L1027 825L550 43Q533 14 504 -2T440 -18Q393 -18 357 12T313 90L71 1434H335L507 487L917 1141Q934 1170 963 1186T1027 1202Q1061
1202 1090 1186T1138 1141L1546 487L1718 1434H1982Z" />
<glyph unicode="X" glyph-name="X" horiz-adv-x="1612" d="M806 922L1244 1434H1599L982 715L1595 0H1242L806 508L372 0H18L630 715L16 1434H368L806 922Z" />
<glyph unicode="Y" glyph-name="Y" horiz-adv-x="1600" d="M1517 954Q1517 865 1495 795T1435 672T1349 580T1246 518T1139 482T1036 471H931V0H669V471H565Q517 471 463 482T355 517T252 580T166 671T106 795T83 954V1434H343V954Q343 903 359 863T404 793T474
749T567 733H1036Q1073 739 1112 748T1183 781T1236 845T1257 954V1434H1517V954Z" />
<glyph unicode="Z" glyph-name="Z" horiz-adv-x="1461" d="M1378 1356Q1393 1321 1387 1283T1355 1217L497 260H1376V0H204Q166 0 134 21T85 78Q68 113 74 151T106 217L966 1174H85V1434H1259Q1297 1434 1329 1413T1378 1356Z" />
<glyph unicode="[" glyph-name="bracketleft" horiz-adv-x="748" d="M677 1405H399L395 27H673V-236H266Q240 -236 216 -226T173 -197Q155 -178 145 -154T134 -104V1536Q134 1563 145 1586T174 1627T216 1655T268 1665H677V1405Z" />
<glyph unicode="\" glyph-name="backslash" horiz-adv-x="1350" d="M1265 0H986L81 1434H360L1265 0Z" />
<glyph unicode="]" glyph-name="bracketright" horiz-adv-x="748" d="M614 -104Q614 -130 604 -154T575 -197Q556 -215 533 -225T483 -236H75V27H352L349 1405H71V1665H479Q506 1665 530 1655T573 1628T603 1587T614 1536V-104Z" />
<glyph unicode="^" glyph-name="asciicircum" horiz-adv-x="881" d="M851 696L433 1161L30 698V1034L345 1395Q381 1436 433 1436Q458 1436 481 1426T522 1397L851 1028V696Z" />
<glyph unicode="_" glyph-name="underscore" horiz-adv-x="1395" d="M1269 -352H126V-119H1269V-352Z" />
<glyph unicode="`" glyph-name="grave" horiz-adv-x="1141" d="M306 1589L788 1309L718 1159L196 1346L306 1589Z" />
<glyph unicode="a" glyph-name="a" horiz-adv-x="1338" d="M1238 358Q1238 304 1219 242T1158 126T1047 36T880 0H411Q357 0 295 19T179 80T89 191T53 358Q53 412 72 475T133 591T244 681T411 717H880V469H411Q358 469 329 437T300 356Q300 305 333 277T413 248H880Q933
248 962 280T991 360V723Q991 774 960 804T880 834H309V1081H880Q934 1081 996 1062T1112 1001T1202 890T1238 723V358Z" />
<glyph unicode="b" glyph-name="b" horiz-adv-x="1414" d="M1314 365Q1314 328 1306 287T1279 206T1233 128T1164 63T1070 17T950 0H481Q444 0 403 8T322 35T244 81T179 150T133 244T116 365V1538H376V365Q376 317 406 289T481 260H950Q999 260 1026 289T1054
365V717Q1054 766 1025 793T950 821H481V1081H950Q987 1081 1028 1073T1109 1046T1187 1000T1252 931T1297 837T1314 717V365Z" />
<glyph unicode="c" glyph-name="c" horiz-adv-x="1262" d="M1169 0H464Q410 0 346 19T228 81T137 194T100 365V717Q100 754 108 795T135 876T181 954T250 1019T344 1064T464 1081H1169V821H464Q413 821 387 795T360 715V365Q360 314 387 287T466 260H1169V0Z" />
<glyph unicode="d" glyph-name="d" horiz-adv-x="1434" d="M1308 365Q1308 298 1291 245T1246 151T1181 82T1104 35T1022 9T943 0H474Q407 0 354 17T261 62T192 128T145 205T119 287T110 365V717Q110 817 146 886T237 999T356 1062T474 1081H943V821H476Q424 821
397 795T370 717V367Q370 314 396 287T474 260H943Q996 260 1022 287T1048 365V1538H1308V365Z" />
<glyph unicode="e" glyph-name="e" horiz-adv-x="1338" d="M1285 723Q1285 669 1266 607T1205 491T1094 401T927 365H458V612H927Q980 612 1009 644T1038 725Q1038 776 1006 805T927 834H458Q405 834 376 802T347 721V358Q347 306 379 277T460 248H927V0H458Q404
0 342 19T226 80T136 191T100 358V723Q100 777 119 839T180 955T291 1045T458 1081H927Q981 1081 1043 1062T1159 1001T1249 890T1285 723Z" />
<glyph unicode="f" glyph-name="f" horiz-adv-x="1127" d="M1079 821H491V1081H1079V821ZM1079 1290H493Q440 1290 413 1264T386 1186V0H126V1186Q126 1253 143 1306T188 1399T254 1468T331 1515T413 1541T491 1550H1079V1290Z" />
<glyph unicode="g" glyph-name="g" horiz-adv-x="1414" d="M1298 -104Q1298 -171 1281 -224T1236 -318T1171 -387T1094 -434T1012 -460T933 -469H464V-209H933Q986 -209 1012 -182T1038 -104V717Q1038 768 1012 794T933 821H464Q416 821 388 792T360 717V365Q360
314 387 287T466 260H933V0H464Q427 0 386 8T305 35T227 81T162 150T117 244T100 365V717Q100 754 108 795T135 876T181 954T250 1019T344 1064T464 1081H933Q970 1081 1011 1073T1093 1046T1171 1000T1236 931T1281 837T1298 717V-104Z" />
<glyph unicode="h" glyph-name="h" horiz-adv-x="1440" d="M1324 0H1064V717Q1064 768 1038 794T960 821H491V1081H960Q997 1081 1038 1073T1119 1046T1197 1000T1262 931T1307 837T1324 717V0ZM386 0H126V1538H386V0Z" />
<glyph unicode="i" glyph-name="i" horiz-adv-x="513" d="M386 1303H126V1538H386V1303ZM386 0H126V1081H386V0Z" />
<glyph unicode="j" glyph-name="j" horiz-adv-x="513" d="M386 1303H126V1538H386V1303ZM386 -104Q386 -171 369 -224T324 -318T259 -387T182 -434T100 -460T22 -469H-447V-209H22Q74 -209 100 -182T126 -104V1081H386V-104Z" />
<glyph unicode="k" glyph-name="k" horiz-adv-x="1416" d="M1392 0H1017L493 506Q449 546 452 606Q454 634 466 658T501 700L976 1083H1392L780 590L1392 0ZM386 0H126V1538H386V0Z" />
<glyph unicode="l" glyph-name="l" horiz-adv-x="642" d="M597 0H481Q425 0 362 19T243 81T152 194T116 365V1538H376V365Q376 317 406 289T481 260H597V0Z" />
<glyph unicode="m" glyph-name="m" horiz-adv-x="1789" d="M1087 0H827V717Q827 768 800 794T720 821H382V0H122V952Q122 979 132 1002T160 1043T202 1071T253 1081H722Q776 1081 838 1062T956 1001V1081H1308Q1345 1081 1386 1073T1467 1046T1545 1000T1610 931T1655
837T1672 717V0H1412V717Q1412 768 1387 794T1308 821H1074Q1087 773 1087 717V0Z" />
<glyph unicode="n" glyph-name="n" horiz-adv-x="1426" d="M1320 0H1060V600Q1060 651 1043 691T995 761T925 805T837 821H382V0H122V952Q122 979 132 1002T160 1043T202 1071T253 1081H839Q888 1081 942 1070T1050 1035T1152 973T1238 882T1298 758T1320 600V0Z" />
<glyph unicode="o" glyph-name="o" horiz-adv-x="1397" d="M1298 365Q1298 298 1281 245T1236 151T1171 82T1094 35T1012 9T933 0H464Q410 0 346 19T228 81T137 194T100 365V717Q100 817 136 886T227 999T346 1062T464 1081H933Q1033 1081 1103 1045T1216 955T1278
836T1298 717V365ZM1038 715Q1038 769 1011 795T933 821H466Q414 821 387 795T360 717V365Q360 314 387 287T466 260H933Q986 260 1012 287T1038 365V715Z" />
<glyph unicode="p" glyph-name="p" horiz-adv-x="1414" d="M1314 365Q1314 298 1297 245T1252 151T1187 82T1110 35T1028 9T950 0H481V260H950Q1002 260 1028 287T1054 365V715Q1054 769 1028 795T950 821H483Q430 821 403 795T376 717V-338H116V717Q116 784 133
837T178 930T244 999T321 1046T403 1072T481 1081H950Q1017 1081 1070 1064T1163 1019T1232 954T1279 877T1305 795T1314 717V365Z" />
<glyph unicode="q" glyph-name="q" horiz-adv-x="1414" d="M1298 -338H1038V717Q1038 768 1012 794T933 821H464Q416 821 388 792T360 717V365Q360 314 387 287T466 260H933V0H464Q410 0 346 19T228 81T137 194T100 365V717Q100 754 108 795T135 876T181 954T250
1019T344 1064T464 1081H933Q970 1081 1011 1073T1093 1046T1171 1000T1236 931T1281 837T1298 717V-338Z" />
<glyph unicode="r" glyph-name="r" horiz-adv-x="1117" d="M1068 821H483Q430 821 403 795T376 717V0H116V717Q116 784 133 837T178 930T244 999T321 1046T403 1072T481 1081H1068V821Z" />
<glyph unicode="s" glyph-name="s" horiz-adv-x="1227" d="M1167 365Q1167 298 1150 245T1105 151T1040 82T963 35T881 9T802 0H98V260H800Q853 260 880 287T907 365Q902 469 802 469H399Q313 469 253 499T156 574T102 671T85 768Q85 855 116 914T194 1011T296
1064T399 1081H1038V821H401Q381 821 370 817T353 805T346 789T345 772Q346 756 351 747T363 734T380 730T399 729H802Q902 729 972 693T1085 603T1147 484T1167 365Z" />
<glyph unicode="t" glyph-name="t" d="M1105 821H651V0H388V821H50V1081H388V1434H651V1081H1105V821Z" />
<glyph unicode="u" glyph-name="u" horiz-adv-x="1426" d="M1304 131Q1304 103 1294 79T1267 38T1226 10T1175 0H587Q539 0 485 11T377 46T275 108T188 199T129 323T106 481V1081H366V481Q366 430 383 390T431 320T501 276T589 260H1044V1081H1304V131Z" />
<glyph unicode="v" glyph-name="v" horiz-adv-x="1383" d="M1412 1081Q1368 944 1309 811T1174 558T1003 335T794 158T545 41T253 -2Q226 -2 202 8T160 35T132 76T122 127V1081H382V268Q477 268 564 309T730 417T874 571T993 747T1081 925T1136 1081H1412Z" />
<glyph unicode="w" glyph-name="w" horiz-adv-x="1870" d="M1902 1081Q1840 942 1768 808T1618 553T1457 332T1295 157T1138 42T993 0Q965 0 941 10T899 37T871 79T861 131V616L345 39Q325 19 302 10T253 0Q226 0 203 10T161 37T133 79T122 131V1081H382V465L900
1044Q928 1072 966 1079T1042 1071Q1079 1056 1100 1024T1122 952V334Q1206 415 1274 505T1400 690T1510 884T1611 1081H1902Z" />
<glyph unicode="x" glyph-name="x" horiz-adv-x="1424" d="M1357 1081L890 571L1416 0H1058L712 377L366 0H7L532 573L67 1081H423L710 768L999 1081H1357Z" />
<glyph unicode="y" glyph-name="y" horiz-adv-x="1440" d="M1314 -104Q1314 -171 1297 -224T1252 -318T1187 -387T1110 -434T1028 -460T950 -469H481V-209H950Q1002 -209 1028 -182T1054 -104V1081H1314V-104ZM950 0H481Q425 0 362 19T243 81T152 194T116 365V1081H376V365Q376
314 403 287T483 260H950V0Z" />
<glyph unicode="z" glyph-name="z" horiz-adv-x="1231" d="M1146 1001Q1162 964 1155 926T1120 860L519 260H1144V0H206Q166 0 134 22T85 80Q70 117 77 155T114 223L712 821H87V1081H1027Q1066 1081 1098 1060T1146 1001Z" />
<glyph unicode="{" glyph-name="braceleft" horiz-adv-x="869" d="M798 1405H669Q644 1405 618 1400T569 1382T533 1351T519 1305V1303V952Q519 875 497 817T440 715Q482 661 499 599T517 483V129Q517 94 535 74T578 43T628 30T667 27H796V-236H665Q624 -236 578
-228T486 -201T399 -153T326 -83T276 11T257 131V481Q257 534 230 560T153 586Q125 586 101 596T60 624T32 666T22 717Q22 744 32 767T59 808T100 836T151 848Q205 848 232 874T259 952V1305Q259 1391 294 1458T387 1571T518 1641T669 1665H798V1405Z" />
<glyph unicode="|" glyph-name="bar" horiz-adv-x="533" d="M397 -236H136V1669H397V-236Z" />
<glyph unicode="}" glyph-name="braceright" horiz-adv-x="869" d="M847 717Q847 690 837 666T810 625T769 597T718 586Q667 586 640 560T612 481L614 131Q614 64 595 11T544 -83T471 -153T384 -200T292 -227T204 -236H75L73 27H204Q217 27 242 29T291 42T334
73T352 129V483Q352 537 370 599T429 715Q394 758 372 816T349 952V1303V1305Q344 1333 331 1352T297 1383T253 1400T202 1405H71V1665H202Q283 1665 357 1640T487 1567T577 1453T610 1305Q610 1298 611 1211T612 952Q612 901 638 875T718 848Q745 847 768 837T809
809T837 768T847 717Z" />
<glyph unicode="~" glyph-name="asciitilde" horiz-adv-x="1297" d="M1189 606Q1168 585 1139 567T1075 536T1002 514T923 506Q861 506 791 523T647 560T502 597T366 614Q331 614 294 604T223 578T159 542T110 502V764Q131 785 162 804T229 836T302 858T374 866Q435
866 506 849T651 811T797 773T933 756Q967 756 1004 766T1075 792T1139 829T1189 870V606Z" />
<glyph unicode="&#xa0;" glyph-name="nbspace" horiz-adv-x="666" />
<glyph unicode="&#xa1;" glyph-name="exclamdown" horiz-adv-x="511" d="M165 674H343L405 -408H104L165 674ZM124 895Q124 922 134 945T162 986T203 1014T253 1024Q280 1024 303 1014T344 987T372 946T382 895Q382 869 372 846T345 805T304 777T253 766Q227 766
204 776T163 804T135 845T124 895Z" />
<glyph unicode="&#xa2;" glyph-name="cent" horiz-adv-x="1045" d="M931 248H685V0H452V248Q399 248 338 266T223 327T135 436T100 600V834Q100 887 118 948T179 1063T288 1151T452 1186V1434H685V1186H931V952H452Q396 952 366 919T335 834V600Q335 546 367 514T452
481H931V248Z" />
<glyph unicode="&#xa3;" glyph-name="sterling" horiz-adv-x="1801" d="M1009 596H671V260H1357Q1410 260 1436 286T1462 362V494H1722V362Q1722 262 1686 193T1596 81T1478 19T1359 0H542Q515 0 492 10T451 37T423 78T413 129V596H75V829H413V1071Q413 1126 432
1189T494 1307T606 1398T775 1434H1255V1174H775Q727 1174 699 1145T671 1071V829H1009V596Z" />
<glyph unicode="&#xa4;" glyph-name="currency" horiz-adv-x="898" d="M337 721Q337 674 368 643T446 612Q469 612 489 620T524 643T547 678T556 721Q556 744 548 764T524 799T489 822T446 831Q423 831 403 823T369 799T346 764T337 721ZM827 942L714 831Q725
805 731 778T737 721Q737 689 730 660T710 602L827 487L675 344L562 457Q509 432 446 432Q415 432 387 437T333 453L225 344L75 494L184 600Q170 628 164 658T157 721Q157 752 163 782T182 840L71 952L225 1090L327 985Q355 997 384 1004T446 1012Q478 1012 509
1005T569 983L675 1090L827 942Z" />
<glyph unicode="&#xa5;" glyph-name="yen" horiz-adv-x="1649" d="M1292 129H956V0H696V129H358V362H696V467H591Q543 467 489 478T382 513T280 574T194 665T134 788T112 946V1434H372V946Q372 895 389 855T435 786T505 742T593 727H1058Q1107 729 1147 745T1217
789T1263 857T1279 946V1434H1537V946Q1537 858 1515 789T1456 666T1370 575T1268 513T1161 478T1058 467H956V362H1292V129Z" />
<glyph unicode="&#xa6;" glyph-name="brokenbar" horiz-adv-x="537" d="M399 821H139V1669H399V821ZM399 -236H139V612H399V-236Z" />
<glyph unicode="&#xa7;" glyph-name="section" horiz-adv-x="1649" d="M1552 186Q1552 109 1533 48T1481 -61T1406 -141T1317 -195T1224 -226T1134 -236H130V27H1134Q1170 27 1199 39T1249 72T1281 123T1292 186Q1292 222 1280 252T1247 305T1197 339T1134 352H536Q494
352 447 362T353 393T264 447T189 528T138 636T118 776Q118 854 136 911T180 1010Q152 1056 135 1114T118 1245Q118 1322 137 1383T189 1492T264 1572T353 1627T446 1659T536 1669H1421V1407H536Q499 1407 470 1395T421 1361T389 1309T378 1245Q378 1209 389 1179T422
1127T472 1093T536 1081H1136Q1178 1080 1225 1070T1318 1039T1407 984T1481 903T1533 794T1552 655Q1552 578 1533 521T1488 420Q1517 373 1534 316T1552 186ZM536 821Q502 821 465 827T388 848Q383 834 381 817T378 776Q378 739 389 709T422 658T472 624T536
612H1136Q1170 610 1206 604T1281 584Q1286 598 1289 615T1292 655Q1292 691 1280 721T1247 774T1197 808T1134 821H536Z" />
<glyph unicode="&#xa8;" glyph-name="dieresis" horiz-adv-x="1141" d="M468 1315Q468 1288 458 1265T430 1224T389 1196T339 1186Q312 1186 289 1196T248 1223T220 1264T210 1315Q210 1341 220 1364T247 1405T288 1433T339 1444Q365 1444 388 1434T429 1406T457
1365T468 1315ZM931 1315Q931 1288 921 1265T893 1224T852 1196T802 1186Q775 1186 752 1196T711 1223T683 1264T673 1315Q673 1341 683 1364T710 1405T751 1433T802 1444Q828 1444 851 1434T892 1406T920 1365T931 1315Z" />
<glyph unicode="&#xa9;" glyph-name="copyright" horiz-adv-x="1436" d="M1312 623Q1312 533 1290 465T1230 346T1145 262T1047 208T947 179T859 170H577Q538 170 490 178T391 207T292 262T207 346T147 464T124 623V811Q124 900 146 968T206 1087T292 1172T390
1226T489 1255T577 1264H859Q898 1264 947 1256T1046 1227T1145 1172T1230 1088T1289 969T1312 811V623ZM1156 623V811Q1156 996 1011 1069Q983 1083 956 1090T907 1102Q881 1106 859 1108H577Q570 1108 545 1106T487 1095T418 1068T351 1016T300 933T280 811V623Q280
551 300 501T350 418T417 367T487 339T546 328T579 326H859Q867 326 892 328T950 339T1019 367T1085 419T1136 502T1156 623ZM964 410H589Q564 410 534 419T478 449T435 502T417 582V862Q417 887 426 917T455 973T508 1016T589 1034H964V879H589Q586 879 584 879T580
878Q578 877 577 877Q575 875 574 870T573 862V582Q573 575 574 573Q574 571 575 571Q577 568 582 567T589 565H964V410Z" />
<glyph unicode="&#xaa;" glyph-name="ordfeminine" horiz-adv-x="1234" d="M1115 827Q1115 796 1108 762T1086 694T1046 629T988 574T910 536T808 522H407Q361 522 308 538T209 590T133 684T102 827Q102 873 118 926T171 1026T265 1102T407 1133H808V924H407Q378
924 359 915T330 892T315 860T311 825Q311 780 338 755T407 729H808Q837 729 856 738T886 761T902 792T907 827V1128Q907 1175 879 1200T808 1225H304V1434H808Q854 1434 908 1418T1008 1365T1084 1271T1115 1128V827Z" />
<glyph unicode="&#xab;" glyph-name="guillemotleft" horiz-adv-x="1426" d="M804 952L339 535L802 131H466L106 446Q65 481 65 535Q65 559 75 582T104 623L472 952H804ZM1337 952L872 535L1335 131H999L638 446Q597 482 597 535Q597 559 607 582T636 623L1005 952H1337Z" />
<glyph unicode="&#xac;" glyph-name="logicalnot" horiz-adv-x="1184" d="M1044 248H810V600H106V834H1044V248Z" />
<glyph unicode="&#xad;" glyph-name="uni00AD" horiz-adv-x="1170" d="M1054 600H116V834H1054V600Z" />
<glyph unicode="&#xae;" glyph-name="registered" horiz-adv-x="1436" d="M1312 623Q1312 533 1290 465T1230 346T1145 262T1047 208T947 179T859 170H577Q538 170 490 178T391 207T292 262T207 346T147 464T124 623V811Q124 900 146 968T206 1087T292 1172T390
1226T489 1255T577 1264H859Q898 1264 947 1256T1046 1227T1145 1172T1230 1088T1289 969T1312 811V623ZM1036 815Q1036 767 1023 731T987 670T936 628T878 604L1089 424Q1118 456 1137 504T1156 623V811Q1156 996 1011 1069Q983 1083 956 1090T907 1102Q881 1106
859 1108H577Q570 1108 545 1106T487 1095T418 1068T351 1016T300 933T280 811V623Q280 551 300 501T350 418T417 367T487 339T546 328T579 326H859Q867 326 891 327T948 338L651 596H624V754H818Q880 754 880 815V879H567V440H411V956Q411 988 434 1011T489 1034H884Q921
1034 949 1021T996 986T1026 937T1036 883V815Z" />
<glyph unicode="&#xaf;" glyph-name="overscore" horiz-adv-x="1141" d="M235 1200V1436H907V1200H235Z" />
<glyph unicode="&#xb0;" glyph-name="degree" horiz-adv-x="730" d="M75 1083Q75 1143 97 1196T159 1288T251 1351T364 1374Q424 1374 477 1351T569 1289T632 1196T655 1083Q655 1023 632 971T570 879T477 818T364 795Q304 795 252 817T160 879T98 970T75 1083ZM255
1083Q255 1037 286 1006T364 975Q387 975 407 983T442 1006T465 1040T474 1083Q474 1106 466 1126T442 1162T407 1185T364 1194Q317 1194 286 1162T255 1083Z" />
<glyph unicode="&#xb1;" glyph-name="plusminus" horiz-adv-x="1190" d="M1064 600H712V371H479V600H126V834H479V1063H712V834H1064V600ZM1064 0H126V233H1064V0Z" />
<glyph unicode="&#xb2;" glyph-name="twosuperior" horiz-adv-x="830" d="M718 621H108V854Q108 888 120 921T155 980T214 1023T294 1040H536V1096H155V1278H532Q577 1278 612 1262T670 1219T706 1159T718 1092V1044Q718 999 702 965T659 906T599 870T532 858H290V803H718V621Z"
/>
<glyph unicode="&#xb3;" glyph-name="threesuperior" horiz-adv-x="791" d="M626 858H124V1040H626V858ZM687 807Q687 762 671 727T628 669T568 633T501 621H124V803H505V1096H124V1278H501Q546 1278 581 1262T639 1219T675 1159T687 1092V807Z" />
<glyph unicode="&#xb4;" glyph-name="acute" horiz-adv-x="1141" d="M945 1346L423 1159L354 1309L835 1589L945 1346Z" />
<glyph unicode="&#xb5;" glyph-name="mu" horiz-adv-x="1459" d="M1343 131Q1343 103 1333 79T1306 38T1265 10T1214 0H626Q575 0 518 11T405 51V-469H145V1081H405V481Q405 414 426 373T479 309T550 276T628 260H1083V1081H1343V131Z" />
<glyph unicode="&#xb6;" glyph-name="paragraph" horiz-adv-x="1932" d="M1302 1174Q1314 1124 1314 1069V0H1054V1069Q1054 1120 1027 1147T948 1174H567Q516 1174 477 1158T410 1112T366 1042T345 952V834Q345 784 361 745T406 677T476 633T567 612H950V352H567Q519
352 465 363T357 398T254 460T168 551T108 675T85 834V952Q85 1000 96 1054T131 1162T194 1265T285 1351T409 1411T567 1434H950Q1002 1434 1064 1415T1181 1356V1434H1414Q1469 1434 1532 1415T1651 1352T1742 1239T1779 1069V0H1519V1069Q1519 1120 1492 1147T1412
1174H1302Z" />
<glyph unicode="&#xb7;" glyph-name="middot" horiz-adv-x="437" d="M347 719Q347 692 337 669T309 628T268 600T218 590Q191 590 168 600T127 627T99 668T89 719Q89 745 99 768T126 809T167 837T218 848Q244 848 267 838T308 810T336 769T347 719Z" />
<glyph unicode="&#xb8;" glyph-name="cedilla" horiz-adv-x="1033" d="M550 -70Q579 -70 615 -77T684 -103T739 -158T761 -250Q761 -307 733 -346T659 -409T557 -443T444 -453Q393 -453 359 -451T301 -445T258 -437T220 -430V-254Q261 -273 313 -286T421 -299Q478
-299 516 -288T554 -248Q554 -232 542 -222T512 -207T474 -199T438 -197Q415 -197 389 -200T343 -209L429 18H585L550 -70Z" />
<glyph unicode="&#xb9;" glyph-name="onesuperior" horiz-adv-x="490" d="M364 621H182V1096H87V1278H364V621Z" />
<glyph unicode="&#xba;" glyph-name="ordmasculine" horiz-adv-x="1250" d="M1132 827Q1132 743 1102 685T1025 590T925 538T825 522H423Q377 522 324 538T225 590T149 684T118 827V1128Q118 1212 148 1270T224 1365T323 1417T423 1434H825Q909 1434 967 1404T1062
1327T1115 1228T1132 1128V827ZM923 1128Q923 1144 919 1161T903 1192T873 1216T825 1225H423Q407 1225 390 1221T359 1206T336 1176T327 1128V827Q327 782 353 756T423 729H825Q842 729 859 733T891 749T914 779T923 827V1128Z" />
<glyph unicode="&#xbb;" glyph-name="guillemotright" horiz-adv-x="1426" d="M954 952L1322 623Q1341 606 1351 583T1361 535Q1361 481 1320 446L960 131H624L1087 535L622 952H954ZM421 952L790 623Q808 606 818 583T829 535Q829 482 788 446L427 131H91L554
535L89 952H421Z" />
<glyph unicode="&#xbc;" glyph-name="onequarter" horiz-adv-x="1616" d="M1117 1303L380 12H141L878 1303H1117ZM372 621H190V1096H96V1278H372V621ZM1509 37H1326V694H1509V37ZM1509 274H991Q971 274 955 281T925 300T905 329T898 365V694H1081V457H1509V274Z" />
<glyph unicode="&#xbd;" glyph-name="onehalf" horiz-adv-x="1551" d="M1117 1303L380 12H141L878 1303H1117ZM372 621H190V1096H96V1278H372V621ZM1457 37H847V270Q847 304 859 337T895 397T954 440T1034 457H1275V512H894V694H1271Q1316 694 1351 678T1409 635T1445
575T1457 508V461Q1457 416 1441 381T1398 322T1338 286T1271 274H1029V219H1457V37Z" />
<glyph unicode="&#xbe;" glyph-name="threequarters" horiz-adv-x="1881" d="M1382 1303L644 12H405L1142 1303H1382ZM1773 37H1591V694H1773V37ZM1773 274H1255Q1236 274 1219 281T1190 300T1170 329T1163 365V694H1345V457H1773V274ZM616 858H114V1040H616V858ZM677
807Q677 762 661 727T618 669T558 633T491 621H114V803H495V1096H114V1278H491Q536 1278 571 1262T629 1219T665 1159T677 1092V807Z" />
<glyph unicode="&#xbf;" glyph-name="questiondown" horiz-adv-x="1354" d="M81 74Q81 129 100 193T162 312T275 403T446 440H667V674H927V309Q927 282 917 259T890 217T849 189T798 178H446Q395 178 368 152T341 74V-43Q341 -147 446 -147H1279V-408H446Q409
-408 368 -400T286 -373T208 -326T143 -257T98 -163T81 -43V74ZM669 895Q669 922 679 945T706 986T747 1014T798 1024Q824 1024 847 1014T888 987T916 946T927 895Q927 869 917 846T889 805T848 777T798 766Q771 766 748 776T707 804T679 845T669 895Z" />
<glyph unicode="&#xc0;" glyph-name="Agrave" horiz-adv-x="1709" d="M1558 0H1298V352H384V0H124V717Q124 874 178 1006T328 1233T555 1381T841 1434H1427Q1454 1434 1478 1424T1520 1396T1548 1354T1558 1303V0ZM384 612H1298V1174H841Q829 1174 791 1171T702
1153T595 1110T492 1030T415 903T384 717V612ZM478 1999L960 1719L890 1569L368 1756L478 1999Z" />
<glyph unicode="&#xc1;" glyph-name="Aacute" horiz-adv-x="1709" d="M1558 0H1298V352H384V0H124V717Q124 874 178 1006T328 1233T555 1381T841 1434H1427Q1454 1434 1478 1424T1520 1396T1548 1354T1558 1303V0ZM384 612H1298V1174H841Q829 1174 791 1171T702
1153T595 1110T492 1030T415 903T384 717V612ZM1412 1756L890 1569L821 1719L1302 1999L1412 1756Z" />
<glyph unicode="&#xc2;" glyph-name="Acircumflex" horiz-adv-x="1709" d="M1558 0H1298V352H384V0H124V717Q124 874 178 1006T328 1233T555 1381T841 1434H1427Q1454 1434 1478 1424T1520 1396T1548 1354T1558 1303V0ZM384 612H1298V1174H841Q829 1174 791 1171T702
1153T595 1110T492 1030T415 903T384 717V612ZM1189 1569L841 1749L493 1569L372 1737L841 2003L1310 1737L1189 1569Z" />
<glyph unicode="&#xc3;" glyph-name="Atilde" horiz-adv-x="1709" d="M1558 0H1298V352H384V0H124V717Q124 874 178 1006T328 1233T555 1381T841 1434H1427Q1454 1434 1478 1424T1520 1396T1548 1354T1558 1303V0ZM384 612H1298V1174H841Q829 1174 791 1171T702
1153T595 1110T492 1030T415 903T384 717V612ZM1234 1921Q1234 1825 1214 1759T1160 1653T1081 1595T984 1577Q930 1577 893 1596T827 1637T772 1679T714 1698Q684 1698 667 1683T640 1648T628 1607T624 1577H447Q447 1662 467 1726T522 1834T602 1899T699 1921Q746
1921 780 1902T845 1861T903 1820T968 1801Q998 1801 1015 1816T1042 1850T1054 1890T1058 1921H1234Z" />
<glyph unicode="&#xc4;" glyph-name="Adieresis" horiz-adv-x="1709" d="M1558 0H1298V352H384V0H124V717Q124 874 178 1006T328 1233T555 1381T841 1434H1427Q1454 1434 1478 1424T1520 1396T1548 1354T1558 1303V0ZM384 612H1298V1174H841Q829 1174 791 1171T702
1153T595 1110T492 1030T415 903T384 717V612ZM738 1725Q738 1698 728 1675T700 1634T659 1606T609 1596Q582 1596 559 1606T518 1633T490 1674T480 1725Q480 1751 490 1774T517 1815T558 1843T609 1854Q635 1854 658 1844T699 1816T727 1775T738 1725ZM1201 1725Q1201
1698 1191 1675T1163 1634T1122 1606T1072 1596Q1045 1596 1022 1606T981 1633T953 1674T943 1725Q943 1751 953 1774T980 1815T1021 1843T1072 1854Q1098 1854 1121 1844T1162 1816T1190 1775T1201 1725Z" />
<glyph unicode="&#xc5;" glyph-name="Aring" horiz-adv-x="1709" d="M1558 0H1298V352H384V0H124V717Q124 874 178 1006T328 1233T555 1381T841 1434H1427Q1454 1434 1478 1424T1520 1396T1548 1354T1558 1303V0ZM384 612H1298V1174H841Q829 1174 791 1171T702
1153T595 1110T492 1030T415 903T384 717V612ZM550 1764Q550 1813 571 1856T631 1932T722 1984T841 2003Q912 2003 966 1984T1057 1933T1112 1857T1131 1764Q1131 1715 1111 1672T1054 1595T962 1543T841 1524Q772 1524 718 1543T627 1595T570 1671T550 1764ZM742
1764Q742 1723 767 1695T841 1667Q889 1667 913 1695T937 1764Q937 1804 913 1832T841 1860Q793 1860 768 1832T742 1764Z" />
<glyph unicode="&#xc6;" glyph-name="AE" horiz-adv-x="2700" d="M2600 0H1662Q1626 0 1586 8T1505 33T1429 78T1364 145T1317 235T1298 352H384V0H124V717Q124 874 178 1006T328 1233T555 1381T841 1434H1427H1437H2600V1174H1558V365Q1558 314 1585 287T1664
260H2600V0ZM384 612H1298V1174H841Q829 1174 791 1171T702 1153T595 1110T492 1030T415 903T384 717V612ZM2484 586H1662V848H2484V586Z" />
<glyph unicode="&#xc7;" glyph-name="Ccedilla" horiz-adv-x="1530" d="M1435 0H921L894 -70Q923 -70 959 -77T1028 -103T1083 -158T1105 -250Q1105 -307 1077 -346T1003 -409T901 -443T788 -453Q737 -453 703 -451T645 -445T603 -437T565 -430V-254Q605 -273
657 -286T765 -299Q822 -299 860 -288T898 -248Q898 -232 886 -222T856 -207T818 -199T782 -197Q759 -197 733 -200T687 -209L765 0H497Q461 0 420 8T338 35T260 81T195 150T149 244T132 365V1069Q132 1105 140 1146T167 1228T214 1306T283 1371T377 1417T497 1434H1435V1174H497Q446
1174 419 1147T392 1067V365Q392 315 419 288T497 260H1435V0Z" />
<glyph unicode="&#xc8;" glyph-name="Egrave" horiz-adv-x="1547" d="M1330 586H509V848H1330V586ZM1447 0H509Q455 0 391 19T273 81T182 194T145 365V1303Q145 1330 155 1354T182 1396T224 1424T276 1434H1447V1174H405V365Q405 314 432 287T511 260H1447V0ZM456
1999L938 1719L868 1569L346 1756L456 1999Z" />
<glyph unicode="&#xc9;" glyph-name="Eacute" horiz-adv-x="1547" d="M1330 586H509V848H1330V586ZM1447 0H509Q455 0 391 19T273 81T182 194T145 365V1303Q145 1330 155 1354T182 1396T224 1424T276 1434H1447V1174H405V365Q405 314 432 287T511 260H1447V0ZM1408
1756L886 1569L817 1719L1298 1999L1408 1756Z" />
<glyph unicode="&#xca;" glyph-name="Ecircumflex" horiz-adv-x="1547" d="M1330 586H509V848H1330V586ZM1447 0H509Q455 0 391 19T273 81T182 194T145 365V1303Q145 1330 155 1354T182 1396T224 1424T276 1434H1447V1174H405V365Q405 314 432 287T511 260H1447V0ZM1144
1569L796 1749L448 1569L327 1737L796 2003L1265 1737L1144 1569Z" />
<glyph unicode="&#xcb;" glyph-name="Edieresis" horiz-adv-x="1547" d="M1330 586H509V848H1330V586ZM1447 0H509Q455 0 391 19T273 81T182 194T145 365V1303Q145 1330 155 1354T182 1396T224 1424T276 1434H1447V1174H405V365Q405 314 432 287T511 260H1447V0ZM755
1725Q755 1698 745 1675T717 1634T676 1606T626 1596Q599 1596 576 1606T535 1633T507 1674T497 1725Q497 1751 507 1774T534 1815T575 1843T626 1854Q652 1854 675 1844T716 1816T744 1775T755 1725ZM1218 1725Q1218 1698 1208 1675T1180 1634T1139 1606T1089
1596Q1062 1596 1039 1606T998 1633T970 1674T960 1725Q960 1751 970 1774T997 1815T1038 1843T1089 1854Q1115 1854 1138 1844T1179 1816T1207 1775T1218 1725Z" />
<glyph unicode="&#xcc;" glyph-name="Igrave" horiz-adv-x="566" d="M413 0H153V1434H413V0ZM-137 1999L345 1719L275 1569L-247 1756L-137 1999Z" />
<glyph unicode="&#xcd;" glyph-name="Iacute" horiz-adv-x="566" d="M413 0H153V1434H413V0ZM805 1756L283 1569L214 1719L695 1999L805 1756Z" />
<glyph unicode="&#xce;" glyph-name="Icircumflex" horiz-adv-x="566" d="M413 0H153V1434H413V0ZM633 1569L285 1749L-63 1569L-184 1737L285 2003L754 1737L633 1569Z" />
<glyph unicode="&#xcf;" glyph-name="Idieresis" horiz-adv-x="566" d="M413 0H153V1434H413V0ZM182 1725Q182 1698 172 1675T144 1634T103 1606T53 1596Q26 1596 3 1606T-38 1633T-66 1674T-76 1725Q-76 1751 -66 1774T-39 1815T2 1843T53 1854Q79 1854 102 1844T143
1816T171 1775T182 1725ZM645 1725Q645 1698 635 1675T607 1634T566 1606T516 1596Q489 1596 466 1606T425 1633T397 1674T387 1725Q387 1751 397 1774T424 1815T465 1843T516 1854Q542 1854 565 1844T606 1816T634 1775T645 1725Z" />
<glyph unicode="&#xd0;" glyph-name="Eth" horiz-adv-x="1920" d="M1816 600Q1816 469 1769 359T1639 170T1449 45T1218 0H513Q486 0 463 10T421 37T393 79T382 131V600H44V834H382V1303Q382 1330 392 1354T421 1396T462 1424T513 1434H1218Q1335 1434 1443 1390T1634
1267T1766 1077T1816 834V600ZM644 600V260H1216Q1294 260 1356 285T1463 356T1532 463T1556 600V834Q1556 911 1528 974T1454 1082T1346 1151T1218 1174H644V834H982V600H644Z" />
<glyph unicode="&#xd1;" glyph-name="Ntilde" horiz-adv-x="1735" d="M1584 111Q1584 83 1574 59T1546 18T1504 -10T1453 -20Q1429 -20 1405 -11T1361 18L411 1010V0H151V1323Q151 1363 173 1395T231 1444Q268 1459 307 1452T374 1415L1324 424V1434H1584V111ZM1261
1841Q1261 1745 1241 1679T1187 1573T1108 1515T1011 1497Q957 1497 920 1516T854 1557T799 1599T741 1618Q711 1618 694 1603T667 1568T655 1527T651 1497H474Q474 1582 494 1646T549 1754T629 1819T726 1841Q773 1841 807 1822T872 1781T930 1740T995 1721Q1025
1721 1042 1736T1069 1770T1081 1810T1085 1841H1261Z" />
<glyph unicode="&#xd2;" glyph-name="Ograve" horiz-adv-x="1762" d="M1656 580Q1656 449 1611 339T1486 149T1297 25T1058 -20H706Q577 -20 467 24T277 149T152 339T106 580V854Q106 984 151 1094T277 1284T467 1409T706 1454H1058Q1187 1454 1296 1409T1486
1285T1611 1095T1656 854V580ZM1396 854Q1396 931 1372 993T1303 1100T1196 1169T1058 1194H706Q630 1194 568 1170T460 1101T391 994T366 854V580Q366 503 390 441T460 334T567 265T706 240H1056Q1132 240 1194 264T1302 333T1371 440T1396 580V854ZM460 1999L942
1719L872 1569L350 1756L460 1999Z" />
<glyph unicode="&#xd3;" glyph-name="Oacute" horiz-adv-x="1762" d="M1656 580Q1656 449 1611 339T1486 149T1297 25T1058 -20H706Q577 -20 467 24T277 149T152 339T106 580V854Q106 984 151 1094T277 1284T467 1409T706 1454H1058Q1187 1454 1296 1409T1486
1285T1611 1095T1656 854V580ZM1396 854Q1396 931 1372 993T1303 1100T1196 1169T1058 1194H706Q630 1194 568 1170T460 1101T391 994T366 854V580Q366 503 390 441T460 334T567 265T706 240H1056Q1132 240 1194 264T1302 333T1371 440T1396 580V854ZM1391 1756L869
1569L800 1719L1281 1999L1391 1756Z" />
<glyph unicode="&#xd4;" glyph-name="Ocircumflex" horiz-adv-x="1762" d="M1656 580Q1656 449 1611 339T1486 149T1297 25T1058 -20H706Q577 -20 467 24T277 149T152 339T106 580V854Q106 984 151 1094T277 1284T467 1409T706 1454H1058Q1187 1454 1296 1409T1486
1285T1611 1095T1656 854V580ZM1396 854Q1396 931 1372 993T1303 1100T1196 1169T1058 1194H706Q630 1194 568 1170T460 1101T391 994T366 854V580Q366 503 390 441T460 334T567 265T706 240H1056Q1132 240 1194 264T1302 333T1371 440T1396 580V854ZM1228 1569L880
1749L532 1569L411 1737L880 2003L1349 1737L1228 1569Z" />
<glyph unicode="&#xd5;" glyph-name="Otilde" horiz-adv-x="1762" d="M1656 580Q1656 449 1611 339T1486 149T1297 25T1058 -20H706Q577 -20 467 24T277 149T152 339T106 580V854Q106 984 151 1094T277 1284T467 1409T706 1454H1058Q1187 1454 1296 1409T1486
1285T1611 1095T1656 854V580ZM1396 854Q1396 931 1372 993T1303 1100T1196 1169T1058 1194H706Q630 1194 568 1170T460 1101T391 994T366 854V580Q366 503 390 441T460 334T567 265T706 240H1056Q1132 240 1194 264T1302 333T1371 440T1396 580V854ZM1273 1941Q1273
1845 1253 1779T1199 1673T1120 1615T1023 1597Q969 1597 932 1616T866 1657T811 1699T753 1718Q723 1718 706 1703T679 1668T667 1627T663 1597H486Q486 1682 506 1746T561 1854T641 1919T738 1941Q785 1941 819 1922T884 1881T942 1840T1007 1821Q1037 1821 1054
1836T1081 1870T1093 1910T1097 1941H1273Z" />
<glyph unicode="&#xd6;" glyph-name="Odieresis" horiz-adv-x="1762" d="M1656 580Q1656 449 1611 339T1486 149T1297 25T1058 -20H706Q577 -20 467 24T277 149T152 339T106 580V854Q106 984 151 1094T277 1284T467 1409T706 1454H1058Q1187 1454 1296 1409T1486
1285T1611 1095T1656 854V580ZM1396 854Q1396 931 1372 993T1303 1100T1196 1169T1058 1194H706Q630 1194 568 1170T460 1101T391 994T366 854V580Q366 503 390 441T460 334T567 265T706 240H1056Q1132 240 1194 264T1302 333T1371 440T1396 580V854ZM777 1725Q777
1698 767 1675T739 1634T698 1606T648 1596Q621 1596 598 1606T557 1633T529 1674T519 1725Q519 1751 529 1774T556 1815T597 1843T648 1854Q674 1854 697 1844T738 1816T766 1775T777 1725ZM1240 1725Q1240 1698 1230 1675T1202 1634T1161 1606T1111 1596Q1084
1596 1061 1606T1020 1633T992 1674T982 1725Q982 1751 992 1774T1019 1815T1060 1843T1111 1854Q1137 1854 1160 1844T1201 1816T1229 1775T1240 1725Z" />
<glyph unicode="&#xd7;" glyph-name="multiply" horiz-adv-x="1186" d="M1093 1069L741 717L1093 365H798L593 569L388 365H93L446 717L93 1069H388L593 864L798 1069H1093Z" />
<glyph unicode="&#xd8;" glyph-name="Oslash" horiz-adv-x="1764" d="M1482 1290Q1564 1210 1611 1099T1658 854V580Q1658 449 1613 339T1488 149T1299 25T1060 -20H708Q648 -20 592 -10T483 18L386 -104H89L284 143Q200 224 154 335T108 580V854Q108 985 153
1095T279 1285T469 1409T708 1454H1060Q1120 1454 1176 1444T1283 1415L1380 1538H1677L1482 1290ZM1398 854Q1398 923 1378 981T1320 1083L659 242Q671 240 682 240T708 240H1058Q1134 240 1196 264T1304 333T1373 440T1398 580V854ZM368 580Q368 508 388 451T446
350L1107 1192Q1095 1194 1084 1194T1060 1194H708Q632 1194 570 1170T462 1101T393 994T368 854V580Z" />
<glyph unicode="&#xd9;" glyph-name="Ugrave" horiz-adv-x="1707" d="M1556 131Q1556 103 1546 79T1518 38T1476 10T1425 0H839Q756 0 671 18T507 73T357 169T235 306T152 488T122 717V1434H382V717Q382 607 412 531T490 404T593 324T699 281T788 264T839 260H1296V1434H1556V131ZM458
1917L940 1637L870 1487L348 1674L458 1917Z" />
<glyph unicode="&#xda;" glyph-name="Uacute" horiz-adv-x="1707" d="M1556 131Q1556 103 1546 79T1518 38T1476 10T1425 0H839Q756 0 671 18T507 73T357 169T235 306T152 488T122 717V1434H382V717Q382 607 412 531T490 404T593 324T699 281T788 264T839 260H1296V1434H1556V131ZM1348
1674L826 1487L757 1637L1238 1917L1348 1674Z" />
<glyph unicode="&#xdb;" glyph-name="Ucircumflex" horiz-adv-x="1707" d="M1556 131Q1556 103 1546 79T1518 38T1476 10T1425 0H839Q756 0 671 18T507 73T357 169T235 306T152 488T122 717V1434H382V717Q382 607 412 531T490 404T593 324T699 281T788 264T839
260H1296V1434H1556V131ZM1187 1569L839 1749L491 1569L370 1737L839 2003L1308 1737L1187 1569Z" />
<glyph unicode="&#xdc;" glyph-name="Udieresis" horiz-adv-x="1707" d="M1556 131Q1556 103 1546 79T1518 38T1476 10T1425 0H839Q756 0 671 18T507 73T357 169T235 306T152 488T122 717V1434H382V717Q382 607 412 531T490 404T593 324T699 281T788 264T839 260H1296V1434H1556V131ZM736
1657Q736 1630 726 1607T698 1566T657 1538T607 1528Q580 1528 557 1538T516 1565T488 1606T478 1657Q478 1683 488 1706T515 1747T556 1775T607 1786Q633 1786 656 1776T697 1748T725 1707T736 1657ZM1199 1657Q1199 1630 1189 1607T1161 1566T1120 1538T1070
1528Q1043 1528 1020 1538T979 1565T951 1606T941 1657Q941 1683 951 1706T978 1747T1019 1775T1070 1786Q1096 1786 1119 1776T1160 1748T1188 1707T1199 1657Z" />
<glyph unicode="&#xdd;" glyph-name="Yacute" horiz-adv-x="1600" d="M1517 954Q1517 865 1495 795T1435 672T1349 580T1246 518T1139 482T1036 471H931V0H669V471H565Q517 471 463 482T355 517T252 580T166 671T106 795T83 954V1434H343V954Q343 903 359 863T404
793T474 749T567 733H1036Q1073 739 1112 748T1183 781T1236 845T1257 954V1434H1517V954ZM1391 1612L869 1425L800 1575L1281 1855L1391 1612Z" />
<glyph unicode="&#xde;" glyph-name="Thorn" horiz-adv-x="1662" d="M413 1235Q439 1243 466 1247T517 1251H1105Q1193 1251 1263 1229T1386 1170T1477 1083T1539 980T1575 872T1586 768V651Q1586 562 1564 492T1505 369T1418 278T1316 216T1208 181T1105 170H517V430H1105Q1155
434 1195 450T1265 494T1310 561T1326 651V768Q1326 817 1311 858T1267 928T1197 974T1105 991H519Q468 991 442 966T413 895V-104H153V1550H413V1235Z" />
<glyph unicode="&#xdf;" glyph-name="germandbls" horiz-adv-x="1604" d="M1552 362Q1552 262 1516 193T1426 81T1308 19T1189 0H489V260H1189Q1240 260 1267 286T1294 362Q1291 467 1189 467H788Q702 467 643 496T546 571T493 668T476 766Q476 851 507 910T585
1007T686 1060T788 1077H839Q943 1077 943 1180Q940 1284 839 1284H491Q438 1284 412 1258T386 1180V0H126V1180Q126 1280 162 1349T252 1461T370 1523T489 1542H839Q905 1542 958 1526T1051 1481T1121 1416T1168 1339T1195 1257T1204 1180Q1204 1080 1168 1011T1077
898T958 836T839 817H790Q770 817 759 812T743 800T737 784T737 768Q737 753 741 745T753 732T769 728T788 727H1189Q1255 727 1308 710T1401 665T1470 600T1517 523T1543 441T1552 362Z" />
<glyph unicode="&#xe0;" glyph-name="agrave" horiz-adv-x="1338" d="M1238 358Q1238 304 1219 242T1158 126T1047 36T880 0H411Q357 0 295 19T179 80T89 191T53 358Q53 412 72 475T133 591T244 681T411 717H880V469H411Q358 469 329 437T300 356Q300 305 333
277T413 248H880Q933 248 962 280T991 360V723Q991 774 960 804T880 834H309V1081H880Q934 1081 996 1062T1112 1001T1202 890T1238 723V358ZM477 1650L959 1370L889 1220L367 1407L477 1650Z" />
<glyph unicode="&#xe1;" glyph-name="aacute" horiz-adv-x="1338" d="M1238 358Q1238 304 1219 242T1158 126T1047 36T880 0H411Q357 0 295 19T179 80T89 191T53 358Q53 412 72 475T133 591T244 681T411 717H880V469H411Q358 469 329 437T300 356Q300 305 333
277T413 248H880Q933 248 962 280T991 360V723Q991 774 960 804T880 834H309V1081H880Q934 1081 996 1062T1112 1001T1202 890T1238 723V358ZM1207 1407L685 1220L616 1370L1097 1650L1207 1407Z" />
<glyph unicode="&#xe2;" glyph-name="acircumflex" horiz-adv-x="1338" d="M1238 358Q1238 304 1219 242T1158 126T1047 36T880 0H411Q357 0 295 19T179 80T89 191T53 358Q53 412 72 475T133 591T244 681T411 717H880V469H411Q358 469 329 437T300 356Q300 305
333 277T413 248H880Q933 248 962 280T991 360V723Q991 774 960 804T880 834H309V1081H880Q934 1081 996 1062T1112 1001T1202 890T1238 723V358ZM993 1220L645 1400L297 1220L176 1388L645 1654L1114 1388L993 1220Z" />
<glyph unicode="&#xe3;" glyph-name="atilde" horiz-adv-x="1338" d="M1238 358Q1238 304 1219 242T1158 126T1047 36T880 0H411Q357 0 295 19T179 80T89 191T53 358Q53 412 72 475T133 591T244 681T411 717H880V469H411Q358 469 329 437T300 356Q300 305 333
277T413 248H880Q933 248 962 280T991 360V723Q991 774 960 804T880 834H309V1081H880Q934 1081 996 1062T1112 1001T1202 890T1238 723V358ZM1038 1572Q1038 1476 1018 1410T964 1304T885 1246T788 1228Q734 1228 697 1247T631 1288T576 1330T518 1349Q488 1349
471 1334T444 1299T432 1258T428 1228H251Q251 1313 271 1377T326 1485T406 1550T503 1572Q550 1572 584 1553T649 1512T707 1471T772 1452Q802 1452 819 1467T846 1501T858 1541T862 1572H1038Z" />
<glyph unicode="&#xe4;" glyph-name="adieresis" horiz-adv-x="1338" d="M1238 358Q1238 304 1219 242T1158 126T1047 36T880 0H411Q357 0 295 19T179 80T89 191T53 358Q53 412 72 475T133 591T244 681T411 717H880V469H411Q358 469 329 437T300 356Q300 305 333
277T413 248H880Q933 248 962 280T991 360V723Q991 774 960 804T880 834H309V1081H880Q934 1081 996 1062T1112 1001T1202 890T1238 723V358ZM542 1376Q542 1349 532 1326T504 1285T463 1257T413 1247Q386 1247 363 1257T322 1284T294 1325T284 1376Q284 1402 294
1425T321 1466T362 1494T413 1505Q439 1505 462 1495T503 1467T531 1426T542 1376ZM1005 1376Q1005 1349 995 1326T967 1285T926 1257T876 1247Q849 1247 826 1257T785 1284T757 1325T747 1376Q747 1402 757 1425T784 1466T825 1494T876 1505Q902 1505 925 1495T966
1467T994 1426T1005 1376Z" />
<glyph unicode="&#xe5;" glyph-name="aring" horiz-adv-x="1338" d="M1238 358Q1238 304 1219 242T1158 126T1047 36T880 0H411Q357 0 295 19T179 80T89 191T53 358Q53 412 72 475T133 591T244 681T411 717H880V469H411Q358 469 329 437T300 356Q300 305 333 277T413
248H880Q933 248 962 280T991 360V723Q991 774 960 804T880 834H309V1081H880Q934 1081 996 1062T1112 1001T1202 890T1238 723V358ZM354 1415Q354 1464 375 1507T435 1583T526 1635T645 1654Q716 1654 770 1635T861 1584T916 1508T935 1415Q935 1366 915 1323T858
1246T766 1194T645 1175Q576 1175 522 1194T431 1246T374 1322T354 1415ZM546 1415Q546 1374 571 1346T645 1318Q693 1318 717 1346T741 1415Q741 1455 717 1483T645 1511Q597 1511 572 1483T546 1415Z" />
<glyph unicode="&#xe6;" glyph-name="ae" horiz-adv-x="2231" d="M2176 723Q2176 669 2157 607T2096 491T1985 401T1818 365H1349V612H1818Q1871 612 1899 644T1928 725Q1928 776 1896 805T1818 834H1349Q1296 834 1267 802T1238 723V358V348Q1241 300 1273 274T1351
248H1818V0H1349Q1295 0 1232 19T1115 82Q1072 45 1015 23T880 0H411Q357 0 295 19T179 80T89 191T53 358Q53 412 72 475T133 591T244 681T411 717H880V469H411Q358 469 329 437T300 356Q300 305 333 277T413 248H880Q933 248 962 280T991 360V723Q991 774 960
804T880 834H309V1081H880Q934 1081 996 1062T1113 999Q1155 1037 1213 1059T1349 1081H1818Q1872 1081 1934 1062T2050 1001T2140 890T2176 723Z" />
<glyph unicode="&#xe7;" glyph-name="ccedilla" horiz-adv-x="1262" d="M1169 0H771L745 -70Q774 -70 810 -77T879 -103T934 -158T956 -250Q956 -307 928 -346T854 -409T751 -443T638 -453Q587 -453 553 -451T495 -445T453 -437T415 -430V-254Q455 -273 507 -286T616
-299Q673 -299 711 -288T749 -248Q749 -232 737 -222T707 -207T669 -199T632 -197Q609 -197 584 -200T538 -209L616 0H464Q410 0 346 19T228 81T137 194T100 365V717Q100 754 108 795T135 876T181 954T250 1019T344 1064T464 1081H1169V821H464Q413 821 387 795T360
715V365Q360 314 387 287T466 260H1169V0Z" />
<glyph unicode="&#xe8;" glyph-name="egrave" horiz-adv-x="1338" d="M1285 723Q1285 669 1266 607T1205 491T1094 401T927 365H458V612H927Q980 612 1009 644T1038 725Q1038 776 1006 805T927 834H458Q405 834 376 802T347 721V358Q347 306 379 277T460 248H927V0H458Q404
0 342 19T226 80T136 191T100 358V723Q100 777 119 839T180 955T291 1045T458 1081H927Q981 1081 1043 1062T1159 1001T1249 890T1285 723ZM508 1650L990 1370L920 1220L398 1407L508 1650Z" />
<glyph unicode="&#xe9;" glyph-name="eacute" horiz-adv-x="1338" d="M1285 723Q1285 669 1266 607T1205 491T1094 401T927 365H458V612H927Q980 612 1009 644T1038 725Q1038 776 1006 805T927 834H458Q405 834 376 802T347 721V358Q347 306 379 277T460 248H927V0H458Q404
0 342 19T226 80T136 191T100 358V723Q100 777 119 839T180 955T291 1045T458 1081H927Q981 1081 1043 1062T1159 1001T1249 890T1285 723ZM1213 1407L691 1220L622 1370L1103 1650L1213 1407Z" />
<glyph unicode="&#xea;" glyph-name="ecircumflex" horiz-adv-x="1338" d="M1285 723Q1285 669 1266 607T1205 491T1094 401T927 365H458V612H927Q980 612 1009 644T1038 725Q1038 776 1006 805T927 834H458Q405 834 376 802T347 721V358Q347 306 379 277T460
248H927V0H458Q404 0 342 19T226 80T136 191T100 358V723Q100 777 119 839T180 955T291 1045T458 1081H927Q981 1081 1043 1062T1159 1001T1249 890T1285 723ZM1040 1220L692 1400L344 1220L223 1388L692 1654L1161 1388L1040 1220Z" />
<glyph unicode="&#xeb;" glyph-name="edieresis" horiz-adv-x="1338" d="M1285 723Q1285 669 1266 607T1205 491T1094 401T927 365H458V612H927Q980 612 1009 644T1038 725Q1038 776 1006 805T927 834H458Q405 834 376 802T347 721V358Q347 306 379 277T460 248H927V0H458Q404
0 342 19T226 80T136 191T100 358V723Q100 777 119 839T180 955T291 1045T458 1081H927Q981 1081 1043 1062T1159 1001T1249 890T1285 723ZM589 1376Q589 1349 579 1326T551 1285T510 1257T460 1247Q433 1247 410 1257T369 1284T341 1325T331 1376Q331 1402 341
1425T368 1466T409 1494T460 1505Q486 1505 509 1495T550 1467T578 1426T589 1376ZM1052 1376Q1052 1349 1042 1326T1014 1285T973 1257T923 1247Q896 1247 873 1257T832 1284T804 1325T794 1376Q794 1402 804 1425T831 1466T872 1494T923 1505Q949 1505 972 1495T1013
1467T1041 1426T1052 1376Z" />
<glyph unicode="&#xec;" glyph-name="igrave" horiz-adv-x="513" d="M386 0H126V1081H386V0ZM-154 1650L328 1370L258 1220L-264 1407L-154 1650Z" />
<glyph unicode="&#xed;" glyph-name="iacute" horiz-adv-x="513" d="M386 0H126V1081H386V0ZM788 1407L266 1220L197 1370L678 1650L788 1407Z" />
<glyph unicode="&#xee;" glyph-name="icircumflex" horiz-adv-x="513" d="M386 0H126V1081H386V0ZM607 1159L259 1339L-89 1159L-210 1327L259 1593L728 1327L607 1159Z" />
<glyph unicode="&#xef;" glyph-name="idieresis" horiz-adv-x="513" d="M386 0H126V1081H386V0ZM156 1376Q156 1349 146 1326T118 1285T77 1257T27 1247Q0 1247 -23 1257T-64 1284T-92 1325T-102 1376Q-102 1402 -92 1425T-65 1466T-24 1494T27 1505Q53 1505 76
1495T117 1467T145 1426T156 1376ZM619 1376Q619 1349 609 1326T581 1285T540 1257T490 1247Q463 1247 440 1257T399 1284T371 1325T361 1376Q361 1402 371 1425T398 1466T439 1494T490 1505Q516 1505 539 1495T580 1467T608 1426T619 1376Z" />
<glyph unicode="&#xf0;" glyph-name="eth" horiz-adv-x="1414" d="M1298 365Q1298 298 1281 245T1236 151T1171 82T1094 35T1012 9T933 0H464Q397 0 344 17T251 62T182 128T135 205T109 287T100 365V717Q100 817 136 886T227 999T346 1062T464 1081H933V821H466Q414
821 387 795T360 717V367Q360 314 386 287T464 260H933Q986 260 1012 287T1038 365V1186Q1038 1236 1023 1276T980 1346T910 1391T816 1407H685V1669H816Q891 1669 953 1653T1065 1608T1153 1541T1218 1458L1455 1577L1560 1368L1294 1235Q1296 1223 1297 1211T1298
1186V365Z" />
<glyph unicode="&#xf1;" glyph-name="ntilde" horiz-adv-x="1426" d="M1320 0H1060V600Q1060 651 1043 691T995 761T925 805T837 821H382V0H122V952Q122 979 132 1002T160 1043T202 1071T253 1081H839Q888 1081 942 1070T1050 1035T1152 973T1238 882T1298 758T1320
600V0ZM1114 1572Q1114 1476 1094 1410T1040 1304T961 1246T864 1228Q810 1228 773 1247T707 1288T652 1330T594 1349Q564 1349 547 1334T520 1299T508 1258T504 1228H327Q327 1313 347 1377T402 1485T482 1550T579 1572Q626 1572 660 1553T725 1512T783 1471T848
1452Q878 1452 895 1467T922 1501T934 1541T938 1572H1114Z" />
<glyph unicode="&#xf2;" glyph-name="ograve" horiz-adv-x="1397" d="M1298 365Q1298 298 1281 245T1236 151T1171 82T1094 35T1012 9T933 0H464Q410 0 346 19T228 81T137 194T100 365V717Q100 817 136 886T227 999T346 1062T464 1081H933Q1033 1081 1103 1045T1216
955T1278 836T1298 717V365ZM1038 715Q1038 769 1011 795T933 821H466Q414 821 387 795T360 717V365Q360 314 387 287T466 260H933Q986 260 1012 287T1038 365V715ZM530 1650L1012 1370L942 1220L420 1407L530 1650Z" />
<glyph unicode="&#xf3;" glyph-name="oacute" horiz-adv-x="1397" d="M1298 365Q1298 298 1281 245T1236 151T1171 82T1094 35T1012 9T933 0H464Q410 0 346 19T228 81T137 194T100 365V717Q100 817 136 886T227 999T346 1062T464 1081H933Q1033 1081 1103 1045T1216
955T1278 836T1298 717V365ZM1038 715Q1038 769 1011 795T933 821H466Q414 821 387 795T360 717V365Q360 314 387 287T466 260H933Q986 260 1012 287T1038 365V715ZM1230 1407L708 1220L639 1370L1120 1650L1230 1407Z" />
<glyph unicode="&#xf4;" glyph-name="ocircumflex" horiz-adv-x="1397" d="M1298 365Q1298 298 1281 245T1236 151T1171 82T1094 35T1012 9T933 0H464Q410 0 346 19T228 81T137 194T100 365V717Q100 817 136 886T227 999T346 1062T464 1081H933Q1033 1081 1103
1045T1216 955T1278 836T1298 717V365ZM1038 715Q1038 769 1011 795T933 821H466Q414 821 387 795T360 717V365Q360 314 387 287T466 260H933Q986 260 1012 287T1038 365V715ZM1046 1220L698 1400L350 1220L229 1388L698 1654L1167 1388L1046 1220Z" />
<glyph unicode="&#xf5;" glyph-name="otilde" horiz-adv-x="1397" d="M1298 365Q1298 298 1281 245T1236 151T1171 82T1094 35T1012 9T933 0H464Q410 0 346 19T228 81T137 194T100 365V717Q100 817 136 886T227 999T346 1062T464 1081H933Q1033 1081 1103 1045T1216
955T1278 836T1298 717V365ZM1038 715Q1038 769 1011 795T933 821H466Q414 821 387 795T360 717V365Q360 314 387 287T466 260H933Q986 260 1012 287T1038 365V715ZM1091 1572Q1091 1476 1071 1410T1017 1304T938 1246T841 1228Q787 1228 750 1247T684 1288T629
1330T571 1349Q541 1349 524 1334T497 1299T485 1258T481 1228H304Q304 1313 324 1377T379 1485T459 1550T556 1572Q603 1572 637 1553T702 1512T760 1471T825 1452Q855 1452 872 1467T899 1501T911 1541T915 1572H1091Z" />
<glyph unicode="&#xf6;" glyph-name="odieresis" horiz-adv-x="1397" d="M1298 365Q1298 298 1281 245T1236 151T1171 82T1094 35T1012 9T933 0H464Q410 0 346 19T228 81T137 194T100 365V717Q100 817 136 886T227 999T346 1062T464 1081H933Q1033 1081 1103 1045T1216
955T1278 836T1298 717V365ZM1038 715Q1038 769 1011 795T933 821H466Q414 821 387 795T360 717V365Q360 314 387 287T466 260H933Q986 260 1012 287T1038 365V715ZM595 1376Q595 1349 585 1326T557 1285T516 1257T466 1247Q439 1247 416 1257T375 1284T347 1325T337
1376Q337 1402 347 1425T374 1466T415 1494T466 1505Q492 1505 515 1495T556 1467T584 1426T595 1376ZM1058 1376Q1058 1349 1048 1326T1020 1285T979 1257T929 1247Q902 1247 879 1257T838 1284T810 1325T800 1376Q800 1402 810 1425T837 1466T878 1494T929 1505Q955
1505 978 1495T1019 1467T1047 1426T1058 1376Z" />
<glyph unicode="&#xf7;" glyph-name="divide" horiz-adv-x="1137" d="M698 1069Q698 1042 688 1019T661 978T620 950T569 940Q542 940 519 950T478 977T450 1018T440 1069Q440 1096 450 1119T477 1160T518 1188T569 1198Q596 1198 619 1188T660 1161T688 1120T698
1069ZM1038 600H100V834H1038V600ZM698 365Q698 338 688 315T661 274T620 246T569 236Q542 236 519 246T478 273T450 314T440 365Q440 392 450 415T477 456T518 484T569 494Q596 494 619 484T660 457T688 416T698 365Z" />
<glyph unicode="&#xf8;" glyph-name="oslash" horiz-adv-x="1397" d="M1175 995Q1208 967 1231 933T1269 861T1291 787T1298 717V365Q1298 298 1281 245T1236 151T1171 82T1094 35T1012 9T933 0H464H450L374 -104H85L223 84Q170 127 135 195T100 365V717Q100 817
136 886T227 999T346 1062T464 1081H933H948L1023 1186H1314L1175 995ZM360 365Q360 324 378 297L757 821H466Q414 821 387 795T360 717V365ZM1038 715Q1038 757 1019 782L638 260H933Q986 260 1012 287T1038 365V715Z" />
<glyph unicode="&#xf9;" glyph-name="ugrave" horiz-adv-x="1426" d="M1304 131Q1304 103 1294 79T1267 38T1226 10T1175 0H587Q539 0 485 11T377 46T275 108T188 199T129 323T106 481V1081H366V481Q366 430 383 390T431 320T501 276T589 260H1044V1081H1304V131ZM540
1589L1022 1309L952 1159L430 1346L540 1589Z" />
<glyph unicode="&#xfa;" glyph-name="uacute" horiz-adv-x="1426" d="M1304 131Q1304 103 1294 79T1267 38T1226 10T1175 0H587Q539 0 485 11T377 46T275 108T188 199T129 323T106 481V1081H366V481Q366 430 383 390T431 320T501 276T589 260H1044V1081H1304V131ZM1236
1346L714 1159L645 1309L1126 1589L1236 1346Z" />
<glyph unicode="&#xfb;" glyph-name="ucircumflex" horiz-adv-x="1426" d="M1304 131Q1304 103 1294 79T1267 38T1226 10T1175 0H587Q539 0 485 11T377 46T275 108T188 199T129 323T106 481V1081H366V481Q366 430 383 390T431 320T501 276T589 260H1044V1081H1304V131ZM1052
1220L704 1400L356 1220L235 1388L704 1654L1173 1388L1052 1220Z" />
<glyph unicode="&#xfc;" glyph-name="udieresis" horiz-adv-x="1426" d="M1304 131Q1304 103 1294 79T1267 38T1226 10T1175 0H587Q539 0 485 11T377 46T275 108T188 199T129 323T106 481V1081H366V481Q366 430 383 390T431 320T501 276T589 260H1044V1081H1304V131ZM601
1376Q601 1349 591 1326T563 1285T522 1257T472 1247Q445 1247 422 1257T381 1284T353 1325T343 1376Q343 1402 353 1425T380 1466T421 1494T472 1505Q498 1505 521 1495T562 1467T590 1426T601 1376ZM1064 1376Q1064 1349 1054 1326T1026 1285T985 1257T935 1247Q908
1247 885 1257T844 1284T816 1325T806 1376Q806 1402 816 1425T843 1466T884 1494T935 1505Q961 1505 984 1495T1025 1467T1053 1426T1064 1376Z" />
<glyph unicode="&#xfd;" glyph-name="yacute" horiz-adv-x="1440" d="M1314 -104Q1314 -171 1297 -224T1252 -318T1187 -387T1110 -434T1028 -460T950 -469H481V-209H950Q1002 -209 1028 -182T1054 -104V1081H1314V-104ZM950 0H481Q425 0 362 19T243 81T152 194T116
365V1081H376V365Q376 314 403 287T483 260H950V0ZM1248 1265L726 1078L657 1228L1138 1508L1248 1265Z" />
<glyph unicode="&#xfe;" glyph-name="thorn" horiz-adv-x="1424" d="M1324 365Q1324 298 1307 245T1262 151T1197 82T1120 35T1038 9T960 0H491V260H960Q1012 260 1038 287T1064 365V715Q1064 769 1038 795T960 821H493Q389 821 386 727V-338H126V1538H386V1065Q412
1073 439 1077T491 1081H960Q1027 1081 1080 1064T1173 1019T1242 954T1289 877T1315 795T1324 717V365Z" />
<glyph unicode="&#xff;" glyph-name="ydieresis" horiz-adv-x="1440" d="M1314 -104Q1314 -171 1297 -224T1252 -318T1187 -387T1110 -434T1028 -460T950 -469H481V-209H950Q1002 -209 1028 -182T1054 -104V1081H1314V-104ZM950 0H481Q425 0 362 19T243 81T152
194T116 365V1081H376V365Q376 314 403 287T483 260H950V0ZM611 1376Q611 1349 601 1326T573 1285T532 1257T482 1247Q455 1247 432 1257T391 1284T363 1325T353 1376Q353 1402 363 1425T390 1466T431 1494T482 1505Q508 1505 531 1495T572 1467T600 1426T611 1376ZM1074
1376Q1074 1349 1064 1326T1036 1285T995 1257T945 1247Q918 1247 895 1257T854 1284T826 1325T816 1376Q816 1402 826 1425T853 1466T894 1494T945 1505Q971 1505 994 1495T1035 1467T1063 1426T1074 1376Z" />
<glyph unicode="&#x2013;" glyph-name="endash" horiz-adv-x="1051" d="M935 600H116V834H935V600Z" />
<glyph unicode="&#x2014;" glyph-name="emdash" horiz-adv-x="1870" d="M1754 600H116V834H1754V600Z" />
<glyph unicode="&#x2018;" glyph-name="quoteleft" horiz-adv-x="476" d="M220 1374H403L311 870H65L220 1374Z" />
<glyph unicode="&#x2019;" glyph-name="quoteright" horiz-adv-x="472" d="M261 870H79L171 1374H417L261 870Z" />
<glyph unicode="&#x201a;" glyph-name="quotesinglbase" horiz-adv-x="461" d="M229 -184H46L139 319H384L229 -184Z" />
<glyph unicode="&#x201c;" glyph-name="quotedblleft" horiz-adv-x="844" d="M220 1374H403L311 870H65L220 1374ZM589 1374H771L679 870H433L589 1374Z" />
<glyph unicode="&#x201d;" glyph-name="quotedblright" horiz-adv-x="840" d="M630 870H448L540 1374H786L630 870ZM261 870H79L171 1374H417L261 870Z" />
<glyph unicode="&#x201e;" glyph-name="quotedblbase" horiz-adv-x="830" d="M597 -184H415L507 319H753L597 -184ZM229 -184H46L139 319H384L229 -184Z" />
<glyph unicode="&#x2022;" glyph-name="bullet" horiz-adv-x="683" d="M542 729Q542 687 526 650T483 586T419 544T341 528Q299 528 263 543T199 586T157 650T141 729Q141 769 156 805T199 868T262 912T341 928Q382 928 418 912T482 869T526 805T542 729Z" />
<glyph unicode="&#x2039;" glyph-name="guilsinglleft" horiz-adv-x="894" d="M804 952L339 535L802 131H466L106 446Q65 481 65 535Q65 559 75 582T104 623L472 952H804Z" />
<glyph unicode="&#x203a;" glyph-name="guilsinglright" horiz-adv-x="894" d="M421 952L790 623Q808 606 818 583T829 535Q829 482 788 446L427 131H91L554 535L89 952H421Z" />
</font>
</defs>
</svg>
