<?xml version="1.0" standalone="no"?>
<!DOCTYPE svg PUBLIC "-//W3C//DTD SVG 1.1//EN" "http://www.w3.org/Graphics/SVG/1.1/DTD/svg11.dtd">
<svg xmlns="http://www.w3.org/2000/svg">
<defs >
<font id="Bitter" horiz-adv-x="587" ><font-face
    font-family="Bitter Thin Thin"
    units-per-em="1000"
    panose-1="0 0 0 0 0 0 0 0 0 0"
    ascent="935"
    descent="-265"
    alphabetic="0" />
<glyph unicode=" " horiz-adv-x="220" />
<glyph unicode="!" horiz-adv-x="344" d="M162 201L160 692H184L182 203L162 201ZM147 20Q147 32 154 39T172 46Q183 46 190 39T197 20Q197 8 190 1T172 -6Q161 -6 154 1T147 20Z" />
<glyph unicode="&quot;" horiz-adv-x="334" d="M97 554L90 762H120L113 554H97ZM221 554L214 762H244L237 554H221Z" />
<glyph unicode="#" horiz-adv-x="665" d="M110 498H595V480H110V498ZM72 230H557V212H72V230ZM253 692H273L175 0H155L253 692ZM489 692H509L411 0H391L489 692Z" />
<glyph unicode="$" horiz-adv-x="640" d="M317 -144V14L322 6Q316 5 309 5T295 4Q249 4 201 14T107 46L113 185H128L139 59Q178 42 218 34T298 25Q355 25 403 43T480 96T509 182Q509 226 488 254T433 301T357 333T275 361T199 394T143 444T122 522Q122 575 149
610T222 665T324 687L317 678V824H336V679L327 688H342Q371 688 400 684T459 671T518 649L512 512H497L488 637Q456 651 417 659T338 668Q288 668 244 653T172 607T144 526Q144 483 165 456T220 410T296 379T379 351T454 317T510 265T531 184Q531 128 503 90T429
31T329 5L336 15V-144H317Z" />
<glyph unicode="%" horiz-adv-x="823" d="M170 -6L634 698H657L193 -6H170ZM230 352Q151 352 116 398T80 521Q80 601 118 649T239 698Q318 698 351 655T385 536Q385 452 348 402T230 352ZM231 371Q302 371 332 415T364 530Q365 602 336 640T238 679Q165 679 133
637T101 523Q101 453 132 412T231 371ZM586 -6Q507 -6 472 40T436 162Q436 242 474 290T595 339Q674 339 707 296T741 177Q741 94 704 44T586 -6ZM587 13Q658 13 688 57T720 171Q721 243 692 281T594 320Q521 320 489 278T457 164Q457 95 488 54T587 13Z" />
<glyph unicode="&amp;" horiz-adv-x="709" d="M338 -6Q273 -6 223 16T145 84T116 194Q116 237 134 275T192 341T291 373V372Q209 382 172 426T134 523Q134 584 160 622T235 679T349 698Q401 698 445 690T533 665L528 537H513L503 661L509 654Q471 666 432 672T347
678Q258 678 207 643T155 525Q155 461 209 422T364 383H644V368L551 354L558 362V208Q558 136 530 89T453 18T338 -6ZM340 13Q429 13 483 60T538 205V370L545 363H359Q280 363 231 339T160 277T137 196Q137 108 193 61T340 13Z" />
<glyph unicode="&apos;" horiz-adv-x="210" d="M97 554L90 762H120L113 554H97Z" />
<glyph unicode="(" horiz-adv-x="301" d="M268 836Q184 730 142 609T99 372Q99 257 141 136T268 -92L255 -103Q167 4 123 128T78 372Q78 491 122 616T255 847L268 836Z" />
<glyph unicode=")" horiz-adv-x="301" d="M33 -92Q117 15 159 136T202 372Q202 487 160 608T33 836L46 847Q135 740 179 616T223 372Q223 253 179 129T46 -103L33 -92Z" />
<glyph unicode="*" horiz-adv-x="505" d="M338 479L254 597L257 610L269 608L358 495L338 479ZM171 477L151 492L240 609L252 610L254 597L171 477ZM240 609L104 645L111 670L246 626L250 615L240 609ZM255 618L246 626L240 761L265 762L264 626L255 618ZM269
608L259 615L264 626L392 670L400 646L269 608Z" />
<glyph unicode="+" horiz-adv-x="595" d="M297 358L288 349V583H307V349L298 358H527V339H298L307 348V114H288V348L297 339H68V358H297Z" />
<glyph unicode="," horiz-adv-x="216" d="M70 -103Q96 -67 104 -45T112 -12Q112 -3 108 2T100 12T96 26Q96 39 104 45T121 52Q128 52 133 49T142 40T146 23Q146 6 132 -32T81 -113L70 -103Z" />
<glyph unicode="-" horiz-adv-x="470" d="M365 303V284H105V303H365Z" />
<glyph unicode="." horiz-adv-x="190" d="M70 26Q70 38 77 45T95 52Q106 52 113 45T120 26Q120 14 113 7T95 0Q84 0 77 7T70 26Z" />
<glyph unicode="/" horiz-adv-x="290" d="M280 797L28 -74H10L262 797H280Z" />
<glyph unicode="0" horiz-adv-x="648" d="M318 -6Q243 -6 192 32T114 146T87 340Q87 461 115 540T199 658T335 698Q410 698 459 663T534 554T559 364Q559 240 531 158T449 35T318 -6ZM321 14Q391 14 438 51T511 163T537 355Q539 477 514 547T443 648T333 678Q260
678 210 642T135 532T109 343Q109 229 134 157T206 49T321 14Z" />
<glyph unicode="1" horiz-adv-x="381" d="M232 23L225 31L362 17V0H57V17L219 31L212 23V673L218 669L34 561L26 576L218 695H232V23Z" />
<glyph unicode="2" horiz-adv-x="525" d="M50 0V21Q174 143 258 235T384 399T427 536Q427 609 375 643T246 678Q212 678 170 671T83 649L89 657L78 526H63L56 659Q107 678 156 688T247 698Q305 698 350 681T422 628T449 538Q449 473 409 401T286 237T76 16L74
21H470V0H50Z" />
<glyph unicode="3" horiz-adv-x="564" d="M249 -5Q199 -5 149 9T54 52L64 71Q108 43 155 29T252 15Q310 15 355 34T427 93T454 190Q454 236 434 274T369 335T246 358H166V378H251Q346 378 391 419T437 531Q437 611 389 645T264 679Q225 679 183 672T100 651L106
659L95 527H80L73 661Q123 678 173 688T269 698Q325 698 368 681T435 628T459 531Q459 462 422 421T300 367V368Q388 362 431 315T475 192Q475 144 459 107T412 45T340 8T249 -5Z" />
<glyph unicode="4" horiz-adv-x="560" d="M381 203L388 196H22L17 213L377 701L401 692V209L394 216H539V196H394L401 203V0H381V203ZM388 216L381 209V682L385 681L39 210L36 216H388Z" />
<glyph unicode="5" horiz-adv-x="522" d="M236 -6Q148 -6 61 39L70 59Q112 37 154 26T236 15Q298 15 344 39T415 108T441 211Q441 270 412 307T321 363T163 381H103L117 692H434V672H130L137 679L125 394L118 401H176Q272 401 335 380T431 315T463 207Q463 144
435 96T355 21T236 -6Z" />
<glyph unicode="6" horiz-adv-x="582" d="M94 299L95 322Q148 364 207 384T321 404Q377 404 422 383T495 318T522 208Q522 143 495 95T419 21T305 -6Q234 -6 184 27T107 128T80 298Q80 420 116 509T222 648T386 698Q431 698 482 686L478 667Q453 673 429 675T384
678Q292 678 229 630T134 498T101 301Q101 154 155 84T307 14Q396 14 448 66T500 208Q500 269 476 308T411 365T320 384Q265 384 206 363T94 299Z" />
<glyph unicode="7" horiz-adv-x="467" d="M444 674L161 0H138L424 678L430 672H54L62 679L44 559H29V692H444V674Z" />
<glyph unicode="8" horiz-adv-x="601" d="M293 -5Q252 -5 215 7T148 42T101 100T84 179Q84 229 104 264T154 321T216 357T268 377L288 367Q267 360 237 347T176 313T126 260T106 180Q106 127 132 90T202 33T295 14Q348 14 392 35T463 94T490 185Q490 232 469 262T413
311T336 343T252 369T175 402T119 451T98 529Q98 586 128 623T206 679T308 698Q362 698 408 680T482 626T510 535Q510 489 490 458T440 406T378 375T321 357L308 369Q337 378 368 390T427 420T472 466T489 534Q489 583 464 615T397 663T307 679Q258 679 215 663T146
613T119 530Q119 485 140 457T197 412T274 381T357 355T434 321T490 269T512 187Q512 142 494 106T445 46T375 8T293 -5Z" />
<glyph unicode="9" horiz-adv-x="581" d="M486 402V379Q433 336 374 315T259 293Q205 293 160 313T88 375T59 482Q58 549 85 597T161 671T276 698Q347 698 397 665T474 565T501 395Q501 277 466 187T362 46T194 -5Q150 -5 99 7L103 26Q129 20 152 18T195 15Q289
15 352 63T447 196T480 392Q480 539 426 608T274 678Q186 678 134 627T81 486Q81 425 105 387T170 331T258 313Q316 313 375 336T486 402Z" />
<glyph unicode=":" horiz-adv-x="190" d="M70 26Q70 38 77 45T95 52Q106 52 113 45T120 26Q120 14 113 7T95 0Q84 0 77 7T70 26ZM70 416Q70 428 77 435T95 442Q106 442 113 435T120 416Q120 404 113 397T95 390Q84 390 77 397T70 416Z" />
<glyph unicode=";" horiz-adv-x="216" d="M70 -103Q96 -67 104 -45T112 -12Q112 -3 108 2T100 12T96 26Q96 39 104 45T121 52Q128 52 133 49T142 40T146 23Q146 6 132 -32T81 -113L70 -103ZM95 416Q95 428 102 435T120 442Q131 442 138 435T145 416Q145 404 138
397T120 390Q109 390 102 397T95 416Z" />
<glyph unicode="&lt;" horiz-adv-x="578" d="M484 148L72 338V359L484 561L491 544L84 345V353L491 166L484 148Z" />
<glyph unicode="=" horiz-adv-x="570" d="M502 445V426H68V445H502ZM502 527V508H68V527H502Z" />
<glyph unicode="&gt;" horiz-adv-x="571" d="M86 541L498 371V350L86 168L79 185L486 364V356L79 523L86 541Z" />
<glyph unicode="?" horiz-adv-x="387" d="M125 211Q124 227 122 246T120 276Q120 311 139 339T185 394T240 447T287 505T306 577Q306 630 271 654T182 679Q156 679 127 674T66 657L60 674Q123 698 183 698Q224 698 256 686T308 647T327 578Q327 535 308 502T262
442T207 388T160 334T141 271Q141 262 142 245T144 213L125 211ZM123 20Q123 32 130 39T148 46Q159 46 166 39T173 20Q173 8 166 1T148 -6Q137 -6 130 1T123 20Z" />
<glyph unicode="@" horiz-adv-x="880" d="M417 -105Q320 -105 249 -59T139 70T100 260Q100 346 124 415T195 533T307 609T452 635Q532 635 594 610T700 538T767 428T790 288Q790 188 750 128T639 68Q596 68 572 91T547 164L551 162Q522 123 481 96T394 68Q365
68 342 80T307 118T294 178Q294 231 327 259T441 288H557L547 282V365Q547 412 517 432T443 453Q415 453 383 445T322 422L315 437Q348 454 382 463T448 472Q500 472 533 445T567 358V165Q567 125 585 106T641 87Q705 87 737 142T769 285Q769 382 731 456T622 573T450
616Q350 616 276 573T162 450T121 262Q121 159 157 81T261 -41T419 -85Q457 -85 498 -77T578 -53L585 -70Q545 -87 502 -96T417 -105ZM397 87Q439 87 481 115T553 190L547 171V276L557 269H440Q370 269 343 246T315 178Q315 135 337 111T397 87Z" />
<glyph unicode="A" horiz-adv-x="704" d="M605 22L596 29L698 15V0H464V15L587 29L583 22L517 211L525 206H179L189 213L118 22L113 29L235 15V0H6V15L105 29L97 22L349 691L368 693L605 22ZM191 219L185 225H518L514 220L356 672H360L191 219Z" />
<glyph unicode="B" horiz-adv-x="644" d="M365 354L368 358Q434 356 476 332T537 269T557 183Q557 133 534 92T459 25T320 0H61V15L168 29L161 21V670L168 662L61 672V687L182 692H326Q398 692 443 671T509 612T530 525Q530 463 494 417T365 354ZM321 673H174L181
680V357L174 364H293Q371 364 418 385T487 442T508 523Q508 568 489 601T428 654T321 673ZM320 19Q399 19 446 41T514 99T535 181Q535 226 516 263T455 323T348 345H174L181 352V12L174 19H320Z" />
<glyph unicode="C" horiz-adv-x="659" d="M359 -6Q281 -6 218 35T117 154T80 343Q80 455 118 534T224 655T380 698Q426 698 479 687T587 650L582 516H568L557 646L562 637Q516 657 467 667T377 678Q296 678 234 638T137 524T102 347Q102 242 137 168T232 55T365
15Q418 15 475 38T583 109L596 93Q541 43 480 19T359 -6Z" />
<glyph unicode="D" horiz-adv-x="724" d="M344 692Q403 692 457 673T553 612T621 508T646 355Q646 238 603 159T489 40T332 0H61V15L168 29L161 21V670L168 662L61 672V687L211 692H344ZM332 19Q390 19 442 39T536 101T600 204T624 351Q624 433 602 493T540 594T451
653T343 673H174L181 680V12L174 19H332Z" />
<glyph unicode="E" horiz-adv-x="634" d="M535 141H550V0H61V15L168 29L161 21V670L168 662L61 672V687L182 692H537V556H522L507 680L515 673H174L181 680V358L174 365H469V346H174L181 353V12L174 19H528L520 12L535 141Z" />
<glyph unicode="F" horiz-adv-x="566" d="M61 0V15L168 29L161 21V670L168 662L61 672V687L182 692H526V556H511L496 680L504 673H174L181 680V346L174 353H454V334H174L181 341V21L174 29L305 15V0H61Z" />
<glyph unicode="G" horiz-adv-x="759" d="M390 -5Q295 -5 225 33T117 148T79 337Q79 452 118 532T230 655T400 698Q450 698 506 687T621 650L616 516H601L591 646L595 637Q547 655 493 666T390 678Q302 678 237 637T137 519T101 337Q101 180 180 98T393 15Q442
15 494 26T603 60L598 51V294L605 287L498 295V310L713 315V300L611 286L618 294V45Q557 20 500 8T390 -5Z" />
<glyph unicode="H" horiz-adv-x="804" d="M61 0V15L168 29L161 21V671L168 663L61 672V687L281 692V677L174 663L181 671V354L174 361H631L624 354V671L631 664L524 672V687L744 692V677L637 663L644 671V21L637 29L744 15V0H524V15L631 29L624 21V349L631 342H174L181
349V21L174 29L281 15V0H61Z" />
<glyph unicode="I" horiz-adv-x="341" d="M281 677L174 663L181 671V21L174 29L281 15V0H61V15L168 29L161 21V671L168 663L61 672V687L281 692V677Z" />
<glyph unicode="J" horiz-adv-x="319" d="M41 687L271 692V677L164 663L171 671V3Q171 -32 162 -56T136 -95T95 -117T40 -124Q30 -124 21 -124T1 -122L3 -103Q12 -104 20 -104T39 -105Q97 -105 124 -80T151 3V671L158 664L41 672V687Z" />
<glyph unicode="K" horiz-adv-x="701" d="M591 23L580 28L683 15V0H468V15L571 28L567 23L333 350L346 345H174L181 352V21L174 29L281 15V0H61V15L168 29L161 21V671L168 663L61 672V687L281 692V677L174 663L181 671V357L174 364H340L329 358L522 670L526 664L419
672V687L635 692V677L532 663L543 670L347 353V364L591 23Z" />
<glyph unicode="L" horiz-adv-x="547" d="M499 145H514V0H61V15L168 29L161 21V670L168 662L61 672V687L296 692V677L174 662L181 670V12L174 19H492L484 12L499 145Z" />
<glyph unicode="M" horiz-adv-x="909" d="M849 677L742 663L749 671V21L742 29L849 15V0H629V15L736 29L729 21V662L732 661L461 182L441 178L177 664L181 665V21L173 29L281 15V0H61V15L168 29L161 21V671L168 663L61 672V687L186 692L455 197H449L724 687L849 692V677Z" />
<glyph unicode="N" horiz-adv-x="812" d="M544 687L764 692V677L657 663L664 671V0H644L177 669L181 670V21L174 29L281 15V0H61V15L168 29L161 21V671L168 663L61 672V687L186 692L648 31L644 30V672L651 665L544 672V687Z" />
<glyph unicode="O" horiz-adv-x="757" d="M371 -6Q294 -6 228 32T120 147T79 341Q79 431 104 498T172 609T269 676T383 698Q439 698 492 678T587 615T654 509T679 356Q679 239 637 159T524 36T371 -6ZM372 14Q446 14 511 52T616 165T657 353Q657 462 619 534T518
642T382 678Q309 678 245 641T141 530T101 342Q101 231 139 159T239 50T372 14Z" />
<glyph unicode="P" horiz-adv-x="581" d="M280 285H174L181 292V21L174 29L306 15V0H61V15L168 29L161 21V671L168 663L61 672V687L182 692H317Q388 692 435 669T507 603T532 500Q532 433 502 385T416 311T280 285ZM315 673H174L181 680V297L174 304H281Q390 304
450 356T510 499Q510 580 461 626T315 673Z" />
<glyph unicode="Q" horiz-adv-x="770" d="M677 -154Q646 -154 609 -137T513 -87T362 -2L373 -6Q294 -5 227 33T120 148T79 341Q79 431 104 498T172 609T272 676T389 698Q448 698 502 678T598 615T666 509T691 356Q691 245 653 167T549 46T403 -5L401 -2Q482 -45
532 -74T616 -119T677 -134Q700 -134 725 -124T785 -94L795 -109Q757 -131 730 -142T677 -154ZM101 342Q101 231 139 159T240 50T378 14Q455 14 521 52T628 165T669 353Q669 462 630 534T528 642T388 678Q312 678 247 641T141 530T101 342Z" />
<glyph unicode="R" horiz-adv-x="648" d="M61 0V15L168 29L161 21V671L168 663L61 672V687L182 692H318Q424 692 478 648T533 520Q533 440 482 391T330 333L328 336Q367 330 391 314T432 272T467 208L556 22L546 29L624 15V0H541L448 202Q427 248 406 275T351
314T260 327H174L181 334V21L174 29L306 15V0H61ZM181 339L174 346H282Q391 346 451 390T511 519Q511 595 462 634T316 673H174L181 680V339Z" />
<glyph unicode="S" horiz-adv-x="598" d="M122 528Q122 482 143 454T198 408T274 378T357 352T432 320T488 268T509 183Q509 119 477 77T391 15T273 -6Q227 -6 179 4T85 36L91 175H106L118 41L113 51Q153 33 194 24T276 15Q333 15 381 33T458 89T487 181Q487 228
466 257T411 305T335 335T253 360T177 392T121 442T100 524Q100 582 129 620T208 678T320 698Q363 698 408 689T496 659L490 522H475L466 653L474 644Q440 660 399 669T317 678Q267 678 222 663T150 615T122 528Z" />
<glyph unicode="T" horiz-adv-x="558" d="M154 0V15L276 29L269 21V680L276 673H55L63 680L48 552H33V692H525V552H510L495 680L503 673H282L289 680V21L282 29L404 15V0H154Z" />
<glyph unicode="U" horiz-adv-x="755" d="M497 687L717 692V677L610 663L617 671V254Q617 229 615 196T601 127T565 62T494 13T376 -6Q305 -6 260 12T190 59T155 123T142 189T139 245V671L146 663L39 672V687L259 692V677L152 663L159 671V245Q159 221 161 190T173
128T206 71T270 29T376 13Q442 13 484 29T549 73T583 133T595 197T597 254V671L604 664L497 672V687Z" />
<glyph unicode="V" horiz-adv-x="677" d="M323 -2L99 670L108 663L6 672V687L239 692V677L117 663L120 670L336 19H331L558 670L561 664L439 672V687L671 692V677L569 663L578 670L343 -2H323Z" />
<glyph unicode="W" horiz-adv-x="1027" d="M791 687L1020 692V677L919 663L928 670L736 -2H715L513 662H517L304 -2H281L102 671L111 663L7 672V687L241 692V677L118 663L123 671L296 21L292 22L506 689L525 692L728 24H724L908 670L913 664L791 672V687Z" />
<glyph unicode="X" horiz-adv-x="684" d="M570 21L559 28L659 15V0H433V15L551 28L548 21L338 348H346L136 21L133 28L252 15V0H26V15L127 28L116 21L336 364V352L131 670L142 663L41 672V687L262 692V677L150 663L153 670L345 371H337L533 670L536 663L423 672V687L644
692V677L542 663L553 670L347 356V368L570 21Z" />
<glyph unicode="Y" horiz-adv-x="635" d="M207 0V15L314 29L307 21V268L311 251L98 670L108 663L5 672V687L240 692V677L115 663L119 670L321 275H315L518 670L522 664L398 672V687L630 692V677L528 663L538 670L323 251L327 268V21L320 29L427 15V0H207Z" />
<glyph unicode="Z" horiz-adv-x="610" d="M54 0V16L519 678L522 672H99L108 679L92 547H77V692H542V676L79 14L76 20H527L515 13L534 145H549L545 0H54Z" />
<glyph unicode="[" horiz-adv-x="341" d="M138 -94V838L322 833V817L158 815V-71L322 -73V-89L138 -94Z" />
<glyph unicode="\" horiz-adv-x="288" d="M9 797H28L280 -74H261L9 797Z" />
<glyph unicode="]" horiz-adv-x="341" d="M203 838V-94L19 -89V-73L183 -71V815L19 817V833L203 838Z" />
<glyph unicode="^" horiz-adv-x="547" d="M85 522L267 844H281L462 522H441L269 830H278L105 522H85Z" />
<glyph unicode="_" horiz-adv-x="498" d="M499 -80V-99H-1V-80H499Z" />
<glyph unicode="`" horiz-adv-x="272" d="M71 772L220 647L210 634L52 749L71 772Z" />
<glyph unicode="a" horiz-adv-x="534" d="M419 19L412 27L509 17V2L404 -2L400 94L404 91Q358 45 304 20T198 -6Q141 -6 106 29T70 136Q70 195 94 225T158 265T248 275H406L399 268V391Q399 454 363 481T267 509Q234 509 196 502T118 479L125 490L118 392H101L93
491Q140 509 184 518T268 528Q336 528 377 497T419 394V19ZM91 140Q91 75 122 44T201 13Q246 13 300 38T404 110L399 99V263L406 256H250Q165 256 128 231T91 140Z" />
<glyph unicode="b" horiz-adv-x="568" d="M251 -6Q219 -6 183 -1T108 15V741L117 731L18 745V760L128 765V437L124 441Q170 485 217 506T307 528Q362 528 406 497T477 408T504 265Q504 197 487 146T436 62T357 11T251 -6ZM255 13Q362 13 422 76T483 264Q483 342
459 396T395 480T305 509Q262 509 216 487T124 417L128 432V22L123 33Q197 13 255 13Z" />
<glyph unicode="c" horiz-adv-x="509" d="M271 -6Q212 -6 165 25T90 114T62 253Q62 320 80 371T129 457T203 510T294 528Q325 528 367 519T447 486L444 382H425L413 488L418 479Q384 496 349 502T290 509Q229 509 183 478T110 391T83 255Q83 179 108 125T177 43T275
14Q315 14 359 31T447 82L458 66Q409 29 362 12T271 -6Z" />
<glyph unicode="d" horiz-adv-x="582" d="M261 -6Q207 -6 162 24T91 114T64 256Q64 387 130 457T309 528Q341 528 375 523T447 506L440 502V739L447 731L345 746V760L460 765V19L453 27L550 17V2L445 -2L440 83L444 80Q398 37 352 16T261 -6ZM263 13Q306 13 352
35T444 104L440 92V491L445 484Q371 509 308 509Q203 509 144 443T85 257Q85 180 109 125T173 42T263 13Z" />
<glyph unicode="e" horiz-adv-x="546" d="M276 -6Q215 -6 167 24T92 112T64 254Q64 337 91 398T169 494T288 528Q351 528 393 500T457 421T479 305Q479 300 479 294T478 277H73V296H467L458 290Q459 349 443 399T390 479T288 509Q225 509 180 478T110 389T85 256Q85
178 110 124T179 42T279 13Q322 13 370 30T469 82L480 67Q426 30 375 12T276 -6Z" />
<glyph unicode="f" horiz-adv-x="322" d="M46 0V15L143 29L136 21V506L143 499H46V513L143 518L136 509V612Q136 692 175 730T279 768Q301 768 325 764T377 750L371 733Q345 741 322 745T278 749Q220 749 188 716T156 615V509L149 518H311L309 499H149L156 506V21L149
29L266 15V0H46Z" />
<glyph unicode="g" horiz-adv-x="544" d="M270 -236Q160 -236 104 -202T48 -103Q48 -63 74 -27T150 40L153 37Q128 37 117 43T106 63Q106 70 107 76T111 96T123 135T147 206L150 201Q113 223 94 260T74 347Q74 431 126 479T267 528Q321 528 362 509L351 511L497
521V504L392 484L396 488Q423 465 437 432T451 356Q451 272 400 223T259 174Q199 174 154 198L159 203L123 49L118 57H309Q401 57 449 22T498 -82Q498 -157 440 -196T270 -236ZM270 -217Q372 -217 424 -183T477 -82Q477 -23 434 7T305 37H162L175 40Q69 -27 69
-101Q69 -158 119 -187T270 -217ZM260 193Q340 193 385 235T430 354Q430 428 387 468T265 509Q185 509 141 467T96 348Q96 275 139 234T260 193Z" />
<glyph unicode="h" horiz-adv-x="610" d="M33 0V15L130 29L123 21V739L130 731L33 745V760L143 765V424L139 427Q189 480 244 504T348 528Q392 528 426 511T478 458T496 368V21L489 29L586 15V0H386V15L483 29L476 21V363Q478 438 442 473T347 509Q301 509 246
484T139 403L143 414V21L136 29L233 15V0H33Z" />
<glyph unicode="i" horiz-adv-x="278" d="M156 21L149 29L246 15V0H46V15L143 29L136 21V499L143 491L46 505V520L156 525V21ZM138 663Q127 663 120 671T113 692Q113 706 120 714T139 722Q151 722 158 714T165 692Q165 678 157 671T138 663Z" />
<glyph unicode="j" horiz-adv-x="251" d="M10 -236Q4 -236 -4 -236T-22 -234L-20 -215Q-11 -216 -3 -216T12 -217Q72 -217 97 -185T122 -77V499L129 491L32 505V520L142 525V-68Q142 -104 138 -134T120 -187T81 -223T10 -236ZM124 663Q113 663 106 671T99 692Q99
706 106 714T125 722Q137 722 144 714T151 692Q151 678 143 671T124 663Z" />
<glyph unicode="k" horiz-adv-x="541" d="M33 0V15L130 29L123 21V739L130 731L33 745V760L143 765V295L136 302H284L276 296L399 502L402 495L308 506V520L504 525V511L408 495L418 502L295 292L292 304L458 24L448 31L537 14V0H449L279 289L289 283H136L143
290V21L136 29L233 15V0H33Z" />
<glyph unicode="l" horiz-adv-x="266" d="M143 21L136 29L233 15V0H33V15L130 29L123 21V739L130 731L33 745V760L143 765V21Z" />
<glyph unicode="m" horiz-adv-x="954" d="M494 420L491 422Q541 475 597 501T702 528Q761 528 800 489T840 368V21L833 29L930 15V0H730V15L827 29L820 21V363Q820 438 787 473T701 509Q655 509 600 482T493 400L496 408Q498 399 498 389T499 368V21L492 29L589
15V0H389V15L486 29L479 21V363Q479 438 446 473T360 509Q314 509 259 484T152 403L156 414V21L149 29L246 15V0H46V15L143 29L136 21V499L143 491L46 505V520L151 525L156 424L152 427Q202 480 257 504T361 528Q409 528 445 502T494 420Z" />
<glyph unicode="n" horiz-adv-x="623" d="M46 0V15L143 29L136 21V499L143 491L46 505V520L151 525L156 424L152 427Q202 480 257 504T361 528Q427 528 469 489T509 368V21L502 29L599 15V0H399V15L496 29L489 21V363Q489 438 454 473T360 509Q314 509 259 484T152
403L156 414V21L149 29L246 15V0H46Z" />
<glyph unicode="o" horiz-adv-x="574" d="M293 528Q393 528 452 460T511 270Q511 188 483 126T403 29T277 -6Q179 -6 122 59T64 249Q64 334 91 396T170 493T293 528ZM291 509Q194 509 140 439T85 251Q85 136 136 75T279 13Q346 13 393 45T465 134T490 267Q490
380 437 444T291 509Z" />
<glyph unicode="p" horiz-adv-x="583" d="M33 -230V-215L130 -201L123 -209V499L130 491L33 505V520L138 525L143 439L139 441Q185 485 232 506T322 528Q377 528 421 497T492 408T519 265Q519 178 489 117T404 25T274 -7Q243 -7 209 -1T136 15L143 21V-209L135
-201L248 -215V-230H33ZM275 12Q380 12 439 78T498 264Q498 342 474 396T410 480T320 509Q277 509 231 487T139 417L143 430V28L138 37Q212 12 275 12Z" />
<glyph unicode="q" horiz-adv-x="567" d="M335 -230V-215L447 -201L440 -209V83L444 80Q398 36 352 15T261 -7Q207 -7 162 23T91 113T64 256Q64 344 94 404T179 496T309 528Q344 528 381 522T460 502V-209L453 -201L550 -215V-230H335ZM263 12Q306 12 352 34T444
104L440 92V493L445 484Q371 509 308 509Q203 509 144 443T85 257Q85 179 109 125T173 41T263 12Z" />
<glyph unicode="r" horiz-adv-x="414" d="M46 0V15L143 29L136 21V499L143 491L46 505V520L151 525L156 424L152 427Q195 474 238 501T333 528Q365 528 399 518L394 411H377L367 512L372 504Q363 506 354 507T335 508Q286 508 241 480T152 403L156 414V21L149
29L266 15V0H46Z" />
<glyph unicode="s" horiz-adv-x="475" d="M96 400Q96 359 118 336T177 301T252 278T328 254T386 213T409 140Q409 91 382 59T309 10T208 -6Q171 -6 138 -1T70 14L77 127H91L100 19L94 27Q120 21 151 16T211 11Q261 11 301 25T366 67T390 137Q390 180 368 203T309
240T234 264T158 288T100 327T77 397Q77 442 101 471T166 514T252 528Q281 528 317 522T391 500L388 411H373L360 500L366 490Q309 509 250 509Q186 509 141 483T96 400Z" />
<glyph unicode="t" horiz-adv-x="328" d="M207 -6Q170 -6 146 17T122 91V510L129 503H19V517L129 522L122 515V642L142 643V515L135 522H295L293 503H135L142 510V94Q142 52 161 33T211 14Q231 14 254 21T302 41L309 25Q252 -6 207 -6Z" />
<glyph unicode="u" horiz-adv-x="608" d="M261 -6Q195 -6 154 33T113 154V499L120 491L23 505V520L133 525V159Q133 84 168 49T262 13Q309 13 363 38T470 119L466 108V500L473 491L376 505V520L486 525V23L479 27L576 17V2L471 -2L466 98L470 95Q420 43 365 19T261 -6Z" />
<glyph unicode="v" horiz-adv-x="509" d="M323 520L514 525V510L434 495L443 504L261 -2H237L63 504L72 495L-5 505V520L190 525V510L80 497L85 504L252 12H248L423 504L428 498L323 505V520Z" />
<glyph unicode="w" horiz-adv-x="767" d="M582 520L772 525V510L695 496L704 505L556 -2H532L381 512H386L231 -2H207L63 505L72 495L-5 505V520L189 525V510L80 497L85 505L222 12H218L368 522L398 526L547 12H542L683 504L689 497L582 505V520Z" />
<glyph unicode="x" horiz-adv-x="539" d="M9 0V14L100 29L90 21L257 271L262 278L423 520L510 525V510L422 494L432 502L272 263L268 257L97 0H9ZM337 0V15L421 26L418 21L260 257L94 504L104 497L21 505V520L201 525V510L112 497L116 504L271 272L439 21L429
26L520 15V0H337Z" />
<glyph unicode="y" horiz-adv-x="502" d="M21 -233L24 -215Q32 -216 38 -216T52 -217Q107 -217 140 -190T195 -109T239 20V7L57 503L66 497L-6 505V520L184 525V510L74 497L79 503L250 29H246L419 503L424 498L317 505V520L507 525V510L430 497L439 503L252 -5Q236
-49 221 -90T186 -164T136 -216T57 -236Q44 -236 21 -233Z" />
<glyph unicode="z" horiz-adv-x="458" d="M405 116L406 1L46 0V15L380 511L384 504H76L86 513L73 419H58L57 522H400V506L68 11L64 18L386 19L376 10L390 116H405Z" />
<glyph unicode="{" horiz-adv-x="320" d="M250 -94Q189 -94 166 -68T142 26V255Q142 302 123 332T50 362V382Q103 382 122 412T142 489V718Q142 786 166 812T250 838H279V822Q230 822 205 814T171 782T162 713V485Q162 433 147 408T109 376T63 368V376Q86 376
108 369T146 337T162 259V31Q162 -14 171 -37T205 -69T279 -78V-94H250Z" />
<glyph unicode="|" horiz-adv-x="348" d="M164 795H184V-91H164V795Z" />
<glyph unicode="}" horiz-adv-x="320" d="M70 -94Q131 -94 154 -68T178 26V255Q178 302 197 332T270 362V382Q217 382 198 412T178 489V718Q178 786 154 812T70 838H41V822Q90 822 115 814T149 782T158 713V485Q158 433 173 408T212 376T257 368V376Q235 376 212
369T174 337T158 259V31Q158 -14 149 -37T115 -69T41 -78V-94H70Z" />
<glyph unicode="~" horiz-adv-x="629" d="M431 302Q399 302 369 314T310 343T253 371T197 384Q172 384 147 371T95 320L80 329Q103 363 132 382T198 402Q230 402 260 390T319 361T376 333T432 320Q458 320 483 333T535 384L549 375Q524 339 495 321T431 302Z" />
<glyph unicode="&#xa0;" horiz-adv-x="220" />
<glyph unicode="&#xa1;" horiz-adv-x="344" d="M182 261L184 -230H160L162 259L182 261ZM197 442Q197 430 190 423T172 416Q161 416 154 423T147 442Q147 454 154 461T172 468Q183 468 190 461T197 442Z" />
<glyph unicode="&#xa2;" horiz-adv-x="609" d="M507 181Q460 146 415 129T325 109L330 118V-20H312V118L318 109Q254 109 205 138T128 222T100 349Q100 423 128 478T206 566T318 602L312 593V731H330V594L321 603Q354 603 384 599T442 585T492 561L489 457H470L459
556Q426 572 392 578T331 584Q269 584 222 554T148 472T121 352Q121 287 145 237T214 158T317 129Q360 129 405 146T496 197L507 181Z" />
<glyph unicode="&#xa3;" horiz-adv-x="707" d="M97 0V15L195 34L182 29Q213 51 224 92T236 183Q236 225 231 271T219 363L229 357H97V372L227 376L219 370Q213 414 208 455T203 527Q203 590 227 627T296 681T401 698Q439 698 482 693T573 677L568 543H553L542
671L550 661Q507 670 469 674T399 678Q315 678 270 646T225 530Q225 500 230 457T241 370L231 376H445V357H234L242 363Q248 317 253 272T259 184Q259 129 246 86T196 19L192 22L559 19L549 10L564 142H579V0H97Z" />
<glyph unicode="&#xa4;" horiz-adv-x="686" d="M544 131L531 116L445 196L456 194Q437 172 408 159T340 146Q303 146 275 158T228 192L239 194L154 115L142 129L227 208L223 197Q207 217 199 243T191 298Q191 328 200 356T227 406L230 395L142 478L155 493L243
410L232 412Q252 434 282 447T351 460Q387 460 414 449T459 418L448 416L530 493L542 479L459 403L462 414Q479 393 487 367T496 310Q496 279 487 251T461 199L457 210L544 131ZM342 166Q386 166 414 185T458 236T474 303Q476 362 444 401T349 440Q304 440 274
420T228 368T213 300Q213 245 246 206T342 166Z" />
<glyph unicode="&#xa5;" horiz-adv-x="744" d="M182 261V280H360L357 269L153 670L163 663L60 672V687L295 692V677L170 663L174 670L376 275H370L573 670L577 664L453 672V687L685 692V677L583 663L593 670L388 270L386 280H562V261H182ZM262 0V15L369 29L362
21V167L366 161H182V180H562V161H376L382 167V21L375 29L482 15V0H262Z" />
<glyph unicode="&#xa6;" horiz-adv-x="348" d="M164 439V795H184V439H164ZM164 -91V265H184V-91H164Z" />
<glyph unicode="&#xa7;" horiz-adv-x="589" d="M260 -176Q230 -176 197 -171T130 -155L137 -42H153L162 -150L156 -141Q184 -148 211 -152T263 -157Q331 -157 375 -126T420 -34Q420 9 399 39T343 92T271 135T199 178T144 230T122 302Q122 336 136 363T171 412T215
448L229 437Q209 426 189 407T156 362T143 307Q143 268 164 241T220 193T292 151T364 106T419 49T441 -32Q441 -80 418 -112T353 -160T260 -176ZM383 84L372 96Q390 111 407 131T436 177T448 232Q448 272 427 300T371 351T299 393T227 437T172 492T150 566Q150
628 196 663T316 698Q347 698 382 691T451 670L448 581H431L419 670L425 661Q397 669 369 674T313 679Q248 679 210 650T171 569Q171 530 192 502T248 451T320 409T392 365T447 310T469 234Q469 201 457 173T424 122T383 84Z" />
<glyph unicode="&#xa8;" horiz-adv-x="437" d="M307 663Q296 663 289 671T282 692Q282 706 289 714T307 722Q318 722 325 714T332 692Q332 679 325 671T307 663ZM130 663Q119 663 112 671T105 692Q105 706 112 714T130 722Q141 722 148 714T155 692Q155 679 148
671T130 663Z" />
<glyph unicode="&#xa9;" horiz-adv-x="926" d="M463 164Q399 164 355 210T310 343Q310 402 331 444T390 509T475 532Q528 532 584 504L582 422H565L557 499L565 493Q541 504 519 508T476 513Q411 513 371 468T331 344Q331 265 369 224T464 183Q493 183 524 194T587
229L598 214Q564 189 530 177T463 164ZM452 -6Q376 -6 312 19T202 91T131 200T105 338Q105 416 132 482T208 596T323 671T468 698Q545 698 610 672T722 600T796 490T823 353Q823 277 795 212T717 97T599 21T452 -6ZM454 13Q528 13 591 38T702 109T775 217T802 352Q802
447 759 520T639 636T466 679Q367 679 291 635T170 515T126 341Q126 246 167 172T283 56T454 13Z" />
<glyph unicode="&#xaa;" horiz-adv-x="437" d="M329 335L319 346L392 336V322L313 320L310 389L313 387Q279 354 239 336T162 317Q119 317 91 344T62 421Q62 462 81 484T130 514T196 522H314L309 517V599Q309 641 282 660T210 679Q185 679 157 674T99 658L107
670L99 594H84L78 671Q113 684 147 691T211 698Q266 698 297 676T329 601V335ZM83 421Q83 383 105 360T161 337Q195 337 235 355T313 406L309 392V511L314 503H198Q186 503 167 502T129 493T96 469T83 421ZM62 201V220H392V201H62Z" />
<glyph unicode="&#xab;" horiz-adv-x="460" d="M209 81L67 260V281L209 460L221 450L82 264V278L221 91L209 81ZM367 81L225 260V281L367 460L379 450L240 264V278L379 91L367 81Z" />
<glyph unicode="&#xac;" horiz-adv-x="635" d="M515 112V349L523 339H65V358H535V112H515Z" />
<glyph unicode="&#xad;" horiz-adv-x="430" d="M601 303V284H341V303H601Z" />
<glyph unicode="&#xae;" horiz-adv-x="796" d="M261 287V298L319 309L310 301V619L319 611L261 616V628L329 630H399Q457 630 487 609T518 547Q518 513 491 488T406 457V463Q438 459 454 442T485 395L534 298L526 307L567 298V287H517L465 392Q451 422 437 434T406
449T367 452H324L330 460V301L324 309L395 298V287H261ZM330 464L324 471H378Q437 471 467 491T497 547Q497 577 473 594T398 611H324L330 623V464ZM390 173Q308 174 245 209T148 306T113 450Q113 532 150 596T252 699T399 737Q483 737 547 702T648 604T685 460Q685
400 663 348T600 257T506 195T390 173ZM391 192Q469 192 531 227T629 322T665 459Q665 535 631 593T537 685T398 718Q321 718 261 684T168 589T134 451Q134 374 166 316T256 225T391 192Z" />
<glyph unicode="&#xaf;" horiz-adv-x="432" d="M331 702V681H101V702H331Z" />
<glyph unicode="&#xb0;" horiz-adv-x="449" d="M194 457Q133 457 97 494T60 593Q60 634 77 664T124 711T196 728Q256 728 292 691T329 593Q329 532 292 495T194 457ZM195 475Q248 475 278 506T309 593Q310 646 279 678T195 710Q142 710 111 679T79 594Q80 540
111 508T195 475Z" />
<glyph unicode="&#xb1;" horiz-adv-x="615" d="M307 393L298 384V608H317V384L308 393H525V374H308L317 383V159H298V383L307 374H91V393H307ZM525 67V48H91V67H525Z" />
<glyph unicode="&#xb2;" horiz-adv-x="342" d="M39 346V365Q112 437 162 490T238 586T264 666Q264 711 234 730T160 749Q112 749 62 731L65 737L59 661H47L43 743Q73 754 103 760T161 767Q213 767 248 744T284 668Q284 638 270 607T227 540T158 460T62 361L61
365H296V346H39Z" />
<glyph unicode="&#xb3;" horiz-adv-x="362" d="M162 342Q131 342 101 351T43 377L52 392Q78 376 105 368T161 360Q209 360 243 384T278 462Q278 502 252 530T158 558H108V575H160Q218 575 243 598T269 663Q269 710 242 729T170 749Q148 749 124 745T74 733L78
738L71 661H59L55 744Q87 755 117 760T174 766Q208 766 233 756T274 724T289 664Q289 623 269 599T201 566L200 567Q250 563 274 535T298 462Q298 421 280 394T230 355T162 342Z" />
<glyph unicode="&#xb4;" horiz-adv-x="289" d="M84 634L73 648L230 772L249 746L84 634Z" />
<glyph unicode="&#xb5;" horiz-adv-x="648" d="M124 154L133 99Q136 50 137 -5T138 -117T138 -230H118V501L125 492L28 505V520L138 522V159Q138 84 173 49T267 13Q314 13 368 38T475 119L471 108V501L478 492L381 505V520L491 522V23L484 27L581 17V2L476 -2L471
98L475 95Q425 43 370 19T266 -6Q203 -6 164 33T124 154Z" />
<glyph unicode="&#xb6;" horiz-adv-x="554" d="M130 -170V-155L237 -141L230 -149V371L248 353Q197 353 159 374T101 433T80 523Q80 574 101 612T160 671T250 692H475V677L368 663L375 671V-170H355V681L362 673L243 672L250 681V-170H130Z" />
<glyph unicode="&#xb7;" horiz-adv-x="190" d="M70 333Q70 345 77 352T95 359Q106 359 113 352T120 333Q120 321 113 314T95 307Q84 307 77 314T70 333Z" />
<glyph unicode="&#xb8;" horiz-adv-x="322" d="M159 -212Q142 -212 123 -208T86 -196L94 -179Q109 -185 126 -188T159 -192Q188 -192 208 -179T229 -141Q229 -124 219 -112T187 -94T131 -87L135 0H154V-68Q210 -72 230 -91T250 -138Q250 -163 238 -179T206 -204T159
-212Z" />
<glyph unicode="&#xb9;" horiz-adv-x="258" d="M154 363L148 369L233 360V346H43V360L142 369L136 363V746L142 744L33 675L25 688L141 766H154V363Z" />
<glyph unicode="&#xba;" horiz-adv-x="490" d="M236 315Q160 315 116 364T72 497Q72 555 93 600T155 672T250 698Q328 698 373 647T418 515Q418 459 397 414T334 342T236 315ZM82 201V220H408V201H82ZM239 334Q290 334 325 357T379 421T397 512Q397 587 358 633T248
679Q172 679 133 628T93 500Q93 424 131 379T239 334Z" />
<glyph unicode="&#xbb;" horiz-adv-x="460" d="M251 460L393 281V260L251 81L239 91L378 277V263L239 450L251 460ZM93 460L235 281V260L93 81L81 91L220 277V263L81 450L93 460Z" />
<glyph unicode="&#xbc;" horiz-adv-x="770" d="M188 293L182 299L267 290V276H77V290L176 299L170 293V676L176 674L67 605L59 618L175 696H188V293ZM138 -4L589 696H611L160 -4H138ZM623 121L629 115H415L411 131L620 424L642 419V127L636 133H722V115H636L642
121V0H623V121ZM629 133L623 127V409L628 408L428 126L426 133H629Z" />
<glyph unicode="&#xbd;" horiz-adv-x="792" d="M188 293L182 299L267 290V276H77V290L176 299L170 293V676L176 674L67 605L59 618L175 696H188V293ZM136 -4L587 696H609L158 -4H136ZM467 0V19Q540 91 590 144T666 240T692 320Q692 365 662 384T588 403Q540 403
490 385L493 391L487 315H475L471 397Q501 408 531 414T589 421Q641 421 676 398T712 322Q712 292 698 261T655 194T586 114T490 15L489 19H724V0H467Z" />
<glyph unicode="&#xbe;" horiz-adv-x="812" d="M162 272Q131 272 101 281T43 307L52 322Q78 306 105 298T161 290Q209 290 243 314T278 392Q278 432 252 460T158 488H108V505H160Q218 505 243 528T269 593Q269 640 242 659T170 679Q148 679 124 675T74 663L78
668L71 591H59L55 674Q87 685 117 690T174 696Q208 696 233 686T274 654T289 594Q289 553 269 529T201 496L200 497Q250 493 274 465T298 392Q298 351 280 324T230 285T162 272ZM182 -4L633 696H655L204 -4H182ZM667 121L673 115H459L455 131L664 424L686 419V127L680
133H766V115H680L686 121V0H667V121ZM673 133L667 127V409L672 408L472 126L470 133H673Z" />
<glyph unicode="&#xbf;" horiz-adv-x="402" d="M258 311Q260 295 261 276T263 246Q263 211 244 183T198 128T143 75T96 17T77 -55Q77 -108 112 -132T201 -157Q227 -157 256 -151T317 -135L323 -152Q260 -176 200 -176Q160 -176 127 -164T75 -125T56 -56Q56 -13
75 20T121 80T176 134T223 188T242 251Q242 260 241 277T239 309L258 311ZM260 502Q260 490 253 483T235 476Q224 476 217 483T210 502Q210 514 217 521T235 528Q246 528 253 521T260 502Z" />
<glyph unicode="&#xc0;" horiz-adv-x="704" d="M605 22L596 29L698 15V0H464V15L587 29L583 22L517 211L525 206H179L189 213L118 22L113 29L235 15V0H6V15L105 29L97 22L349 691L368 693L605 22ZM191 219L185 225H518L514 220L356 672H360L191 219ZM442 747L262
839L281 868L451 762L442 747Z" />
<glyph unicode="&#xc1;" horiz-adv-x="704" d="M605 22L596 29L698 15V0H464V15L587 29L583 22L517 211L525 206H179L189 213L118 22L113 29L235 15V0H6V15L105 29L97 22L349 691L368 693L605 22ZM191 219L185 225H518L514 220L356 672H360L191 219ZM282 747L272
762L442 868L459 840L282 747Z" />
<glyph unicode="&#xc2;" horiz-adv-x="704" d="M605 22L596 29L698 15V0H464V15L587 29L583 22L517 211L525 206H179L189 213L118 22L113 29L235 15V0H6V15L105 29L97 22L349 691L368 693L605 22ZM191 219L185 225H518L514 220L356 672H360L191 219ZM229 742L218
755L349 862H364L499 755L488 742L352 837H361L229 742Z" />
<glyph unicode="&#xc3;" horiz-adv-x="704" d="M605 22L596 29L698 15V0H464V15L587 29L583 22L517 211L525 206H179L189 213L118 22L113 29L235 15V0H6V15L105 29L97 22L349 691L368 693L605 22ZM191 219L185 225H518L514 220L356 672H360L191 219ZM233 773L219
780Q234 812 253 825T296 839Q320 839 342 829T385 808T424 797Q441 797 456 806T485 841L499 834Q483 802 464 789T422 776Q398 776 378 786T337 807T293 818Q275 818 261 808T233 773Z" />
<glyph unicode="&#xc4;" horiz-adv-x="704" d="M605 22L596 29L698 15V0H464V15L587 29L583 22L517 211L525 206H179L189 213L118 22L113 29L235 15V0H6V15L105 29L97 22L349 691L368 693L605 22ZM191 219L185 225H518L514 220L356 672H360L191 219ZM447 772Q436
772 429 780T422 801Q422 815 429 823T447 831Q458 831 465 823T472 801Q472 788 465 780T447 772ZM270 772Q259 772 252 780T245 801Q245 815 252 823T270 831Q281 831 288 823T295 801Q295 788 288 780T270 772Z" />
<glyph unicode="&#xc5;" horiz-adv-x="704" d="M605 22L596 29L698 15V0H464V15L587 29L583 22L517 211L525 206H179L189 213L118 22L113 29L235 15V0H6V15L105 29L97 22L349 691L368 693L605 22ZM191 219L185 225H518L514 220L356 672H360L191 219ZM358 734Q340
734 323 741T294 764T282 804Q282 828 293 844T322 868T360 877Q379 877 396 870T424 847T436 807Q436 784 425 768T397 743T358 734ZM359 752Q385 752 400 767T415 806Q415 829 400 844T359 859Q333 859 318 844T303 805Q303 782 318 767T359 752Z" />
<glyph unicode="&#xc6;" horiz-adv-x="949" d="M0 0V15L100 29L90 22L443 671L447 664L348 672V687L502 692H852V556H837L822 680L830 673H494L501 680V371L494 378H784V359H494L501 366V12L494 19H843L835 12L850 141H865V0H381V15L488 29L481 21V233L488 226H216L226
232L112 22L108 29L229 15V0H0ZM230 239L226 245H488L481 238V680L488 673H459L469 679L230 239Z" />
<glyph unicode="&#xc7;" horiz-adv-x="659" d="M359 -6Q281 -6 218 35T117 154T80 343Q80 455 118 534T224 655T380 698Q426 698 479 687T587 650L582 516H568L557 646L562 637Q516 657 467 667T377 678Q296 678 234 638T137 524T102 347Q102 242 137 168T232
55T365 15Q418 15 475 38T583 109L596 93Q541 43 480 19T359 -6ZM376 -212Q359 -212 340 -208T303 -196L311 -179Q326 -185 343 -188T376 -192Q405 -192 425 -179T446 -141Q446 -124 436 -112T404 -94T348 -87L352 0H371V-68Q427 -72 447 -91T467 -138Q467 -163
455 -179T423 -204T376 -212Z" />
<glyph unicode="&#xc8;" horiz-adv-x="634" d="M535 141H550V0H61V15L168 29L161 21V670L168 662L61 672V687L182 692H537V556H522L507 680L515 673H174L181 680V358L174 365H469V346H174L181 353V12L174 19H528L520 12L535 141ZM412 747L232 839L251 868L421
762L412 747Z" />
<glyph unicode="&#xc9;" horiz-adv-x="634" d="M535 141H550V0H61V15L168 29L161 21V670L168 662L61 672V687L182 692H537V556H522L507 680L515 673H174L181 680V358L174 365H469V346H174L181 353V12L174 19H528L520 12L535 141ZM252 747L242 762L412 868L429
840L252 747Z" />
<glyph unicode="&#xca;" horiz-adv-x="634" d="M535 141H550V0H61V15L168 29L161 21V670L168 662L61 672V687L182 692H537V556H522L507 680L515 673H174L181 680V358L174 365H469V346H174L181 353V12L174 19H528L520 12L535 141ZM199 742L188 755L319 862H334L469
755L458 742L322 837H331L199 742Z" />
<glyph unicode="&#xcb;" horiz-adv-x="634" d="M535 141H550V0H61V15L168 29L161 21V670L168 662L61 672V687L182 692H537V556H522L507 680L515 673H174L181 680V358L174 365H469V346H174L181 353V12L174 19H528L520 12L535 141ZM417 772Q406 772 399 780T392
801Q392 815 399 823T417 831Q428 831 435 823T442 801Q442 788 435 780T417 772ZM240 772Q229 772 222 780T215 801Q215 815 222 823T240 831Q251 831 258 823T265 801Q265 788 258 780T240 772Z" />
<glyph unicode="&#xcc;" horiz-adv-x="341" d="M281 677L174 663L181 671V21L174 29L281 15V0H61V15L168 29L161 21V671L168 663L61 672V687L281 692V677ZM510 747L330 839L349 868L519 762L510 747Z" />
<glyph unicode="&#xcd;" horiz-adv-x="341" d="M281 677L174 663L181 671V21L174 29L281 15V0H61V15L168 29L161 21V671L168 663L61 672V687L281 692V677ZM94 747L84 762L254 868L271 840L94 747Z" />
<glyph unicode="&#xce;" horiz-adv-x="341" d="M281 677L174 663L181 671V21L174 29L281 15V0H61V15L168 29L161 21V671L168 663L61 672V687L281 692V677ZM297 742L286 755L417 862H432L567 755L556 742L420 837H429L297 742Z" />
<glyph unicode="&#xcf;" horiz-adv-x="341" d="M281 677L174 663L181 671V21L174 29L281 15V0H61V15L168 29L161 21V671L168 663L61 672V687L281 692V677ZM515 772Q504 772 497 780T490 801Q490 815 497 823T515 831Q526 831 533 823T540 801Q540 788 533 780T515
772ZM338 772Q327 772 320 780T313 801Q313 815 320 823T338 831Q349 831 356 823T363 801Q363 788 356 780T338 772Z" />
<glyph unicode="&#xd0;" horiz-adv-x="724" d="M61 345V364H381V345H61ZM344 692Q403 692 457 673T553 612T621 508T646 355Q646 238 603 159T489 40T332 0H61V15L168 29L161 21V670L168 662L61 672V687L211 692H344ZM332 19Q390 19 442 39T536 101T600 204T624
351Q624 433 602 493T540 594T451 653T343 673H174L181 680V12L174 19H332Z" />
<glyph unicode="&#xd1;" horiz-adv-x="812" d="M544 687L764 692V677L657 663L664 671V0H644L177 669L181 670V21L174 29L281 15V0H61V15L168 29L161 21V671L168 663L61 672V687L186 692L648 31L644 30V672L651 665L544 672V687ZM294 773L280 780Q295 812 314
825T357 839Q381 839 403 829T446 808T485 797Q502 797 517 806T546 841L560 834Q544 802 525 789T483 776Q459 776 439 786T398 807T354 818Q336 818 322 808T294 773Z" />
<glyph unicode="&#xd2;" horiz-adv-x="757" d="M371 -6Q294 -6 228 32T120 147T79 341Q79 431 104 498T172 609T269 676T383 698Q439 698 492 678T587 615T654 509T679 356Q679 239 637 159T524 36T371 -6ZM372 14Q446 14 511 52T616 165T657 353Q657 462 619
534T518 642T382 678Q309 678 245 641T141 530T101 342Q101 231 139 159T239 50T372 14ZM466 747L286 839L305 868L475 762L466 747Z" />
<glyph unicode="&#xd3;" horiz-adv-x="757" d="M371 -6Q294 -6 228 32T120 147T79 341Q79 431 104 498T172 609T269 676T383 698Q439 698 492 678T587 615T654 509T679 356Q679 239 637 159T524 36T371 -6ZM372 14Q446 14 511 52T616 165T657 353Q657 462 619
534T518 642T382 678Q309 678 245 641T141 530T101 342Q101 231 139 159T239 50T372 14ZM306 747L296 762L466 868L483 840L306 747Z" />
<glyph unicode="&#xd4;" horiz-adv-x="757" d="M371 -6Q294 -6 228 32T120 147T79 341Q79 431 104 498T172 609T269 676T383 698Q439 698 492 678T587 615T654 509T679 356Q679 239 637 159T524 36T371 -6ZM372 14Q446 14 511 52T616 165T657 353Q657 462 619
534T518 642T382 678Q309 678 245 641T141 530T101 342Q101 231 139 159T239 50T372 14ZM253 742L242 755L373 862H388L523 755L512 742L376 837H385L253 742Z" />
<glyph unicode="&#xd5;" horiz-adv-x="757" d="M371 -6Q294 -6 228 32T120 147T79 341Q79 431 104 498T172 609T269 676T383 698Q439 698 492 678T587 615T654 509T679 356Q679 239 637 159T524 36T371 -6ZM372 14Q446 14 511 52T616 165T657 353Q657 462 619
534T518 642T382 678Q309 678 245 641T141 530T101 342Q101 231 139 159T239 50T372 14ZM257 773L243 780Q258 812 277 825T320 839Q344 839 366 829T409 808T448 797Q465 797 480 806T509 841L523 834Q507 802 488 789T446 776Q422 776 402 786T361 807T317 818Q299
818 285 808T257 773Z" />
<glyph unicode="&#xd6;" horiz-adv-x="757" d="M371 -6Q294 -6 228 32T120 147T79 341Q79 431 104 498T172 609T269 676T383 698Q439 698 492 678T587 615T654 509T679 356Q679 239 637 159T524 36T371 -6ZM372 14Q446 14 511 52T616 165T657 353Q657 462 619
534T518 642T382 678Q309 678 245 641T141 530T101 342Q101 231 139 159T239 50T372 14ZM471 772Q460 772 453 780T446 801Q446 815 453 823T471 831Q482 831 489 823T496 801Q496 788 489 780T471 772ZM294 772Q283 772 276 780T269 801Q269 815 276 823T294 831Q305
831 312 823T319 801Q319 788 312 780T294 772Z" />
<glyph unicode="&#xd7;" horiz-adv-x="513" d="M94 172L80 186L249 355V342L80 511L94 525L263 356H250L419 525L433 511L264 342V355L433 186L419 172L250 341H263L94 172Z" />
<glyph unicode="&#xd8;" horiz-adv-x="757" d="M630 762L647 752L567 626L562 619L210 62L206 55L127 -70L110 -59L190 68L195 76L546 629L551 638L630 762ZM371 -6Q294 -6 228 32T120 147T79 341Q79 431 104 498T172 609T269 676T383 698Q439 698 492 678T587
615T654 509T679 356Q679 239 637 159T524 36T371 -6ZM372 14Q446 14 511 52T616 165T657 353Q657 462 619 534T518 642T382 678Q309 678 245 641T141 530T101 342Q101 231 139 159T239 50T372 14Z" />
<glyph unicode="&#xd9;" horiz-adv-x="755" d="M497 687L717 692V677L610 663L617 671V254Q617 229 615 196T601 127T565 62T494 13T376 -6Q305 -6 260 12T190 59T155 123T142 189T139 245V671L146 663L39 672V687L259 692V677L152 663L159 671V245Q159 221 161
190T173 128T206 71T270 29T376 13Q442 13 484 29T549 73T583 133T595 197T597 254V671L604 664L497 672V687ZM461 747L281 839L300 868L470 762L461 747Z" />
<glyph unicode="&#xda;" horiz-adv-x="755" d="M497 687L717 692V677L610 663L617 671V254Q617 229 615 196T601 127T565 62T494 13T376 -6Q305 -6 260 12T190 59T155 123T142 189T139 245V671L146 663L39 672V687L259 692V677L152 663L159 671V245Q159 221 161
190T173 128T206 71T270 29T376 13Q442 13 484 29T549 73T583 133T595 197T597 254V671L604 664L497 672V687ZM301 747L291 762L461 868L478 840L301 747Z" />
<glyph unicode="&#xdb;" horiz-adv-x="755" d="M497 687L717 692V677L610 663L617 671V254Q617 229 615 196T601 127T565 62T494 13T376 -6Q305 -6 260 12T190 59T155 123T142 189T139 245V671L146 663L39 672V687L259 692V677L152 663L159 671V245Q159 221 161
190T173 128T206 71T270 29T376 13Q442 13 484 29T549 73T583 133T595 197T597 254V671L604 664L497 672V687ZM248 742L237 755L368 862H383L518 755L507 742L371 837H380L248 742Z" />
<glyph unicode="&#xdc;" horiz-adv-x="755" d="M497 687L717 692V677L610 663L617 671V254Q617 229 615 196T601 127T565 62T494 13T376 -6Q305 -6 260 12T190 59T155 123T142 189T139 245V671L146 663L39 672V687L259 692V677L152 663L159 671V245Q159 221 161
190T173 128T206 71T270 29T376 13Q442 13 484 29T549 73T583 133T595 197T597 254V671L604 664L497 672V687ZM466 772Q455 772 448 780T441 801Q441 815 448 823T466 831Q477 831 484 823T491 801Q491 788 484 780T466 772ZM289 772Q278 772 271 780T264 801Q264
815 271 823T289 831Q300 831 307 823T314 801Q314 788 307 780T289 772Z" />
<glyph unicode="&#xdd;" horiz-adv-x="635" d="M207 0V15L314 29L307 21V268L311 251L98 670L108 663L5 672V687L240 692V677L115 663L119 670L321 275H315L518 670L522 664L398 672V687L630 692V677L528 663L538 670L323 251L327 268V21L320 29L427 15V0H207ZM240
747L230 762L400 868L417 840L240 747Z" />
<glyph unicode="&#xde;" horiz-adv-x="566" d="M61 0V15L168 29L161 21V671L168 663L61 672V687L281 692V677L174 663L181 671V549L174 556H302Q408 556 462 505T517 365Q517 263 451 206T265 149H174L181 156V21L174 29L306 15V0H61ZM181 161L174 168H266Q339
168 390 191T468 259T495 364Q495 418 473 457T408 516T300 537H174L181 544V161Z" />
<glyph unicode="&#xdf;" horiz-adv-x="605" d="M326 416Q326 382 344 360T391 323T452 292T513 258T560 211T578 138Q578 90 555 58T492 10T404 -6Q377 -6 349 -1T291 14L298 127L314 126L323 20L318 30Q341 22 364 18T409 13Q449 13 482 26T536 67T557 135Q557
175 539 201T492 245T431 278T370 310T323 352T305 415Q305 454 323 475T369 511T424 538T469 572T488 630Q488 670 467 696T411 735T333 749Q254 749 205 711T156 590V0H46V15L143 29L136 21V506L143 499H46V513L143 518L136 510V589Q136 635 150 669T191 725T254
757T334 768Q381 768 420 753T484 707T509 630Q509 590 491 568T445 531T391 503T345 471T326 416Z" />
<glyph unicode="&#xe0;" horiz-adv-x="534" d="M419 19L412 27L509 17V2L404 -2L400 94L404 91Q358 45 304 20T198 -6Q141 -6 106 29T70 136Q70 195 94 225T158 265T248 275H406L399 268V391Q399 454 363 481T267 509Q234 509 196 502T118 479L125 490L118 392H101L93
491Q140 509 184 518T268 528Q336 528 377 497T419 394V19ZM91 140Q91 75 122 44T201 13Q246 13 300 38T404 110L399 99V263L406 256H250Q165 256 128 231T91 140ZM191 772L340 647L330 634L172 749L191 772Z" />
<glyph unicode="&#xe1;" horiz-adv-x="534" d="M419 19L412 27L509 17V2L404 -2L400 94L404 91Q358 45 304 20T198 -6Q141 -6 106 29T70 136Q70 195 94 225T158 265T248 275H406L399 268V391Q399 454 363 481T267 509Q234 509 196 502T118 479L125 490L118 392H101L93
491Q140 509 184 518T268 528Q336 528 377 497T419 394V19ZM91 140Q91 75 122 44T201 13Q246 13 300 38T404 110L399 99V263L406 256H250Q165 256 128 231T91 140ZM211 634L200 648L357 772L376 746L211 634Z" />
<glyph unicode="&#xe2;" horiz-adv-x="534" d="M419 19L412 27L509 17V2L404 -2L400 94L404 91Q358 45 304 20T198 -6Q141 -6 106 29T70 136Q70 195 94 225T158 265T248 275H406L399 268V391Q399 454 363 481T267 509Q234 509 196 502T118 479L125 490L118 392H101L93
491Q140 509 184 518T268 528Q336 528 377 497T419 394V19ZM91 140Q91 75 122 44T201 13Q246 13 300 38T404 110L399 99V263L406 256H250Q165 256 128 231T91 140ZM138 637L126 650L253 764H268L399 650L387 637L256 741H265L138 637Z" />
<glyph unicode="&#xe3;" horiz-adv-x="534" d="M419 19L412 27L509 17V2L404 -2L400 94L404 91Q358 45 304 20T198 -6Q141 -6 106 29T70 136Q70 195 94 225T158 265T248 275H406L399 268V391Q399 454 363 481T267 509Q234 509 196 502T118 479L125 490L118 392H101L93
491Q140 509 184 518T268 528Q336 528 377 497T419 394V19ZM91 140Q91 75 122 44T201 13Q246 13 300 38T404 110L399 99V263L406 256H250Q165 256 128 231T91 140ZM325 657Q299 657 278 670T236 696T192 709Q174 709 160 698T131 660L116 667Q132 701 151 715T194
730Q220 730 242 717T285 691T327 678Q345 678 360 689T389 728L404 721Q388 687 369 672T325 657Z" />
<glyph unicode="&#xe4;" horiz-adv-x="534" d="M419 19L412 27L509 17V2L404 -2L400 94L404 91Q358 45 304 20T198 -6Q141 -6 106 29T70 136Q70 195 94 225T158 265T248 275H406L399 268V391Q399 454 363 481T267 509Q234 509 196 502T118 479L125 490L118 392H101L93
491Q140 509 184 518T268 528Q336 528 377 497T419 394V19ZM91 140Q91 75 122 44T201 13Q246 13 300 38T404 110L399 99V263L406 256H250Q165 256 128 231T91 140ZM348 663Q337 663 330 671T323 692Q323 706 330 714T348 722Q359 722 366 714T373 692Q373 679 366
671T348 663ZM171 663Q160 663 153 671T146 692Q146 706 153 714T171 722Q182 722 189 714T196 692Q196 679 189 671T171 663Z" />
<glyph unicode="&#xe5;" horiz-adv-x="534" d="M419 19L412 27L509 17V2L404 -2L400 94L404 91Q358 45 304 20T198 -6Q141 -6 106 29T70 136Q70 195 94 225T158 265T248 275H406L399 268V391Q399 454 363 481T267 509Q234 509 196 502T118 479L125 490L118 392H101L93
491Q140 509 184 518T268 528Q336 528 377 497T419 394V19ZM91 140Q91 75 122 44T201 13Q246 13 300 38T404 110L399 99V263L406 256H250Q165 256 128 231T91 140ZM259 632Q241 632 224 639T195 662T183 702Q183 726 194 742T223 766T261 775Q280 775 297 768T325
745T337 705Q337 682 326 666T298 641T259 632ZM260 650Q286 650 301 665T316 704Q316 727 301 742T260 757Q234 757 219 742T204 703Q204 680 219 665T260 650Z" />
<glyph unicode="&#xe6;" horiz-adv-x="881" d="M101 392L93 491Q144 509 188 518T270 528Q341 528 380 494T419 394V371L417 374Q442 448 496 488T624 528Q715 528 764 467T814 296Q814 281 814 277T813 264H411L420 273V256Q420 144 472 79T616 14Q707 14 804
83L815 67Q763 31 712 13T612 -6Q549 -6 501 25T426 114L434 112Q392 52 334 23T221 -6Q180 -6 146 10T91 58T70 137Q70 213 113 248T249 283H408L399 274V391Q399 449 365 478T268 508Q237 508 200 501T118 479L125 490L118 392H101ZM423 120Q410 149 405 185T399
273L408 264H251Q166 264 129 235T91 140Q91 77 130 45T223 13Q276 13 332 43T427 132L423 120ZM421 276L412 283H802L793 276Q795 390 752 449T623 509Q534 509 480 446T421 276Z" />
<glyph unicode="&#xe7;" horiz-adv-x="509" d="M271 -6Q212 -6 165 25T90 114T62 253Q62 320 80 371T129 457T203 510T294 528Q325 528 367 519T447 486L444 382H425L413 488L418 479Q384 496 349 502T290 509Q229 509 183 478T110 391T83 255Q83 179 108 125T177
43T275 14Q315 14 359 31T447 82L458 66Q409 29 362 12T271 -6ZM286 -212Q269 -212 250 -208T213 -196L221 -179Q236 -185 253 -188T286 -192Q315 -192 335 -179T356 -141Q356 -124 346 -112T314 -94T258 -87L262 0H281V-68Q337 -72 357 -91T377 -138Q377 -163
365 -179T333 -204T286 -212Z" />
<glyph unicode="&#xe8;" horiz-adv-x="546" d="M276 -6Q215 -6 167 24T92 112T64 254Q64 337 91 398T169 494T288 528Q351 528 393 500T457 421T479 305Q479 300 479 294T478 277H73V296H467L458 290Q459 349 443 399T390 479T288 509Q225 509 180 478T110 389T85
256Q85 178 110 124T179 42T279 13Q322 13 370 30T469 82L480 67Q426 30 375 12T276 -6ZM217 772L366 647L356 634L198 749L217 772Z" />
<glyph unicode="&#xe9;" horiz-adv-x="546" d="M276 -6Q215 -6 167 24T92 112T64 254Q64 337 91 398T169 494T288 528Q351 528 393 500T457 421T479 305Q479 300 479 294T478 277H73V296H467L458 290Q459 349 443 399T390 479T288 509Q225 509 180 478T110 389T85
256Q85 178 110 124T179 42T279 13Q322 13 370 30T469 82L480 67Q426 30 375 12T276 -6ZM237 634L226 648L383 772L402 746L237 634Z" />
<glyph unicode="&#xea;" horiz-adv-x="546" d="M276 -6Q215 -6 167 24T92 112T64 254Q64 337 91 398T169 494T288 528Q351 528 393 500T457 421T479 305Q479 300 479 294T478 277H73V296H467L458 290Q459 349 443 399T390 479T288 509Q225 509 180 478T110 389T85
256Q85 178 110 124T179 42T279 13Q322 13 370 30T469 82L480 67Q426 30 375 12T276 -6ZM164 637L152 650L279 764H294L425 650L413 637L282 741H291L164 637Z" />
<glyph unicode="&#xeb;" horiz-adv-x="546" d="M276 -6Q215 -6 167 24T92 112T64 254Q64 337 91 398T169 494T288 528Q351 528 393 500T457 421T479 305Q479 300 479 294T478 277H73V296H467L458 290Q459 349 443 399T390 479T288 509Q225 509 180 478T110 389T85
256Q85 178 110 124T179 42T279 13Q322 13 370 30T469 82L480 67Q426 30 375 12T276 -6ZM374 663Q363 663 356 671T349 692Q349 706 356 714T374 722Q385 722 392 714T399 692Q399 679 392 671T374 663ZM197 663Q186 663 179 671T172 692Q172 706 179 714T197 722Q208
722 215 714T222 692Q222 679 215 671T197 663Z" />
<glyph unicode="&#xec;" horiz-adv-x="278" d="M156 21L149 29L246 15V0H46V15L143 29L136 21V499L143 491L46 505V520L156 525V21ZM301 772L450 647L440 634L282 749L301 772Z" />
<glyph unicode="&#xed;" horiz-adv-x="278" d="M156 21L149 29L246 15V0H46V15L143 29L136 21V499L143 491L46 505V520L156 525V21ZM90 634L79 648L236 772L255 746L90 634Z" />
<glyph unicode="&#xee;" horiz-adv-x="278" d="M33 637L21 650L130 764H145L258 650L246 637L133 741H142L33 637ZM156 21L149 29L246 15V0H46V15L143 29L136 21V499L143 491L46 505V520L156 525V21Z" />
<glyph unicode="&#xef;" horiz-adv-x="278" d="M223 663Q212 663 205 671T198 692Q198 706 205 714T223 722Q234 722 241 714T248 692Q248 679 241 671T223 663ZM51 663Q40 663 33 671T26 692Q26 706 33 714T51 722Q62 722 69 714T76 692Q76 679 69 671T51 663ZM156
21L149 29L246 15V0H46V15L143 29L136 21V499L143 491L46 505V520L156 525V21Z" />
<glyph unicode="&#xf0;" horiz-adv-x="588" d="M277 -6Q209 -6 162 24T89 111T64 246Q64 332 93 395T174 493T296 528Q366 528 414 493T490 396H487Q473 499 432 578T322 703T157 749L160 768Q251 768 317 730T427 628T490 481T511 312Q511 230 494 170T446 71T372
13T277 -6ZM277 13Q345 13 392 48T465 142T490 277Q490 383 440 446T296 509Q229 509 182 477T110 386T85 251Q85 139 136 76T277 13ZM228 613L218 629L459 768L469 752L228 613Z" />
<glyph unicode="&#xf1;" horiz-adv-x="623" d="M46 0V15L143 29L136 21V499L143 491L46 505V520L151 525L156 424L152 427Q202 480 257 504T361 528Q427 528 469 489T509 368V21L502 29L599 15V0H399V15L496 29L489 21V363Q489 438 454 473T360 509Q314 509 259
484T152 403L156 414V21L149 29L246 15V0H46ZM387 657Q361 657 340 670T298 696T254 709Q236 709 222 698T193 660L178 667Q194 701 213 715T256 730Q282 730 304 717T347 691T389 678Q407 678 422 689T451 728L466 721Q450 687 431 672T387 657Z" />
<glyph unicode="&#xf2;" horiz-adv-x="574" d="M293 528Q393 528 452 460T511 270Q511 188 483 126T403 29T277 -6Q179 -6 122 59T64 249Q64 334 91 396T170 493T293 528ZM291 509Q194 509 140 439T85 251Q85 136 136 75T279 13Q346 13 393 45T465 134T490 267Q490
380 437 444T291 509ZM218 772L367 647L357 634L199 749L218 772Z" />
<glyph unicode="&#xf3;" horiz-adv-x="574" d="M293 528Q393 528 452 460T511 270Q511 188 483 126T403 29T277 -6Q179 -6 122 59T64 249Q64 334 91 396T170 493T293 528ZM291 509Q194 509 140 439T85 251Q85 136 136 75T279 13Q346 13 393 45T465 134T490 267Q490
380 437 444T291 509ZM238 634L227 648L384 772L403 746L238 634Z" />
<glyph unicode="&#xf4;" horiz-adv-x="574" d="M293 528Q393 528 452 460T511 270Q511 188 483 126T403 29T277 -6Q179 -6 122 59T64 249Q64 334 91 396T170 493T293 528ZM291 509Q194 509 140 439T85 251Q85 136 136 75T279 13Q346 13 393 45T465 134T490 267Q490
380 437 444T291 509ZM165 637L153 650L280 764H295L426 650L414 637L283 741H292L165 637Z" />
<glyph unicode="&#xf5;" horiz-adv-x="574" d="M293 528Q393 528 452 460T511 270Q511 188 483 126T403 29T277 -6Q179 -6 122 59T64 249Q64 334 91 396T170 493T293 528ZM291 509Q194 509 140 439T85 251Q85 136 136 75T279 13Q346 13 393 45T465 134T490 267Q490
380 437 444T291 509ZM352 657Q326 657 305 670T263 696T219 709Q201 709 187 698T158 660L143 667Q159 701 178 715T221 730Q247 730 269 717T312 691T354 678Q372 678 387 689T416 728L431 721Q415 687 396 672T352 657Z" />
<glyph unicode="&#xf6;" horiz-adv-x="574" d="M293 528Q393 528 452 460T511 270Q511 188 483 126T403 29T277 -6Q179 -6 122 59T64 249Q64 334 91 396T170 493T293 528ZM291 509Q194 509 140 439T85 251Q85 136 136 75T279 13Q346 13 393 45T465 134T490 267Q490
380 437 444T291 509ZM375 663Q364 663 357 671T350 692Q350 706 357 714T375 722Q386 722 393 714T400 692Q400 679 393 671T375 663ZM198 663Q187 663 180 671T173 692Q173 706 180 714T198 722Q209 722 216 714T223 692Q223 679 216 671T198 663Z" />
<glyph unicode="&#xf7;" horiz-adv-x="570" d="M502 358V339H68V358H502ZM260 196Q260 208 267 215T285 222Q296 222 303 215T310 196Q310 184 303 177T285 170Q274 170 267 177T260 196ZM260 507Q260 519 267 526T285 533Q296 533 303 526T310 507Q310 495 303
488T285 481Q274 481 267 488T260 507Z" />
<glyph unicode="&#xf8;" horiz-adv-x="574" d="M483 590L500 580L434 471L431 467L170 38L167 33L104 -71L87 -60L150 43L153 48L416 480L419 485L483 590ZM293 528Q393 528 452 460T511 270Q511 188 483 126T403 29T277 -6Q179 -6 122 59T64 249Q64 334 91 396T170
493T293 528ZM291 509Q194 509 140 439T85 251Q85 136 136 75T279 13Q346 13 393 45T465 134T490 267Q490 380 437 444T291 509Z" />
<glyph unicode="&#xf9;" horiz-adv-x="608" d="M261 -6Q195 -6 154 33T113 154V499L120 491L23 505V520L133 525V159Q133 84 168 49T262 13Q309 13 363 38T470 119L466 108V500L473 491L376 505V520L486 525V23L479 27L576 17V2L471 -2L466 98L470 95Q420 43 365
19T261 -6ZM224 772L373 647L363 634L205 749L224 772Z" />
<glyph unicode="&#xfa;" horiz-adv-x="608" d="M261 -6Q195 -6 154 33T113 154V499L120 491L23 505V520L133 525V159Q133 84 168 49T262 13Q309 13 363 38T470 119L466 108V500L473 491L376 505V520L486 525V23L479 27L576 17V2L471 -2L466 98L470 95Q420 43 365
19T261 -6ZM244 634L233 648L390 772L409 746L244 634Z" />
<glyph unicode="&#xfb;" horiz-adv-x="608" d="M261 -6Q195 -6 154 33T113 154V499L120 491L23 505V520L133 525V159Q133 84 168 49T262 13Q309 13 363 38T470 119L466 108V500L473 491L376 505V520L486 525V23L479 27L576 17V2L471 -2L466 98L470 95Q420 43 365
19T261 -6ZM171 637L159 650L286 764H301L432 650L420 637L289 741H298L171 637Z" />
<glyph unicode="&#xfc;" horiz-adv-x="608" d="M261 -6Q195 -6 154 33T113 154V499L120 491L23 505V520L133 525V159Q133 84 168 49T262 13Q309 13 363 38T470 119L466 108V500L473 491L376 505V520L486 525V23L479 27L576 17V2L471 -2L466 98L470 95Q420 43 365
19T261 -6ZM381 663Q370 663 363 671T356 692Q356 706 363 714T381 722Q392 722 399 714T406 692Q406 679 399 671T381 663ZM204 663Q193 663 186 671T179 692Q179 706 186 714T204 722Q215 722 222 714T229 692Q229 679 222 671T204 663Z" />
<glyph unicode="&#xfd;" horiz-adv-x="502" d="M21 -233L24 -215Q32 -216 38 -216T52 -217Q107 -217 140 -190T195 -109T239 20V7L57 503L66 497L-6 505V520L184 525V510L74 497L79 503L250 29H246L419 503L424 498L317 505V520L507 525V510L430 497L439 503L252
-5Q236 -49 221 -90T186 -164T136 -216T57 -236Q44 -236 21 -233ZM199 634L188 648L345 772L364 746L199 634Z" />
<glyph unicode="&#xfe;" horiz-adv-x="570" d="M20 -230V-215L117 -201L110 -209V739L117 731L20 745V760L130 765V439L126 441Q172 485 219 506T309 528Q364 528 408 497T479 408T506 265Q506 178 476 117T391 25T261 -7Q230 -7 196 -1T123 15L130 22V-209L123
-201L235 -215V-230H20ZM262 12Q367 12 426 78T485 264Q485 342 461 396T397 480T307 509Q264 509 218 487T126 417L130 430V28L125 37Q199 12 262 12Z" />
<glyph unicode="&#xff;" horiz-adv-x="502" d="M21 -233L24 -215Q32 -216 38 -216T52 -217Q107 -217 140 -190T195 -109T239 20V7L57 503L66 497L-6 505V520L184 525V510L74 497L79 503L250 29H246L419 503L424 498L317 505V520L507 525V510L430 497L439 503L252
-5Q236 -49 221 -90T186 -164T136 -216T57 -236Q44 -236 21 -233ZM336 663Q325 663 318 671T311 692Q311 706 318 714T336 722Q347 722 354 714T361 692Q361 679 354 671T336 663ZM159 663Q148 663 141 671T134 692Q134 706 141 714T159 722Q170 722 177 714T184
692Q184 679 177 671T159 663Z" />
<glyph unicode="&#x2013;" horiz-adv-x="630" d="M540 303V284H90V303H540Z" />
<glyph unicode="&#x2014;" horiz-adv-x="880" d="M790 301V282H90V301H790Z" />
<glyph unicode="&#x2018;" horiz-adv-x="180" d="M110 633Q110 620 103 614T86 607Q76 607 68 614T60 637Q60 653 72 690T113 773L125 765Q106 728 100 707T94 674Q94 665 98 659T106 648T110 633Z" />
<glyph unicode="&#x2019;" horiz-adv-x="180" d="M75 745Q75 758 82 764T99 771Q109 771 117 764T125 741Q125 725 113 688T72 605L60 613Q80 650 85 672T91 704Q91 714 87 719T79 730T75 745Z" />
<glyph unicode="&#x201a;" horiz-adv-x="180" d="M70 20Q70 33 77 39T94 46Q104 46 112 39T120 16Q120 0 108 -37T67 -120L55 -112Q75 -75 80 -53T86 -21Q86 -11 82 -6T74 5T70 20Z" />
<glyph unicode="&#x201c;" horiz-adv-x="296" d="M110 650Q110 637 103 631T86 624Q76 624 68 631T60 654Q60 670 72 707T113 790L125 782Q106 745 100 724T94 691Q94 682 98 676T106 665T110 650ZM226 650Q226 637 219 631T202 624Q192 624 184 631T176 654Q176
670 188 707T229 790L241 782Q222 745 216 724T210 691Q210 682 214 676T222 665T226 650Z" />
<glyph unicode="&#x201d;" horiz-adv-x="296" d="M186 745Q186 758 193 764T210 771Q220 771 228 764T236 741Q236 725 224 688T183 605L171 613Q191 650 196 672T202 704Q202 714 198 719T190 730T186 745ZM70 745Q70 758 77 764T94 771Q104 771 112 764T120
741Q120 725 108 688T67 605L55 613Q75 650 80 672T86 704Q86 714 82 719T74 730T70 745Z" />
<glyph unicode="&#x201e;" horiz-adv-x="296" d="M186 20Q186 33 193 39T210 46Q220 46 228 39T236 16Q236 0 224 -37T183 -120L171 -112Q191 -75 196 -53T202 -21Q202 -11 198 -6T190 5T186 20ZM70 20Q70 33 77 39T94 46Q104 46 112 39T120 16Q120 0 108 -37T67
-120L55 -112Q75 -75 80 -53T86 -21Q86 -11 82 -6T74 5T70 20Z" />
<glyph unicode="&#x2022;" horiz-adv-x="333" d="M98 320Q98 342 108 357T134 382T167 391Q188 391 203 382T226 358T235 320Q235 299 226 283T201 258T167 249Q136 249 117 268T98 320Z" />
<glyph unicode="&#x2039;" horiz-adv-x="302" d="M209 81L67 260V281L209 460L221 450L82 264V278L221 91L209 81Z" />
<glyph unicode="&#x203a;" horiz-adv-x="302" d="M93 460L235 281V260L93 81L81 91L220 277V263L81 450L93 460Z" />
</font>
</defs>
</svg>
