<?xml version="1.0" standalone="no"?>
<!DOCTYPE svg PUBLIC "-//W3C//DTD SVG 1.1//EN" "http://www.w3.org/Graphics/SVG/1.1/DTD/svg11.dtd">
<svg xmlns="http://www.w3.org/2000/svg">
<defs >
<font id="Bitter" horiz-adv-x="587" ><font-face
    font-family="Bitter Thin ExtraLight"
    units-per-em="1000"
    panose-1="0 0 0 0 0 0 0 0 0 0"
    ascent="935"
    descent="-265"
    alphabetic="0" />
<glyph unicode=" " horiz-adv-x="216" />
<glyph unicode="!" horiz-adv-x="342" d="M156 205L152 693H190L185 208L156 205ZM140 25Q140 40 149 48T171 57Q185 57 193 49T202 25Q202 10 193 2T171 -7Q157 -7 149 1T140 25Z" />
<glyph unicode="&quot;" horiz-adv-x="345" d="M96 548L87 763H127L119 548H96ZM226 548L217 763H257L249 548H226Z" />
<glyph unicode="#" horiz-adv-x="666" d="M106 502H600V476H106V502ZM68 234H562V208H68V234ZM248 693H278L180 0H149L248 693ZM485 693H515L417 0H387L485 693Z" />
<glyph unicode="$" horiz-adv-x="636" d="M311 -143V15L320 6Q314 5 307 5T293 4Q247 4 198 14T102 46L108 190H130L142 67Q180 50 219 42T297 34Q351 34 397 51T471 101T499 184Q499 226 478 253T423 299T349 330T267 357T191 390T137 441T116 519Q116 574 143
610T218 667T322 689L311 678V825H338V679L326 690H341Q370 690 400 685T460 672T520 650L513 509H491L481 631Q450 644 413 652T336 660Q288 660 246 646T177 603T150 525Q150 483 171 457T226 413T301 382T383 355T458 321T513 269T534 187Q534 130 506 92T430
32T327 5L338 17V-143H311Z" />
<glyph unicode="%" horiz-adv-x="828" d="M167 -7L632 700H665L200 -7H167ZM228 352Q149 352 113 398T76 522Q76 602 114 651T237 700Q317 700 351 656T386 536Q386 452 348 402T228 352ZM229 377Q297 377 326 419T356 530Q357 600 329 637T236 675Q166 675 136
634T106 524Q106 456 135 417T229 377ZM593 -7Q513 -7 477 40T440 163Q440 243 479 292T602 341Q682 341 716 297T750 177Q750 94 712 44T593 -7ZM594 19Q662 19 691 61T720 171Q721 241 693 278T600 316Q531 316 501 275T470 165Q470 98 500 59T594 19Z" />
<glyph unicode="&amp;" horiz-adv-x="705" d="M335 -7Q269 -7 219 15T139 83T110 193Q110 237 128 275T186 341T286 374L287 371Q204 381 166 425T128 524Q128 585 155 624T231 681T346 700Q398 700 444 692T534 666L528 535H505L494 656L502 647Q465 659 428
665T346 671Q261 671 212 637T162 524Q162 462 214 425T362 387H644V365L552 350L560 360V210Q560 137 532 89T452 17T335 -7ZM338 22Q423 22 475 67T527 206V366L536 358H356Q281 358 234 335T166 276T144 197Q144 113 198 68T338 22Z" />
<glyph unicode="&apos;" horiz-adv-x="214" d="M96 548L87 763H127L119 548H96Z" />
<glyph unicode="(" horiz-adv-x="303" d="M273 836Q190 730 148 609T106 372Q106 257 148 136T273 -91L251 -107Q162 1 118 126T73 372Q73 493 117 619T251 851L273 836Z" />
<glyph unicode=")" horiz-adv-x="303" d="M30 -91Q113 15 154 136T196 372Q196 488 155 608T30 836L51 852Q141 744 185 619T230 372Q230 252 186 127T51 -107L30 -91Z" />
<glyph unicode="*" horiz-adv-x="500" d="M333 474L251 591L255 607L270 605L358 493L333 474ZM170 472L145 490L233 606L248 607L251 591L170 472ZM233 606L98 640L107 671L241 627L246 613L233 606ZM252 617L241 627L234 761L265 762L263 627L252 617ZM270 605L257
613L263 627L390 672L400 641L270 605Z" />
<glyph unicode="+" horiz-adv-x="590" d="M291 363L281 352V584H309V352L299 363H525V335H299L309 345V113H281V345L291 335H64V363H291Z" />
<glyph unicode="," horiz-adv-x="220" d="M66 -107Q93 -70 101 -47T110 -13Q110 -4 106 2T97 14T92 31Q92 46 101 54T123 62Q131 62 138 59T149 47T153 27Q153 7 137 -33T82 -120L66 -107Z" />
<glyph unicode="-" horiz-adv-x="467" d="M367 308V279H101V308H367Z" />
<glyph unicode="." horiz-adv-x="195" d="M66 31Q66 45 75 53T97 62Q111 62 119 54T128 31Q128 16 119 8T97 -1Q84 -1 75 7T66 31Z" />
<glyph unicode="/" horiz-adv-x="295" d="M287 798L35 -75H8L261 798H287Z" />
<glyph unicode="0" horiz-adv-x="647" d="M317 -7Q240 -7 188 31T110 146T83 341Q83 462 111 541T196 660T334 700Q412 700 462 665T537 555T562 364Q562 240 534 158T452 34T317 -7ZM320 23Q388 23 433 59T501 168T526 355Q528 474 505 542T438 640T332 670Q261
670 214 635T142 528T118 344Q118 233 141 162T210 57T320 23Z" />
<glyph unicode="1" horiz-adv-x="386" d="M242 27L233 39L369 23V0H56V23L218 38L209 27V664L218 660L36 553L24 576L216 696H242V27Z" />
<glyph unicode="2" horiz-adv-x="529" d="M48 0V32Q171 151 254 240T378 399T420 533Q420 604 370 637T246 671Q213 671 172 664T89 642L96 652L84 523H62L54 661Q106 680 156 690T250 700Q309 700 355 683T429 629T456 537Q456 471 416 400T295 238T89 25L88
31H476V0H48Z" />
<glyph unicode="3" horiz-adv-x="565" d="M249 -6Q198 -6 148 8T51 51L64 79Q108 52 155 38T251 24Q308 24 352 42T421 98T447 192Q447 237 428 273T364 331T246 353H165V382H250Q342 382 386 421T430 529Q430 606 383 639T263 672Q225 672 184 665T104 645L111
654L100 525H77L70 663Q121 680 172 690T271 700Q328 700 372 683T440 629T465 532Q465 462 427 421T305 367L304 369Q393 363 437 316T481 193Q481 144 464 107T416 45T342 7T249 -6Z" />
<glyph unicode="4" horiz-adv-x="565" d="M378 201L388 192H22L16 217L372 703L411 693V212L401 221H545V192H401L411 201V0H378V201ZM388 221L378 212V677L387 675L48 210L42 221H388Z" />
<glyph unicode="5" horiz-adv-x="525" d="M238 -7Q148 -7 57 39L70 68Q112 46 154 35T236 24Q295 24 339 47T408 113T433 212Q433 269 404 305T315 358T161 375H99L113 693H439V664H136L147 673L135 395L124 404H183Q279 404 342 383T437 318T469 209Q469 144
440 96T359 20T238 -7Z" />
<glyph unicode="6" horiz-adv-x="583" d="M102 297V328Q154 368 212 387T324 407Q381 407 426 386T499 320T527 210Q527 144 499 96T421 20T305 -7Q234 -7 183 26T104 128T76 299Q76 422 113 511T220 650T386 700Q433 700 485 687L481 659Q456 665 432 667T387
670Q296 670 235 624T142 495T110 301Q110 159 162 91T307 23Q392 23 441 73T491 209Q491 268 468 305T405 361T318 379Q266 379 209 359T102 297Z" />
<glyph unicode="7" horiz-adv-x="475" d="M453 666L172 0H135L419 671L426 663H59L69 672L51 552H28V693H453V666Z" />
<glyph unicode="8" horiz-adv-x="601" d="M293 -6Q251 -6 213 6T144 41T97 99T79 179Q79 228 98 262T148 319T209 355T263 376L290 363Q268 356 239 343T181 310T133 258T114 182Q114 131 139 95T206 41T295 22Q347 22 389 42T457 100T483 186Q483 232 462 261T407
308T330 340T247 367T170 400T115 450T94 528Q94 586 124 624T204 681T308 700Q363 700 410 682T485 627T514 535Q514 490 495 459T446 408T385 376T327 358L305 373Q334 382 364 393T421 422T464 467T480 533Q480 580 456 610T393 656T307 672Q260 672 219 656T153
609T127 530Q127 486 148 459T205 414T281 384T364 357T440 323T496 271T517 189Q517 143 499 107T448 45T376 7T293 -6Z" />
<glyph unicode="9" horiz-adv-x="582" d="M479 404L480 373Q428 332 370 311T257 290Q202 290 157 310T84 373T55 481Q55 549 82 598T160 673T277 700Q348 700 400 667T479 567T506 395Q506 276 470 186T365 45T195 -6Q149 -6 97 7L101 35Q127 29 151 27T194 24Q286
24 347 70T440 200T472 393Q472 535 421 602T275 670Q191 670 141 621T91 486Q91 427 114 391T176 337T261 319Q316 319 372 341T479 404Z" />
<glyph unicode=":" horiz-adv-x="195" d="M66 31Q66 45 75 53T97 62Q111 62 119 54T128 31Q128 16 119 8T97 -1Q84 -1 75 7T66 31ZM66 415Q66 429 75 437T97 446Q111 446 119 438T128 415Q128 400 119 392T97 383Q84 383 75 391T66 415Z" />
<glyph unicode=";" horiz-adv-x="220" d="M66 -107Q93 -70 101 -47T110 -13Q110 -4 106 2T97 14T92 31Q92 46 101 54T123 62Q131 62 138 59T149 47T153 27Q153 7 137 -33T82 -120L66 -107ZM90 415Q90 429 99 437T121 446Q135 446 143 438T152 415Q152 400 143
392T121 383Q108 383 99 391T90 415Z" />
<glyph unicode="&lt;" horiz-adv-x="574" d="M481 144L68 334V364L481 566L491 540L90 345V355L491 171L481 144Z" />
<glyph unicode="=" horiz-adv-x="566" d="M501 451V423H65V451H501ZM501 530V502H65V530H501Z" />
<glyph unicode="&gt;" horiz-adv-x="568" d="M86 545L499 375V346L86 164L76 190L477 365V355L76 518L86 545Z" />
<glyph unicode="?" horiz-adv-x="394" d="M124 215Q123 231 121 249T119 279Q119 315 137 343T183 396T238 448T284 504T303 573Q303 625 269 648T182 672Q156 672 126 666T65 649L56 674Q123 700 188 700Q230 700 264 688T317 648T337 577Q337 533 318 500T272
440T216 388T169 335T150 272Q150 263 151 247T153 217L124 215ZM121 25Q121 39 130 48T152 57Q166 57 174 49T183 25Q183 10 174 2T152 -7Q138 -7 130 1T121 25Z" />
<glyph unicode="@" horiz-adv-x="879" d="M415 -106Q317 -106 245 -60T134 69T94 260Q94 348 119 417T192 536T305 612T451 638Q532 638 595 613T702 541T770 430T794 289Q794 187 753 127T638 67Q594 67 569 90T542 163L548 161Q519 122 479 95T392 67Q363 67
340 80T303 118T290 179Q290 232 323 261T437 290H552L542 283V363Q542 409 513 428T440 448Q413 448 381 440T320 418L312 439Q346 456 381 465T448 474Q502 474 536 446T571 356V167Q571 129 589 111T642 92Q703 92 733 146T763 284Q763 381 726 454T619 569T449
611Q351 611 278 569T165 448T125 262Q125 161 161 84T262 -36T418 -79Q455 -79 496 -71T576 -47L585 -70Q544 -88 500 -97T415 -106ZM399 93Q439 93 479 120T548 191L542 171V275L552 267H440Q373 267 347 245T321 180Q321 139 342 116T399 93Z" />
<glyph unicode="A" horiz-adv-x="705" d="M611 27L599 37L699 21V0H460V21L579 36L574 28L510 211L520 204H183L194 212L126 28L121 36L238 21V0H6V21L103 37L92 27L343 692L375 694L611 27ZM197 224L191 232H511L506 225L354 667H361L197 224Z" />
<glyph unicode="B" horiz-adv-x="644" d="M365 354L369 359Q435 357 478 334T541 272T562 184Q562 133 539 92T462 25T322 0H58V21L164 37L155 26V666L164 655L58 667V688L189 693H329Q401 693 446 672T513 614T535 526Q535 461 497 416T365 354ZM321 665H180L189
674V360L180 369H294Q367 369 413 388T479 442T500 522Q500 566 481 598T423 647T321 665ZM320 28Q395 28 440 48T506 104T527 184Q527 228 508 264T450 320T348 341H180L189 350V19L180 28H320Z" />
<glyph unicode="C" horiz-adv-x="656" d="M357 -7Q279 -7 215 34T114 153T76 344Q76 456 114 535T220 657T378 700Q425 700 478 689T587 652L582 513H560L548 641L555 631Q510 650 463 660T376 670Q298 670 239 632T146 521T112 349Q112 246 146 174T238 63T366
25Q418 25 473 47T579 116L596 92Q541 42 479 18T357 -7Z" />
<glyph unicode="D" horiz-adv-x="723" d="M345 693Q405 693 459 674T556 613T624 509T649 356Q649 239 606 160T492 40T332 0H58V21L164 37L155 26V666L164 655L58 667V688L217 693H345ZM333 28Q388 28 438 47T527 106T590 206T613 352Q613 433 591 492T532 590T446
646T343 665H180L189 674V19L180 28H333Z" />
<glyph unicode="E" horiz-adv-x="631" d="M528 146H551V0H58V21L164 37L155 26V666L164 656L58 667V688L189 693H538V553H515L500 674L510 665H180L189 674V361L180 370H469V342H180L189 351V19L180 28H523L513 19L528 146Z" />
<glyph unicode="F" horiz-adv-x="566" d="M58 0V21L163 36L155 27V666L164 655L58 667V688L189 693H528V552H505L490 673L500 665H180L189 674V350L180 359H455V330H180L189 339V27L181 36L309 21V0H58Z" />
<glyph unicode="G" horiz-adv-x="754" d="M388 -6Q292 -6 222 33T114 149T75 338Q75 453 114 534T226 657T398 700Q449 700 506 689T622 651L616 513H594L582 641L588 631Q542 648 490 659T390 670Q305 670 243 630T146 516T111 338Q111 186 187 105T392 24Q439
24 489 35T593 67L587 56V293L595 284L489 293V314L711 319V298L611 283L619 293V45Q557 20 499 7T388 -6Z" />
<glyph unicode="H" horiz-adv-x="802" d="M58 0V21L164 37L155 26V667L164 656L58 667V688L286 693V672L180 656L189 667V358L180 366H623L614 358V667L623 657L517 667V688L745 693V672L639 656L648 667V26L639 37L745 21V0H517V21L623 37L614 26V347L623 338H180L189
347V26L181 37L286 21V0H58Z" />
<glyph unicode="I" horiz-adv-x="343" d="M286 672L181 656L189 666V27L181 36L286 21V0H58V21L163 36L155 27V666L164 656L58 667V688L286 693V672Z" />
<glyph unicode="J" horiz-adv-x="322" d="M39 688L276 693V672L171 656L179 667V14Q179 -24 170 -51T143 -95T99 -120T39 -128Q28 -128 18 -128T-4 -126L-1 -98Q8 -99 16 -99T35 -100Q93 -100 119 -74T145 11V667L154 657L39 667V688Z" />
<glyph unicode="K" horiz-adv-x="703" d="M598 28L584 36L685 21V0H463V21L563 36L559 28L332 348L348 341H180L189 350V26L181 37L286 21V0H58V21L163 36L155 26V667L163 657L58 667V688L286 693V672L181 657L189 667V360L180 369H343L330 361L517 666L522 658L417
667V688L639 693V672L538 657L551 665L357 352V366L598 28Z" />
<glyph unicode="L" horiz-adv-x="548" d="M494 152H517V0H58V21L163 36L155 26V666L163 656L58 667V688L300 693V672L181 656L189 666V19L180 28H487L478 19L494 152Z" />
<glyph unicode="M" horiz-adv-x="905" d="M848 672L742 656L751 667V26L742 37L848 21V0H621V21L727 37L718 26V650L723 649L462 182L434 178L180 652L186 653V26L177 36L283 21V0H58V21L164 37L155 26V667L164 656L58 667V688L197 693L454 210H447L711 688L848 693V672Z" />
<glyph unicode="N" horiz-adv-x="808" d="M537 688L762 693V672L657 656L665 667V0H629L180 656L186 657V26L178 37L283 21V0H58V21L164 37L155 26V667L163 657L58 667V688L196 693L640 45L634 44V668L643 658L537 667V688Z" />
<glyph unicode="O" horiz-adv-x="754" d="M369 -7Q290 -7 223 31T116 147T75 341Q75 432 100 499T168 611T266 678T382 700Q440 700 493 679T589 616T655 510T680 357Q680 240 638 159T525 36T369 -7ZM371 23Q442 23 504 59T605 169T644 354Q644 461 608 531T511
635T380 670Q310 670 248 635T149 527T111 343Q111 234 147 164T242 58T371 23Z" />
<glyph unicode="P" horiz-adv-x="584" d="M283 281H179L189 290V26L180 36L311 21V0H58V21L164 37L155 26V667L164 656L58 667V688L190 693H320Q393 693 441 670T513 603T538 499Q538 432 508 383T421 307T283 281ZM316 665H180L189 674V301L179 309H283Q388 309
445 359T502 497Q502 576 455 620T316 665Z" />
<glyph unicode="Q" horiz-adv-x="767" d="M675 -158Q644 -158 606 -141T509 -90T357 -2L371 -7Q290 -6 223 33T115 148T75 341Q75 432 100 499T168 611T268 678T388 700Q448 700 502 679T599 616T667 510T692 357Q692 247 654 170T552 48T408 -4L406 0Q485 -42
534 -70T615 -113T676 -128Q699 -128 724 -118T783 -88L798 -111Q759 -134 731 -146T675 -158ZM111 343Q111 234 147 164T244 58T377 23Q451 23 515 60T617 170T655 354Q655 460 618 530T521 635T386 670Q312 670 250 635T149 526T111 343Z" />
<glyph unicode="R" horiz-adv-x="650" d="M58 0V21L164 37L155 26V667L164 656L58 667V688L190 693H322Q430 693 485 649T540 519Q540 438 489 388T336 330L334 334Q373 329 397 314T438 273T473 210L561 28L548 37L627 21V0H535L443 201Q422 246 402 272T350
311T262 323H180L189 331V26L180 37L309 21V0H58ZM189 340L180 350H285Q390 350 447 392T505 517Q505 590 458 627T318 665H180L189 674V340Z" />
<glyph unicode="S" horiz-adv-x="598" d="M130 528Q130 484 151 457T206 412T281 383T363 357T438 323T493 270T514 185Q514 120 481 78T394 14T273 -7Q226 -7 178 3T82 35L88 180H110L123 47L117 59Q156 41 196 32T277 23Q331 23 377 41T451 94T479 182Q479 227
459 255T404 301T329 331T247 356T171 388T116 440T95 522Q95 582 124 621T205 680T319 700Q363 700 409 691T500 660L494 519H471L461 648L470 638Q437 654 397 662T318 671Q269 671 226 657T157 611T130 528Z" />
<glyph unicode="T" horiz-adv-x="564" d="M153 0V21L274 37L265 26V674L275 665H60L70 674L54 547H32V693H532V547H510L494 674L504 665H289L299 674V26L290 37L410 21V0H153Z" />
<glyph unicode="U" horiz-adv-x="754" d="M490 688L718 693V672L613 656L621 667V256Q621 228 618 194T602 124T564 59T492 11T375 -7Q303 -7 257 11T186 60T150 124T137 190T134 247V667L142 657L37 667V688L264 693V672L159 656L167 667V247Q167 223 169 193T181
132T213 78T274 38T375 22Q438 22 478 38T541 80T573 137T585 200T587 256V667L595 658L490 667V688Z" />
<glyph unicode="V" horiz-adv-x="680" d="M318 -2L95 665L107 656L6 667V688L246 693V672L126 657L131 667L340 30H333L554 666L558 657L439 667V688L675 693V672L574 657L586 666L352 -2H318Z" />
<glyph unicode="W" horiz-adv-x="1026" d="M787 688L1020 693V672L920 657L931 667L741 -2H707L511 648H517L310 -2H275L98 667L107 657L7 667V688L245 693V672L126 657L132 667L299 33L292 34L500 690L531 693L729 36L722 35L900 666L906 658L787 667V688Z" />
<glyph unicode="X" horiz-adv-x="687" d="M579 26L565 36L663 21V0H429V21L543 35L541 27L336 343H347L142 26L139 36L254 21V0H25V21L124 36L110 26L331 365V350L125 666L138 657L40 667V688L268 693V672L160 657L163 665L350 376L340 377L530 665L533 657L424
667V688L648 693V672L548 656L562 666L355 355L356 369L579 26Z" />
<glyph unicode="Y" horiz-adv-x="636" d="M203 0V21L309 37L301 26V269L306 248L93 665L105 657L5 667V688L244 693V672L123 657L128 666L324 281H316L512 665L517 657L397 667V688L632 693V672L532 657L544 666L329 248L334 269V26L326 37L432 21V0H203Z" />
<glyph unicode="Z" horiz-adv-x="611" d="M52 0V25L508 671L513 664H103L114 672L97 542H75V693H546V669L91 21L88 29H525L511 21L530 151H552L549 0H52Z" />
<glyph unicode="[" horiz-adv-x="342" d="M132 -96V840L324 835V812L163 809V-65L324 -67V-91L132 -96Z" />
<glyph unicode="\" horiz-adv-x="295" d="M8 798H36L288 -75H260L8 798Z" />
<glyph unicode="]" horiz-adv-x="342" d="M209 840V-96L18 -91V-67L179 -65V809L18 812V835L209 840Z" />
<glyph unicode="^" horiz-adv-x="547" d="M79 523L262 848H285L468 523H435L266 830H281L110 523H79Z" />
<glyph unicode="_" horiz-adv-x="497" d="M498 -78V-105H-1V-78H498Z" />
<glyph unicode="`" horiz-adv-x="280" d="M74 779L230 650L215 631L50 748L74 779Z" />
<glyph unicode="a" horiz-adv-x="537" d="M425 25L417 35L513 23V2L400 -3L395 93L399 90Q354 44 300 19T196 -7Q139 -7 103 28T66 137Q66 196 90 226T155 267T248 278H400L393 270V387Q393 448 358 475T265 502Q234 502 198 495T122 473L131 485L123 388H98L90
493Q139 511 184 520T270 530Q341 530 383 498T425 393V25ZM100 141Q100 80 129 51T204 21Q247 21 298 46T398 115L393 102V259L400 252H252Q170 252 135 227T100 141Z" />
<glyph unicode="b" horiz-adv-x="570" d="M251 -7Q218 -7 181 -2T104 14V738L114 725L16 740V761L137 766V438L131 444Q176 487 222 508T313 530Q368 530 412 499T483 410T510 266Q510 199 493 148T442 63T361 11T251 -7ZM257 21Q360 21 417 82T475 264Q475 340
453 392T392 473T305 502Q264 502 220 481T131 414L137 432V27L130 40Q201 21 257 21Z" />
<glyph unicode="c" horiz-adv-x="510" d="M271 -7Q211 -7 163 24T86 114T58 254Q58 322 77 373T128 460T203 512T295 530Q328 530 371 520T450 488L447 380H420L408 483L414 474Q382 490 349 496T291 502Q232 502 188 472T118 388T93 257Q93 183 117 131T184 50T278
22Q317 22 360 39T447 89L462 67Q412 29 364 11T271 -7Z" />
<glyph unicode="d" horiz-adv-x="584" d="M258 -7Q203 -7 158 23T87 113T61 256Q61 389 128 459T310 530Q341 530 374 525T443 509L434 504V733L441 725L341 741V761L467 766V25L459 35L554 23V2L442 -3L435 83L440 79Q394 36 348 15T258 -7ZM265 21Q306 21 351
43T439 109L434 94V488L440 478Q369 502 309 502Q207 502 151 438T95 258Q95 184 118 131T179 49T265 21Z" />
<glyph unicode="e" horiz-adv-x="546" d="M276 -7Q214 -7 165 23T89 112T61 254Q61 338 89 400T168 496T289 530Q353 530 396 501T461 422T483 305Q483 299 483 292T482 273H81V300H458L449 294Q450 350 435 397T384 473T288 502Q227 502 184 472T118 386T95 258Q95
183 118 131T184 50T282 22Q324 22 371 38T469 88L483 67Q429 30 377 12T276 -7Z" />
<glyph unicode="f" horiz-adv-x="328" d="M44 0V21L140 36L132 27V500L140 492H44V513L140 520L132 509V608Q132 691 173 730T282 770Q305 770 330 766T383 752L375 727Q350 734 328 738T284 742Q228 742 197 711T165 612V509L157 519H317L315 492H157L165 500V27L157
36L272 21V0H44Z" />
<glyph unicode="g" horiz-adv-x="547" d="M269 -237Q157 -237 101 -203T44 -104Q44 -63 71 -27T150 39L152 33Q126 33 114 40T101 63Q101 70 102 77T108 97T121 136T145 206L148 199Q110 221 90 259T69 347Q69 432 122 481T267 530Q324 530 367 510L354 512L502
522V498L400 479L405 484Q430 462 443 430T457 356Q457 271 404 222T260 172Q201 172 155 195L163 201L129 52L122 60H314Q407 60 455 25T504 -80Q504 -156 444 -196T269 -237ZM270 -209Q370 -209 420 -177T471 -81Q471 -25 430 3T308 31H161L176 35Q76 -29 76
-99Q76 -153 124 -181T270 -209ZM261 199Q337 199 380 240T423 354Q423 426 382 464T266 503Q189 503 147 463T104 348Q104 278 145 239T261 199Z" />
<glyph unicode="h" horiz-adv-x="612" d="M31 0V21L127 36L119 27V734L127 725L31 740V761L152 766V426L145 429Q194 482 249 506T353 530Q397 530 431 513T484 460T502 369V27L495 36L590 21V0H382V21L477 36L469 27V361Q471 433 437 467T346 501Q302 501 250
477T147 400L152 413V27L144 36L238 21V0H31Z" />
<glyph unicode="i" horiz-adv-x="282" d="M165 28L157 36L252 21V0H44V21L139 36L132 28V493L139 485L44 500V521L165 526V28ZM141 658Q127 658 118 667T109 693Q109 710 118 719T142 728Q156 728 165 719T174 693Q174 676 164 667T141 658Z" />
<glyph unicode="j" horiz-adv-x="255" d="M10 -237Q3 -237 -6 -236T-26 -234L-23 -206Q-14 -207 -6 -208T10 -209Q69 -209 93 -178T118 -73V494L125 485L30 500V521L151 526V-60Q151 -100 145 -132T125 -187T82 -224T10 -237ZM127 658Q113 658 104 667T95 693Q95
710 104 719T128 728Q142 728 151 719T160 693Q160 676 150 667T127 658Z" />
<glyph unicode="k" horiz-adv-x="547" d="M31 0V21L127 36L119 26V734L126 725L31 740V761L152 766V298L143 306H289L278 299L397 497L401 490L310 501V521L511 526V506L416 490L429 498L306 291L304 306L466 29L455 38L542 20V0H446L281 285L292 279H143L152
286V26L144 36L239 21V0H31Z" />
<glyph unicode="l" horiz-adv-x="270" d="M152 28L144 36L239 21V0H31V21L126 36L119 28V733L126 725L31 740V761L152 766V28Z" />
<glyph unicode="m" horiz-adv-x="954" d="M499 424L495 425Q544 477 600 503T705 530Q764 530 804 491T844 369V27L836 36L932 21V0H725V21L819 36L811 27V361Q811 433 779 467T697 501Q653 501 601 476T499 398L502 408Q504 399 504 390T505 370V27L498 36L592
21V0H386V21L480 36L472 27V361Q472 433 440 467T359 501Q315 501 263 477T160 401L165 413V27L157 36L251 21V0H44V21L140 36L132 27V494L140 485L44 500V521L157 527L163 426L158 429Q207 482 262 506T366 530Q414 530 450 504T499 424Z" />
<glyph unicode="n" horiz-adv-x="625" d="M44 0V21L140 36L132 27V494L140 485L44 500V521L157 527L163 426L158 429Q208 482 262 506T366 530Q432 530 474 491T515 369V27L508 36L603 21V0H396V21L490 36L482 27V361Q482 433 449 467T359 501Q315 501 263 477T160
401L165 413V27L157 36L251 21V0H44Z" />
<glyph unicode="o" horiz-adv-x="574" d="M293 530Q395 530 455 462T515 271Q515 188 487 126T405 28T277 -7Q177 -7 119 59T60 250Q60 335 88 398T168 495T293 530ZM291 502Q198 502 147 435T95 252Q95 140 144 81T280 21Q344 21 388 52T456 138T480 267Q480
378 430 440T291 502Z" />
<glyph unicode="p" horiz-adv-x="586" d="M32 -230V-209L127 -193L119 -203V494L127 485L32 500V521L144 527L150 440L145 443Q191 487 238 508T328 530Q384 530 428 499T498 410T525 267Q525 179 495 118T410 24T278 -8Q248 -8 215 -2T144 13L152 21V-203L143
-194L254 -209V-230H32ZM277 20Q378 20 434 84T491 264Q491 340 468 392T407 473T321 502Q279 502 235 481T147 414L152 429V33L146 44Q217 20 277 20Z" />
<glyph unicode="q" horiz-adv-x="569" d="M331 -230V-209L442 -193L434 -203V81L440 79Q394 35 348 14T258 -8Q203 -8 158 22T87 112T61 256Q61 346 91 407T178 499T311 530Q347 530 386 524T467 504V-203L459 -193L554 -209V-230H331ZM265 21Q306 21 351 42T439
109L434 94V490L440 478Q369 502 309 502Q207 502 151 438T95 258Q95 183 118 130T179 49T265 21Z" />
<glyph unicode="r" horiz-adv-x="420" d="M44 0V21L139 36L132 27V495L140 485L44 500V521L157 527L163 426L158 429Q201 476 244 503T339 530Q371 530 405 520L400 405H376L365 506L371 496Q362 498 353 499T335 500Q288 500 245 473T160 399L165 413V27L157
36L272 21V0H44Z" />
<glyph unicode="s" horiz-adv-x="476" d="M105 400Q105 361 127 339T185 305T259 282T333 257T391 216T413 143Q413 93 386 60T312 10T209 -7Q172 -7 138 -1T67 14L74 131H96L105 26L98 34Q124 28 154 24T212 19Q259 19 297 32T358 72T381 138Q381 179 359 201T302
237T228 260T154 284T96 324T74 395Q74 442 98 471T164 515T252 530Q282 530 319 524T395 502L392 408H369L355 495L363 485Q307 503 251 503Q190 503 148 478T105 400Z" />
<glyph unicode="t" horiz-adv-x="335" d="M209 -7Q168 -7 143 18T118 98V505L126 496H18V517L126 524L118 515V643L151 647V515L143 523H302L300 496H143L151 505V102Q151 60 169 41T219 22Q238 22 260 29T308 49L317 26Q257 -7 209 -7Z" />
<glyph unicode="u" horiz-adv-x="611" d="M258 -7Q192 -7 151 32T109 155V494L117 485L22 500V521L142 526V162Q142 90 175 56T265 22Q310 22 362 46T464 123L460 110V495L467 485L372 500V521L493 526V29L485 35L580 23V2L467 -3L461 97L467 94Q417 42 362 18T258 -7Z" />
<glyph unicode="v" horiz-adv-x="513" d="M323 521L518 526V505L440 489L450 500L270 -2H231L60 499L70 489L-5 500V521L195 526V505L90 491L95 500L255 20H250L419 499L424 492L323 500V521Z" />
<glyph unicode="w" horiz-adv-x="774" d="M586 521L779 526V505L704 491L714 500L568 -2H530L384 503H391L240 -2H202L61 500L70 489L-5 500V521L194 526V505L89 492L95 500L226 20H220L366 523L409 527L553 19H547L682 499L689 491L586 500V521Z" />
<glyph unicode="x" horiz-adv-x="542" d="M9 0V20L99 36L87 26L253 273L260 279L421 521L514 526V505L426 489L440 498L280 263L273 257L102 0H9ZM332 0V21L414 32L411 26L256 255L91 500L103 491L21 500V521L208 526V505L122 492L126 501L277 277L446 26L434
33L524 21V0H332Z" />
<glyph unicode="y" horiz-adv-x="508" d="M20 -233L24 -206Q33 -208 40 -208T55 -209Q108 -209 140 -183T195 -105T239 21L238 4L55 498L64 491L-6 500V521L190 526V505L85 492L90 498L256 35L249 36L415 498L421 492L318 500V521L513 526V505L437 492L447 498L263
-4Q246 -50 230 -91T193 -165T141 -217T60 -237Q45 -237 20 -233Z" />
<glyph unicode="z" horiz-adv-x="463" d="M412 122L413 1L45 0V22L374 506L380 497H79L92 508L79 414H56L55 523H406V500L79 16L75 26L387 27L374 15L389 122H412Z" />
<glyph unicode="{" horiz-adv-x="324" d="M253 -96Q189 -96 164 -68T138 31V252Q138 299 119 328T46 358V386Q100 386 119 416T138 493V714Q138 784 164 812T253 840H286V817Q237 817 212 809T178 777T169 708V488Q169 436 153 410T113 376T64 368V377Q89 377
113 369T153 335T169 257V36Q169 -8 178 -31T212 -63T286 -72V-96H253Z" />
<glyph unicode="|" horiz-adv-x="344" d="M157 797H187V-93H157V797Z" />
<glyph unicode="}" horiz-adv-x="324" d="M71 -96Q135 -96 160 -68T186 31V252Q186 299 205 328T278 358V386Q225 386 206 416T186 493V714Q186 784 161 812T71 840H39V817Q87 817 112 809T146 777T155 708V488Q155 436 171 410T211 376T261 368V377Q236 377 212
369T171 335T155 257V36Q155 -8 146 -31T112 -63T39 -72V-96H71Z" />
<glyph unicode="~" horiz-adv-x="625" d="M427 299Q396 299 366 311T308 339T252 367T196 379Q171 379 146 367T96 316L76 328Q100 366 130 386T197 406Q229 406 258 394T317 366T373 338T429 326Q454 326 479 339T530 389L549 376Q523 337 493 318T427 299Z" />
<glyph unicode="&#xa0;" horiz-adv-x="216" />
<glyph unicode="&#xa1;" horiz-adv-x="342" d="M185 262L189 -226H152L156 260L185 262ZM202 443Q202 428 193 420T171 411Q157 411 149 419T140 443Q140 457 149 465T171 474Q185 474 193 466T202 443Z" />
<glyph unicode="&#xa2;" horiz-adv-x="601" d="M505 181Q458 146 412 128T322 108L330 119V-20H304V119L314 108Q249 108 200 137T123 222T94 350Q94 425 123 480T201 568T313 603L304 592V732H330V594L317 604Q350 604 381 600T439 586T490 563L486 456H461L450
551Q419 566 386 571T328 577Q268 577 223 548T153 469T127 353Q127 289 150 240T217 164T316 136Q358 136 402 152T491 202L505 181Z" />
<glyph unicode="&#xa3;" horiz-adv-x="701" d="M92 0V21L191 42L175 34Q205 55 216 95T228 184Q228 226 223 271T211 362L222 354H92V375L219 380L210 372Q205 415 200 455T195 525Q195 590 220 628T290 683T397 700Q436 700 480 694T573 678L567 540H545L533
665L541 654Q500 663 463 667T397 671Q316 671 273 640T230 528Q230 499 235 457T246 373L234 380H445V354H238L247 362Q253 318 258 275T263 190Q263 136 250 93T201 27L195 31L552 28L541 18L556 148H579V0H92Z" />
<glyph unicode="&#xa4;" horiz-adv-x="683" d="M549 130L530 108L442 191L458 189Q438 167 408 154T338 141Q300 141 271 153T223 188L239 190L151 108L133 127L221 209L217 193Q201 214 192 241T183 297Q183 328 192 357T221 409L223 394L133 478L152 500L242
414L227 416Q248 438 278 451T349 464Q386 464 414 453T460 421L445 420L530 499L547 480L462 401L464 417Q482 395 491 368T500 309Q500 277 491 248T464 195L460 211L549 130ZM340 168Q383 168 410 187T452 236T468 302Q470 361 439 399T347 437Q303 437 274
418T230 367T215 299Q215 245 247 207T340 168Z" />
<glyph unicode="&#xa5;" horiz-adv-x="739" d="M174 264V288H347L344 276L145 665L157 657L57 667V688L296 693V672L175 657L179 666L375 281H367L564 665L569 657L448 667V688L683 693V672L584 657L596 666L396 277L393 288H564V264H174ZM255 0V21L361 37L353
26V170L359 162H174V186H564V162H378L386 170V26L377 37L483 21V0H255Z" />
<glyph unicode="&#xa6;" horiz-adv-x="344" d="M157 439V797H187V439H157ZM157 -93V265H187V-93H157Z" />
<glyph unicode="&#xa7;" horiz-adv-x="585" d="M258 -177Q227 -177 193 -171T124 -155L131 -39H155L164 -145L157 -134Q184 -141 210 -145T261 -150Q326 -150 368 -120T411 -33Q411 9 390 38T335 89T264 132T192 175T137 228T115 300Q115 336 130 364T169 413T219
447L233 433Q213 423 193 404T160 360T147 306Q147 268 168 242T224 194T295 152T367 108T422 50T444 -30Q444 -79 420 -111T354 -160T258 -177ZM373 86L362 101Q380 115 398 134T428 179T440 233Q440 272 419 300T363 349T292 391T220 435T165 490T143 565Q143
629 191 664T313 700Q345 700 381 693T453 672L449 579H425L412 666L420 656Q393 664 366 668T312 673Q250 673 213 645T176 568Q176 530 197 503T252 453T323 411T395 368T450 313T472 237Q472 202 458 173T421 123T373 86Z" />
<glyph unicode="&#xa8;" horiz-adv-x="440" d="M311 659Q297 659 289 668T281 693Q281 709 290 718T311 727Q324 727 332 718T341 693Q341 677 332 668T311 659ZM129 659Q116 659 108 668T99 693Q99 709 108 718T129 727Q143 727 151 718T159 693Q159 677 150
668T129 659Z" />
<glyph unicode="&#xa9;" horiz-adv-x="919" d="M459 163Q393 163 348 210T303 344Q303 403 325 446T385 511T471 534Q525 534 583 506L581 421H558L550 496L558 490Q535 501 514 505T473 509Q410 509 372 466T334 345Q334 268 371 228T462 188Q491 188 522 199T583
233L597 214Q562 188 527 176T459 163ZM448 -7Q372 -7 308 18T198 90T126 200T100 339Q100 417 127 483T203 598T319 673T464 700Q541 700 606 674T719 602T794 492T821 354Q821 277 793 212T714 97T595 20T448 -7ZM451 19Q524 19 586 44T694 113T766 219T792 352Q792
446 749 518T632 633T462 675Q364 675 290 632T172 514T129 342Q129 248 169 175T282 61T451 19Z" />
<glyph unicode="&#xaa;" horiz-adv-x="437" d="M333 339L323 351L395 340V322L310 320L306 388L310 386Q276 353 236 335T160 316Q116 316 88 343T59 422Q59 463 77 485T127 515T195 524H309L304 519V597Q304 638 278 656T209 675Q185 675 158 670T102 655L110
667L102 593H81L75 673Q112 686 147 693T213 700Q269 700 301 677T333 601V339ZM89 423Q89 386 110 364T164 342Q196 342 234 359T308 408L304 394V509L309 501H199Q187 501 169 500T132 491T101 468T89 423ZM59 196V223H395V196H59Z" />
<glyph unicode="&#xab;" horiz-adv-x="468" d="M209 77L65 257V284L209 464L227 449L89 262V280L227 92L209 77ZM374 77L230 257V284L374 464L392 449L254 262V280L392 92L374 77Z" />
<glyph unicode="&#xac;" horiz-adv-x="630" d="M504 112V346L513 335H63V363H534V112H504Z" />
<glyph unicode="&#xad;" horiz-adv-x="430" d="M604 308V279H338V308H604Z" />
<glyph unicode="&#xae;" horiz-adv-x="787" d="M256 289V302L312 314L303 305V615L313 606L256 612V626L329 628H396Q454 628 484 607T515 545Q515 511 488 486T403 455L404 462Q436 458 451 442T482 397L530 302L520 312L561 302V289H508L457 392Q444 421 430
433T400 447T363 450H322L329 458V305L322 314L391 302V289H256ZM329 464L322 472H374Q430 472 458 491T487 544Q487 573 464 589T393 606H322L329 618V464ZM385 171Q303 172 240 207T142 305T107 450Q107 533 144 597T247 700T395 739Q479 739 544 703T645 605T682
460Q682 400 660 348T597 256T502 194T385 171ZM386 195Q463 195 524 229T621 324T657 459Q657 534 624 592T530 682T394 715Q318 715 259 681T166 587T133 451Q133 375 164 317T253 227T386 195Z" />
<glyph unicode="&#xaf;" horiz-adv-x="432" d="M335 708V679H97V708H335Z" />
<glyph unicode="&#xb0;" horiz-adv-x="448" d="M195 453Q133 453 95 490T57 592Q57 633 74 664T123 712T197 729Q258 729 295 692T333 592Q333 530 295 492T195 453ZM196 477Q247 477 276 507T305 592Q306 644 276 674T196 705Q145 705 115 675T85 593Q85 540
115 509T196 477Z" />
<glyph unicode="&#xb1;" horiz-adv-x="611" d="M302 402L291 391V612H320V391L309 402H524V374H309L320 384V163H291V384L302 374H88V402H302ZM524 74V47H88V74H524Z" />
<glyph unicode="&#xb2;" horiz-adv-x="345" d="M38 346V372Q109 441 158 493T233 586T259 664Q259 707 231 725T160 744Q114 744 66 726L70 734L64 658H46L41 745Q72 756 103 762T163 769Q217 769 253 746T289 668Q289 637 275 606T232 540T164 462T72 368L71
373H301V346H38Z" />
<glyph unicode="&#xb3;" horiz-adv-x="363" d="M162 341Q131 341 100 350T40 376L52 398Q78 382 105 374T160 366Q206 366 239 389T273 464Q273 502 248 528T158 555H107V578H159Q215 578 239 600T264 662Q264 707 238 725T169 744Q147 744 124 741T76 729L82
735L74 660H56L52 746Q85 757 116 762T175 768Q210 768 236 758T278 726T294 665Q294 623 273 599T204 566L203 568Q254 564 278 536T303 463Q303 421 284 394T233 354T162 341Z" />
<glyph unicode="&#xb4;" horiz-adv-x="295" d="M86 631L71 651L234 779L259 745L86 631Z" />
<glyph unicode="&#xb5;" horiz-adv-x="649" d="M126 149L137 95Q141 48 143 -5T146 -116T147 -230H114V496L122 486L27 500V521L147 524V161Q147 90 180 56T270 22Q315 22 367 46T469 123L465 111V496L472 486L377 500V521L498 524V29L490 35L585 23V2L473 -3L466
97L471 94Q422 42 368 18T265 -7Q204 -7 166 31T126 149Z" />
<glyph unicode="&#xb6;" horiz-adv-x="564" d="M131 -170V-149L236 -133L228 -144V366L247 348Q195 348 156 369T96 429T75 521Q75 573 96 611T157 671T249 693H489V672L383 656L392 667V-170H361V676L370 665L250 664L259 676V-170H131Z" />
<glyph unicode="&#xb7;" horiz-adv-x="195" d="M66 333Q66 347 75 355T97 364Q111 364 119 356T128 333Q128 318 119 310T97 301Q84 301 75 309T66 333Z" />
<glyph unicode="&#xb8;" horiz-adv-x="322" d="M157 -217Q139 -217 119 -213T80 -200L90 -177Q106 -183 123 -187T157 -191Q185 -191 205 -179T225 -142Q225 -125 214 -114T182 -96T126 -89L131 0H157V-66Q213 -70 233 -90T254 -139Q254 -165 242 -182T207 -208T157
-217Z" />
<glyph unicode="&#xb9;" horiz-adv-x="262" d="M161 367L154 375L239 365V346H42V365L141 375L134 367V739L142 737L33 669L22 688L140 767H161V367Z" />
<glyph unicode="&#xba;" horiz-adv-x="488" d="M235 315Q158 315 113 364T68 498Q68 557 90 602T152 674T249 700Q329 700 374 649T420 516Q420 459 398 414T335 342T235 315ZM79 196V223H409V196H79ZM238 340Q287 340 320 362T371 424T388 513Q388 586 352 630T247
674Q174 674 137 626T100 501Q100 427 136 384T238 340Z" />
<glyph unicode="&#xbb;" horiz-adv-x="468" d="M259 464L404 284V257L259 77L241 92L380 279V261L241 449L259 464ZM95 464L239 284V257L94 77L77 92L215 279V261L77 449L95 464Z" />
<glyph unicode="&#xbc;" horiz-adv-x="784" d="M193 297L186 305L271 295V276H74V295L173 305L166 297V669L174 667L65 599L54 618L172 697H193V297ZM141 -5L589 698H620L173 -5H141ZM632 120L639 112H426L421 135L626 425L661 420V130L653 137H739V112H653L661
120V0H632V120ZM639 137L632 130V405L638 404L444 127L440 137H639Z" />
<glyph unicode="&#xbd;" horiz-adv-x="806" d="M194 297L187 305L272 295V276H75V295L174 305L167 297V669L175 667L66 599L55 618L173 697H194V297ZM140 -5L588 698H619L172 -5H140ZM478 0V26Q549 95 598 147T673 240T699 318Q699 361 671 379T600 398Q554 398
506 380L510 388L504 312H486L481 399Q512 410 543 416T603 423Q657 423 693 400T729 322Q729 291 715 260T672 194T604 116T512 22L511 27H741V0H478Z" />
<glyph unicode="&#xbe;" horiz-adv-x="825" d="M162 271Q131 271 100 280T40 306L52 328Q78 312 105 304T160 296Q206 296 239 319T273 394Q273 432 248 458T158 485H107V508H159Q215 508 239 530T264 592Q264 637 238 655T169 674Q147 674 124 671T76 659L82
665L74 590H56L52 676Q85 687 116 692T175 698Q210 698 236 688T278 656T294 595Q294 553 273 529T204 496L203 498Q254 494 278 466T303 393Q303 351 284 324T233 284T162 271ZM184 -5L632 698H663L216 -5H184ZM675 120L682 112H469L464 135L669 425L704 420V130L696
137H782V112H696L704 120V0H675V120ZM682 137L675 130V405L681 404L487 127L483 137H682Z" />
<glyph unicode="&#xbf;" horiz-adv-x="406" d="M264 309Q266 293 267 274T269 244Q269 209 251 181T205 127T150 76T105 19T86 -50Q86 -101 120 -124T206 -148Q232 -148 262 -142T324 -126L332 -151Q265 -177 201 -177Q159 -177 125 -164T71 -124T51 -54Q51 -10
70 23T117 83T172 135T219 189T238 252Q238 260 237 276T235 306L264 309ZM267 498Q267 484 258 476T236 467Q223 467 214 475T205 498Q205 513 214 521T237 530Q250 530 258 522T267 498Z" />
<glyph unicode="&#xc0;" horiz-adv-x="705" d="M611 27L599 37L699 21V0H460V21L579 36L574 28L510 211L520 204H183L194 212L126 28L121 36L238 21V0H6V21L103 37L92 27L343 692L375 694L611 27ZM197 224L191 232H511L506 225L354 667H361L197 224ZM445 748L258
840L281 878L457 769L445 748Z" />
<glyph unicode="&#xc1;" horiz-adv-x="705" d="M611 27L599 37L699 21V0H460V21L579 36L574 28L510 211L520 204H183L194 212L126 28L121 36L238 21V0H6V21L103 37L92 27L343 692L375 694L611 27ZM197 224L191 232H511L506 225L354 667H361L197 224ZM280 748L267
769L444 878L465 841L280 748Z" />
<glyph unicode="&#xc2;" horiz-adv-x="705" d="M611 27L599 37L699 21V0H460V21L579 36L574 28L510 211L520 204H183L194 212L126 28L121 36L238 21V0H6V21L103 37L92 27L343 692L375 694L611 27ZM197 224L191 232H511L506 225L354 667H361L197 224ZM228 743L213
760L346 870L368 871L505 760L490 743L348 840H366L228 743Z" />
<glyph unicode="&#xc3;" horiz-adv-x="705" d="M611 27L599 37L699 21V0H460V21L579 36L574 28L510 211L520 204H183L194 212L126 28L121 36L238 21V0H6V21L103 37L92 27L343 692L375 694L611 27ZM197 224L191 232H511L506 225L354 667H361L197 224ZM233 773L214
782Q229 817 249 832T294 847Q319 847 341 837T385 816T424 805Q442 805 456 815T485 849L504 840Q488 805 468 791T423 776Q399 776 378 786T337 807T292 818Q275 818 261 808T233 773Z" />
<glyph unicode="&#xc4;" horiz-adv-x="705" d="M611 27L599 37L699 21V0H460V21L579 36L574 28L510 211L520 204H183L194 212L126 28L121 36L238 21V0H6V21L103 37L92 27L343 692L375 694L611 27ZM197 224L191 232H511L506 225L354 667H361L197 224ZM450 771Q436
771 428 780T420 805Q420 821 429 830T450 839Q463 839 471 830T480 805Q480 789 471 780T450 771ZM268 771Q255 771 247 780T238 805Q238 821 247 830T268 839Q282 839 290 830T298 805Q298 789 289 780T268 771Z" />
<glyph unicode="&#xc5;" horiz-adv-x="705" d="M611 27L599 37L699 21V0H460V21L579 36L574 28L510 211L520 204H183L194 212L126 28L121 36L238 21V0H6V21L103 37L92 27L343 692L375 694L611 27ZM197 224L191 232H511L506 225L354 667H361L197 224ZM358 734Q337
734 319 742T288 768T276 810Q276 835 287 852T318 878T360 888Q382 888 400 880T430 855T442 813Q442 788 431 771T400 744T358 734ZM359 757Q385 757 399 772T414 812Q414 835 400 850T359 865Q333 865 319 850T304 811Q304 787 318 772T359 757Z" />
<glyph unicode="&#xc6;" horiz-adv-x="948" d="M0 0V21L99 37L86 27L429 666L434 657L335 667V688L497 693H855V553H832L817 674L827 665H502L511 674V373L502 382H786V354H502L511 363V19L502 28H840L830 19L845 146H868V0H381V21L486 37L477 27V232L486 223H217L229
231L120 27L115 37L233 21V0H0ZM235 244L230 251H486L477 243V673L486 665H453L465 672L235 244Z" />
<glyph unicode="&#xc7;" horiz-adv-x="656" d="M357 -7Q279 -7 215 34T114 153T76 344Q76 456 114 535T220 657T378 700Q425 700 478 689T587 652L582 513H560L548 641L555 631Q510 650 463 660T376 670Q298 670 239 632T146 521T112 349Q112 246 146 174T238
63T366 25Q418 25 473 47T579 116L596 92Q541 42 479 18T357 -7ZM373 -217Q355 -217 335 -213T296 -200L306 -177Q322 -183 339 -187T373 -191Q401 -191 421 -179T441 -142Q441 -125 430 -114T398 -96T342 -89L347 0H373V-66Q429 -70 449 -90T470 -139Q470 -165
458 -182T423 -208T373 -217Z" />
<glyph unicode="&#xc8;" horiz-adv-x="631" d="M528 146H551V0H58V21L164 37L155 26V666L164 656L58 667V688L189 693H538V553H515L500 674L510 665H180L189 674V361L180 370H469V342H180L189 351V19L180 28H523L513 19L528 146ZM413 748L226 840L249 878L425
769L413 748Z" />
<glyph unicode="&#xc9;" horiz-adv-x="631" d="M528 146H551V0H58V21L164 37L155 26V666L164 656L58 667V688L189 693H538V553H515L500 674L510 665H180L189 674V361L180 370H469V342H180L189 351V19L180 28H523L513 19L528 146ZM248 748L235 769L412 878L433
841L248 748Z" />
<glyph unicode="&#xca;" horiz-adv-x="631" d="M528 146H551V0H58V21L164 37L155 26V666L164 656L58 667V688L189 693H538V553H515L500 674L510 665H180L189 674V361L180 370H469V342H180L189 351V19L180 28H523L513 19L528 146ZM196 743L181 760L314 870L336
871L473 760L458 743L316 840H334L196 743Z" />
<glyph unicode="&#xcb;" horiz-adv-x="631" d="M528 146H551V0H58V21L164 37L155 26V666L164 656L58 667V688L189 693H538V553H515L500 674L510 665H180L189 674V361L180 370H469V342H180L189 351V19L180 28H523L513 19L528 146ZM418 771Q404 771 396 780T388
805Q388 821 397 830T418 839Q431 839 439 830T448 805Q448 789 439 780T418 771ZM236 771Q223 771 215 780T206 805Q206 821 215 830T236 839Q250 839 258 830T266 805Q266 789 257 780T236 771Z" />
<glyph unicode="&#xcc;" horiz-adv-x="343" d="M286 672L181 656L189 666V27L181 36L286 21V0H58V21L163 36L155 27V666L164 656L58 667V688L286 693V672ZM514 748L327 840L350 878L526 769L514 748Z" />
<glyph unicode="&#xcd;" horiz-adv-x="343" d="M286 672L181 656L189 666V27L181 36L286 21V0H58V21L163 36L155 27V666L164 656L58 667V688L286 693V672ZM93 748L80 769L257 878L278 841L93 748Z" />
<glyph unicode="&#xce;" horiz-adv-x="343" d="M286 672L181 656L189 666V27L181 36L286 21V0H58V21L163 36L155 27V666L164 656L58 667V688L286 693V672ZM297 743L282 760L415 870L437 871L574 760L559 743L417 840H435L297 743Z" />
<glyph unicode="&#xcf;" horiz-adv-x="343" d="M286 672L181 656L189 666V27L181 36L286 21V0H58V21L163 36L155 27V666L164 656L58 667V688L286 693V672ZM519 771Q505 771 497 780T489 805Q489 821 498 830T519 839Q532 839 540 830T549 805Q549 789 540 780T519
771ZM337 771Q324 771 316 780T307 805Q307 821 316 830T337 839Q351 839 359 830T367 805Q367 789 358 780T337 771Z" />
<glyph unicode="&#xd0;" horiz-adv-x="723" d="M58 341V368H381V341H58ZM345 693Q405 693 459 674T556 613T624 509T649 356Q649 239 606 160T492 40T332 0H58V21L164 37L155 26V666L164 655L58 667V688L217 693H345ZM333 28Q388 28 438 47T527 106T590 206T613
352Q613 433 591 492T532 590T446 646T343 665H180L189 674V19L180 28H333Z" />
<glyph unicode="&#xd1;" horiz-adv-x="808" d="M537 688L762 693V672L657 656L665 667V0H629L180 656L186 657V26L178 37L283 21V0H58V21L164 37L155 26V667L163 657L58 667V688L196 693L640 45L634 44V668L643 658L537 667V688ZM291 773L272 782Q287 817 307
832T352 847Q377 847 399 837T443 816T482 805Q500 805 514 815T543 849L562 840Q546 805 526 791T481 776Q457 776 436 786T395 807T350 818Q333 818 319 808T291 773Z" />
<glyph unicode="&#xd2;" horiz-adv-x="754" d="M369 -7Q290 -7 223 31T116 147T75 341Q75 432 100 499T168 611T266 678T382 700Q440 700 493 679T589 616T655 510T680 357Q680 240 638 159T525 36T369 -7ZM371 23Q442 23 504 59T605 169T644 354Q644 461 608
531T511 635T380 670Q310 670 248 635T149 527T111 343Q111 234 147 164T242 58T371 23ZM467 748L280 840L303 878L479 769L467 748Z" />
<glyph unicode="&#xd3;" horiz-adv-x="754" d="M369 -7Q290 -7 223 31T116 147T75 341Q75 432 100 499T168 611T266 678T382 700Q440 700 493 679T589 616T655 510T680 357Q680 240 638 159T525 36T369 -7ZM371 23Q442 23 504 59T605 169T644 354Q644 461 608
531T511 635T380 670Q310 670 248 635T149 527T111 343Q111 234 147 164T242 58T371 23ZM302 748L289 769L466 878L487 841L302 748Z" />
<glyph unicode="&#xd4;" horiz-adv-x="754" d="M369 -7Q290 -7 223 31T116 147T75 341Q75 432 100 499T168 611T266 678T382 700Q440 700 493 679T589 616T655 510T680 357Q680 240 638 159T525 36T369 -7ZM371 23Q442 23 504 59T605 169T644 354Q644 461 608
531T511 635T380 670Q310 670 248 635T149 527T111 343Q111 234 147 164T242 58T371 23ZM250 743L235 760L368 870L390 871L527 760L512 743L370 840H388L250 743Z" />
<glyph unicode="&#xd5;" horiz-adv-x="754" d="M369 -7Q290 -7 223 31T116 147T75 341Q75 432 100 499T168 611T266 678T382 700Q440 700 493 679T589 616T655 510T680 357Q680 240 638 159T525 36T369 -7ZM371 23Q442 23 504 59T605 169T644 354Q644 461 608
531T511 635T380 670Q310 670 248 635T149 527T111 343Q111 234 147 164T242 58T371 23ZM255 773L236 782Q251 817 271 832T316 847Q341 847 363 837T407 816T446 805Q464 805 478 815T507 849L526 840Q510 805 490 791T445 776Q421 776 400 786T359 807T314 818Q297
818 283 808T255 773Z" />
<glyph unicode="&#xd6;" horiz-adv-x="754" d="M369 -7Q290 -7 223 31T116 147T75 341Q75 432 100 499T168 611T266 678T382 700Q440 700 493 679T589 616T655 510T680 357Q680 240 638 159T525 36T369 -7ZM371 23Q442 23 504 59T605 169T644 354Q644 461 608
531T511 635T380 670Q310 670 248 635T149 527T111 343Q111 234 147 164T242 58T371 23ZM472 771Q458 771 450 780T442 805Q442 821 451 830T472 839Q485 839 493 830T502 805Q502 789 493 780T472 771ZM290 771Q277 771 269 780T260 805Q260 821 269 830T290 839Q304
839 312 830T320 805Q320 789 311 780T290 771Z" />
<glyph unicode="&#xd7;" horiz-adv-x="511" d="M96 168L75 189L243 356V341L75 509L96 529L264 361L248 362L416 529L436 509L269 341V357L436 189L416 168L248 336H263L96 168Z" />
<glyph unicode="&#xd8;" horiz-adv-x="755" d="M625 764L648 750L569 625L562 616L214 65L209 56L129 -71L106 -56L187 73L193 82L541 630L546 640L625 764ZM369 -7Q290 -7 224 31T116 147T75 341Q75 432 100 499T168 611T266 678T382 700Q440 700 493 679T589
616T656 510T681 357Q681 240 639 159T525 36T369 -7ZM371 23Q443 23 505 59T605 169T644 354Q644 461 608 531T511 635T381 670Q310 670 249 635T149 527T111 343Q111 234 147 164T243 58T371 23Z" />
<glyph unicode="&#xd9;" horiz-adv-x="754" d="M490 688L718 693V672L613 656L621 667V256Q621 228 618 194T602 124T564 59T492 11T375 -7Q303 -7 257 11T186 60T150 124T137 190T134 247V667L142 657L37 667V688L264 693V672L159 656L167 667V247Q167 223 169
193T181 132T213 78T274 38T375 22Q438 22 478 38T541 80T573 137T585 200T587 256V667L595 658L490 667V688ZM463 748L276 840L299 878L475 769L463 748Z" />
<glyph unicode="&#xda;" horiz-adv-x="754" d="M490 688L718 693V672L613 656L621 667V256Q621 228 618 194T602 124T564 59T492 11T375 -7Q303 -7 257 11T186 60T150 124T137 190T134 247V667L142 657L37 667V688L264 693V672L159 656L167 667V247Q167 223 169
193T181 132T213 78T274 38T375 22Q438 22 478 38T541 80T573 137T585 200T587 256V667L595 658L490 667V688ZM298 748L285 769L462 878L483 841L298 748Z" />
<glyph unicode="&#xdb;" horiz-adv-x="754" d="M490 688L718 693V672L613 656L621 667V256Q621 228 618 194T602 124T564 59T492 11T375 -7Q303 -7 257 11T186 60T150 124T137 190T134 247V667L142 657L37 667V688L264 693V672L159 656L167 667V247Q167 223 169
193T181 132T213 78T274 38T375 22Q438 22 478 38T541 80T573 137T585 200T587 256V667L595 658L490 667V688ZM246 743L231 760L364 870L386 871L523 760L508 743L366 840H384L246 743Z" />
<glyph unicode="&#xdc;" horiz-adv-x="754" d="M490 688L718 693V672L613 656L621 667V256Q621 228 618 194T602 124T564 59T492 11T375 -7Q303 -7 257 11T186 60T150 124T137 190T134 247V667L142 657L37 667V688L264 693V672L159 656L167 667V247Q167 223 169
193T181 132T213 78T274 38T375 22Q438 22 478 38T541 80T573 137T585 200T587 256V667L595 658L490 667V688ZM468 771Q454 771 446 780T438 805Q438 821 447 830T468 839Q481 839 489 830T498 805Q498 789 489 780T468 771ZM286 771Q273 771 265 780T256 805Q256
821 265 830T286 839Q300 839 308 830T316 805Q316 789 307 780T286 771Z" />
<glyph unicode="&#xdd;" horiz-adv-x="636" d="M203 0V21L309 37L301 26V269L306 248L93 665L105 657L5 667V688L244 693V672L123 657L128 666L324 281H316L512 665L517 657L397 667V688L632 693V672L532 657L544 666L329 248L334 269V26L326 37L432 21V0H203ZM239
748L226 769L403 878L424 841L239 748Z" />
<glyph unicode="&#xde;" horiz-adv-x="570" d="M58 0V21L164 37L155 26V667L164 656L58 667V688L286 693V672L181 656L189 666V547L180 556H308Q414 556 468 506T523 366Q523 263 457 207T271 150H180L189 159V26L180 37L310 21V0H58ZM189 169L180 177H269Q338
177 387 199T462 263T488 364Q488 416 467 453T404 509T301 528H180L189 537V169Z" />
<glyph unicode="&#xdf;" horiz-adv-x="615" d="M340 416Q340 383 358 362T404 325T465 295T525 261T572 214T590 141Q590 91 566 59T502 10T411 -7Q383 -7 354 -2T294 14L300 131L324 130L333 25L327 37Q349 29 372 25T416 20Q454 20 486 33T537 72T557 136Q557
174 539 199T493 242T432 275T371 307T325 349T307 413Q307 452 325 473T369 509T422 537T466 571T484 627Q484 666 464 691T410 729T335 742Q259 742 212 706T165 589V0H44V21L140 36L132 27V500L140 492H44V513L140 520L132 510V587Q132 634 147 669T189 726T254
759T336 770Q385 770 426 754T492 707T518 629Q518 589 500 566T456 529T403 501T358 469T340 416Z" />
<glyph unicode="&#xe0;" horiz-adv-x="537" d="M425 25L417 35L513 23V2L400 -3L395 93L399 90Q354 44 300 19T196 -7Q139 -7 103 28T66 137Q66 196 90 226T155 267T248 278H400L393 270V387Q393 448 358 475T265 502Q234 502 198 495T122 473L131 485L123 388H98L90
493Q139 511 184 520T270 530Q341 530 383 498T425 393V25ZM100 141Q100 80 129 51T204 21Q247 21 298 46T398 115L393 102V259L400 252H252Q170 252 135 227T100 141ZM193 779L349 650L334 631L169 748L193 779Z" />
<glyph unicode="&#xe1;" horiz-adv-x="537" d="M425 25L417 35L513 23V2L400 -3L395 93L399 90Q354 44 300 19T196 -7Q139 -7 103 28T66 137Q66 196 90 226T155 267T248 278H400L393 270V387Q393 448 358 475T265 502Q234 502 198 495T122 473L131 485L123 388H98L90
493Q139 511 184 520T270 530Q341 530 383 498T425 393V25ZM100 141Q100 80 129 51T204 21Q247 21 298 46T398 115L393 102V259L400 252H252Q170 252 135 227T100 141ZM210 631L195 651L358 779L383 745L210 631Z" />
<glyph unicode="&#xe2;" horiz-adv-x="537" d="M425 25L417 35L513 23V2L400 -3L395 93L399 90Q354 44 300 19T196 -7Q139 -7 103 28T66 137Q66 196 90 226T155 267T248 278H400L393 270V387Q393 448 358 475T265 502Q234 502 198 495T122 473L131 485L123 388H98L90
493Q139 511 184 520T270 530Q341 530 383 498T425 393V25ZM100 141Q100 80 129 51T204 21Q247 21 298 46T398 115L393 102V259L400 252H252Q170 252 135 227T100 141ZM138 635L122 652L251 769L273 770L406 652L391 635L253 742H271L138 635Z" />
<glyph unicode="&#xe3;" horiz-adv-x="537" d="M425 25L417 35L513 23V2L400 -3L395 93L399 90Q354 44 300 19T196 -7Q139 -7 103 28T66 137Q66 196 90 226T155 267T248 278H400L393 270V387Q393 448 358 475T265 502Q234 502 198 495T122 473L131 485L123 388H98L90
493Q139 511 184 520T270 530Q341 530 383 498T425 393V25ZM100 141Q100 80 129 51T204 21Q247 21 298 46T398 115L393 102V259L400 252H252Q170 252 135 227T100 141ZM327 655Q301 655 280 668T238 694T194 707Q176 707 161 696T132 658L112 667Q129 704 149 720T195
737Q221 737 243 724T286 698T328 685Q347 685 362 696T391 735L411 726Q394 689 374 672T327 655Z" />
<glyph unicode="&#xe4;" horiz-adv-x="537" d="M425 25L417 35L513 23V2L400 -3L395 93L399 90Q354 44 300 19T196 -7Q139 -7 103 28T66 137Q66 196 90 226T155 267T248 278H400L393 270V387Q393 448 358 475T265 502Q234 502 198 495T122 473L131 485L123 388H98L90
493Q139 511 184 520T270 530Q341 530 383 498T425 393V25ZM100 141Q100 80 129 51T204 21Q247 21 298 46T398 115L393 102V259L400 252H252Q170 252 135 227T100 141ZM352 659Q338 659 330 668T322 693Q322 709 331 718T352 727Q365 727 373 718T382 693Q382 677
373 668T352 659ZM170 659Q157 659 149 668T140 693Q140 709 149 718T170 727Q184 727 192 718T200 693Q200 677 191 668T170 659Z" />
<glyph unicode="&#xe5;" horiz-adv-x="537" d="M425 25L417 35L513 23V2L400 -3L395 93L399 90Q354 44 300 19T196 -7Q139 -7 103 28T66 137Q66 196 90 226T155 267T248 278H400L393 270V387Q393 448 358 475T265 502Q234 502 198 495T122 473L131 485L123 388H98L90
493Q139 511 184 520T270 530Q341 530 383 498T425 393V25ZM100 141Q100 80 129 51T204 21Q247 21 298 46T398 115L393 102V259L400 252H252Q170 252 135 227T100 141ZM261 629Q240 629 222 637T191 663T179 705Q179 730 190 747T221 773T263 783Q285 783 303 775T333
750T345 708Q345 683 334 666T303 639T261 629ZM262 652Q288 652 302 667T317 707Q317 730 303 745T262 760Q236 760 222 745T207 706Q207 682 221 667T262 652Z" />
<glyph unicode="&#xe6;" horiz-adv-x="878" d="M98 389L90 493Q142 511 187 520T270 530Q341 530 380 498T420 402L421 379L418 383Q443 454 497 492T622 530Q714 530 764 469T815 297Q815 281 815 275T813 259H418L427 271V254Q427 147 478 85T616 22Q705 22
800 89L815 67Q763 31 711 12T609 -7Q545 -7 496 24T421 113L432 112Q390 51 332 22T219 -7Q177 -7 143 9T87 58T66 138Q66 215 110 250T248 286H402L393 276V387Q393 444 361 472T267 501Q237 501 201 495T122 473L130 485L122 389H98ZM415 121Q403 150 398 185T393
270L402 259H253Q171 259 136 233T100 143Q100 82 137 52T226 21Q276 21 329 49T420 133L415 121ZM428 278L419 286H790L780 278Q782 389 741 445T619 502Q535 502 483 442T428 278Z" />
<glyph unicode="&#xe7;" horiz-adv-x="510" d="M271 -7Q211 -7 163 24T86 114T58 254Q58 322 77 373T128 460T203 512T295 530Q328 530 371 520T450 488L447 380H420L408 483L414 474Q382 490 349 496T291 502Q232 502 188 472T118 388T93 257Q93 183 117 131T184
50T278 22Q317 22 360 39T447 89L462 67Q412 29 364 11T271 -7ZM285 -217Q267 -217 247 -213T208 -200L218 -177Q234 -183 251 -187T285 -191Q313 -191 333 -179T353 -142Q353 -125 342 -114T310 -96T254 -89L259 0H285V-66Q341 -70 361 -90T382 -139Q382 -165
370 -182T335 -208T285 -217Z" />
<glyph unicode="&#xe8;" horiz-adv-x="546" d="M276 -7Q214 -7 165 23T89 112T61 254Q61 338 89 400T168 496T289 530Q353 530 396 501T461 422T483 305Q483 299 483 292T482 273H81V300H458L449 294Q450 350 435 397T384 473T288 502Q227 502 184 472T118 386T95
258Q95 183 118 131T184 50T282 22Q324 22 371 38T469 88L483 67Q429 30 377 12T276 -7ZM217 779L373 650L358 631L193 748L217 779Z" />
<glyph unicode="&#xe9;" horiz-adv-x="546" d="M276 -7Q214 -7 165 23T89 112T61 254Q61 338 89 400T168 496T289 530Q353 530 396 501T461 422T483 305Q483 299 483 292T482 273H81V300H458L449 294Q450 350 435 397T384 473T288 502Q227 502 184 472T118 386T95
258Q95 183 118 131T184 50T282 22Q324 22 371 38T469 88L483 67Q429 30 377 12T276 -7ZM234 631L219 651L382 779L407 745L234 631Z" />
<glyph unicode="&#xea;" horiz-adv-x="546" d="M276 -7Q214 -7 165 23T89 112T61 254Q61 338 89 400T168 496T289 530Q353 530 396 501T461 422T483 305Q483 299 483 292T482 273H81V300H458L449 294Q450 350 435 397T384 473T288 502Q227 502 184 472T118 386T95
258Q95 183 118 131T184 50T282 22Q324 22 371 38T469 88L483 67Q429 30 377 12T276 -7ZM162 635L146 652L275 769L297 770L430 652L415 635L277 742H295L162 635Z" />
<glyph unicode="&#xeb;" horiz-adv-x="546" d="M276 -7Q214 -7 165 23T89 112T61 254Q61 338 89 400T168 496T289 530Q353 530 396 501T461 422T483 305Q483 299 483 292T482 273H81V300H458L449 294Q450 350 435 397T384 473T288 502Q227 502 184 472T118 386T95
258Q95 183 118 131T184 50T282 22Q324 22 371 38T469 88L483 67Q429 30 377 12T276 -7ZM376 659Q362 659 354 668T346 693Q346 709 355 718T376 727Q389 727 397 718T406 693Q406 677 397 668T376 659ZM194 659Q181 659 173 668T164 693Q164 709 173 718T194 727Q208
727 216 718T224 693Q224 677 215 668T194 659Z" />
<glyph unicode="&#xec;" horiz-adv-x="282" d="M165 28L157 36L252 21V0H44V21L139 36L132 28V493L139 485L44 500V521L165 526V28ZM305 779L461 650L446 631L281 748L305 779Z" />
<glyph unicode="&#xed;" horiz-adv-x="282" d="M165 28L157 36L252 21V0H44V21L139 36L132 28V493L139 485L44 500V521L165 526V28ZM90 631L75 651L238 779L263 745L90 631Z" />
<glyph unicode="&#xee;" horiz-adv-x="282" d="M34 635L18 652L129 769L151 770L266 652L250 635L131 742H149L34 635ZM165 28L157 36L252 21V0H44V21L139 36L132 28V493L139 485L44 500V521L165 526V28Z" />
<glyph unicode="&#xef;" horiz-adv-x="282" d="M226 659Q213 659 205 668T197 693Q197 709 205 718T226 727Q239 727 247 718T256 693Q256 677 247 668T226 659ZM51 659Q38 659 30 668T22 693Q22 709 30 718T51 727Q64 727 72 718T81 693Q81 677 72 668T51 659ZM165
28L157 36L252 21V0H44V21L139 36L132 28V493L139 485L44 500V521L165 526V28Z" />
<glyph unicode="&#xf0;" d="M276 -7Q207 -7 159 24T86 111T60 245Q60 331 89 394T170 491T292 525Q360 525 408 491T483 397L479 398Q465 499 424 576T315 698T152 742L156 770Q249 770 317 732T429 629T493 482T514 313Q514 232 498 172T450 73T374 13T276 -7ZM277
21Q342 21 387 54T456 144T480 275Q480 378 433 438T295 498Q232 498 187 467T119 381T95 250Q95 141 144 81T277 21ZM226 606L213 627L456 770L470 750L226 606Z" />
<glyph unicode="&#xf1;" horiz-adv-x="625" d="M44 0V21L140 36L132 27V494L140 485L44 500V521L157 527L163 426L158 429Q208 482 262 506T366 530Q432 530 474 491T515 369V27L508 36L603 21V0H396V21L490 36L482 27V361Q482 433 449 467T359 501Q315 501 263
477T160 401L165 413V27L157 36L251 21V0H44ZM388 655Q362 655 341 668T299 694T255 707Q237 707 222 696T193 658L173 667Q190 704 210 720T256 737Q282 737 304 724T347 698T389 685Q408 685 423 696T452 735L472 726Q455 689 435 672T388 655Z" />
<glyph unicode="&#xf2;" horiz-adv-x="574" d="M293 530Q395 530 455 462T515 271Q515 188 487 126T405 28T277 -7Q177 -7 119 59T60 250Q60 335 88 398T168 495T293 530ZM291 502Q198 502 147 435T95 252Q95 140 144 81T280 21Q344 21 388 52T456 138T480 267Q480
378 430 440T291 502ZM218 779L374 650L359 631L194 748L218 779Z" />
<glyph unicode="&#xf3;" horiz-adv-x="574" d="M293 530Q395 530 455 462T515 271Q515 188 487 126T405 28T277 -7Q177 -7 119 59T60 250Q60 335 88 398T168 495T293 530ZM291 502Q198 502 147 435T95 252Q95 140 144 81T280 21Q344 21 388 52T456 138T480 267Q480
378 430 440T291 502ZM235 631L220 651L383 779L408 745L235 631Z" />
<glyph unicode="&#xf4;" horiz-adv-x="574" d="M293 530Q395 530 455 462T515 271Q515 188 487 126T405 28T277 -7Q177 -7 119 59T60 250Q60 335 88 398T168 495T293 530ZM291 502Q198 502 147 435T95 252Q95 140 144 81T280 21Q344 21 388 52T456 138T480 267Q480
378 430 440T291 502ZM163 635L147 652L276 769L298 770L431 652L416 635L278 742H296L163 635Z" />
<glyph unicode="&#xf5;" horiz-adv-x="574" d="M293 530Q395 530 455 462T515 271Q515 188 487 126T405 28T277 -7Q177 -7 119 59T60 250Q60 335 88 398T168 495T293 530ZM291 502Q198 502 147 435T95 252Q95 140 144 81T280 21Q344 21 388 52T456 138T480 267Q480
378 430 440T291 502ZM353 655Q327 655 306 668T264 694T220 707Q202 707 187 696T158 658L138 667Q155 704 175 720T221 737Q247 737 269 724T312 698T354 685Q373 685 388 696T417 735L437 726Q420 689 400 672T353 655Z" />
<glyph unicode="&#xf6;" horiz-adv-x="574" d="M293 530Q395 530 455 462T515 271Q515 188 487 126T405 28T277 -7Q177 -7 119 59T60 250Q60 335 88 398T168 495T293 530ZM291 502Q198 502 147 435T95 252Q95 140 144 81T280 21Q344 21 388 52T456 138T480 267Q480
378 430 440T291 502ZM378 659Q364 659 356 668T348 693Q348 709 357 718T378 727Q391 727 399 718T408 693Q408 677 399 668T378 659ZM196 659Q183 659 175 668T166 693Q166 709 175 718T196 727Q210 727 218 718T226 693Q226 677 217 668T196 659Z" />
<glyph unicode="&#xf7;" horiz-adv-x="566" d="M501 363V335H65V363H501ZM252 193Q252 207 261 215T283 224Q297 224 305 216T314 193Q314 178 305 170T283 161Q270 161 261 169T252 193ZM252 511Q252 525 261 533T283 542Q297 542 305 534T314 511Q314 496 305
488T283 479Q270 479 261 487T252 511Z" />
<glyph unicode="&#xf8;" horiz-adv-x="575" d="M482 595L505 581L437 470L432 464L174 41L170 34L105 -74L82 -59L148 47L153 54L413 480L416 487L482 595ZM294 530Q396 530 455 462T515 271Q515 188 487 126T406 28T277 -7Q177 -7 119 59T61 250Q61 335 89 398T169
495T294 530ZM291 502Q198 502 147 435T95 252Q95 140 144 81T280 21Q344 21 388 52T457 138T481 267Q481 378 430 440T291 502Z" />
<glyph unicode="&#xf9;" horiz-adv-x="611" d="M258 -7Q192 -7 151 32T109 155V494L117 485L22 500V521L142 526V162Q142 90 175 56T265 22Q310 22 362 46T464 123L460 110V495L467 485L372 500V521L493 526V29L485 35L580 23V2L467 -3L461 97L467 94Q417 42 362
18T258 -7ZM225 779L381 650L366 631L201 748L225 779Z" />
<glyph unicode="&#xfa;" horiz-adv-x="611" d="M258 -7Q192 -7 151 32T109 155V494L117 485L22 500V521L142 526V162Q142 90 175 56T265 22Q310 22 362 46T464 123L460 110V495L467 485L372 500V521L493 526V29L485 35L580 23V2L467 -3L461 97L467 94Q417 42 362
18T258 -7ZM243 631L228 651L391 779L416 745L243 631Z" />
<glyph unicode="&#xfb;" horiz-adv-x="611" d="M258 -7Q192 -7 151 32T109 155V494L117 485L22 500V521L142 526V162Q142 90 175 56T265 22Q310 22 362 46T464 123L460 110V495L467 485L372 500V521L493 526V29L485 35L580 23V2L467 -3L461 97L467 94Q417 42 362
18T258 -7ZM170 635L154 652L283 769L305 770L438 652L423 635L285 742H303L170 635Z" />
<glyph unicode="&#xfc;" horiz-adv-x="611" d="M258 -7Q192 -7 151 32T109 155V494L117 485L22 500V521L142 526V162Q142 90 175 56T265 22Q310 22 362 46T464 123L460 110V495L467 485L372 500V521L493 526V29L485 35L580 23V2L467 -3L461 97L467 94Q417 42 362
18T258 -7ZM385 659Q371 659 363 668T355 693Q355 709 364 718T385 727Q398 727 406 718T415 693Q415 677 406 668T385 659ZM203 659Q190 659 182 668T173 693Q173 709 182 718T203 727Q217 727 225 718T233 693Q233 677 224 668T203 659Z" />
<glyph unicode="&#xfd;" horiz-adv-x="508" d="M20 -233L24 -206Q33 -208 40 -208T55 -209Q108 -209 140 -183T195 -105T239 21L238 4L55 498L64 491L-6 500V521L190 526V505L85 492L90 498L256 35L249 36L415 498L421 492L318 500V521L513 526V505L437 492L447
498L263 -4Q246 -50 230 -91T193 -165T141 -217T60 -237Q45 -237 20 -233ZM200 631L185 651L348 779L373 745L200 631Z" />
<glyph unicode="&#xfe;" horiz-adv-x="572" d="M18 -230V-209L114 -193L106 -203V734L114 724L18 740V761L139 766V442L132 443Q178 487 224 508T315 530Q370 530 414 499T485 410T512 267Q512 179 482 118T396 24T265 -8Q235 -8 201 -2T131 13L139 21V-203L131
-194L241 -209V-230H18ZM264 20Q365 20 421 84T477 264Q477 340 455 392T394 473T307 502Q266 502 222 481T133 414L139 428V34L132 44Q204 20 264 20Z" />
<glyph unicode="&#xff;" horiz-adv-x="508" d="M20 -233L24 -206Q33 -208 40 -208T55 -209Q108 -209 140 -183T195 -105T239 21L238 4L55 498L64 491L-6 500V521L190 526V505L85 492L90 498L256 35L249 36L415 498L421 492L318 500V521L513 526V505L437 492L447
498L263 -4Q246 -50 230 -91T193 -165T141 -217T60 -237Q45 -237 20 -233ZM342 659Q328 659 320 668T312 693Q312 709 321 718T342 727Q355 727 363 718T372 693Q372 677 363 668T342 659ZM160 659Q147 659 139 668T130 693Q130 709 139 718T160 727Q174 727 182
718T190 693Q190 677 181 668T160 659Z" />
<glyph unicode="&#x2013;" horiz-adv-x="627" d="M541 308V279H87V308H541Z" />
<glyph unicode="&#x2014;" horiz-adv-x="877" d="M791 305V277H87V305H791Z" />
<glyph unicode="&#x2018;" horiz-adv-x="185" d="M117 625Q117 609 108 602T88 594Q76 594 66 602T56 629Q56 648 70 687T116 775L132 764Q112 726 106 704T99 670Q99 661 103 655T112 642T117 625Z" />
<glyph unicode="&#x2019;" horiz-adv-x="185" d="M72 742Q72 758 81 765T101 773Q113 773 123 764T133 738Q133 719 119 680T72 592L57 603Q78 641 84 663T90 696Q90 707 86 713T77 725T72 742Z" />
<glyph unicode="&#x201a;" horiz-adv-x="185" d="M68 24Q68 40 77 47T97 55Q109 55 119 46T129 20Q129 1 115 -38T68 -126L53 -115Q74 -77 80 -55T86 -22Q86 -11 82 -5T73 7T68 24Z" />
<glyph unicode="&#x201c;" horiz-adv-x="309" d="M117 641Q117 626 108 618T88 610Q76 610 66 619T56 646Q56 664 70 703T116 791L132 781Q112 742 106 720T99 687Q99 678 103 671T112 658T117 641ZM241 641Q241 626 232 618T211 610Q200 610 190 619T180 646Q180
664 194 703T240 791L256 781Q236 742 230 720T223 687Q223 678 227 671T236 658T241 641Z" />
<glyph unicode="&#x201d;" horiz-adv-x="309" d="M192 742Q192 758 201 765T221 773Q233 773 243 764T253 738Q253 719 239 680T192 592L177 603Q198 641 204 663T210 696Q210 707 206 713T197 725T192 742ZM68 742Q68 758 77 765T97 773Q109 773 119 764T129
738Q129 719 115 680T68 592L53 603Q74 641 80 663T86 696Q86 707 82 713T73 725T68 742Z" />
<glyph unicode="&#x201e;" horiz-adv-x="309" d="M192 24Q192 40 201 47T221 55Q233 55 243 46T253 20Q253 1 239 -38T192 -126L177 -115Q198 -77 204 -55T210 -22Q210 -11 206 -5T197 7T192 24ZM68 24Q68 40 77 47T97 55Q109 55 119 46T129 20Q129 1 115 -38T68
-126L53 -115Q74 -77 80 -55T86 -22Q86 -11 82 -5T73 7T68 24Z" />
<glyph unicode="&#x2022;" horiz-adv-x="343" d="M93 319Q93 343 104 361T134 389T172 399Q196 399 213 389T240 361T250 319Q250 295 239 277T211 248T172 238Q136 238 115 260T93 319Z" />
<glyph unicode="&#x2039;" horiz-adv-x="304" d="M209 77L65 257V284L209 464L227 449L89 262V280L227 92L209 77Z" />
<glyph unicode="&#x203a;" horiz-adv-x="304" d="M95 464L239 284V257L94 77L77 92L215 279V261L77 449L95 464Z" />
</font>
</defs>
</svg>
