<?xml version="1.0" standalone="no"?>
<!DOCTYPE svg PUBLIC "-//W3C//DTD SVG 1.1//EN" "http://www.w3.org/Graphics/SVG/1.1/DTD/svg11.dtd">
<svg xmlns="http://www.w3.org/2000/svg">
<defs >
<font id="Bitter" horiz-adv-x="568" ><font-face
    font-family="Bitter Thin ExtraLight"
    units-per-em="1000"
    panose-1="0 0 0 0 0 0 0 0 0 0"
    ascent="935"
    descent="-265"
    alphabetic="0" />
<glyph unicode=" " horiz-adv-x="207" />
<glyph unicode="!" horiz-adv-x="327" d="M142 205L215 693H249L167 208L142 205ZM123 -1Q111 -1 104 7T97 27Q97 43 108 52T131 61Q141 61 149 54T157 33Q157 18 147 9T123 -1Z" />
<glyph unicode="&quot;" horiz-adv-x="332" d="M136 549L162 763H199L158 549H136ZM266 549L292 763H329L288 549H266Z" />
<glyph unicode="#" horiz-adv-x="615" d="M102 501H575L571 477H98L102 501ZM23 233H495L492 209H19L23 233ZM269 693H296L92 0H64L269 693ZM496 693H525L320 0H293L496 693Z" />
<glyph unicode="$" horiz-adv-x="603" d="M236 0Q193 0 148 10T62 42L89 186H110L102 53L98 63Q132 46 169 38T243 29Q302 29 352 49T432 109T462 203Q462 243 445 269T400 310T339 335T272 357T211 385T166 429T149 502Q149 563 181 606T268 671T387 693Q429
693 471 684T552 654L525 513H504L516 642L524 632Q492 650 457 658T387 666Q332 666 285 647T210 592T181 505Q181 466 198 442T243 404T304 380T371 359T432 330T477 283T494 208Q494 140 458 94T363 24T236 0ZM223 -143L248 15L275 16L250 -143H223ZM353 678L376
825H403L380 679L353 678Z" />
<glyph unicode="%" horiz-adv-x="796" d="M117 -7L675 700H707L149 -7H117ZM234 352Q171 352 143 387T114 486Q114 545 135 593T199 671T302 700Q365 700 392 667T420 570Q420 513 399 463T337 383T234 352ZM237 376Q290 376 324 404T376 477T393 570Q393 624
371 649T299 675Q247 675 212 649T159 580T142 488Q142 433 165 405T237 376ZM522 -7Q460 -7 432 28T403 128Q403 186 424 235T487 313T590 342Q653 342 681 309T709 212Q709 155 688 105T625 24T522 -7ZM526 18Q579 18 613 46T665 119T682 212Q682 266 660 291T588
317Q535 317 500 291T448 221T430 130Q430 75 453 47T526 18Z" />
<glyph unicode="&amp;" horiz-adv-x="697" d="M291 -7Q204 -7 152 35T100 161Q100 219 126 265T198 340T302 374V371Q231 382 200 420T169 512Q169 571 200 612T286 677T415 700Q461 700 503 691T586 666L561 535H539L548 656L554 648Q485 672 413 672Q314 672
258 630T201 513Q201 449 247 418T377 386H651L647 366L556 351L565 360L541 209Q530 137 496 89T409 17T291 -7ZM296 21Q379 21 436 66T509 206L535 367L542 359H362Q296 359 244 335T163 268T133 166Q133 93 177 57T296 21Z" />
<glyph unicode="&apos;" horiz-adv-x="203" d="M136 549L162 763H199L158 549H136Z" />
<glyph unicode="(" horiz-adv-x="280" d="M314 836Q242 756 187 662T102 467T72 260Q72 172 95 82T167 -91L146 -105Q93 -22 68 72T42 263Q42 373 74 478T163 678T296 852L314 836Z" />
<glyph unicode=")" horiz-adv-x="280" d="M1 -92Q75 -12 129 82T213 278T243 485Q243 573 220 663T148 835L169 850Q223 766 248 672T273 481Q273 372 241 267T152 67T19 -108L1 -92Z" />
<glyph unicode="*" horiz-adv-x="462" d="M316 474L255 592L261 607L275 605L341 493L316 474ZM158 472L137 491L240 606L255 607V592L158 472ZM240 606L116 641L129 671L250 627L254 613L240 606ZM260 617L251 627L265 761L295 762L272 627L260 617ZM275 605L264
614L272 627L401 671L406 642L275 605Z" />
<glyph unicode="+" horiz-adv-x="557" d="M291 362L280 352L316 584H342L307 352L298 362H515L511 335H293L305 346L268 113H242L279 346L287 335H69L73 362H291Z" />
<glyph unicode="," horiz-adv-x="173" d="M17 27Q17 38 22 46T34 57T49 61Q61 61 68 53T76 31Q76 18 67 -6T36 -60T-20 -124L-33 -110Q-9 -80 4 -60T21 -26T26 -7Q26 0 24 4T20 13T17 27Z" />
<glyph unicode="-" horiz-adv-x="409" d="M339 307L335 280H81L85 307H339Z" />
<glyph unicode="." horiz-adv-x="177" d="M48 -1Q36 -1 29 7T22 27Q22 43 32 52T56 61Q66 61 74 54T82 33Q82 18 72 9T48 -1Z" />
<glyph unicode="/" horiz-adv-x="270" d="M349 798L-22 -75H-48L324 798H349Z" />
<glyph unicode="0" horiz-adv-x="632" d="M268 -7Q210 -7 170 18T109 96T88 235Q88 295 98 360T130 485T189 594T276 671T396 700Q480 700 526 649T572 473Q572 414 562 348T530 219T472 105T386 24T268 -7ZM270 22Q330 22 375 51T451 130T502 238T530 360T540
476Q540 552 522 594T472 653T395 671Q333 671 287 644T209 570T158 466T129 349T120 234Q120 119 159 71T270 22Z" />
<glyph unicode="1" horiz-adv-x="377" d="M196 27L190 38L318 22L315 0H16L19 22L176 38L166 27L267 665L275 661L83 554L75 576L278 696H302L196 27Z" />
<glyph unicode="2" horiz-adv-x="516" d="M10 0L14 31Q73 81 134 134T252 241T352 348T423 453T449 554Q449 613 410 642T305 671Q270 671 230 664T145 643L153 653L121 523H101L115 661Q168 680 217 690T310 700Q360 700 399 685T460 640T482 560Q482 507 457
453T388 345T288 237T171 129T52 23L51 30H425L420 0H10Z" />
<glyph unicode="3" horiz-adv-x="543" d="M198 -6Q151 -6 105 8T20 51L35 78Q111 23 201 23Q265 23 313 49T390 120T418 221Q418 260 402 290T348 337T247 354H177L181 382H255Q349 382 402 431T455 556Q455 622 417 647T321 673Q284 673 244 666T163 645L171
654L141 525H119L134 662Q185 680 235 690T328 700Q375 700 411 686T467 642T487 559Q487 476 437 427T305 367L303 369Q379 363 414 326T449 223Q449 158 417 106T328 24T198 -6Z" />
<glyph unicode="4" horiz-adv-x="538" d="M347 201L354 192H13L11 217L420 703L455 693L379 212L371 221H509L505 192H366L377 201L345 0H315L347 201ZM360 221L349 212L422 678L429 676L38 210L35 221H360Z" />
<glyph unicode="5" horiz-adv-x="513" d="M191 -7Q152 -7 110 4T25 39L39 67Q79 44 117 34T191 23Q257 23 308 54T387 135T416 241Q416 292 395 319T338 359T261 373T181 376H118L182 693H494L489 665H198L209 673L154 395L146 404H201Q229 404 261 403T327 394T388
370T432 322T449 243Q449 176 416 119T325 28T191 -7Z" />
<glyph unicode="6" d="M110 298L112 327Q169 369 227 388T336 407Q384 407 422 390T482 337T505 244Q505 176 474 119T387 27T258 -7Q216 -7 182 7T124 48T88 119T76 220Q76 284 91 351T136 481T210 592T313 671T445 700Q491 700 537 688L530 660Q507 666 486
668T445 671Q379 671 326 645T231 573T163 470T122 348T108 223Q108 153 125 108T177 43T260 22Q324 22 371 52T445 133T472 242Q472 316 434 348T332 380Q280 380 222 360T110 298Z" />
<glyph unicode="7" horiz-adv-x="461" d="M500 667L126 0H90L470 672L476 664H122L133 673L97 553H75L97 693H505L500 667Z" />
<glyph unicode="8" horiz-adv-x="587" d="M246 -6Q196 -6 155 12T90 65T65 153Q65 212 94 256T171 330T275 376L299 365Q249 349 203 322T128 254T98 158Q98 94 139 58T249 21Q306 21 353 45T430 109T459 199Q459 245 436 272T376 316T298 348T219 381T159 429T135
508Q135 551 154 586T205 647T280 686T369 700Q417 700 456 685T518 638T542 556Q542 499 512 460T435 396T334 358L308 368Q358 382 404 405T481 465T512 553Q512 596 492 622T438 661T366 673Q311 673 266 652T194 595T166 511Q166 467 189 441T250 397T329 366T408
334T468 284T492 203Q492 158 472 120T418 54T339 10T246 -6Z" />
<glyph unicode="9" horiz-adv-x="569" d="M486 399L484 374Q427 333 368 312T257 291Q210 291 172 308T111 360T89 452Q89 500 106 544T156 624T235 679T339 700Q381 700 414 687T471 648T507 579T519 476Q519 406 503 337T455 207T378 98T276 22T149 -6Q127 -6
104 -3T58 7L65 34Q88 28 109 26T149 23Q214 23 267 49T361 120T430 223T472 345T487 474Q487 544 470 587T419 651T336 671Q268 671 220 639T147 556T122 452Q122 379 162 349T264 318Q316 318 374 338T486 399Z" />
<glyph unicode=":" horiz-adv-x="177" d="M109 384Q97 384 90 392T83 412Q83 428 93 437T117 446Q127 446 135 439T143 418Q143 403 133 394T109 384ZM48 -1Q36 -1 29 7T22 27Q22 43 32 52T56 61Q66 61 74 54T82 33Q82 18 72 9T48 -1Z" />
<glyph unicode=";" horiz-adv-x="178" d="M22 27Q22 38 27 46T39 57T54 61Q66 61 73 53T81 31Q81 18 72 -6T41 -60T-15 -124L-28 -110Q-4 -80 9 -60T26 -26T31 -7Q31 0 29 4T25 13T22 27ZM109 384Q97 384 90 392T83 412Q83 428 93 437T117 446Q127 446 135 439T143
418Q143 403 133 394T109 384Z" />
<glyph unicode="&lt;" horiz-adv-x="524" d="M448 165L75 335L79 363L503 545L512 519L99 343L98 353L460 189L448 165Z" />
<glyph unicode="=" horiz-adv-x="717" d="M598 450L594 423H175L179 450H598ZM826 529L822 502H403L407 529H826Z" />
<glyph unicode="&gt;" horiz-adv-x="524" d="M106 545L479 375L475 346L51 165L43 191L455 366L457 357L95 520L106 545Z" />
<glyph unicode="?" horiz-adv-x="374" d="M106 217Q108 228 109 238T112 258Q119 310 144 346T203 410T267 463T319 519T340 591Q340 636 312 654T241 673Q215 673 185 667T124 650L117 674Q150 687 183 693T246 700Q282 700 310 690T356 657T373 596Q373 556
358 527T318 473T266 426T211 379T166 325T140 255Q139 247 137 237T133 215L106 217ZM91 -1Q79 -1 72 7T65 27Q65 43 75 52T99 61Q109 61 117 54T125 33Q125 18 115 9T91 -1Z" />
<glyph unicode="@" horiz-adv-x="860" d="M349 -106Q267 -106 210 -71T123 30T92 187Q92 277 121 358T204 502T333 601T502 637Q590 637 652 603T748 505T782 355Q782 303 770 252T736 160T680 93T602 67Q554 67 534 101T522 203L543 241Q522 181 490 143T423
86T359 68Q317 68 287 102T257 213Q257 284 285 343T360 437T469 473Q493 473 520 466T580 438L562 437L576 467L591 466L548 197Q541 150 553 121T605 92Q640 92 667 115T714 176T743 259T753 351Q753 409 737 457T688 540T608 592T498 611Q411 611 342 576T223
482T147 347T121 189Q121 62 182 -8T354 -79Q391 -79 430 -71T510 -47L518 -71Q476 -88 433 -97T349 -106ZM365 93Q388 93 414 107T466 149T511 220T540 323L557 431L571 417Q544 432 519 440T468 448Q415 448 374 417T310 332T286 214Q286 151 308 122T365 93Z"
/>
<glyph unicode="A" horiz-adv-x="664" d="M542 26L532 36L619 20L616 0H392L396 20L514 35L509 27L477 212L484 204H161L173 212L79 27L75 35L188 20L184 0H-35L-31 20L59 36L47 27L390 692L422 694L542 26ZM178 224L174 231H481L475 223L398 668H405L178 224Z" />
<glyph unicode="B" horiz-adv-x="630" d="M370 353L374 359Q456 356 495 319T535 212Q535 147 504 99T416 26T279 0H20L23 20L126 35L116 26L218 666L224 657L125 668L128 688L253 693H387Q422 693 450 688T500 670T535 641T556 602T563 552Q563 499 539 458T472
390T370 353ZM378 666H240L250 673L200 358L194 368H303Q354 368 395 380T467 416T514 471T530 547Q530 585 515 611T467 652T378 666ZM281 27Q384 27 443 76T502 211Q502 252 487 280T438 325T352 342H190L199 353L147 21L139 27H281Z" />
<glyph unicode="C" horiz-adv-x="629" d="M310 -7Q248 -7 197 23T114 114T83 269Q83 349 107 426T177 565T286 663T428 700Q470 700 520 688T620 651L594 513H573L582 642L590 632Q551 650 506 660T422 671Q352 671 296 636T199 543T137 413T116 269Q116 185 143
131T216 50T316 23Q368 23 423 45T528 115L542 92Q487 43 427 18T310 -7Z" />
<glyph unicode="D" horiz-adv-x="717" d="M394 693Q476 693 536 666T628 581T661 429Q661 347 636 270T562 132T446 36T294 0H20L23 20L126 35L117 26L219 666L224 657L125 668L128 688L280 693H394ZM298 27Q358 27 409 49T501 111T569 201T613 310T628 427Q628
510 600 562T517 640T387 666H240L250 673L147 20L140 27H298Z" />
<glyph unicode="E" horiz-adv-x="615" d="M494 145H515L492 0H20L23 20L126 35L116 26L218 666L224 657L125 668L128 688L254 693H589L567 553H546L550 674L559 666H240L250 673L200 359L194 369H472L467 342H190L199 353L147 22L140 27H470L459 19L494 145Z" />
<glyph unicode="F" horiz-adv-x="551" d="M20 0L23 20L126 35L116 27L218 667L224 657L125 668L128 688L254 693H580L558 553H537L541 674L548 666H240L250 673L197 343L191 358H455L451 331H186L196 338L147 26L142 36L263 20L260 0H20Z" />
<glyph unicode="G" horiz-adv-x="734" d="M330 -7Q256 -7 201 21T115 110T84 269Q84 362 111 440T188 577T306 667T455 700Q503 700 555 688T662 651L636 513H614L622 642L629 632Q584 652 540 661T456 671Q383 671 321 641T213 557T142 430T117 271Q117 182 144
128T220 48T336 22Q383 22 435 33T545 66L538 55L575 293L582 284L482 293L485 314L698 319L695 298L596 283L604 293L566 45Q501 20 442 7T330 -7Z" />
<glyph unicode="H" horiz-adv-x="773" d="M20 0L23 20L127 35L117 26L219 666L225 657L125 668L128 688L347 693L345 673L241 657L250 666L200 356L194 366H612L602 356L652 666L657 657L558 668L561 688L781 693L778 673L673 657L683 666L581 26L575 36L674 20L671
0H453L456 20L559 35L550 26L601 347L608 339H190L199 347L148 26L143 36L241 20L238 0H20Z" />
<glyph unicode="I" horiz-adv-x="339" d="M345 673L241 657L250 666L148 26L143 36L241 20L238 0H20L23 20L127 35L117 26L219 666L225 657L125 668L128 688L347 693L345 673Z" />
<glyph unicode="J" horiz-adv-x="326" d="M117 688L344 693L341 673L237 657L246 666L143 15Q140 -3 133 -28T110 -75T65 -113T-9 -128Q-29 -128 -51 -125L-46 -99Q-38 -100 -30 -100T-12 -101Q26 -101 49 -89T85 -60T103 -23T111 11L215 666L223 657L114 668L117 688Z" />
<glyph unicode="K" horiz-adv-x="678" d="M530 27L519 35L621 20L618 0H510L325 349L338 342H191L200 353L148 26L143 36L241 20L238 0H20L23 20L127 36L117 26L219 667L225 657L125 667L128 687L347 693L344 673L241 657L250 668L201 359L195 369H338L323 361L565
666L570 659L471 668L474 688L687 693L684 673L584 657L598 666L349 352V366L530 27Z" />
<glyph unicode="L" horiz-adv-x="525" d="M455 151H476L452 0H20L23 20L127 35L117 26L219 666L225 657L125 668L128 688L361 693L358 673L241 657L250 666L147 15L141 27H430L420 18L455 151Z" />
<glyph unicode="M" horiz-adv-x="881" d="M886 673L780 657L791 667L690 26L684 36L782 20L780 0H562L565 20L669 36L659 26L759 653L763 650L437 182L410 178L239 653L244 654L145 26L140 36L239 20L236 0H20L23 20L128 36L117 26L219 666L225 657L125 668L128
688L259 693L433 209H425L756 688L889 693L886 673Z" />
<glyph unicode="N" horiz-adv-x="778" d="M581 688L797 693L794 673L691 657L700 666L594 0H564L240 658L245 659L145 26L140 36L238 20L235 0H20L23 20L126 35L117 26L219 666L224 657L125 668L128 688L258 693L578 44L573 43L672 667L677 657L578 668L581 688Z" />
<glyph unicode="O" horiz-adv-x="734" d="M321 -7Q255 -7 201 21T115 109T83 265Q83 330 99 393T146 512T221 610T320 676T440 700Q507 700 561 672T647 583T679 430Q679 367 663 304T617 185T542 86T443 18T321 -7ZM324 22Q382 22 431 45T520 107T588 199T632
309T647 427Q647 511 619 565T543 645T436 671Q378 671 329 648T240 586T173 494T131 384T116 266Q116 183 143 129T218 48T324 22Z" />
<glyph unicode="P" horiz-adv-x="569" d="M284 282H180L190 290L148 26L143 36L265 20L262 0H20L23 20L127 35L117 26L219 666L225 657L125 668L128 688L255 693H379Q473 693 517 652T562 532Q562 460 527 403T430 314T284 282ZM373 666H242L251 675L192 300L185
309H286Q360 309 414 338T499 417T529 529Q529 597 490 631T373 666Z" />
<glyph unicode="Q" horiz-adv-x="736" d="M585 -159Q551 -159 515 -142T429 -89T307 -2L319 -7Q254 -6 201 22T115 110T83 264Q83 329 99 392T146 511T221 609T320 675T440 700Q507 700 561 672T647 583T679 430Q679 354 656 279T590 142T486 41T348 -5L351 0Q413
-42 454 -71T525 -114T585 -129Q609 -129 635 -119T697 -89L711 -112Q672 -136 642 -147T585 -159ZM324 22Q382 22 431 45T521 107T589 199T632 309T647 427Q647 511 619 565T543 645T436 671Q378 671 329 648T240 586T173 494T131 384T116 266Q116 183 143 129T218
48T324 22Z" />
<glyph unicode="R" horiz-adv-x="629" d="M20 0L23 20L126 35L117 26L219 666L224 657L125 668L128 688L255 693H376Q561 693 561 550Q561 490 532 442T452 365T335 330L328 335Q378 332 401 297T443 205L505 27L496 36L568 20L565 0H479L414 198Q395 256 376
282T330 316T261 323H188L197 332L148 26L143 36L264 20L261 0H20ZM199 340L193 350H285Q360 350 414 375T498 444T528 544Q528 590 510 615T466 650T413 663T369 666H242L251 675L199 340Z" />
<glyph unicode="S" horiz-adv-x="576" d="M223 -7Q179 -7 134 3T48 35L76 179H96L88 46L84 57Q119 39 156 31T229 23Q287 23 336 43T417 100T448 193Q448 241 426 269T368 314T292 346T217 379T159 429T136 510Q136 572 169 614T257 678T374 700Q416 700 458 690T539
660L511 520H491L502 648L510 639Q479 656 444 664T373 673Q320 673 274 655T198 601T168 515Q168 470 190 444T248 401T324 370T399 336T457 285T480 200Q480 132 444 86T349 17T223 -7Z" />
<glyph unicode="T" horiz-adv-x="544" d="M107 0L110 20L229 35L219 26L321 675L330 666H123L135 675L100 547H78L101 693H579L556 547H535L539 675L548 666H342L353 675L250 26L245 36L357 20L354 0H107Z" />
<glyph unicode="U" horiz-adv-x="735" d="M544 688L764 693L761 673L655 657L665 666L600 255Q587 171 556 113T470 24T323 -7Q218 -7 171 38T124 170Q124 188 125 207T131 248L198 666L205 657L105 668L107 688L326 693L323 673L220 657L229 666L162 245Q159
225 157 206T155 170Q155 94 194 58T324 21Q406 21 455 49T531 130T569 257L634 666L641 658L541 668L544 688Z" />
<glyph unicode="V" horiz-adv-x="663" d="M263 -2L159 666L168 657L71 668L75 688L308 693L305 673L186 657L192 667L288 29H282L604 666L607 658L493 668L496 688L725 693L722 673L622 657L634 666L295 -2H263Z" />
<glyph unicode="W" horiz-adv-x="991" d="M825 688L1051 693L1047 673L949 658L961 667L673 -2H642L554 650L560 649L259 -2H227L161 667L168 658L72 668L76 688L307 693L304 673L185 657L193 667L252 31L247 32L550 690L579 693L667 34H661L930 666L936 658L822
668L825 688Z" />
<glyph unicode="X" horiz-adv-x="662" d="M520 25L507 35L600 20L597 0H374L377 20L489 35L486 26L338 344H349L101 26L99 35L208 20L204 0H-16L-12 20L86 35L70 25L335 366V352L186 666L197 658L104 668L107 688L326 693L323 673L216 658L221 666L356 375H345L574
666L577 657L473 668L476 688L689 693L686 673L590 657L605 666L358 354L359 368L520 25Z" />
<glyph unicode="Y" horiz-adv-x="612" d="M156 0L159 20L263 35L254 26L292 269L294 249L155 666L165 658L69 668L73 688L303 693L300 673L180 658L186 666L314 280H306L558 666L561 658L448 668L451 688L675 693L673 673L575 658L588 666L315 249L321 269L284
26L279 36L377 20L374 0H156Z" />
<glyph unicode="Z" horiz-adv-x="579" d="M14 0L15 24L541 672L544 665H162L174 673L140 552H119L142 693H576L575 669L52 21L49 28H456L440 20L479 142H500L474 0H14Z" />
<glyph unicode="[" horiz-adv-x="316" d="M33 -96L181 840L363 835L359 813L204 810L66 -65L220 -68L216 -91L33 -96Z" />
<glyph unicode="\" horiz-adv-x="275" d="M89 798H114L218 -75H193L89 798Z" />
<glyph unicode="]" horiz-adv-x="316" d="M318 840L170 -96L-12 -91L-9 -68L147 -65L285 810L131 813L135 835L318 840Z" />
<glyph unicode="^" horiz-adv-x="504" d="M76 523L303 848H325L448 523H419L304 830H318L106 523H76Z" />
<glyph unicode="_" horiz-adv-x="477" d="M425 -78L421 -104H-59L-55 -78H425Z" />
<glyph unicode="`" horiz-adv-x="382" d="M195 778L348 649L335 631L172 747L195 778Z" />
<glyph unicode="a" horiz-adv-x="580" d="M190 -7Q153 -7 122 13T73 76T55 185Q55 256 76 318T135 428T224 503T336 530Q369 530 406 520T484 485L471 484L485 523H505L425 20L414 37L510 22L507 2L392 -2L426 215L436 223Q408 143 365 92T276 17T190 -7ZM196
21Q228 21 265 39T338 96T402 193T443 333L466 476L473 461Q437 483 403 493T335 503Q281 503 236 478T157 410T106 309T87 188Q87 100 119 61T196 21Z" />
<glyph unicode="b" horiz-adv-x="569" d="M65 15L180 741L190 725L96 741L99 761L215 766L141 301L132 300Q161 382 203 432T291 506T378 530Q415 530 445 510T493 447T512 332Q512 230 474 154T365 36T201 -7Q138 -7 65 15ZM97 21L88 40Q119 30 149 25T208 20Q290
20 350 58T445 166T480 330Q480 424 449 463T372 502Q340 502 302 484T228 427T164 330T124 190L97 21Z" />
<glyph unicode="c" horiz-adv-x="477" d="M225 -7Q177 -7 139 14T78 81T55 199Q55 267 76 327T133 432T218 504T323 530Q355 530 390 520T461 488L442 380H417L421 484L426 474Q371 503 319 503Q269 503 227 479T153 412T105 315T87 200Q87 106 128 64T231 21Q265
21 303 33T381 69L392 47Q350 21 307 7T225 -7Z" />
<glyph unicode="d" horiz-adv-x="581" d="M190 -7Q153 -7 122 13T73 76T55 185Q55 256 76 318T135 428T224 503T336 530Q369 530 406 520T484 485L467 483L508 739L518 725L418 742L421 761L543 766L425 20L414 37L510 22L507 2L392 -2L426 215L436 223Q408 143
365 92T276 17T190 -7ZM196 21Q228 21 265 39T338 96T402 193T443 333L466 476L473 461Q437 483 403 493T335 503Q281 503 236 478T157 410T106 309T87 188Q87 100 119 61T196 21Z" />
<glyph unicode="e" horiz-adv-x="490" d="M229 -7Q179 -7 140 15T78 82T55 197Q55 259 74 318T128 425T213 501T325 530Q391 530 427 499T464 421Q464 378 434 344T353 285T242 247T124 234Q111 234 101 234T80 236L84 263Q95 262 107 261T133 260Q183 260 235
271T333 304T405 354T433 419Q433 456 403 479T321 503Q266 503 223 477T149 406T103 308T87 197Q87 106 128 63T233 20Q268 20 308 32T390 69L401 48Q356 21 312 7T229 -7Z" />
<glyph unicode="f" horiz-adv-x="294" d="M-57 -237Q-68 -237 -77 -236T-96 -234L-91 -209Q-89 -209 -82 -209T-64 -210Q-25 -210 -1 -198T37 -165T56 -121T66 -73L157 500L163 493H71L74 513L168 519L159 511L174 610Q188 695 235 732T346 770Q362 770 379 768T413
761L404 734Q389 740 374 741T344 743Q292 743 254 711T205 610L190 510L183 519H335L331 493H179L188 499L98 -69Q94 -94 86 -123T62 -178T17 -220T-57 -237Z" />
<glyph unicode="g" d="M205 -237Q168 -237 127 -229T39 -205L48 -177Q92 -193 132 -201T206 -210Q244 -210 274 -199T327 -166T365 -111T387 -33L427 216L436 223Q408 143 365 92T276 17T190 -7Q153 -7 122 13T73 76T55 185Q55 256 76 318T135 428T224 503T336
530Q369 530 406 520T484 485H471L485 523H505L417 -31Q409 -86 391 -125T345 -188T283 -225T205 -237ZM196 21Q228 21 265 39T338 96T402 193T443 333L466 476L473 461Q437 483 403 493T335 503Q281 503 236 478T157 410T106 309T87 188Q87 100 119 61T196 21Z"
/>
<glyph unicode="h" horiz-adv-x="583" d="M401 -2L458 358Q467 409 457 441T425 487T373 502Q340 502 303 484T229 428T166 331T125 191L94 0H63L181 738L188 727L97 740L100 761L216 766L142 308L132 300Q163 386 205 436T293 508T378 530Q416 530 444 512T486
457T490 360L436 27L426 37L520 22L517 2L401 -2Z" />
<glyph unicode="i" horiz-adv-x="267" d="M77 -2L157 502L168 485L72 501L75 521L192 526L112 23L103 37L196 22L193 2L77 -2ZM198 658Q185 658 178 666T170 689Q170 705 179 716T205 728Q218 728 225 720T232 697Q232 681 223 670T198 658Z" />
<glyph unicode="j" horiz-adv-x="253" d="M-97 -234L-92 -209Q-84 -210 -77 -210T-64 -210Q-3 -210 25 -180T65 -73L155 496L161 487L71 501L74 521L191 526L97 -68Q87 -128 69 -165T19 -219T-59 -237Q-70 -237 -78 -236T-97 -234ZM193 658Q180 658 173 666T165
689Q165 705 174 716T200 728Q213 728 220 720T227 697Q227 681 218 670T193 658Z" />
<glyph unicode="k" horiz-adv-x="521" d="M63 0L180 741L190 725L96 741L99 761L215 766L142 299L134 305H274L263 299L408 498L411 490L327 501L329 521L522 526L519 506L425 490L439 499L288 291L287 306L400 29L391 37L476 20L474 0H380L265 286L273 279H129L139
282L94 0H63Z" />
<glyph unicode="l" horiz-adv-x="254" d="M63 -2L181 741L191 725L97 740L100 761L216 766L98 23L89 37L183 22L180 2L63 -2Z" />
<glyph unicode="m" horiz-adv-x="909" d="M727 -2L785 358Q793 409 784 441T753 487T704 502Q672 502 636 483T566 426T504 330T463 191L433 0H402L459 358Q468 409 459 441T428 487T379 502Q348 502 312 483T240 426T178 330T138 191L108 0H77L156 498L167 485L72
501L75 521L191 526L154 308L145 300Q176 386 218 436T304 508T386 530Q420 530 447 512T488 457T491 361L481 302L471 300Q502 386 544 436T630 508T711 530Q746 530 773 512T813 457T816 360L762 24L750 37L847 22L844 2L727 -2Z" />
<glyph unicode="n" horiz-adv-x="596" d="M414 -2L472 358Q480 409 470 441T438 487T386 502Q353 502 316 484T242 428T179 331T138 191L108 0H77L157 502L167 485L72 501L75 521L191 526L154 308L145 300Q176 386 218 436T306 508T391 530Q429 530 458 512T500
457T503 360L449 24L437 37L534 22L531 2L414 -2Z" />
<glyph unicode="o" horiz-adv-x="553" d="M320 530Q373 530 412 508T473 439T495 319Q495 259 479 201T429 96T347 21T234 -7Q183 -7 144 15T82 84T59 205Q59 266 75 324T125 428T207 502T320 530ZM315 503Q261 503 219 478T149 410T106 315T91 208Q91 117 129
69T239 20Q293 20 334 45T404 113T448 209T463 316Q463 408 426 455T315 503Z" />
<glyph unicode="p" horiz-adv-x="582" d="M-44 -230L-41 -210L57 -193L44 -208L156 498L165 487L72 501L75 521L191 526L154 300H146Q175 381 217 432T305 506T391 530Q428 530 459 510T508 448T526 337Q526 241 494 168T402 51T263 -3T85 14L111 16L75 -208L63
-193L171 -210L168 -230H-44ZM111 21L102 40Q191 13 263 22T386 72T466 180T494 335Q494 424 462 463T385 502Q353 502 316 484T242 427T179 330T138 190L111 21Z" />
<glyph unicode="q" d="M255 -230L258 -210L371 -193L358 -208L391 3L426 215L436 223Q408 143 365 92T276 17T190 -7Q153 -7 122 13T73 76T55 185Q55 256 76 318T135 428T224 503T336 530Q369 530 406 520T484 485L471 484L485 523H505L388 -208L379 -193L472
-210L469 -230H255ZM196 21Q228 21 265 39T338 96T402 193T443 333L466 476L473 461Q437 483 403 493T335 503Q281 503 236 478T157 410T106 309T87 188Q87 100 119 61T196 21Z" />
<glyph unicode="r" horiz-adv-x="382" d="M77 0L157 502L167 485L72 501L75 521L191 526L154 308L146 299Q169 369 208 420T293 501T384 530Q402 530 416 525L396 405H372L378 510L384 502Q353 504 317 486T244 430T180 333T138 191L108 0H77Z" />
<glyph unicode="s" horiz-adv-x="473" d="M171 -7Q138 -7 101 -2T28 14L52 132H75L67 24L61 37Q87 29 116 25T173 20Q222 20 265 34T334 75T361 143Q361 178 342 199T293 234T228 260T163 287T113 327T94 390Q94 432 119 463T188 512T284 530Q318 530 355 523T430
502L412 407H389V496L397 484Q368 495 338 499T284 504Q241 504 205 490T148 452T126 392Q126 359 145 339T194 305T259 279T324 252T374 212T393 148Q393 102 365 68T287 13T171 -7Z" />
<glyph unicode="t" horiz-adv-x="327" d="M273 25Q243 9 216 1T166 -7Q132 -7 111 13T90 73Q90 81 90 87T93 98L157 505L163 497H59L62 517L168 524L159 515L179 643L210 646L190 515L183 523H335L331 497H178L188 505L124 102Q123 98 123 92T122 78Q122 47 136
34T173 21Q192 21 214 28T262 48L273 25Z" />
<glyph unicode="u" horiz-adv-x="596" d="M206 -7Q169 -8 140 10T98 66T94 163L147 498L153 487L64 501L67 521L183 526L125 165Q118 114 127 83T159 36T211 21Q244 21 281 39T355 96T418 192T459 332L489 523H520L442 27L436 36L526 22L523 2L408 -2L442 215L452
223Q423 140 381 90T293 17T206 -7Z" />
<glyph unicode="v" horiz-adv-x="482" d="M190 -2L90 499L98 492L31 501L34 521L116 526L212 28H207L441 499L445 493L365 501L368 521L527 526L524 506L459 492L473 499L220 -2H190Z" />
<glyph unicode="w" horiz-adv-x="744" d="M156 -2L99 498L107 492L34 501L38 521L124 526L180 13H173L395 523L434 525L493 20H490L701 499L703 492L627 501L629 521L784 526L781 506L716 492L730 499L505 -2H469L409 502L416 504L191 -2H156Z" />
<glyph unicode="x" horiz-adv-x="522" d="M-31 0L-28 19L68 34L53 26L246 275L257 281L448 521L534 526L531 506L449 492L463 500L274 266L265 260L65 0H-31ZM375 0L248 258L128 500L138 492L67 501L69 521L149 527L268 280L395 26L384 34L474 20L471 0H375Z" />
<glyph unicode="y" horiz-adv-x="485" d="M-51 -233L-46 -207Q-39 -208 -32 -209T-17 -210Q35 -210 70 -184T135 -106T198 21L195 4L93 499L101 492L29 501L33 521L119 526L218 34L210 35L443 499L447 493L368 501L370 521L532 526L529 506L461 492L474 499L219
-4Q201 -39 185 -72T149 -135T108 -188T55 -224T-13 -237Q-29 -237 -51 -233Z" />
<glyph unicode="z" horiz-adv-x="450" d="M376 122L358 1L5 0L8 21L400 507L405 498H116L130 509L103 414H82L98 523H433L430 501L39 15L37 25L338 26L324 14L355 122H376Z" />
<glyph unicode="{" horiz-adv-x="300" d="M148 -96Q112 -96 89 -85T58 -47T58 32L93 253Q101 300 87 329T21 359L25 386Q59 386 80 400T114 438T131 494L166 715Q173 762 188 789T228 828T295 840H327L324 818Q277 818 252 809T214 776T194 707L159 486Q151 434
132 409T89 376T40 368V377Q64 377 86 369T120 335T123 256L88 35Q81 -10 85 -33T112 -64T182 -73L178 -96H148Z" />
<glyph unicode="|" horiz-adv-x="338" d="M240 797H268L127 -93H100L240 797Z" />
<glyph unicode="}" horiz-adv-x="300" d="M187 840Q224 840 246 830T277 792T277 713L242 491Q235 445 248 416T314 386L310 359Q276 359 255 345T221 307T204 251L169 29Q162 -17 147 -44T107 -84T40 -96H8L11 -73Q58 -73 83 -64T121 -32T141 37L176 258Q185
311 204 336T247 369T294 377L295 368Q272 368 249 376T215 410T212 489L247 710Q254 755 250 778T223 810T153 818L157 840H187Z" />
<glyph unicode="~" horiz-adv-x="698" d="M467 299Q436 299 410 311T358 339T309 367T257 380Q233 380 207 367T150 316L133 330Q162 367 193 386T260 406Q291 406 317 394T369 366T419 338T471 325Q495 325 521 339T578 389L594 375Q564 336 533 318T467 299Z" />
<glyph unicode="&#xa0;" horiz-adv-x="207" />
<glyph unicode="&#xa1;" horiz-adv-x="327" d="M177 258L104 -230H69L152 256L177 258ZM195 464Q208 464 214 457T221 437Q221 421 211 412T187 402Q177 402 169 409T161 430Q161 446 172 455T195 464Z" />
<glyph unicode="&#xa2;" horiz-adv-x="572" d="M246 -20L267 119L275 108Q194 107 147 159T99 299Q99 357 117 410T168 506T249 574T352 603L343 592L365 732H389L366 594L356 604Q404 604 444 594T514 562L495 456H472L477 552Q449 567 418 572T365 578Q312 578
269 555T194 493T146 405T129 302Q129 227 169 181T279 135Q319 135 364 152T458 202L470 181Q419 145 372 128T283 108L292 119L269 -20H246Z" />
<glyph unicode="&#xa3;" horiz-adv-x="668" d="M45 0L48 20L146 40L128 32Q172 64 189 115T211 230T218 363L226 354H101L103 375L227 379L219 373Q219 478 236 550T302 661T444 700Q480 700 522 694T612 676L586 540H566L573 666L582 654Q504 672 446 672Q362
672 320 636T264 533T250 371L241 379H443L439 354H239L250 361Q248 287 242 221T215 105T152 25L147 30L490 27L479 18L514 148H535L511 0H45Z" />
<glyph unicode="&#xa4;" horiz-adv-x="653" d="M504 130L485 111L413 191L427 189Q404 167 373 154T306 141Q269 141 243 154T202 188L219 190L122 109L106 128L203 209L198 194Q188 209 184 228T179 269Q179 310 193 346T234 409L235 394L161 478L182 498L255
413L241 415Q265 437 296 450T364 463Q400 463 425 452T465 421L448 418L542 498L557 480L464 401L468 416Q488 386 488 340Q488 302 474 263T434 195L431 211L504 130ZM309 166Q354 166 387 191T440 256T459 336Q459 383 434 410T361 438Q312 438 278 413T227
349T209 271Q209 222 236 194T309 166Z" />
<glyph unicode="&#xa5;" horiz-adv-x="700" d="M164 264L167 287H334L330 275L200 666L210 658L115 668L118 688L349 693L346 673L226 658L231 666L359 280H351L602 666L606 658L492 668L495 688L720 693L717 673L619 658L632 666L377 276L376 287H540L537 264H164ZM201
0L204 20L306 35L298 26L321 169L324 162H148L152 185H524L520 162H342L350 170L329 26L322 36L422 20L419 0H201Z" />
<glyph unicode="&#xa6;" horiz-adv-x="337" d="M183 439L240 797H267L210 439H183ZM99 -93L155 265H183L126 -93H99Z" />
<glyph unicode="&#xa7;" horiz-adv-x="558" d="M179 -176Q149 -176 117 -171T53 -155L77 -39H99L91 -145L85 -135Q135 -150 182 -150Q256 -150 302 -110T349 -6Q349 27 333 51T289 96T232 134T176 173T132 221T115 283Q115 322 133 353T181 410T241 452L259 437Q234
423 208 401T163 350T145 288Q145 256 162 232T206 189T263 150T319 110T363 61T380 -4Q380 -58 354 -96T283 -155T179 -176ZM331 85L317 101Q340 116 363 140T402 193T418 256Q418 288 401 312T357 357T301 396T244 436T200 484T183 546Q183 596 207 629T274 681T369
700Q399 700 432 693T497 672L480 579H457L460 667L466 657Q442 664 417 669T368 674Q301 674 258 641T214 547Q214 516 230 492T274 449T331 411T388 371T431 323T448 257Q448 218 431 186T387 128T331 85Z" />
<glyph unicode="&#xa8;" horiz-adv-x="421" d="M189 659Q178 659 171 667T164 690Q164 706 173 716T196 727Q208 727 215 719T222 697Q222 682 213 671T189 659ZM362 659Q350 659 343 667T336 690Q336 706 345 716T369 727Q381 727 388 719T395 697Q395 682 386
671T362 659Z" />
<glyph unicode="&#xa9;" horiz-adv-x="908" d="M467 163Q402 163 357 210T312 344Q312 403 333 446T393 511T479 534Q533 534 591 506L588 422H567L559 497L567 491Q544 501 522 505T481 510Q418 510 380 466T341 345Q341 267 378 227T470 187Q499 187 530 198T591
232L605 214Q570 188 535 176T467 163ZM456 -7Q380 -7 316 19T206 91T134 200T108 339Q108 417 135 483T211 598T327 673T472 700Q550 700 615 674T727 601T802 491T829 354Q829 277 801 212T722 97T604 21T456 -7ZM459 18Q532 18 594 43T703 113T775 219T801 352Q801
446 758 518T641 633T470 675Q372 675 297 632T179 514T136 342Q136 248 177 175T290 60T459 18Z" />
<glyph unicode="&#xaa;" horiz-adv-x="472" d="M71 196L75 223H413L409 196H71ZM189 317Q147 317 117 349T87 453Q87 521 114 577T190 667T299 701Q324 701 351 694T409 668L400 667L410 695H429L369 336L360 350L431 339L429 322L341 320L366 475L376 481Q355
423 323 387T256 334T189 317ZM194 342Q226 342 264 364T335 435T379 560L396 661L401 647Q374 662 349 669T298 676Q246 676 205 646T141 565T117 455Q117 396 139 369T194 342Z" />
<glyph unicode="&#xab;" horiz-adv-x="439" d="M168 78L58 258L61 283L228 463L243 448L80 262L83 280L187 92L168 78ZM327 78L217 258L220 283L387 463L402 448L239 262L242 280L346 92L327 78Z" />
<glyph unicode="&#xac;" horiz-adv-x="678" d="M513 335L507 346L469 112H498L537 362H84L80 335H513Z" />
<glyph unicode="&#xad;" horiz-adv-x="400" d="M590 307L586 280H332L336 307H590Z" />
<glyph unicode="&#xae;" horiz-adv-x="752" d="M269 288V302L326 313L317 305V615L326 606L269 612V627L342 629H409Q467 629 497 608T528 545Q528 511 501 486T417 456V462Q449 458 465 442T495 396L543 302L533 311L575 302V288H522L471 392Q457 421 443 433T414
447T376 450H335L342 458V305L335 313L404 302V288H269ZM342 464L335 472H387Q444 472 472 491T501 545Q501 574 478 590T407 606H335L342 619V464ZM399 172Q316 173 253 208T155 305T120 450Q120 532 158 597T260 700T408 738Q492 738 557 703T658 605T695 460Q695
400 673 348T610 256T516 194T399 172ZM400 194Q477 194 538 229T635 324T671 459Q671 534 637 592T544 682T407 715Q331 715 272 681T179 587T146 451Q146 375 177 317T266 227T400 194Z" />
<glyph unicode="&#xaf;" horiz-adv-x="419" d="M394 707L390 679H162L166 707H394Z" />
<glyph unicode="&#xb0;" horiz-adv-x="414" d="M216 454Q164 454 134 484T104 568Q104 614 124 650T180 708T260 729Q312 729 341 699T371 615Q371 571 352 534T297 476T216 454ZM218 477Q258 477 286 496T330 548T346 615Q346 658 323 682T257 706Q217 706 188
687T144 637T129 570Q129 526 152 502T218 477Z" />
<glyph unicode="&#xb1;" horiz-adv-x="579" d="M309 401L295 393L330 612H357L323 393L315 401H521L517 374H310L321 384L286 163H259L293 383L303 374H98L102 401H309ZM470 73L466 47H47L51 73H470Z" />
<glyph unicode="&#xb2;" horiz-adv-x="336" d="M49 346L52 371Q136 445 194 500T283 598T313 681Q313 715 290 729T230 744Q209 744 185 740T136 727L140 734L123 659H106L115 745Q147 756 177 762T234 769Q281 769 312 750T343 686Q343 652 326 619T276 549T195
468T84 367L83 372H304L300 346H49Z" />
<glyph unicode="&#xb3;" horiz-adv-x="356" d="M169 341Q137 341 109 350T57 376L69 397Q92 381 117 374T168 366Q226 366 261 399T296 480Q296 514 275 534T198 555H149L152 577H202Q239 577 265 590T305 626T319 678Q319 715 298 730T239 745Q218 745 195 741T146
729L152 735L133 660H117L126 745Q158 757 189 762T247 768Q292 768 319 749T347 682Q347 636 320 605T244 566L242 568Q284 563 304 542T324 481Q324 439 304 408T248 359T169 341Z" />
<glyph unicode="&#xb4;" horiz-adv-x="362" d="M138 631L123 651L284 778L307 744L138 631Z" />
<glyph unicode="&#xb5;" horiz-adv-x="694" d="M119 -231L89 -230L204 497L210 487L120 501L123 521L240 526L182 165Q175 114 184 83T216 36T268 21Q301 21 338 39T412 96T475 192T516 332L546 523H577L498 24L490 36L583 22L580 2L465 -2L499 215L509 223Q480
140 438 90T350 17T265 -7Q220 -8 188 18T152 102L162 94Q157 47 151 -7T136 -118T119 -231Z" />
<glyph unicode="&#xb6;" horiz-adv-x="535" d="M53 -170L57 -150L161 -134L151 -144L232 367L247 348Q181 348 144 386T106 487Q106 545 131 592T200 666T302 693H533L530 673L424 657L436 667L302 -170H274L409 676L414 666L299 665L310 677L175 -170H53Z" />
<glyph unicode="&#xb7;" horiz-adv-x="177" d="M95 301Q83 301 76 309T69 329Q69 345 79 354T103 363Q113 363 121 356T129 335Q129 320 119 311T95 301Z" />
<glyph unicode="&#xb8;" horiz-adv-x="357" d="M94 -216Q78 -216 60 -212T23 -199L35 -177Q65 -191 96 -191Q127 -191 148 -177T170 -136Q170 -111 149 -101T85 -89L102 0H126L115 -66Q163 -70 181 -86T199 -129Q199 -156 185 -175T147 -205T94 -216Z" />
<glyph unicode="&#xb9;" horiz-adv-x="256" d="M169 367L164 375L243 364L240 346H52L54 364L151 374L144 367L202 740L211 738L95 670L88 688L213 767H233L169 367Z" />
<glyph unicode="&#xba;" horiz-adv-x="443" d="M231 317Q169 317 129 353T88 470Q88 515 100 556T138 629T202 680T290 700Q354 700 393 664T432 547Q432 490 409 437T342 351T231 317ZM50 196L54 223H372L368 196H50ZM233 341Q274 341 306 359T359 406T391 472T402
546Q402 609 373 642T287 675Q246 675 214 658T160 611T128 546T117 472Q117 409 147 375T233 341Z" />
<glyph unicode="&#xbb;" horiz-adv-x="439" d="M274 463L384 283L381 258L214 78L199 92L362 279L359 261L255 449L274 463ZM116 463L226 283L222 258L56 78L40 92L203 279L201 261L96 449L116 463Z" />
<glyph unicode="&#xbc;" horiz-adv-x="744" d="M195 297L190 305L269 294L266 276H78L80 294L177 304L170 297L228 670L237 668L121 600L114 618L239 697H259L195 297ZM99 -5L639 698H670L128 -5H99ZM570 120L575 112H370L369 135L612 425L644 420L598 129L592
136H674L670 112H587L596 120L577 0H551L570 120ZM579 136L571 129L615 406L620 405L390 127L388 136H579Z" />
<glyph unicode="&#xbd;" horiz-adv-x="756" d="M196 297L191 305L270 294L267 276H79L81 294L178 304L171 297L229 670L238 668L122 600L115 618L240 697H260L196 297ZM98 -5L638 698H669L127 -5H98ZM399 0L402 25Q486 99 544 154T633 252T663 335Q663 369 640
383T580 398Q559 398 535 394T486 381L490 388L473 313H456L465 399Q497 410 527 416T584 423Q631 423 662 404T693 340Q693 306 676 273T626 203T545 122T434 21L433 26H654L650 0H399Z" />
<glyph unicode="&#xbe;" horiz-adv-x="807" d="M179 271Q147 271 119 280T67 306L79 327Q102 311 127 304T178 296Q236 296 271 329T306 410Q306 444 285 464T208 485H159L162 507H212Q249 507 275 520T315 556T329 608Q329 645 308 660T249 675Q228 675 205 671T156
659L162 665L143 590H127L136 675Q168 687 199 692T257 698Q302 698 329 679T357 612Q357 566 330 535T254 496L252 498Q294 493 314 472T334 411Q334 369 314 338T258 289T179 271ZM163 -5L703 698H734L192 -5H163ZM633 120L638 112H433L432 135L675 425L707 420L661
129L655 136H737L733 112H650L659 120L640 0H614L633 120ZM642 136L634 129L678 406L683 405L453 127L451 136H642Z" />
<glyph unicode="&#xbf;" horiz-adv-x="389" d="M281 282Q280 271 279 261T276 241Q268 190 243 154T185 89T121 36T68 -20T47 -91Q47 -137 75 -155T146 -174Q173 -174 203 -168T264 -151L271 -175Q238 -188 205 -194T142 -201Q105 -201 77 -191T32 -158T15 -97Q15
-57 30 -28T69 26T122 73T176 120T221 174T248 245Q249 252 251 263T254 284L281 282ZM296 500Q310 500 316 493T322 473Q322 457 312 448T289 438Q278 438 271 445T263 466Q263 482 273 491T296 500Z" />
<glyph unicode="&#xc0;" horiz-adv-x="664" d="M542 26L532 36L619 20L616 0H392L396 20L514 35L509 27L477 212L484 204H161L173 212L79 27L75 35L188 20L184 0H-35L-31 20L59 36L47 27L390 692L422 694L542 26ZM178 224L174 231H481L475 223L398 668H405L178
224ZM498 748L306 841L326 875L508 768L498 748Z" />
<glyph unicode="&#xc1;" horiz-adv-x="664" d="M542 26L532 36L619 20L616 0H392L396 20L514 35L509 27L477 212L484 204H161L173 212L79 27L75 35L188 20L184 0H-35L-31 20L59 36L47 27L390 692L422 694L542 26ZM178 224L174 231H481L475 223L398 668H405L178
224ZM334 748L323 766L509 876L525 841L334 748Z" />
<glyph unicode="&#xc2;" horiz-adv-x="664" d="M542 26L532 36L619 20L616 0H392L396 20L514 35L509 27L477 212L484 204H161L173 212L79 27L75 35L188 20L184 0H-35L-31 20L59 36L47 27L390 692L422 694L542 26ZM178 224L174 231H481L475 223L398 668H405L178
224ZM291 743L279 760L423 869L444 870L558 760L542 743L421 840H437L291 743Z" />
<glyph unicode="&#xc3;" horiz-adv-x="664" d="M542 26L532 36L619 20L616 0H392L396 20L514 35L509 27L477 212L484 204H161L173 212L79 27L75 35L188 20L184 0H-35L-31 20L59 36L47 27L390 692L422 694L542 26ZM178 224L174 231H481L475 223L398 668H405L178
224ZM300 772L283 784Q304 818 324 832T368 846Q393 846 413 836T451 815T488 804Q522 804 553 849L569 838Q548 804 527 790T484 776Q461 776 442 786T405 807T365 818Q348 818 333 808T300 772Z" />
<glyph unicode="&#xc4;" horiz-adv-x="664" d="M542 26L532 36L619 20L616 0H392L396 20L514 35L509 27L477 212L484 204H161L173 212L79 27L75 35L188 20L184 0H-35L-31 20L59 36L47 27L390 692L422 694L542 26ZM178 224L174 231H481L475 223L398 668H405L178
224ZM335 771Q324 771 317 779T310 802Q310 818 319 828T342 839Q354 839 361 831T368 809Q368 794 359 783T335 771ZM508 771Q496 771 489 779T482 802Q482 818 491 828T515 839Q527 839 534 831T541 809Q541 794 532 783T508 771Z" />
<glyph unicode="&#xc5;" horiz-adv-x="664" d="M542 26L532 36L619 20L616 0H392L396 20L514 35L509 27L477 212L484 204H161L173 212L79 27L75 35L188 20L184 0H-35L-31 20L59 36L47 27L390 692L422 694L542 26ZM178 224L174 231H481L475 223L398 668H405L178
224ZM413 733Q386 733 366 749T345 798Q345 825 358 844T392 875T438 886Q465 886 485 871T505 822Q505 796 492 776T459 744T413 733ZM416 755Q445 755 463 775T481 821Q481 841 469 853T434 865Q406 865 388 845T370 799Q370 779 382 767T416 755Z" />
<glyph unicode="&#xc6;" horiz-adv-x="920" d="M-35 0L-32 20L66 36L52 26L483 666L487 658L393 668L397 688L552 693H894L872 553H852L856 674L863 666H550L560 675L511 361L504 369H776L772 342H500L510 351L457 18L450 27H774L764 18L799 145H820L796 0H331L334
20L437 36L427 26L460 232L467 224H208L221 231L83 26L80 36L191 20L188 0H-35ZM229 243L225 250H471L461 242L530 674L537 666H506L519 673L229 243Z" />
<glyph unicode="&#xc7;" horiz-adv-x="629" d="M290 -216Q273 -216 255 -212T218 -199L230 -177Q260 -191 291 -191Q322 -191 344 -177T366 -136Q366 -111 345 -101T280 -89L301 17H325L311 -66Q358 -70 376 -86T394 -129Q394 -156 380 -175T342 -205T290 -216ZM83
269Q83 349 107 426T177 565T286 663T428 700Q470 700 520 688T620 651L594 513H573L582 642L590 632Q551 650 506 660T422 671Q352 671 296 636T199 543T137 413T116 269Q116 185 143 131T216 50T316 23Q368 23 423 45T528 115L542 92Q487 43 427 18T310 -7Q248
-7 197 23T114 114T83 269Z" />
<glyph unicode="&#xc8;" horiz-adv-x="615" d="M494 145H515L492 0H20L23 20L126 35L116 26L218 666L224 657L125 668L128 688L254 693H589L567 553H546L550 674L559 666H240L250 673L200 359L194 369H472L467 342H190L199 353L147 22L140 27H470L459 19L494 145ZM477
748L285 841L305 875L487 768L477 748Z" />
<glyph unicode="&#xc9;" horiz-adv-x="615" d="M494 145H515L492 0H20L23 20L126 35L116 26L218 666L224 657L125 668L128 688L254 693H589L567 553H546L550 674L559 666H240L250 673L200 359L194 369H472L467 342H190L199 353L147 22L140 27H470L459 19L494 145ZM313
748L302 766L488 876L504 841L313 748Z" />
<glyph unicode="&#xca;" horiz-adv-x="615" d="M494 145H515L492 0H20L23 20L126 35L116 26L218 666L224 657L125 668L128 688L254 693H589L567 553H546L550 674L559 666H240L250 673L200 359L194 369H472L467 342H190L199 353L147 22L140 27H470L459 19L494 145ZM270
743L258 760L402 869L423 870L537 760L521 743L400 840H416L270 743Z" />
<glyph unicode="&#xcb;" horiz-adv-x="615" d="M494 145H515L492 0H20L23 20L126 35L116 26L218 666L224 657L125 668L128 688L254 693H589L567 553H546L550 674L559 666H240L250 673L200 359L194 369H472L467 342H190L199 353L147 22L140 27H470L459 19L494 145ZM314
771Q303 771 296 779T289 802Q289 818 298 828T321 839Q333 839 340 831T347 809Q347 794 338 783T314 771ZM487 771Q475 771 468 779T461 802Q461 818 470 828T494 839Q506 839 513 831T520 809Q520 794 511 783T487 771Z" />
<glyph unicode="&#xcc;" horiz-adv-x="339" d="M345 673L241 657L250 666L148 26L143 36L241 20L238 0H20L23 20L127 35L117 26L219 666L225 657L125 668L128 688L347 693L345 673ZM585 748L393 841L413 875L595 768L585 748Z" />
<glyph unicode="&#xcd;" horiz-adv-x="339" d="M345 673L241 657L250 666L148 26L143 36L241 20L238 0H20L23 20L127 35L117 26L219 666L225 657L125 668L128 688L347 693L345 673ZM421 748L410 766L596 876L612 841L421 748Z" />
<glyph unicode="&#xce;" horiz-adv-x="339" d="M345 673L241 657L250 666L148 26L143 36L241 20L238 0H20L23 20L127 35L117 26L219 666L225 657L125 668L128 688L347 693L345 673ZM378 743L366 760L510 869L531 870L645 760L629 743L508 840H524L378 743Z" />
<glyph unicode="&#xcf;" horiz-adv-x="339" d="M345 673L241 657L250 666L148 26L143 36L241 20L238 0H20L23 20L127 35L117 26L219 666L225 657L125 668L128 688L347 693L345 673ZM422 771Q411 771 404 779T397 802Q397 818 406 828T429 839Q441 839 448 831T455
809Q455 794 446 783T422 771ZM595 771Q583 771 576 779T569 802Q569 818 578 828T602 839Q614 839 621 831T628 809Q628 794 619 783T595 771Z" />
<glyph unicode="&#xd0;" horiz-adv-x="717" d="M74 342L79 368H382L377 342H74ZM394 693Q476 693 536 666T628 581T661 429Q661 347 636 270T562 132T446 36T294 0H20L23 20L126 35L117 26L219 666L224 657L125 668L128 688L280 693H394ZM298 27Q358 27 409 49T501
111T569 201T613 310T628 427Q628 510 600 562T517 640T387 666H240L250 673L147 20L140 27H298Z" />
<glyph unicode="&#xd1;" horiz-adv-x="778" d="M581 688L797 693L794 673L691 657L700 666L594 0H564L240 658L245 659L145 26L140 36L238 20L235 0H20L23 20L126 35L117 26L219 666L224 657L125 668L128 688L258 693L578 44L573 43L672 667L677 657L578 668L581
688ZM357 772L340 784Q361 818 381 832T425 846Q450 846 470 836T508 815T545 804Q579 804 610 849L626 838Q605 804 584 790T541 776Q518 776 499 786T462 807T422 818Q405 818 390 808T357 772Z" />
<glyph unicode="&#xd2;" horiz-adv-x="734" d="M321 -7Q255 -7 201 21T115 109T83 265Q83 330 99 393T146 512T221 610T320 676T440 700Q507 700 561 672T647 583T679 430Q679 367 663 304T617 185T542 86T443 18T321 -7ZM324 22Q382 22 431 45T520 107T588 199T632
309T647 427Q647 511 619 565T543 645T436 671Q378 671 329 648T240 586T173 494T131 384T116 266Q116 183 143 129T218 48T324 22ZM548 748L356 841L376 875L558 768L548 748Z" />
<glyph unicode="&#xd3;" horiz-adv-x="734" d="M321 -7Q255 -7 201 21T115 109T83 265Q83 330 99 393T146 512T221 610T320 676T440 700Q507 700 561 672T647 583T679 430Q679 367 663 304T617 185T542 86T443 18T321 -7ZM324 22Q382 22 431 45T520 107T588 199T632
309T647 427Q647 511 619 565T543 645T436 671Q378 671 329 648T240 586T173 494T131 384T116 266Q116 183 143 129T218 48T324 22ZM384 748L373 766L559 876L575 841L384 748Z" />
<glyph unicode="&#xd4;" horiz-adv-x="734" d="M321 -7Q255 -7 201 21T115 109T83 265Q83 330 99 393T146 512T221 610T320 676T440 700Q507 700 561 672T647 583T679 430Q679 367 663 304T617 185T542 86T443 18T321 -7ZM324 22Q382 22 431 45T520 107T588 199T632
309T647 427Q647 511 619 565T543 645T436 671Q378 671 329 648T240 586T173 494T131 384T116 266Q116 183 143 129T218 48T324 22ZM341 743L329 760L473 869L494 870L608 760L592 743L471 840H487L341 743Z" />
<glyph unicode="&#xd5;" horiz-adv-x="734" d="M321 -7Q255 -7 201 21T115 109T83 265Q83 330 99 393T146 512T221 610T320 676T440 700Q507 700 561 672T647 583T679 430Q679 367 663 304T617 185T542 86T443 18T321 -7ZM324 22Q382 22 431 45T520 107T588 199T632
309T647 427Q647 511 619 565T543 645T436 671Q378 671 329 648T240 586T173 494T131 384T116 266Q116 183 143 129T218 48T324 22ZM350 772L333 784Q354 818 374 832T418 846Q443 846 463 836T501 815T538 804Q572 804 603 849L619 838Q598 804 577 790T534 776Q511
776 492 786T455 807T415 818Q398 818 383 808T350 772Z" />
<glyph unicode="&#xd6;" horiz-adv-x="734" d="M321 -7Q255 -7 201 21T115 109T83 265Q83 330 99 393T146 512T221 610T320 676T440 700Q507 700 561 672T647 583T679 430Q679 367 663 304T617 185T542 86T443 18T321 -7ZM324 22Q382 22 431 45T520 107T588 199T632
309T647 427Q647 511 619 565T543 645T436 671Q378 671 329 648T240 586T173 494T131 384T116 266Q116 183 143 129T218 48T324 22ZM385 771Q374 771 367 779T360 802Q360 818 369 828T392 839Q404 839 411 831T418 809Q418 794 409 783T385 771ZM558 771Q546 771
539 779T532 802Q532 818 541 828T565 839Q577 839 584 831T591 809Q591 794 582 783T558 771Z" />
<glyph unicode="&#xd7;" horiz-adv-x="535" d="M100 169L84 188L270 356L269 341L134 509L155 529L291 361H277L463 529L480 509L292 341L294 356L429 188L407 169L273 336H287L100 169Z" />
<glyph unicode="&#xd8;" horiz-adv-x="750" d="M697 764L717 751L617 620L612 615L189 60L186 56L89 -71L69 -57L169 75L173 79L592 627L596 633L697 764ZM327 -7Q262 -7 208 22T122 109T90 258Q90 327 106 391T153 512T228 610T327 676T447 700Q514 700 568 671T654
584T686 436Q686 369 670 305T624 185T549 85T450 18T327 -7ZM330 22Q388 22 438 44T527 107T595 199T638 311T653 432Q653 512 625 565T550 644T444 671Q386 671 336 649T247 586T180 494T137 382T122 262Q122 182 150 129T225 49T330 22Z" />
<glyph unicode="&#xd9;" horiz-adv-x="735" d="M544 688L764 693L761 673L655 657L665 666L600 255Q587 171 556 113T470 24T323 -7Q218 -7 171 38T124 170Q124 188 125 207T131 248L198 666L205 657L105 668L107 688L326 693L323 673L220 657L229 666L162 245Q159
225 157 206T155 170Q155 94 194 58T324 21Q406 21 455 49T531 130T569 257L634 666L641 658L541 668L544 688ZM523 748L331 841L351 875L533 768L523 748Z" />
<glyph unicode="&#xda;" horiz-adv-x="735" d="M544 688L764 693L761 673L655 657L665 666L600 255Q587 171 556 113T470 24T323 -7Q218 -7 171 38T124 170Q124 188 125 207T131 248L198 666L205 657L105 668L107 688L326 693L323 673L220 657L229 666L162 245Q159
225 157 206T155 170Q155 94 194 58T324 21Q406 21 455 49T531 130T569 257L634 666L641 658L541 668L544 688ZM359 748L348 766L534 876L550 841L359 748Z" />
<glyph unicode="&#xdb;" horiz-adv-x="735" d="M544 688L764 693L761 673L655 657L665 666L600 255Q587 171 556 113T470 24T323 -7Q218 -7 171 38T124 170Q124 188 125 207T131 248L198 666L205 657L105 668L107 688L326 693L323 673L220 657L229 666L162 245Q159
225 157 206T155 170Q155 94 194 58T324 21Q406 21 455 49T531 130T569 257L634 666L641 658L541 668L544 688ZM316 743L304 760L448 869L469 870L583 760L567 743L446 840H462L316 743Z" />
<glyph unicode="&#xdc;" horiz-adv-x="735" d="M544 688L764 693L761 673L655 657L665 666L600 255Q587 171 556 113T470 24T323 -7Q218 -7 171 38T124 170Q124 188 125 207T131 248L198 666L205 657L105 668L107 688L326 693L323 673L220 657L229 666L162 245Q159
225 157 206T155 170Q155 94 194 58T324 21Q406 21 455 49T531 130T569 257L634 666L641 658L541 668L544 688ZM360 771Q349 771 342 779T335 802Q335 818 344 828T367 839Q379 839 386 831T393 809Q393 794 384 783T360 771ZM533 771Q521 771 514 779T507 802Q507
818 516 828T540 839Q552 839 559 831T566 809Q566 794 557 783T533 771Z" />
<glyph unicode="&#xdd;" horiz-adv-x="612" d="M156 0L159 20L263 35L254 26L292 269L294 249L155 666L165 658L69 668L73 688L303 693L300 673L180 658L186 666L314 280H306L558 666L561 658L448 668L451 688L675 693L673 673L575 658L588 666L315 249L321 269L284
26L279 36L377 20L374 0H156ZM302 748L291 766L477 876L493 841L302 748Z" />
<glyph unicode="&#xde;" horiz-adv-x="560" d="M20 0L23 20L127 35L117 26L219 666L225 657L125 668L128 688L347 693L345 673L241 657L250 667L231 551L223 556H349Q411 556 451 538T511 485T531 397Q531 326 496 270T399 181T253 149H158L169 156L148 26L143
36L242 20L239 0H20ZM171 168L163 176H256Q329 176 383 204T468 282T499 394Q499 461 460 495T343 529H219L229 538L171 168Z" />
<glyph unicode="&#xdf;" horiz-adv-x="578" d="M-57 -238Q-68 -238 -77 -237T-95 -235L-91 -210Q-82 -211 -75 -211T-62 -211Q-2 -211 26 -181T67 -73L157 500L163 492H71L74 513L167 518L159 510L169 578Q181 645 213 687T292 749T392 770Q437 770 472 757T528
716T549 648Q549 613 534 589T496 549T445 520T395 493T357 458T341 407Q341 378 355 359T391 325T438 298T484 267T520 224T534 160Q534 107 507 70T435 13T336 -7Q310 -7 284 -2T230 14L254 130H275L269 25L263 35Q282 27 301 23T341 19Q383 19 420 35T480 83T503
156Q503 189 489 210T453 248T406 277T360 307T323 346T309 403Q309 439 324 461T363 500T413 529T463 557T502 593T517 647Q517 697 481 720T389 744Q317 744 266 704T200 577L98 -68Q91 -113 79 -145T49 -197T4 -228T-57 -238Z" />
<glyph unicode="&#xe0;" horiz-adv-x="580" d="M190 -7Q153 -7 122 13T73 76T55 185Q55 256 76 318T135 428T224 503T336 530Q369 530 406 520T484 485L471 484L485 523H505L425 20L414 37L510 22L507 2L392 -2L426 215L436 223Q408 143 365 92T276 17T190 -7ZM196
21Q228 21 265 39T338 96T402 193T443 333L466 476L473 461Q437 483 403 493T335 503Q281 503 236 478T157 410T106 309T87 188Q87 100 119 61T196 21ZM295 778L448 649L435 631L272 747L295 778Z" />
<glyph unicode="&#xe1;" horiz-adv-x="580" d="M190 -7Q153 -7 122 13T73 76T55 185Q55 256 76 318T135 428T224 503T336 530Q369 530 406 520T484 485L471 484L485 523H505L425 20L414 37L510 22L507 2L392 -2L426 215L436 223Q408 143 365 92T276 17T190 -7ZM196
21Q228 21 265 39T338 96T402 193T443 333L466 476L473 461Q437 483 403 493T335 503Q281 503 236 478T157 410T106 309T87 188Q87 100 119 61T196 21ZM302 631L287 651L448 778L471 744L302 631Z" />
<glyph unicode="&#xe2;" horiz-adv-x="580" d="M190 -7Q153 -7 122 13T73 76T55 185Q55 256 76 318T135 428T224 503T336 530Q369 530 406 520T484 485L471 484L485 523H505L425 20L414 37L510 22L507 2L392 -2L426 215L436 223Q408 143 365 92T276 17T190 -7ZM196
21Q228 21 265 39T338 96T402 193T443 333L466 476L473 461Q437 483 403 493T335 503Q281 503 236 478T157 410T106 309T87 188Q87 100 119 61T196 21ZM232 635L220 652L361 769H382L491 652L473 635L359 742H376L232 635Z" />
<glyph unicode="&#xe3;" horiz-adv-x="580" d="M190 -7Q153 -7 122 13T73 76T55 185Q55 256 76 318T135 428T224 503T336 530Q369 530 406 520T484 485L471 484L485 523H505L425 20L414 37L510 22L507 2L392 -2L426 215L436 223Q408 143 365 92T276 17T190 -7ZM196
21Q228 21 265 39T338 96T402 193T443 333L466 476L473 461Q437 483 403 493T335 503Q281 503 236 478T157 410T106 309T87 188Q87 100 119 61T196 21ZM417 655Q392 655 373 668T337 694T297 707Q279 707 263 695T229 657L212 668Q232 705 254 720T300 736Q326
736 345 723T382 697T422 684Q439 684 455 696T489 735L507 724Q486 687 464 671T417 655Z" />
<glyph unicode="&#xe4;" horiz-adv-x="580" d="M190 -7Q153 -7 122 13T73 76T55 185Q55 256 76 318T135 428T224 503T336 530Q369 530 406 520T484 485L471 484L485 523H505L425 20L414 37L510 22L507 2L392 -2L426 215L436 223Q408 143 365 92T276 17T190 -7ZM196
21Q228 21 265 39T338 96T402 193T443 333L466 476L473 461Q437 483 403 493T335 503Q281 503 236 478T157 410T106 309T87 188Q87 100 119 61T196 21ZM269 659Q258 659 251 667T244 690Q244 706 253 716T276 727Q288 727 295 719T302 697Q302 682 293 671T269
659ZM442 659Q430 659 423 667T416 690Q416 706 425 716T449 727Q461 727 468 719T475 697Q475 682 466 671T442 659Z" />
<glyph unicode="&#xe5;" horiz-adv-x="580" d="M190 -7Q153 -7 122 13T73 76T55 185Q55 256 76 318T135 428T224 503T336 530Q369 530 406 520T484 485L471 484L485 523H505L425 20L414 37L510 22L507 2L392 -2L426 215L436 223Q408 143 365 92T276 17T190 -7ZM196
21Q228 21 265 39T338 96T402 193T443 333L466 476L473 461Q437 483 403 493T335 503Q281 503 236 478T157 410T106 309T87 188Q87 100 119 61T196 21ZM349 629Q322 629 302 645T281 694Q281 721 294 740T328 771T374 782Q401 782 421 767T441 718Q441 692 428
672T395 640T349 629ZM352 651Q381 651 399 671T417 717Q417 737 405 749T370 761Q342 761 324 741T306 695Q306 675 318 663T352 651Z" />
<glyph unicode="&#xe6;" horiz-adv-x="792" d="M371 164Q371 139 351 110T298 54T231 10T164 -7Q106 -7 73 24T40 113Q40 163 67 193T140 238T242 256T355 261H372L361 255Q367 302 375 345T384 418Q384 459 360 481T288 503Q254 503 218 495T143 474L157 490L136
389H113L119 493Q168 509 213 519T297 530Q349 530 380 504T412 432Q412 417 410 405T406 370L401 374Q434 440 492 485T629 530Q693 530 729 499T766 415Q766 372 743 341T679 291T588 261T486 245T384 239L393 248Q391 235 390 223T389 197Q389 106 430 63T535
20Q570 20 610 32T691 70L703 47Q658 21 614 7T531 -7Q450 -7 404 46T357 193Q357 204 358 219T361 248L371 237H357Q305 237 255 233T163 217T96 181T71 116Q71 72 97 46T173 20Q200 20 232 36T292 80T338 137T357 193L371 164ZM394 255L387 264Q426 265 473 268T565
280T649 305T711 348T734 413Q734 456 705 479T624 503Q577 503 538 483T469 428T420 348T394 255Z" />
<glyph unicode="&#xe7;" horiz-adv-x="477" d="M225 -7Q177 -7 139 14T78 81T55 199Q55 267 76 327T133 432T218 504T323 530Q355 530 390 520T461 488L442 380H417L421 484L426 474Q371 503 319 503Q269 503 227 479T153 412T105 315T87 200Q87 106 128 64T231
21Q265 21 303 33T381 69L392 47Q350 21 307 7T225 -7ZM201 -216Q185 -216 167 -212T130 -199L142 -177Q172 -191 203 -191Q234 -191 255 -177T277 -136Q277 -111 256 -101T192 -89L209 0H233L222 -66Q270 -70 288 -86T306 -129Q306 -156 292 -175T254 -205T201
-216Z" />
<glyph unicode="&#xe8;" horiz-adv-x="490" d="M229 -7Q179 -7 140 15T78 82T55 197Q55 259 74 318T128 425T213 501T325 530Q391 530 427 499T464 421Q464 378 434 344T353 285T242 247T124 234Q111 234 101 234T80 236L84 263Q95 262 107 261T133 260Q183 260
235 271T333 304T405 354T433 419Q433 456 403 479T321 503Q266 503 223 477T149 406T103 308T87 197Q87 106 128 63T233 20Q268 20 308 32T390 69L401 48Q356 21 312 7T229 -7ZM279 778L432 649L419 631L256 747L279 778Z" />
<glyph unicode="&#xe9;" horiz-adv-x="490" d="M229 -7Q179 -7 140 15T78 82T55 197Q55 259 74 318T128 425T213 501T325 530Q391 530 427 499T464 421Q464 378 434 344T353 285T242 247T124 234Q111 234 101 234T80 236L84 263Q95 262 107 261T133 260Q183 260
235 271T333 304T405 354T433 419Q433 456 403 479T321 503Q266 503 223 477T149 406T103 308T87 197Q87 106 128 63T233 20Q268 20 308 32T390 69L401 48Q356 21 312 7T229 -7ZM286 631L271 651L432 778L455 744L286 631Z" />
<glyph unicode="&#xea;" horiz-adv-x="490" d="M229 -7Q179 -7 140 15T78 82T55 197Q55 259 74 318T128 425T213 501T325 530Q391 530 427 499T464 421Q464 378 434 344T353 285T242 247T124 234Q111 234 101 234T80 236L84 263Q95 262 107 261T133 260Q183 260
235 271T333 304T405 354T433 419Q433 456 403 479T321 503Q266 503 223 477T149 406T103 308T87 197Q87 106 128 63T233 20Q268 20 308 32T390 69L401 48Q356 21 312 7T229 -7ZM216 635L204 652L345 769H366L475 652L457 635L343 742H360L216 635Z" />
<glyph unicode="&#xeb;" horiz-adv-x="490" d="M229 -7Q179 -7 140 15T78 82T55 197Q55 259 74 318T128 425T213 501T325 530Q391 530 427 499T464 421Q464 378 434 344T353 285T242 247T124 234Q111 234 101 234T80 236L84 263Q95 262 107 261T133 260Q183 260
235 271T333 304T405 354T433 419Q433 456 403 479T321 503Q266 503 223 477T149 406T103 308T87 197Q87 106 128 63T233 20Q268 20 308 32T390 69L401 48Q356 21 312 7T229 -7ZM253 659Q242 659 235 667T228 690Q228 706 237 716T260 727Q272 727 279 719T286
697Q286 682 277 671T253 659ZM426 659Q414 659 407 667T400 690Q400 706 409 716T433 727Q445 727 452 719T459 697Q459 682 450 671T426 659Z" />
<glyph unicode="&#xec;" horiz-adv-x="267" d="M77 -2L157 502L168 485L72 501L75 521L192 526L112 23L103 37L196 22L193 2L77 -2ZM393 778L546 649L533 631L370 747L393 778Z" />
<glyph unicode="&#xed;" horiz-adv-x="267" d="M77 -2L157 502L168 485L72 501L75 521L192 526L112 23L103 37L196 22L193 2L77 -2ZM144 631L129 651L290 778L313 744L144 631Z" />
<glyph unicode="&#xee;" horiz-adv-x="267" d="M84 635L70 650L189 769H210L292 648L274 635L190 742H207L84 635ZM77 -2L157 502L168 485L72 501L75 521L192 526L112 23L103 37L196 22L193 2L77 -2Z" />
<glyph unicode="&#xef;" horiz-adv-x="267" d="M77 -2L157 502L168 485L72 501L75 521L192 526L112 23L103 37L196 22L193 2L77 -2ZM114 659Q102 659 95 667T88 690Q88 706 97 716T120 727Q132 727 139 719T146 697Q146 682 137 671T114 659ZM274 659Q262 659
255 667T248 690Q248 706 257 716T281 727Q292 727 299 719T306 697Q306 682 297 671T274 659Z" />
<glyph unicode="&#xf0;" horiz-adv-x="572" d="M227 -7Q146 -7 101 42T55 191Q55 254 73 313T126 421T211 497T327 525Q379 525 411 507T462 459T487 392L480 391Q482 493 457 572T377 696T227 743L233 770Q306 769 359 742T444 668T493 554T509 409Q509 319 491
243T437 111T348 24T227 -7ZM231 20Q288 20 332 47T407 118T452 217T468 327Q468 412 432 455T325 499Q267 499 223 473T148 402T103 304T87 194Q87 106 124 63T231 20ZM273 606L264 626L519 770L529 750L273 606Z" />
<glyph unicode="&#xf1;" horiz-adv-x="596" d="M414 -2L472 358Q480 409 470 441T438 487T386 502Q353 502 316 484T242 428T179 331T138 191L108 0H77L157 502L167 485L72 501L75 521L191 526L154 308L145 300Q176 386 218 436T306 508T391 530Q429 530 458 512T500
457T503 360L449 24L437 37L534 22L531 2L414 -2ZM425 655Q400 655 381 668T345 694T305 707Q287 707 271 695T237 657L220 668Q240 705 262 720T308 736Q334 736 353 723T390 697T430 684Q447 684 463 696T497 735L515 724Q494 687 472 671T425 655Z" />
<glyph unicode="&#xf2;" horiz-adv-x="553" d="M320 530Q373 530 412 508T473 439T495 319Q495 259 479 201T429 96T347 21T234 -7Q183 -7 144 15T82 84T59 205Q59 266 75 324T125 428T207 502T320 530ZM315 503Q261 503 219 478T149 410T106 315T91 208Q91 117
129 69T239 20Q293 20 334 45T404 113T448 209T463 316Q463 408 426 455T315 503ZM289 778L442 649L429 631L266 747L289 778Z" />
<glyph unicode="&#xf3;" horiz-adv-x="553" d="M320 530Q373 530 412 508T473 439T495 319Q495 259 479 201T429 96T347 21T234 -7Q183 -7 144 15T82 84T59 205Q59 266 75 324T125 428T207 502T320 530ZM315 503Q261 503 219 478T149 410T106 315T91 208Q91 117
129 69T239 20Q293 20 334 45T404 113T448 209T463 316Q463 408 426 455T315 503ZM296 631L281 651L442 778L465 744L296 631Z" />
<glyph unicode="&#xf4;" horiz-adv-x="553" d="M320 530Q373 530 412 508T473 439T495 319Q495 259 479 201T429 96T347 21T234 -7Q183 -7 144 15T82 84T59 205Q59 266 75 324T125 428T207 502T320 530ZM315 503Q261 503 219 478T149 410T106 315T91 208Q91 117
129 69T239 20Q293 20 334 45T404 113T448 209T463 316Q463 408 426 455T315 503ZM226 635L214 652L355 769H376L485 652L467 635L353 742H370L226 635Z" />
<glyph unicode="&#xf5;" horiz-adv-x="553" d="M320 530Q373 530 412 508T473 439T495 319Q495 259 479 201T429 96T347 21T234 -7Q183 -7 144 15T82 84T59 205Q59 266 75 324T125 428T207 502T320 530ZM315 503Q261 503 219 478T149 410T106 315T91 208Q91 117
129 69T239 20Q293 20 334 45T404 113T448 209T463 316Q463 408 426 455T315 503ZM411 655Q386 655 367 668T331 694T291 707Q273 707 257 695T223 657L206 668Q226 705 248 720T294 736Q320 736 339 723T376 697T416 684Q433 684 449 696T483 735L501 724Q480
687 458 671T411 655Z" />
<glyph unicode="&#xf6;" horiz-adv-x="553" d="M320 530Q373 530 412 508T473 439T495 319Q495 259 479 201T429 96T347 21T234 -7Q183 -7 144 15T82 84T59 205Q59 266 75 324T125 428T207 502T320 530ZM315 503Q261 503 219 478T149 410T106 315T91 208Q91 117
129 69T239 20Q293 20 334 45T404 113T448 209T463 316Q463 408 426 455T315 503ZM262 659Q251 659 244 667T237 690Q237 706 246 716T269 727Q281 727 288 719T295 697Q295 682 286 671T262 659ZM435 659Q423 659 416 667T409 690Q409 706 418 716T442 727Q454
727 461 719T468 697Q468 682 459 671T435 659Z" />
<glyph unicode="&#xf7;" horiz-adv-x="716" d="M583 362L579 335H160L164 362H583ZM344 162Q332 162 325 170T318 190Q318 206 328 215T352 224Q362 224 370 217T378 196Q378 181 368 172T344 162ZM394 479Q382 479 375 487T368 507Q368 523 378 532T402 541Q412
541 420 534T428 513Q428 498 418 489T394 479Z" />
<glyph unicode="&#xf8;" horiz-adv-x="580" d="M522 594L541 581L452 463L448 458L144 49L138 42L53 -73L36 -60L126 61L131 68L433 474L437 480L522 594ZM334 530Q386 530 425 508T487 439T509 319Q509 259 492 201T442 96T361 21T248 -7Q197 -7 157 15T95 84T73
205Q73 266 89 324T139 428T220 502T334 530ZM329 503Q275 503 233 478T163 410T120 315T105 208Q105 117 143 69T253 20Q306 20 347 45T418 113T461 209T476 316Q476 408 439 455T329 503Z" />
<glyph unicode="&#xf9;" horiz-adv-x="596" d="M206 -7Q169 -8 140 10T98 66T94 163L147 498L153 487L64 501L67 521L183 526L125 165Q118 114 127 83T159 36T211 21Q244 21 281 39T355 96T418 192T459 332L489 523H520L442 27L436 36L526 22L523 2L408 -2L442
215L452 223Q423 140 381 90T293 17T206 -7ZM296 778L449 649L436 631L273 747L296 778Z" />
<glyph unicode="&#xfa;" horiz-adv-x="596" d="M206 -7Q169 -8 140 10T98 66T94 163L147 498L153 487L64 501L67 521L183 526L125 165Q118 114 127 83T159 36T211 21Q244 21 281 39T355 96T418 192T459 332L489 523H520L442 27L436 36L526 22L523 2L408 -2L442
215L452 223Q423 140 381 90T293 17T206 -7ZM303 631L288 651L449 778L472 744L303 631Z" />
<glyph unicode="&#xfb;" horiz-adv-x="596" d="M206 -7Q169 -8 140 10T98 66T94 163L147 498L153 487L64 501L67 521L183 526L125 165Q118 114 127 83T159 36T211 21Q244 21 281 39T355 96T418 192T459 332L489 523H520L442 27L436 36L526 22L523 2L408 -2L442
215L452 223Q423 140 381 90T293 17T206 -7ZM232 635L220 652L361 769H382L491 652L473 635L359 742H376L232 635Z" />
<glyph unicode="&#xfc;" horiz-adv-x="596" d="M206 -7Q169 -8 140 10T98 66T94 163L147 498L153 487L64 501L67 521L183 526L125 165Q118 114 127 83T159 36T211 21Q244 21 281 39T355 96T418 192T459 332L489 523H520L442 27L436 36L526 22L523 2L408 -2L442
215L452 223Q423 140 381 90T293 17T206 -7ZM269 659Q258 659 251 667T244 690Q244 706 253 716T276 727Q288 727 295 719T302 697Q302 682 293 671T269 659ZM442 659Q430 659 423 667T416 690Q416 706 425 716T449 727Q461 727 468 719T475 697Q475 682 466 671T442
659Z" />
<glyph unicode="&#xfd;" horiz-adv-x="485" d="M-51 -233L-46 -207Q-39 -208 -32 -209T-17 -210Q35 -210 70 -184T135 -106T198 21L195 4L93 499L101 492L29 501L33 521L119 526L218 34L210 35L443 499L447 493L368 501L370 521L532 526L529 506L461 492L474 499L219
-4Q201 -39 185 -72T149 -135T108 -188T55 -224T-13 -237Q-29 -237 -51 -233ZM223 631L208 651L369 778L392 744L223 631Z" />
<glyph unicode="&#xfe;" horiz-adv-x="570" d="M-56 -230L-54 -210L45 -193L31 -208L182 738L189 727L98 741L101 761L217 766L143 300H134Q162 382 204 432T293 506T379 530Q416 530 446 510T495 448T514 337Q514 241 481 168T390 51T250 -3T73 14L98 16L62 -208L50
-193L158 -210L155 -230H-56ZM99 21L90 40Q178 13 250 22T374 72T454 180T482 335Q482 424 450 463T372 502Q341 502 304 484T230 427T166 330T126 190L99 21Z" />
<glyph unicode="&#xff;" horiz-adv-x="485" d="M-51 -233L-46 -207Q-39 -208 -32 -209T-17 -210Q35 -210 70 -184T135 -106T198 21L195 4L93 499L101 492L29 501L33 521L119 526L218 34L210 35L443 499L447 493L368 501L370 521L532 526L529 506L461 492L474 499L219
-4Q201 -39 185 -72T149 -135T108 -188T55 -224T-13 -237Q-29 -237 -51 -233ZM189 659Q178 659 171 667T164 690Q164 706 173 716T196 727Q208 727 215 719T222 697Q222 682 213 671T189 659ZM362 659Q350 659 343 667T336 690Q336 706 345 716T369 727Q381 727
388 719T395 697Q395 682 386 671T362 659Z" />
<glyph unicode="&#x2013;" horiz-adv-x="590" d="M521 307L516 280H81L85 307H521Z" />
<glyph unicode="&#x2014;" horiz-adv-x="830" d="M759 305L755 278H80L84 305H759Z" />
<glyph unicode="&#x2018;" horiz-adv-x="162" d="M161 628Q161 613 152 604T131 595Q121 595 113 602T105 625Q105 641 116 667T146 721T185 776L199 763Q170 721 161 698T151 664Q151 654 156 647T161 628Z" />
<glyph unicode="&#x2019;" horiz-adv-x="163" d="M140 740Q140 756 149 764T170 773Q180 773 187 766T195 744Q195 727 184 702T155 647T116 593L102 605Q131 647 140 670T149 704Q149 715 145 722T140 740Z" />
<glyph unicode="&#x201a;" horiz-adv-x="163" d="M22 21Q22 37 31 45T52 54Q62 54 69 47T77 25Q77 8 66 -17T37 -72T-2 -126L-16 -114Q13 -72 22 -49T31 -15Q31 -4 27 3T22 21Z" />
<glyph unicode="&#x201c;" horiz-adv-x="286" d="M164 644Q164 629 155 621T133 612Q124 612 116 619T108 641Q108 658 119 683T149 738T187 792L202 780Q173 738 164 714T154 681Q154 670 159 664T164 644ZM287 644Q287 629 278 621T256 612Q247 612 239 619T231
641Q231 658 242 683T272 738T310 792L325 780Q296 738 287 714T277 681Q277 670 282 664T287 644Z" />
<glyph unicode="&#x201d;" horiz-adv-x="286" d="M259 740Q259 756 268 764T289 773Q299 773 306 766T314 744Q314 727 303 702T274 647T235 593L221 605Q250 647 259 670T268 704Q268 715 264 722T259 740ZM136 740Q136 756 145 764T166 773Q176 773 183 766T191
744Q191 727 180 702T151 647T112 593L98 605Q127 647 136 670T145 704Q145 715 141 722T136 740Z" />
<glyph unicode="&#x201e;" horiz-adv-x="286" d="M145 21Q145 37 154 45T175 54Q185 54 192 47T200 25Q200 8 189 -17T160 -72T121 -126L107 -114Q136 -72 145 -49T154 -15Q154 -4 150 3T145 21ZM22 21Q22 37 31 45T52 54Q62 54 69 47T77 25Q77 8 66 -17T37 -72T-2
-126L-16 -114Q13 -72 22 -49T31 -15Q31 -4 27 3T22 21Z" />
<glyph unicode="&#x2022;" horiz-adv-x="323" d="M96 317Q96 342 106 360T134 388T173 398Q193 398 209 389T234 361T244 320Q244 295 234 277T207 249T168 239Q148 239 132 248T106 275T96 317Z" />
<glyph unicode="&#x2039;" horiz-adv-x="281" d="M168 78L58 258L61 283L228 463L243 448L80 262L83 280L187 92L168 78Z" />
<glyph unicode="&#x203a;" horiz-adv-x="281" d="M116 463L226 283L222 258L56 78L40 92L203 279L201 261L96 449L116 463Z" />
</font>
</defs>
</svg>
