<?xml version="1.0" standalone="no"?>
<!DOCTYPE svg PUBLIC "-//W3C//DTD SVG 1.1//EN" "http://www.w3.org/Graphics/SVG/1.1/DTD/svg11.dtd">
<svg xmlns="http://www.w3.org/2000/svg">
<defs >
<font id="Bitter" horiz-adv-x="587" ><font-face
    font-family="Bitter Thin Medium"
    units-per-em="1000"
    panose-1="0 0 0 0 0 0 0 0 0 0"
    ascent="935"
    descent="-265"
    alphabetic="0" />
<glyph unicode=" " horiz-adv-x="193" />
<glyph unicode="!" horiz-adv-x="329" d="M127 227L111 700H218L202 232L127 227ZM103 51Q103 78 121 94T164 111Q193 111 209 95T226 51Q226 23 208 7T164 -10Q137 -10 120 6T103 51Z" />
<glyph unicode="&quot;" horiz-adv-x="401" d="M88 520L72 770H165L149 520H88ZM251 520L235 770H328L312 520H251Z" />
<glyph unicode="#" horiz-adv-x="670" d="M86 521H624V458H86V521ZM47 252H585V189H47V252ZM220 700H302L203 0H121L220 700ZM466 700H549L450 0H367L466 700Z" />
<glyph unicode="$" horiz-adv-x="618" d="M281 -136V22L308 3Q302 3 296 3T282 2Q238 2 184 12T77 44L80 217H143L158 107Q190 94 223 87T290 80Q333 80 368 92T425 130T447 193Q447 229 427 251T375 288T304 313T226 338T155 371T102 424T82 506Q82 569 113 610T196
674T314 697L281 676V828H351V677L323 697H334Q363 697 397 692T466 677T528 655L519 493H457L442 599Q417 609 388 614T328 620Q290 620 257 610T203 577T182 519Q182 485 202 464T254 428T326 402T404 377T475 342T528 288T548 204Q548 141 517 99T434 32T318
3L351 26V-136H281Z" />
<glyph unicode="%" horiz-adv-x="853" d="M150 -10L620 710H704L233 -10H150ZM219 349Q138 349 96 398T53 527Q53 609 96 659T227 710Q312 710 351 663T390 539Q390 453 347 401T219 349ZM221 407Q272 407 293 440T314 533Q315 592 295 622T226 653Q173 653 151
620T129 527Q129 470 150 439T221 407ZM628 -10Q546 -10 504 38T462 167Q462 249 505 299T635 350Q720 350 759 303T799 179Q799 94 756 42T628 -10ZM630 47Q681 47 701 81T723 173Q723 232 703 262T634 293Q582 293 560 260T538 168Q538 111 559 79T630 47Z" />
<glyph unicode="&amp;" horiz-adv-x="684" d="M318 -10Q249 -10 194 12T108 79T76 190Q76 237 96 276T157 343T263 378L266 367Q181 376 138 421T95 528Q95 592 126 632T212 691T332 710Q384 710 435 701T537 673L529 524H465L449 627L469 613Q435 623 404 628T339
634Q274 634 237 607T199 520Q199 467 240 437T351 407H645V352L559 332L571 351V220Q571 145 539 94T451 16T318 -10ZM328 70Q394 70 433 105T472 212V348L491 333H341Q286 333 251 316T198 269T181 205Q181 141 222 106T328 70Z" />
<glyph unicode="&apos;" horiz-adv-x="238" d="M88 520L72 770H165L149 520H88Z" />
<glyph unicode="(" horiz-adv-x="311" d="M297 835Q220 730 182 611T143 373Q143 257 181 137T297 -88L233 -128Q139 -16 93 114T47 373Q47 501 93 632T233 875L297 835Z" />
<glyph unicode=")" horiz-adv-x="311" d="M14 -88Q91 17 129 137T168 374Q168 491 130 610T14 836L78 875Q172 763 218 633T264 374Q264 246 218 116T78 -127L14 -88Z" />
<glyph unicode="*" horiz-adv-x="472" d="M310 446L236 560L243 591L275 587L360 484L310 446ZM165 445L112 482L198 589L229 591L236 560L165 445ZM198 589L69 616L89 678L212 634L225 604L198 589ZM236 613L212 634L202 760L266 761L261 634L236 613ZM275 587L249
606L261 634L380 680L400 618L275 587Z" />
<glyph unicode="+" horiz-adv-x="563" d="M261 386L243 368V590H320V368L302 386H516V313H302L320 332V110H243V332L261 313H46V386H261Z" />
<glyph unicode="," horiz-adv-x="239" d="M48 -128Q78 -83 88 -58T98 -20Q98 -8 91 1T76 23T69 54Q69 83 88 99T131 115Q146 115 160 108T182 86T191 47Q191 15 168 -38T85 -155L48 -128Z" />
<glyph unicode="-" horiz-adv-x="454" d="M375 332V255H79V332H375Z" />
<glyph unicode="." horiz-adv-x="218" d="M48 54Q48 82 66 98T109 115Q138 115 154 99T171 54Q171 26 153 10T109 -7Q81 -7 65 9T48 54Z" />
<glyph unicode="/" horiz-adv-x="323" d="M325 804L68 -81H-2L254 804H325Z" />
<glyph unicode="0" horiz-adv-x="639" d="M315 -10Q227 -10 171 29T87 147T60 344Q60 466 88 547T176 669T329 710Q420 710 474 673T553 558T578 364Q578 240 550 157T463 32T315 -10ZM318 69Q372 69 405 100T455 195T472 357Q473 457 457 517T409 604T325 631Q269
631 234 600T182 507T166 348Q166 253 182 191T231 99T318 69Z" />
<glyph unicode="1" horiz-adv-x="415" d="M293 51L272 78L405 54V0H54V54L212 76L191 51V615L218 613L47 515L14 578L209 703H293V51Z" />
<glyph unicode="2" horiz-adv-x="550" d="M40 0V87Q157 190 233 265T347 401T385 516Q385 576 346 604T247 632Q220 632 187 626T119 608L132 627L116 508H54L44 672Q103 690 159 700T263 710Q330 710 381 692T463 633T493 530Q493 460 455 392T342 246T159 69L158
82H509V0H40Z" />
<glyph unicode="3" horiz-adv-x="572" d="M252 -9Q195 -9 140 5T35 47L64 120Q108 96 155 84T248 71Q295 71 331 85T388 128T409 203Q409 240 393 268T340 312T246 329H162V403H245Q320 403 357 433T395 520Q395 582 356 608T256 635Q223 635 189 629T122 611L137
626L124 513H63L55 670Q111 689 168 699T278 710Q341 710 391 693T470 638T499 536Q499 462 456 420T328 366L324 374Q420 367 466 322T513 200Q513 147 493 108T437 42T353 4T252 -9Z" />
<glyph unicode="4" horiz-adv-x="592" d="M361 190L387 168H22L11 241L343 712L463 700V229L437 248H578V168H437L463 190V0H361V190ZM389 248L363 229V651L397 645L93 213L74 248H389Z" />
<glyph unicode="5" horiz-adv-x="538" d="M248 -9Q146 -9 39 41L68 115Q110 94 152 83T233 72Q280 72 315 89T369 139T389 216Q389 267 362 295T282 334T148 346H81L95 700H466L465 620H166L196 639L185 400L158 422H217Q316 422 377 398T468 329T497 219Q497
147 465 96T377 18T248 -9Z" />
<glyph unicode="6" horiz-adv-x="588" d="M144 289L140 359Q187 390 238 407T341 424Q399 424 446 401T522 333T550 219Q550 148 519 97T433 18T306 -10Q232 -10 175 23T86 126T53 306Q53 431 94 521T211 660T388 710Q443 710 502 695L494 620Q469 625 445 627T400
630Q317 630 264 591T184 479T158 304Q158 184 196 127T307 70Q371 70 408 108T445 215Q445 261 427 291T379 336T310 351Q270 351 227 336T144 289Z" />
<glyph unicode="7" horiz-adv-x="514" d="M498 627L231 0H118L393 634L408 618H84L107 635L85 514H22V700H498V627Z" />
<glyph unicode="8" horiz-adv-x="601" d="M290 -9Q245 -9 203 3T127 38T74 97T54 179Q54 221 69 253T112 310T171 349T236 373L298 342Q275 335 250 323T203 294T168 251T154 192Q154 153 172 125T224 81T297 65Q340 65 373 81T425 126T445 193Q445 231 425 256T371
297T298 327T218 356T145 391T92 443T72 524Q72 586 105 627T193 689T308 710Q368 710 419 691T502 632T534 535Q534 496 519 467T478 418T422 384T359 363L288 396Q316 402 342 412T390 437T423 475T435 526Q435 563 417 587T370 623T304 636Q269 636 239 624T190
588T171 528Q171 491 191 468T245 428T318 399T398 371T471 335T524 280T545 198Q545 147 524 109T466 44T384 4T290 -9Z" />
<glyph unicode="9" horiz-adv-x="588" d="M443 414L447 343Q401 312 350 295T246 277Q186 277 139 300T65 368T37 479Q37 552 68 603T155 682T281 710Q355 710 412 677T502 575T535 395Q535 272 494 181T378 41T199 -9Q145 -9 86 6L94 80Q120 75 143 73T187 70Q271
70 324 109T404 221T430 396Q430 515 393 572T281 630Q218 630 181 592T143 486Q143 439 160 409T208 365T276 350Q318 350 361 366T443 414Z" />
<glyph unicode=":" horiz-adv-x="218" d="M48 54Q48 82 66 98T109 115Q138 115 154 99T171 54Q171 26 153 10T109 -7Q81 -7 65 9T48 54ZM48 407Q48 435 66 451T109 468Q138 468 154 452T171 407Q171 379 153 363T109 346Q81 346 65 362T48 407Z" />
<glyph unicode=";" horiz-adv-x="239" d="M48 -128Q78 -83 88 -58T98 -20Q98 -8 91 1T76 23T69 54Q69 83 88 99T131 115Q146 115 160 108T182 86T191 47Q191 15 168 -38T85 -155L48 -128ZM68 407Q68 435 86 451T129 468Q158 468 174 452T191 407Q191 379 173 363T129
346Q101 346 85 362T68 407Z" />
<glyph unicode="&lt;" horiz-adv-x="556" d="M466 124L49 314V390L466 590L493 520L123 344V364L494 197L466 124Z" />
<glyph unicode="=" horiz-adv-x="545" d="M498 479V406H47V479H498ZM498 543V470H47V543H498Z" />
<glyph unicode="&gt;" horiz-adv-x="551" d="M89 569L502 399V323L88 144L62 213L428 369V348L62 492L89 569Z" />
<glyph unicode="?" horiz-adv-x="428" d="M121 233Q118 249 116 266T114 296Q114 333 131 360T174 409T225 452T268 497T286 555Q286 596 257 615T185 635Q157 635 124 628T58 609L36 675Q125 711 211 711Q261 711 301 697T365 653T389 572Q389 525 370 492T322
433T265 384T217 336T197 276Q197 270 197 259T199 237L121 233ZM111 50Q111 78 129 94T173 111Q200 111 216 95T233 52Q233 23 215 7T171 -10Q144 -10 128 6T111 50Z" />
<glyph unicode="@" horiz-adv-x="872" d="M402 -110Q303 -110 227 -65T108 64T65 262Q65 356 94 428T175 550T297 626T449 652Q530 652 597 627T713 556T788 443T815 294Q815 185 768 125T636 64Q586 64 556 87T516 158H531Q505 115 465 90T382 65Q351 65 325
78T285 119T270 185Q270 239 304 270T417 301H525L513 288V353Q513 391 489 406T427 422Q401 422 370 415T308 396L294 448Q334 465 373 473T448 482Q512 482 552 451T592 349V180Q592 148 606 134T645 119Q692 119 713 164T735 279Q735 376 700 445T601 551T446
588Q354 588 287 550T183 440T146 264Q146 169 178 100T269 -7T411 -45Q446 -45 485 -38T563 -16L585 -73Q540 -91 493 -100T402 -110ZM412 124Q441 124 470 143T522 196L513 168V273L525 259H438Q390 259 371 242T352 192Q352 159 368 142T412 124Z" />
<glyph unicode="A" horiz-adv-x="710" d="M642 52L615 76L706 53V0H437V53L535 74L525 58L477 208L494 194H202L217 208L165 60L160 73L255 53V0H4V53L93 75L68 54L309 699L414 702L642 52ZM231 252L222 267H476L465 251L343 642H367L231 252Z" />
<glyph unicode="B" horiz-adv-x="646" d="M367 351L374 362Q442 361 490 342T564 286T589 191Q589 133 561 90T476 24T330 0H45V53L142 76L127 54V643L145 621L45 642V695L225 700H342Q414 700 463 681T537 623T562 528Q562 453 516 408T367 351ZM321 626H212L229
644V377L212 393H297Q349 393 385 406T440 446T459 514Q459 554 443 578T396 614T321 626ZM321 74Q374 74 410 87T465 128T484 198Q484 239 467 266T420 307T348 321H212L229 340V57L212 74H321Z" />
<glyph unicode="C" horiz-adv-x="641" d="M347 -10Q266 -10 200 31T94 151T54 347Q54 461 93 542T204 666T370 710Q420 710 474 698T589 659L581 495H520L500 616L518 598Q480 614 442 622T372 630Q307 630 261 598T189 505T164 359Q164 266 191 203T266 107T373
74Q417 74 465 93T559 150L599 90Q539 39 474 15T347 -10Z" />
<glyph unicode="D" horiz-adv-x="716" d="M348 700Q417 700 474 680T574 617T639 512T663 361Q663 243 621 163T504 41T331 0H45V53L142 76L127 54V643L143 621L45 642V695L246 700H348ZM335 75Q376 75 415 88T485 132T535 217T553 354Q553 434 536 486T489 569T422
612T346 625H212L229 642V58L212 75H335Z" />
<glyph unicode="E" horiz-adv-x="617" d="M494 172H556L555 0H45V53L142 76L127 54V643L141 622L45 642V695L227 700H543V535H482L463 640L483 625H212L229 642V377L212 394H469V321H212L229 341V58L212 75H496L475 58L494 172Z" />
<glyph unicode="F" horiz-adv-x="563" d="M45 0V53L139 75L127 58V643L143 622L45 642V695L227 700H536V533H475L456 637L476 625H212L229 642V371L212 387H461V312H212L229 329V58L215 75L331 53V0H45Z" />
<glyph unicode="G" horiz-adv-x="731" d="M376 -9Q279 -9 207 31T94 150T54 344Q54 460 94 542T209 667T388 710Q443 710 503 698T626 658L618 495H557L537 615L553 599Q514 613 472 621T392 630Q322 630 271 597T192 501T164 346Q164 215 223 143T389 71Q423
71 461 78T540 102L527 79V286L545 268L445 283V338L702 343V288L611 267L623 286V45Q557 17 495 4T376 -9Z" />
<glyph unicode="H" horiz-adv-x="793" d="M45 0V53L142 76L127 54V644L145 621L45 642V695L311 700V647L212 621L229 644V377L212 394H582L564 377V644L582 622L482 642V695L749 700V647L651 622L667 644V54L651 76L749 53V0H482V53L579 76L564 54V336L582 319H212L229
336V54L214 76L311 53V0H45Z" />
<glyph unicode="I" horiz-adv-x="355" d="M311 647L217 623L229 639V58L217 75L311 53V0H45V53L138 74L127 58V639L141 622L45 642V695L311 700V647Z" />
<glyph unicode="J" horiz-adv-x="335" d="M27 695L301 700V648L206 622L219 644V72Q219 18 210 -23T178 -93T121 -137T35 -152Q19 -152 4 -151T-29 -146L-20 -72Q-11 -73 -3 -74T14 -75Q70 -75 93 -44T117 52V644L130 624L27 642V695Z" />
<glyph unicode="K" horiz-adv-x="712" d="M636 53L606 75L698 53V0H437V53L522 75L518 57L326 341L356 321H212L229 342V54L214 77L309 53V0H45V53L140 75L127 54V644L139 624L45 642V695L309 700V648L215 623L229 647V378L212 396H360L332 378L491 643L500 627L408
642V695L660 700V647L567 623L591 642L410 350V378L636 53Z" />
<glyph unicode="L" horiz-adv-x="555" d="M468 189H530V0H45V53L140 75L127 54V643L140 622L45 642V695L321 700V647L217 622L229 643V58L212 75H464L448 57L468 189Z" />
<glyph unicode="M" horiz-adv-x="885" d="M841 647L743 621L759 648V54L743 76L841 53V0H582V53L682 76L664 54V588L680 587L467 182L401 178L195 589L210 590V54L197 74L293 53V0H45V53L142 76L127 54V648L142 622L45 642V695L252 700L452 280H438L645 695L841 700V647Z" />
<glyph unicode="N" horiz-adv-x="785" d="M503 695L753 700V647L655 622L671 644V0H555L198 592H213V54L196 76L295 53V0H45V53L144 76L127 54V644L139 623L45 642V695L249 700L600 119L585 118V644L602 623L503 642V695Z" />
<glyph unicode="O" horiz-adv-x="741" d="M359 -10Q270 -10 201 29T93 147T54 342Q54 434 78 503T147 618T249 687T376 710Q443 710 500 688T599 623T664 514T687 362Q687 245 645 162T528 34T359 -10ZM366 70Q424 70 472 99T548 191T577 357Q577 454 551 514T478
602T372 630Q314 630 267 602T192 511T164 346Q164 249 190 189T262 99T366 70Z" />
<glyph unicode="P" horiz-adv-x="601" d="M296 261H207L229 278V54L213 75L334 53V0H45V53L144 76L127 54V645L146 622L45 642V695L231 700H337Q416 700 467 673T543 599T568 491Q568 424 538 372T448 291T296 261ZM321 625H212L229 643V319L207 336H296Q377 336
420 377T464 489Q464 552 428 588T321 625Z" />
<glyph unicode="Q" horiz-adv-x="749" d="M667 -180Q632 -180 591 -161T488 -103T333 -1L359 -10Q269 -9 201 31T93 149T54 343Q54 434 78 503T147 618T250 687T380 710Q449 710 506 688T606 623T671 514T695 363Q695 259 662 183T569 60T432 -1L434 10Q499 -26
541 -50T613 -86T668 -98Q692 -98 717 -88T776 -59L813 -122Q766 -150 733 -165T667 -180ZM164 346Q164 250 190 189T262 99T370 70Q432 70 481 100T557 194T585 357Q585 452 558 512T485 601T376 630Q314 630 266 600T191 508T164 346Z" />
<glyph unicode="R" horiz-adv-x="661" d="M45 0V53L141 75L127 54V643L146 621L45 642V695L233 700H343Q459 700 518 652T577 513Q577 431 526 378T367 313V325Q406 322 430 310T472 276T504 223L587 58L556 78L643 53V0H506L415 196Q396 237 380 259T341 291T274
300L211 299L229 315V54L214 76L325 53V0H45ZM229 346L211 372H302Q385 372 428 406T472 507Q472 564 437 594T331 625H211L229 643V346Z" />
<glyph unicode="S" horiz-adv-x="600" d="M171 528Q171 493 191 471T244 433T316 406T395 379T468 342T521 285T541 197Q541 126 505 80T408 12T274 -10Q223 -10 170 0T65 32L71 204H131L150 79L139 98Q172 83 208 75T280 67Q323 67 359 80T418 119T440 184Q440
221 420 244T367 282T295 309T217 335T144 370T91 426T71 513Q71 580 103 623T191 688T316 710Q365 710 417 700T521 668L512 505H451L434 621L447 608Q419 620 386 626T320 633Q281 633 247 623T192 589T171 528Z" />
<glyph unicode="T" horiz-adv-x="594" d="M151 0V53L265 76L246 49V642L268 625H85L109 646L86 519H25V700H569V519H508L486 642L509 625H326L348 642V49L330 76L443 53V0H151Z" />
<glyph unicode="U" horiz-adv-x="747" d="M455 695L722 700V647L626 623L640 649V268Q640 226 633 186T608 110T560 48T483 5T370 -10Q291 -10 241 9T164 61T125 129T110 198T107 256V648L121 623L25 642V695L292 700V647L198 623L210 648V256Q210 231 212 205T222
154T247 111T295 81T371 69Q418 69 449 81T498 113T524 158T535 212T537 268V649L548 624L455 642V695Z" />
<glyph unicode="V" horiz-adv-x="698" d="M290 -1L74 641L100 622L5 642V695L279 700V647L174 624L186 650L360 89H345L532 644L541 623L439 642V695L695 700V647L600 624L625 643L398 -1H290Z" />
<glyph unicode="W" horiz-adv-x="1023" d="M767 695L1019 700V647L924 625L949 652L765 -1H667L501 575L519 574L344 -1H247L77 644L89 626L5 642V695L267 700V647L168 624L181 644L314 93H293L470 696L564 700L733 95H712L859 644L869 624L767 642V695Z" />
<glyph unicode="X" horiz-adv-x="702" d="M626 52L594 75L682 53V0H410V53L505 73L506 56L328 316L354 317L174 53L168 76L266 53V0H21V53L109 75L80 51L304 369L303 340L93 643L119 627L33 642V695L300 700V647L210 626L215 641L377 401L353 406L513 641L520
624L428 642V695L669 700V647L581 621L608 643L398 348L401 376L626 52Z" />
<glyph unicode="Y" horiz-adv-x="643" d="M184 0V53L284 76L269 54V274L279 235L69 640L90 623L3 642V695L267 700V647L166 626L175 645L338 310H318L483 641L492 623L390 642V695L640 700V647L553 626L574 643L363 235L371 274V54L355 76L455 53V0H184Z" />
<glyph unicode="Z" horiz-adv-x="619" d="M41 0V69L454 637L465 624H121L146 636L125 517H64V700H565V632L154 60L149 76H512L488 61L508 183H570L568 0H41Z" />
<glyph unicode="[" horiz-adv-x="345" d="M102 -105V853L333 848V786L189 780V-32L333 -37V-100L102 -105Z" />
<glyph unicode="\" horiz-adv-x="330" d="M1 804H74L330 -81H257L1 804Z" />
<glyph unicode="]" horiz-adv-x="345" d="M243 853V-105L13 -100V-37L156 -32V780L13 786V848L243 853Z" />
<glyph unicode="^" horiz-adv-x="545" d="M48 530L236 869H309L498 530H405L248 829H295L138 530H48Z" />
<glyph unicode="_" horiz-adv-x="494" d="M495 -67V-133H-1V-67H495Z" />
<glyph unicode="`" horiz-adv-x="321" d="M92 816L280 667L242 615L37 744L92 816Z" />
<glyph unicode="a" horiz-adv-x="551" d="M459 54L444 75L534 54V1L382 -6L368 90L376 87Q333 38 283 14T186 -10Q128 -10 87 28T45 142Q45 200 70 232T140 279T246 293H368L359 282V368Q359 420 332 442T257 465Q232 465 205 460T145 444L159 458L148 369H82L74
502Q135 521 186 530T282 540Q366 540 412 503T459 386V54ZM146 149Q146 106 167 86T220 65Q252 65 290 85T365 140L359 115V239L368 229H262Q196 229 171 209T146 149Z" />
<glyph unicode="b" horiz-adv-x="582" d="M250 -10Q213 -10 171 -5T81 10V720L99 692L7 714V767L181 774V445L168 460Q208 498 252 519T343 540Q400 540 444 509T514 419T540 273Q540 209 524 157T474 67T384 10T250 -10ZM268 63Q351 63 393 115T436 265Q436 328
420 372T374 441T306 465Q274 465 240 448T169 396L181 430V51L168 77Q225 63 268 63Z" />
<glyph unicode="c" horiz-adv-x="514" d="M272 -10Q207 -10 154 22T71 114T40 259Q40 334 61 387T119 474T202 524T298 540Q341 540 387 529T467 500L463 367H397L383 457L392 449Q371 459 345 463T298 467Q249 467 215 443T162 373T144 265Q144 201 163 156T217
89T295 66Q329 66 368 80T449 123L484 70Q430 29 377 10T272 -10Z" />
<glyph unicode="d" horiz-adv-x="597" d="M240 -10Q184 -10 139 20T69 110T43 256Q43 398 115 469T315 540Q340 540 366 537T421 526L401 515V704L411 692L322 714V767L501 774V59L488 75L576 54V1L424 -6L410 80L421 76Q376 33 332 12T240 -10ZM277 65Q309 65
343 82T414 133L401 101V474L414 450Q358 467 312 467Q230 467 189 414T147 265Q147 203 163 158T209 89T277 65Z" />
<glyph unicode="e" horiz-adv-x="547" d="M276 -10Q207 -10 155 20T73 110T43 256Q43 344 73 407T160 505T293 540Q366 540 412 510T481 428T504 308Q504 295 503 282T500 252H121V321H410L401 315Q402 356 391 390T354 444T285 465Q238 465 207 440T161 370T146
269Q146 208 163 163T214 92T300 66Q336 66 378 80T466 122L501 67Q445 28 388 9T276 -10Z" />
<glyph unicode="f" horiz-adv-x="357" d="M36 0V53L122 73L111 60V470L122 457H34V512L124 528L111 511V588Q111 686 162 733T298 780Q325 780 352 776T412 761L396 693Q375 700 354 704T314 708Q268 708 240 682T211 597V511L196 526H346L343 457H199L211 470V61L200
73L301 53V0H36Z" />
<glyph unicode="g" horiz-adv-x="564" d="M262 -240Q143 -240 84 -207T25 -109Q25 -62 56 -28T149 32V12Q115 14 96 27T76 65Q76 73 78 81T87 105T106 144T137 206L139 189Q94 212 70 252T46 348Q46 437 105 488T270 540Q342 540 394 515L369 520L529 527L530
468L442 451L449 465Q468 446 478 419T488 356Q488 266 427 215T265 163Q210 163 162 180L185 191L162 68L141 78H338Q436 78 486 40T537 -69Q537 -152 468 -196T262 -240ZM271 -165Q359 -165 400 -143T441 -77Q441 -38 411 -18T322 2H158L184 8Q113 -37 113 -89Q113
-127 151 -146T271 -165ZM264 232Q323 232 355 263T388 354Q388 413 358 442T269 471Q210 471 179 441T147 351Q147 293 177 263T264 232Z" />
<glyph unicode="h" horiz-adv-x="623" d="M21 0V53L110 74L96 57V711L110 693L21 714V767L196 774V437L174 442Q222 492 276 516T380 540Q424 540 459 522T515 467T534 373V57L523 73L609 53V0H364V53L447 73L434 56V351Q435 409 409 436T339 463Q306 463 266
445T188 387L196 406V56L185 72L266 53V0H21Z" />
<glyph unicode="i" horiz-adv-x="305" d="M209 61L200 73L284 53V0H35V53L119 73L109 61V464L118 455L35 474V527L209 533V61ZM154 631Q127 631 110 648T92 696Q92 728 110 744T155 761Q183 761 200 745T218 696Q218 664 200 648T154 631Z" />
<glyph unicode="j" horiz-adv-x="278" d="M8 -240Q-5 -240 -18 -239T-47 -235L-39 -163Q-29 -164 -20 -164T-2 -165Q51 -165 73 -140T96 -53V468L107 454L21 474V527L196 533V-22Q196 -78 185 -119T150 -186T91 -226T8 -240ZM137 631Q110 631 93 648T75 696Q75
728 93 744T138 761Q166 761 183 745T201 696Q201 664 183 648T137 631Z" />
<glyph unicode="k" horiz-adv-x="576" d="M21 0V53L110 74L96 54V708L105 695L21 714V767L196 774V311L178 326H313L288 314L388 474L396 462L318 474V527L546 534V482L458 463L486 480L364 288V316L507 57L490 72L570 52V0H433L291 266L309 258H178L196 267V54L184
74L268 53V0H21Z" />
<glyph unicode="l" horiz-adv-x="292" d="M196 61L187 73L270 53V0H21V53L105 73L96 61V704L104 695L21 714V767L196 774V61Z" />
<glyph unicode="m" horiz-adv-x="954" d="M527 442L513 439Q562 490 616 515T720 540Q781 540 823 499T865 374V57L854 73L939 53V0H697V53L778 73L765 56V351Q765 409 741 436T678 463Q646 463 606 444T528 385L536 408Q537 399 537 392T538 377V57L527 73L605
53V0H370V53L451 73L438 56V351Q438 409 414 436T351 463Q318 463 279 445T202 388L209 405V56L198 72L277 53V0H35V53L123 74L109 57V471L123 453L35 474V527L187 534L200 437L187 442Q235 492 289 516T393 540Q439 540 475 516T527 442Z" />
<glyph unicode="n" horiz-adv-x="637" d="M35 0V53L123 74L109 57V471L123 453L35 474V527L187 534L200 437L187 442Q236 492 290 516T394 540Q461 540 505 499T548 372V57L537 73L622 53V0H378V53L461 73L448 56V351Q448 409 422 436T353 463Q319 463 280 445T202
388L209 406V56L198 72L279 53V0H35Z" />
<glyph unicode="o" horiz-adv-x="576" d="M295 540Q407 540 471 471T535 274Q535 188 504 124T416 25T277 -10Q166 -10 104 58T42 254Q42 343 72 407T158 505T295 540ZM290 467Q219 467 183 414T146 259Q146 160 181 112T283 63Q332 63 364 87T413 157T430 269Q430
368 394 417T290 467Z" />
<glyph unicode="p" horiz-adv-x="600" d="M25 -230V-177L114 -154L99 -172V468L112 453L25 474V527L177 534L189 447L177 454Q224 497 269 518T361 540Q417 540 461 509T532 420T558 275Q558 182 526 118T436 22T300 -11Q274 -11 245 -7T185 6L199 18V-172L187
-156L286 -177V-230H25ZM288 62Q371 62 412 116T454 265Q454 328 437 372T391 441T324 465Q292 465 257 448T187 396L199 425V59L186 80Q242 62 288 62Z" />
<glyph unicode="q" horiz-adv-x="582" d="M312 -230V-175L414 -152L401 -171V72L421 76Q376 32 332 11T240 -11Q184 -11 139 19T69 110T43 256Q43 356 77 418T175 510T323 540Q364 540 408 534T501 517V-171L488 -152L576 -175V-230H312ZM277 64Q309 64 343 81T414
133L401 101V475L414 450Q358 467 312 467Q230 467 189 414T147 265Q147 202 163 158T209 89T277 64Z" />
<glyph unicode="r" horiz-adv-x="451" d="M35 0V53L121 73L109 56V471L122 453L35 474V527L187 534L200 437L187 441Q232 488 275 514T369 540Q401 540 437 530L430 371H369L356 477L367 456Q360 458 353 459T338 460Q301 460 266 438T200 380L209 409V56L196
73L302 53V0H35Z" />
<glyph unicode="s" horiz-adv-x="479" d="M154 400Q154 371 174 355T226 327T294 305T363 277T415 232T436 157Q436 103 407 66T326 10T212 -10Q175 -10 134 -4T50 14L57 155H120L131 60L121 72Q143 66 168 63T215 59Q246 59 273 68T318 95T336 141Q336 171 316
188T263 217T196 239T128 267T76 312T56 387Q56 440 83 474T155 524T251 540Q286 540 328 533T416 512L411 391H347L332 472L346 456Q296 471 254 471Q210 471 182 452T154 400Z" />
<glyph unicode="t" horiz-adv-x="373" d="M218 -10Q160 -10 129 25T97 132V476L111 462H11V516L113 534L97 515V648L197 665V515L185 530H340L337 462H185L197 476V146Q197 104 212 85T258 66Q275 66 295 71T340 88L360 31Q284 -10 218 -10Z" />
<glyph unicode="u" horiz-adv-x="624" d="M242 -10Q176 -10 133 32T89 160V470L100 454L14 474V527L189 533V177Q189 121 214 94T283 67Q317 67 356 85T434 142L427 122V472L438 454L352 474V527L527 534V57L513 74L601 54V1L449 -6L435 93L449 88Q400 38 346
14T242 -10Z" />
<glyph unicode="v" horiz-adv-x="533" d="M322 527L537 534V481L472 459L488 476L317 -2H200L45 473L61 459L-5 474V527L224 534V481L139 462L147 476L271 62H262L396 472L403 462L322 474V527Z" />
<glyph unicode="w" horiz-adv-x="810" d="M610 527L815 534V481L747 463L763 476L629 -2H520L397 456H417L284 -2H175L49 473L62 460L-5 474V527L218 534V481L133 464L144 474L246 59H230L359 528L464 534L587 55H571L680 472L690 460L610 474V527Z" />
<glyph unicode="x" horiz-adv-x="559" d="M10 0V52L96 69L70 54L229 283L253 286L414 527L534 534V481L448 461L478 479L323 262L302 259L131 0H10ZM307 0V53L378 65L372 50L236 247L73 479L96 460L21 474V527L247 534V481L172 467L180 483L305 301L480 55L461
69L544 53V0H307Z" />
<glyph unicode="y" horiz-adv-x="538" d="M13 -234L22 -162Q35 -164 46 -165T68 -166Q115 -166 144 -145T195 -82T237 24L234 -12L45 472L57 462L-6 474V527L223 534V481L140 465L146 475L288 67L264 72L397 473L404 462L322 474V527L542 534V481L474 464L490
474L318 -1Q299 -53 278 -97T230 -173T166 -222T76 -240Q49 -240 13 -234Z" />
<glyph unicode="z" horiz-adv-x="489" d="M448 153L449 1L38 0V59L343 482L357 461H92L121 484L107 388H46L45 530H440V470L133 41L129 69H391L364 41L386 153H448Z" />
<glyph unicode="{" horiz-adv-x="348" d="M270 -105Q189 -105 154 -66T119 58V234Q119 282 100 311T28 340V409Q82 409 100 438T119 515V691Q119 775 154 814T270 853H321V791Q274 791 250 782T217 750T208 684V504Q208 451 189 421T138 380T67 368V380Q106 380
138 369T189 328T208 244V65Q208 22 216 -1T249 -33T321 -42V-105H270Z" />
<glyph unicode="|" horiz-adv-x="324" d="M123 806H201V-102H123V806Z" />
<glyph unicode="}" horiz-adv-x="348" d="M78 -105Q159 -105 194 -66T229 58V234Q229 282 248 311T320 340V409Q265 409 247 438T229 515V691Q229 775 194 814T78 853H26V791Q74 791 98 782T131 750T140 684V504Q140 451 159 421T210 380T281 368V380Q242 380
210 369T159 328T140 244V65Q140 22 131 -1T98 -33T26 -42V-105H78Z" />
<glyph unicode="~" horiz-adv-x="602" d="M409 282Q379 282 351 293T296 318T243 343T192 354Q169 354 146 343T98 298L56 325Q85 380 119 404T194 428Q224 428 252 417T308 392T361 367T412 356Q435 356 458 368T505 412L547 384Q516 329 482 306T409 282Z" />
<glyph unicode="&#xa0;" horiz-adv-x="193" />
<glyph unicode="&#xa1;" horiz-adv-x="329" d="M202 269L218 -203H111L126 264L202 269ZM226 446Q226 419 208 402T164 385Q137 385 120 402T103 446Q103 474 121 490T164 507Q193 507 209 491T226 446Z" />
<glyph unicode="&#xa2;" horiz-adv-x="559" d="M495 181Q447 144 399 126T304 105L331 126V-21H263V125L293 105Q226 104 175 134T94 220T64 354Q64 435 94 490T176 576T290 610L263 588V735H331V591L294 610Q329 612 363 607T426 593T477 572L473 448H414L402
527Q381 536 357 540T314 544Q265 544 231 520T179 455T161 360Q161 302 179 261T230 197T310 174Q345 174 383 188T463 231L495 181Z" />
<glyph unicode="&#xa3;" horiz-adv-x="671" d="M69 0V53L171 81L139 58Q165 79 174 113T184 191Q184 228 179 269T169 355L186 336H69V391L176 400L166 383Q161 419 158 454T154 516Q154 590 182 632T261 692T376 710Q420 710 469 703T572 682L564 524H502L485
637L496 620Q465 627 436 630T384 634Q324 634 291 609T257 517Q257 493 261 457T269 386L250 400H446V336H256L273 358Q277 323 281 289T285 222Q285 174 273 134T224 66L212 77L515 75L497 56L518 181H579V0H69Z" />
<glyph unicode="&#xa4;" horiz-adv-x="665" d="M577 123L528 70L428 163L466 164Q442 140 408 127T330 113Q287 113 253 127T196 165L238 168L134 71L90 119L191 214L188 173Q167 196 156 228T144 294Q144 331 156 363T190 423L186 387L86 480L136 533L239 438L203
434Q228 457 262 470T339 483Q381 483 412 471T466 439L432 440L529 532L574 483L475 392L474 432Q498 406 510 373T522 304Q522 268 511 235T477 176L474 218L577 123ZM332 176Q369 176 392 192T426 236T439 298Q440 353 415 386T337 420Q300 420 276 404T240
359T228 296Q228 244 253 210T332 176Z" />
<glyph unicode="&#xa5;" horiz-adv-x="712" d="M136 281V332H282L274 313L104 640L125 623L40 642V695L302 700V647L201 626L208 645L371 313H353L518 641L527 623L425 642V695L673 700V647L588 626L609 643L436 311L428 332H574V281H136ZM222 0V53L319 76L304
54V184L320 168H136V218H574V168H386L406 186V54L390 76L488 53V0H222Z" />
<glyph unicode="&#xa6;" horiz-adv-x="324" d="M123 437V806H201V437H123ZM123 -102V267H201V-102H123Z" />
<glyph unicode="&#xa7;" horiz-adv-x="563" d="M248 -180Q213 -180 174 -174T94 -156L100 -23H162L173 -116L163 -100Q185 -107 207 -111T249 -115Q298 -115 331 -93T365 -26Q365 9 345 33T292 78T223 118T155 161T102 215T82 290Q82 334 103 364T160 414T237
440L253 411Q234 405 215 389T182 351T169 301Q169 268 190 244T244 200T314 159T384 115T438 58T459 -23Q459 -75 432 -109T357 -162T248 -180ZM321 94L313 124Q331 133 350 150T383 190T396 239Q396 272 375 296T322 341T252 382T183 426T129 484T108 562Q108
634 161 671T300 709Q337 709 378 702T461 682L456 567H393L379 648L393 630Q371 637 349 640T306 644Q259 644 230 624T200 564Q200 531 221 507T274 463T342 424T411 381T464 326T485 251Q485 208 463 176T403 123T321 94Z" />
<glyph unicode="&#xa8;" horiz-adv-x="456" d="M331 637Q305 637 291 652T276 696Q275 724 291 740T331 756Q356 756 371 740T386 696Q386 668 370 653T331 637ZM125 637Q99 637 85 652T70 696Q70 724 86 740T125 756Q150 756 165 740T180 696Q180 668 164 653T125 637Z" />
<glyph unicode="&#xa9;" horiz-adv-x="882" d="M437 155Q364 155 316 205T267 347Q267 411 291 455T357 523T451 546Q512 546 576 516L574 419H524L515 483L522 477Q507 484 490 486T457 489Q403 489 375 452T347 352Q347 282 376 248T453 213Q478 213 506 223T564
253L591 212Q553 183 514 169T437 155ZM429 -10Q351 -10 286 16T173 89T99 200T73 342Q73 422 100 489T178 606T297 683T444 710Q523 710 589 684T704 611T781 499T809 358Q809 279 780 212T699 95T578 18T429 -10ZM434 47Q500 47 556 70T653 134T716 231T739 353Q739
441 701 508T595 614T439 653Q351 653 284 614T180 506T142 348Q142 261 178 193T280 86T434 47Z" />
<glyph unicode="&#xaa;" horiz-adv-x="438" d="M357 360L343 378L410 361V322L296 317L286 386L292 383Q262 350 225 332T150 314Q102 314 72 344T41 426Q41 466 59 489T111 523T190 533H285L279 527V586Q279 621 259 637T201 653Q182 653 161 650T115 638L124
651L115 587H66L59 682Q105 696 146 703T220 710Q286 710 321 684T357 599V360ZM119 433Q119 404 135 387T177 370Q200 370 228 382T283 417L279 404V502L286 494H202Q190 494 176 492T149 485T128 467T119 433ZM43 168V238H410V168H43Z" />
<glyph unicode="&#xab;" horiz-adv-x="511" d="M209 58L53 243V297L210 482L258 446L122 250V291L257 96L209 58ZM408 58L252 243V297L409 482L457 446L321 250V291L456 96L408 58Z" />
<glyph unicode="&#xac;" horiz-adv-x="607" d="M449 113V328L462 313H51V386H531V113H449Z" />
<glyph unicode="&#xad;" horiz-adv-x="432" d="M620 332V255H324V332H620Z" />
<glyph unicode="&#xae;" horiz-adv-x="740" d="M228 297V326L277 339L267 326V592L280 579L228 589V618L328 621H379Q436 621 466 599T497 535Q497 501 472 477T390 447L394 456Q424 455 439 442T467 404L507 325L488 338L531 326V297H459L415 393Q406 414 396
423T373 435T343 437H312L323 448V326L314 339L371 326V297H228ZM323 465L312 475H354Q395 475 416 490T438 531Q438 554 421 566T368 579H312L323 592V465ZM361 163Q277 164 212 200T110 300T73 449Q73 535 112 602T219 708T372 747Q458 747 524 711T629 610T668
461Q668 398 645 344T579 249T482 186T361 163ZM363 209Q435 209 492 241T582 330T615 460Q615 531 584 585T497 670T371 700Q300 700 245 668T158 580T126 451Q126 379 156 325T239 240T363 209Z" />
<glyph unicode="&#xaf;" horiz-adv-x="429" d="M353 739V668H76V739H353Z" />
<glyph unicode="&#xb0;" horiz-adv-x="444" d="M199 433Q130 433 87 473T44 585Q44 630 64 664T119 717T200 736Q269 736 312 696T355 587Q355 517 312 475T199 433ZM200 490Q240 490 263 515T286 586Q286 631 263 655T200 680Q161 680 138 656T113 587Q114 541
137 516T200 490Z" />
<glyph unicode="&#xb1;" horiz-adv-x="591" d="M275 446L257 428V634H334V428L316 446H522V374H316L334 392V186H257V392L275 374H70V446H275ZM522 112V40H70V112H522Z" />
<glyph unicode="&#xb2;" horiz-adv-x="359" d="M31 346V407Q96 462 140 506T208 586T232 654Q232 687 212 701T160 715Q124 715 88 701L98 717L90 645H39L32 756Q69 766 104 772T173 779Q235 779 276 753T318 668Q318 633 302 601T258 536T195 472T121 404L120
412H325V346H31Z" />
<glyph unicode="&#xb3;" horiz-adv-x="369" d="M164 338Q128 338 93 347T24 373L50 426Q76 414 103 407T156 400Q193 400 218 417T244 471Q244 501 225 519T158 537H100V591H153Q198 591 217 608T237 656Q237 691 216 705T162 720Q145 720 126 717T87 708L100
720L92 653H41L36 753Q73 766 109 772T179 778Q220 778 252 768T303 734T322 670Q322 623 295 598T221 567L216 571Q274 566 302 539T330 467Q330 423 307 395T247 352T164 338Z" />
<glyph unicode="&#xb4;" horiz-adv-x="329" d="M99 615L63 665L254 815L308 742L99 615Z" />
<glyph unicode="&#xb5;" horiz-adv-x="655" d="M133 125L158 72Q165 35 173 -10T188 -110T194 -230H94V471L105 454L20 474V527L194 532V173Q194 119 219 93T287 67Q321 67 361 85T440 143L433 125V473L444 454L358 474V527L533 532V57L519 75L607 54V1L455 -6L441
93L452 88Q405 39 356 15T262 -10Q211 -10 176 23T133 125Z" />
<glyph unicode="&#xb6;" horiz-adv-x="614" d="M137 -170V-117L234 -94L219 -116V340L240 321Q182 321 139 344T71 409T46 511Q46 567 70 610T139 676T241 700H560V647L463 622L478 644V-170H394V649L411 625L287 624L303 650V-170H137Z" />
<glyph unicode="&#xb7;" horiz-adv-x="218" d="M48 328Q48 356 66 372T109 389Q138 389 154 373T171 328Q171 300 153 284T109 267Q81 267 65 283T48 328Z" />
<glyph unicode="&#xb8;" horiz-adv-x="322" d="M149 -240Q125 -240 100 -235T52 -218L72 -168Q90 -174 110 -178T148 -183Q172 -183 188 -174T204 -145Q204 -131 191 -122T156 -107T102 -100L108 0H170V-55Q226 -60 252 -83T278 -142Q278 -175 260 -196T213 -229T149
-240Z" />
<glyph unicode="&#xb9;" horiz-adv-x="282" d="M200 391L187 408L270 389V346H37V389L134 406L121 391V702H143L34 639L9 689L137 773H200V391Z" />
<glyph unicode="&#xba;" horiz-adv-x="478" d="M229 313Q145 313 97 364T49 503Q49 566 72 612T140 684T245 710Q331 710 380 659T429 521Q429 459 406 412T337 339T229 313ZM63 168V238H416V168H63ZM235 372Q271 372 295 390T332 440T344 516Q344 580 318 615T240
651Q187 651 161 613T134 508Q134 443 159 408T235 372Z" />
<glyph unicode="&#xbb;" horiz-adv-x="511" d="M302 482L458 297V243L301 58L253 94L388 289V249L254 443L302 482ZM103 482L259 297V243L102 58L54 94L189 289V249L55 443L103 482Z" />
<glyph unicode="&#xbc;" horiz-adv-x="855" d="M219 321L206 338L289 319V276H56V319L153 336L140 321V632H162L53 569L28 619L156 703H219V321ZM160 -8L588 708H669L241 -8H160ZM675 114L686 97H480L469 156L654 432L757 424V143L737 156H821V97H737L757 114V0H675V114ZM688
156L675 143V385L688 384L521 133L511 156H688Z" />
<glyph unicode="&#xbd;" horiz-adv-x="878" d="M225 321L212 338L295 319V276H62V319L159 336L146 321V632H168L59 569L34 619L162 703H225V321ZM165 -8L593 708H674L246 -8H165ZM535 0V61Q600 116 644 160T712 240T736 308Q736 341 716 355T664 369Q628 369 592
355L602 371L594 299H543L536 410Q573 420 608 426T677 433Q739 433 780 407T822 322Q822 287 806 255T762 190T699 126T625 58L624 66H829V0H535Z" />
<glyph unicode="&#xbe;" horiz-adv-x="892" d="M164 268Q128 268 93 277T24 303L50 356Q76 344 103 337T156 330Q193 330 218 347T244 401Q244 431 225 449T158 467H100V521H153Q198 521 217 538T237 586Q237 621 216 635T162 650Q145 650 126 647T87 638L100
650L92 583H41L36 683Q73 696 109 702T179 708Q220 708 252 698T303 664T322 600Q322 553 295 528T221 497L216 501Q274 496 302 469T330 397Q330 353 307 325T247 282T164 268ZM198 -8L626 708H707L279 -8H198ZM714 114L725 97H519L508 156L693 432L796 424V143L776
156H860V97H776L796 114V0H714V114ZM727 156L714 143V385L727 384L560 133L550 156H727Z" />
<glyph unicode="&#xbf;" horiz-adv-x="426" d="M295 297Q298 281 300 264T302 234Q302 197 285 170T242 121T190 78T147 33T129 -25Q129 -66 158 -85T231 -105Q259 -105 292 -98T357 -79L379 -145Q290 -181 204 -181Q155 -181 115 -167T50 -122T26 -42Q26 5 45
38T93 97T151 146T199 194T218 254Q218 260 218 271T216 293L295 297ZM305 480Q305 452 287 436T242 419Q216 419 199 435T182 478Q182 507 200 523T245 540Q271 540 288 524T305 480Z" />
<glyph unicode="&#xc0;" horiz-adv-x="710" d="M642 52L615 76L706 53V0H437V53L535 74L525 58L477 208L494 194H202L217 208L165 60L160 73L255 53V0H4V53L93 75L68 54L309 699L414 702L642 52ZM231 252L222 267H476L465 251L343 642H367L231 252ZM461 751L236
847L280 928L489 807L461 751Z" />
<glyph unicode="&#xc1;" horiz-adv-x="710" d="M642 52L615 76L706 53V0H437V53L535 74L525 58L477 208L494 194H202L217 208L165 60L160 73L255 53V0H4V53L93 75L68 54L309 699L414 702L642 52ZM231 252L222 267H476L465 251L343 642H367L231 252ZM271 751L241
806L452 928L493 848L271 751Z" />
<glyph unicode="&#xc2;" horiz-adv-x="710" d="M642 52L615 76L706 53V0H437V53L535 74L525 58L477 208L494 194H202L217 208L165 60L160 73L255 53V0H4V53L93 75L68 54L309 699L414 702L642 52ZM231 252L222 267H476L465 251L343 642H367L231 252ZM222 746L188
787L328 910L386 915L535 787L500 746L324 858L392 857L222 746Z" />
<glyph unicode="&#xc3;" horiz-adv-x="710" d="M642 52L615 76L706 53V0H437V53L535 74L525 58L477 208L494 194H202L217 208L165 60L160 73L255 53V0H4V53L93 75L68 54L309 699L414 702L642 52ZM231 252L222 267H476L465 251L343 642H367L231 252ZM233 775L189
795Q207 846 231 868T287 891Q313 891 338 880T386 859T428 848Q445 848 459 858T489 893L533 874Q514 822 489 800T431 777Q406 777 382 788T335 809T291 820Q274 820 261 809T233 775Z" />
<glyph unicode="&#xc4;" horiz-adv-x="710" d="M642 52L615 76L706 53V0H437V53L535 74L525 58L477 208L494 194H202L217 208L165 60L160 73L255 53V0H4V53L93 75L68 54L309 699L414 702L642 52ZM231 252L222 267H476L465 251L343 642H367L231 252ZM464 765Q438
765 424 780T409 824Q408 852 424 868T464 884Q489 884 504 868T519 824Q519 796 503 781T464 765ZM258 765Q232 765 218 780T203 824Q203 852 219 868T258 884Q283 884 298 868T313 824Q313 796 297 781T258 765Z" />
<glyph unicode="&#xc5;" horiz-adv-x="710" d="M642 52L615 76L706 53V0H437V53L535 74L525 58L477 208L494 194H202L217 208L165 60L160 73L255 53V0H4V53L93 75L68 54L309 699L414 702L642 52ZM231 252L222 267H476L465 251L343 642H367L231 252ZM360 732Q326
732 301 745T261 781T246 836Q246 867 260 891T301 928T363 942Q398 942 423 929T462 893T477 839Q477 808 463 784T422 746T360 732ZM361 781Q387 781 400 797T414 838Q414 862 401 877T362 893Q336 893 323 877T309 837Q309 812 322 797T361 781Z" />
<glyph unicode="&#xc6;" horiz-adv-x="945" d="M0 0V53L92 75L63 53L355 639L367 621L268 642V695L471 700H870V535H809L789 645L809 625H544L561 642V384L544 401H796V328H544L561 348V57L544 75H822L802 56L822 172H883L882 0H381V53L473 77L459 58V228L476
210H223L246 227L160 53L153 75L252 53V0H0ZM264 268L252 283H476L459 268V637L476 625H424L446 636L264 268Z" />
<glyph unicode="&#xc7;" horiz-adv-x="641" d="M347 -10Q266 -10 200 31T94 151T54 347Q54 461 93 542T204 666T370 710Q420 710 474 698T589 659L581 495H520L500 616L518 598Q480 614 442 622T372 630Q307 630 261 598T189 505T164 359Q164 266 191 203T266
107T373 74Q417 74 465 93T559 150L599 90Q539 39 474 15T347 -10ZM360 -240Q336 -240 311 -235T263 -218L283 -168Q301 -174 321 -178T359 -183Q383 -183 399 -174T415 -145Q415 -131 402 -122T367 -107T313 -100L319 0H381V-55Q437 -60 463 -83T489 -142Q489
-175 471 -196T424 -229T360 -240Z" />
<glyph unicode="&#xc8;" horiz-adv-x="617" d="M494 172H556L555 0H45V53L142 76L127 54V643L141 622L45 642V695L227 700H543V535H482L463 640L483 625H212L229 642V377L212 394H469V321H212L229 341V58L212 75H496L475 58L494 172ZM417 751L192 847L236 928L445
807L417 751Z" />
<glyph unicode="&#xc9;" horiz-adv-x="617" d="M494 172H556L555 0H45V53L142 76L127 54V643L141 622L45 642V695L227 700H543V535H482L463 640L483 625H212L229 642V377L212 394H469V321H212L229 341V58L212 75H496L475 58L494 172ZM228 751L198 806L409 928L450
848L228 751Z" />
<glyph unicode="&#xca;" horiz-adv-x="617" d="M494 172H556L555 0H45V53L142 76L127 54V643L141 622L45 642V695L227 700H543V535H482L463 640L483 625H212L229 642V377L212 394H469V321H212L229 341V58L212 75H496L475 58L494 172ZM178 746L144 787L284 910L342
915L491 787L456 746L280 858L348 857L178 746Z" />
<glyph unicode="&#xcb;" horiz-adv-x="617" d="M494 172H556L555 0H45V53L142 76L127 54V643L141 622L45 642V695L227 700H543V535H482L463 640L483 625H212L229 642V377L212 394H469V321H212L229 341V58L212 75H496L475 58L494 172ZM421 765Q395 765 381 780T366
824Q365 852 381 868T421 884Q446 884 461 868T476 824Q476 796 460 781T421 765ZM215 765Q189 765 175 780T160 824Q160 852 176 868T215 884Q240 884 255 868T270 824Q270 796 254 781T215 765Z" />
<glyph unicode="&#xcc;" horiz-adv-x="355" d="M311 647L217 623L229 639V58L217 75L311 53V0H45V53L138 74L127 58V639L141 622L45 642V695L311 700V647ZM533 751L308 847L352 928L561 807L533 751Z" />
<glyph unicode="&#xcd;" horiz-adv-x="355" d="M311 647L217 623L229 639V58L217 75L311 53V0H45V53L138 74L127 58V639L141 622L45 642V695L311 700V647ZM87 751L57 806L268 928L309 848L87 751Z" />
<glyph unicode="&#xce;" horiz-adv-x="355" d="M311 647L217 623L229 639V58L217 75L311 53V0H45V53L138 74L127 58V639L141 622L45 642V695L311 700V647ZM294 746L260 787L400 910L458 915L607 787L572 746L396 858L464 857L294 746Z" />
<glyph unicode="&#xcf;" horiz-adv-x="355" d="M311 647L217 623L229 639V58L217 75L311 53V0H45V53L138 74L127 58V639L141 622L45 642V695L311 700V647ZM280 765Q254 765 240 780T225 824Q224 852 240 868T280 884Q305 884 320 868T335 824Q335 796 319 781T280
765ZM74 765Q48 765 34 780T19 824Q19 852 35 868T74 884Q99 884 114 868T129 824Q129 796 113 781T74 765Z" />
<glyph unicode="&#xd0;" horiz-adv-x="716" d="M45 322V392H382V322H45ZM348 700Q417 700 474 680T574 617T639 512T663 361Q663 243 621 163T504 41T331 0H45V53L142 76L127 54V643L143 621L45 642V695L246 700H348ZM335 75Q376 75 415 88T485 132T535 217T553
354Q553 434 536 486T489 569T422 612T346 625H212L229 642V58L212 75H335Z" />
<glyph unicode="&#xd1;" horiz-adv-x="785" d="M503 695L753 700V647L655 622L671 644V0H555L198 592H213V54L196 76L295 53V0H45V53L144 76L127 54V644L139 623L45 642V695L249 700L600 119L585 118V644L602 623L503 642V695ZM277 775L233 795Q251 846 275 868T331
891Q357 891 382 880T430 859T472 848Q489 848 503 858T533 893L577 874Q558 822 533 800T475 777Q450 777 426 788T379 809T335 820Q318 820 305 809T277 775Z" />
<glyph unicode="&#xd2;" horiz-adv-x="741" d="M359 -10Q270 -10 201 29T93 147T54 342Q54 434 78 503T147 618T249 687T376 710Q443 710 500 688T599 623T664 514T687 362Q687 245 645 162T528 34T359 -10ZM366 70Q424 70 472 99T548 191T577 357Q577 454 551
514T478 602T372 630Q314 630 267 602T192 511T164 346Q164 249 190 189T262 99T366 70ZM474 751L249 847L293 928L502 807L474 751Z" />
<glyph unicode="&#xd3;" horiz-adv-x="741" d="M359 -10Q270 -10 201 29T93 147T54 342Q54 434 78 503T147 618T249 687T376 710Q443 710 500 688T599 623T664 514T687 362Q687 245 645 162T528 34T359 -10ZM366 70Q424 70 472 99T548 191T577 357Q577 454 551
514T478 602T372 630Q314 630 267 602T192 511T164 346Q164 249 190 189T262 99T366 70ZM284 751L254 806L465 928L506 848L284 751Z" />
<glyph unicode="&#xd4;" horiz-adv-x="741" d="M359 -10Q270 -10 201 29T93 147T54 342Q54 434 78 503T147 618T249 687T376 710Q443 710 500 688T599 623T664 514T687 362Q687 245 645 162T528 34T359 -10ZM366 70Q424 70 472 99T548 191T577 357Q577 454 551
514T478 602T372 630Q314 630 267 602T192 511T164 346Q164 249 190 189T262 99T366 70ZM235 746L201 787L341 910L399 915L548 787L513 746L337 858L405 857L235 746Z" />
<glyph unicode="&#xd5;" horiz-adv-x="741" d="M359 -10Q270 -10 201 29T93 147T54 342Q54 434 78 503T147 618T249 687T376 710Q443 710 500 688T599 623T664 514T687 362Q687 245 645 162T528 34T359 -10ZM366 70Q424 70 472 99T548 191T577 357Q577 454 551
514T478 602T372 630Q314 630 267 602T192 511T164 346Q164 249 190 189T262 99T366 70ZM246 775L202 795Q220 846 244 868T300 891Q326 891 351 880T399 859T441 848Q458 848 472 858T502 893L546 874Q527 822 502 800T444 777Q419 777 395 788T348 809T304 820Q287
820 274 809T246 775Z" />
<glyph unicode="&#xd6;" horiz-adv-x="741" d="M359 -10Q270 -10 201 29T93 147T54 342Q54 434 78 503T147 618T249 687T376 710Q443 710 500 688T599 623T664 514T687 362Q687 245 645 162T528 34T359 -10ZM366 70Q424 70 472 99T548 191T577 357Q577 454 551
514T478 602T372 630Q314 630 267 602T192 511T164 346Q164 249 190 189T262 99T366 70ZM477 765Q451 765 437 780T422 824Q421 852 437 868T477 884Q502 884 517 868T532 824Q532 796 516 781T477 765ZM271 765Q245 765 231 780T216 824Q216 852 232 868T271 884Q296
884 311 868T326 824Q326 796 310 781T271 765Z" />
<glyph unicode="&#xd7;" horiz-adv-x="504" d="M105 149L51 203L211 362L212 335L51 496L106 551L267 390L239 391L399 550L453 496L293 337L292 364L453 203L398 148L237 309H264L105 149Z" />
<glyph unicode="&#xd8;" horiz-adv-x="742" d="M600 774L655 742L576 618L561 598L234 79L227 64L139 -76L84 -43L172 97L183 111L515 635L521 649L600 774ZM360 -10Q271 -10 202 29T94 147T55 342Q55 434 79 503T148 618T250 687T378 710Q445 710 501 688T600
623T665 514T689 362Q689 245 647 162T530 34T360 -10ZM367 70Q425 70 473 99T550 191T579 357Q579 454 552 514T479 602T373 630Q316 630 269 602T193 511T165 346Q165 249 191 189T263 99T367 70Z" />
<glyph unicode="&#xd9;" horiz-adv-x="747" d="M455 695L722 700V647L626 623L640 649V268Q640 226 633 186T608 110T560 48T483 5T370 -10Q291 -10 241 9T164 61T125 129T110 198T107 256V648L121 623L25 642V695L292 700V647L198 623L210 648V256Q210 231 212
205T222 154T247 111T295 81T371 69Q418 69 449 81T498 113T524 158T535 212T537 268V649L548 624L455 642V695ZM474 751L249 847L293 928L502 807L474 751Z" />
<glyph unicode="&#xda;" horiz-adv-x="747" d="M455 695L722 700V647L626 623L640 649V268Q640 226 633 186T608 110T560 48T483 5T370 -10Q291 -10 241 9T164 61T125 129T110 198T107 256V648L121 623L25 642V695L292 700V647L198 623L210 648V256Q210 231 212
205T222 154T247 111T295 81T371 69Q418 69 449 81T498 113T524 158T535 212T537 268V649L548 624L455 642V695ZM285 751L255 806L466 928L507 848L285 751Z" />
<glyph unicode="&#xdb;" horiz-adv-x="747" d="M455 695L722 700V647L626 623L640 649V268Q640 226 633 186T608 110T560 48T483 5T370 -10Q291 -10 241 9T164 61T125 129T110 198T107 256V648L121 623L25 642V695L292 700V647L198 623L210 648V256Q210 231 212
205T222 154T247 111T295 81T371 69Q418 69 449 81T498 113T524 158T535 212T537 268V649L548 624L455 642V695ZM235 746L201 787L341 910L399 915L548 787L513 746L337 858L405 857L235 746Z" />
<glyph unicode="&#xdc;" horiz-adv-x="747" d="M455 695L722 700V647L626 623L640 649V268Q640 226 633 186T608 110T560 48T483 5T370 -10Q291 -10 241 9T164 61T125 129T110 198T107 256V648L121 623L25 642V695L292 700V647L198 623L210 648V256Q210 231 212
205T222 154T247 111T295 81T371 69Q418 69 449 81T498 113T524 158T535 212T537 268V649L548 624L455 642V695ZM478 765Q452 765 438 780T423 824Q422 852 438 868T478 884Q503 884 518 868T533 824Q533 796 517 781T478 765ZM272 765Q246 765 232 780T217 824Q217
852 233 868T272 884Q297 884 312 868T327 824Q327 796 311 781T272 765Z" />
<glyph unicode="&#xdd;" horiz-adv-x="643" d="M184 0V53L284 76L269 54V274L279 235L69 640L90 623L3 642V695L267 700V647L166 626L175 645L338 310H318L483 641L492 623L390 642V695L640 700V647L553 626L574 643L363 235L371 274V54L355 76L455 53V0H184ZM234
751L204 806L415 928L456 848L234 751Z" />
<glyph unicode="&#xde;" horiz-adv-x="588" d="M45 0V53L141 75L127 54V644L141 622L45 642V695L311 700V647L216 621L229 642V538L212 557H342Q446 557 501 510T556 369Q556 262 488 207T303 152H212L229 172V55L214 76L332 53V0H45ZM229 208L212 225H285Q335
225 372 239T431 283T452 362Q452 406 435 433T385 472T309 485H212L229 502V208Z" />
<glyph unicode="&#xdf;" horiz-adv-x="666" d="M410 416Q410 389 427 371T472 339T531 311T589 277T634 228T651 155Q651 98 624 62T552 8T449 -10Q415 -10 380 -4T307 14L313 149H375L387 53L374 73Q393 65 414 61T453 56Q481 56 504 65T541 93T555 141Q555 171
538 192T494 229T436 260T378 293T333 337T316 403Q316 439 331 461T368 500T413 530T450 563T465 612Q465 643 450 664T407 696T345 708Q286 708 249 678T211 584V0H36V53L125 74L111 56V466L125 457H34V512L123 528L111 512V575Q111 631 129 670T180 733T256
769T347 780Q409 780 457 762T534 709T563 622Q563 583 548 559T510 519T464 489T426 459T410 416Z" />
<glyph unicode="&#xe0;" horiz-adv-x="552" d="M459 54L444 75L534 54V1L382 -6L368 90L376 87Q333 38 283 14T186 -10Q128 -10 87 28T45 142Q45 200 70 232T140 279T246 293H368L359 282V368Q359 420 332 442T257 465Q232 465 205 460T145 444L159 458L148 369H82L74
502Q135 521 186 530T282 540Q366 540 412 503T459 386V54ZM146 149Q146 106 167 86T220 65Q252 65 290 85T365 140L359 115V239L368 229H262Q196 229 171 209T146 149ZM205 816L393 667L355 615L150 744L205 816Z" />
<glyph unicode="&#xe1;" horiz-adv-x="552" d="M459 54L444 75L534 54V1L382 -6L368 90L376 87Q333 38 283 14T186 -10Q128 -10 87 28T45 142Q45 200 70 232T140 279T246 293H368L359 282V368Q359 420 332 442T257 465Q232 465 205 460T145 444L159 458L148 369H82L74
502Q135 521 186 530T282 540Q366 540 412 503T459 386V54ZM146 149Q146 106 167 86T220 65Q252 65 290 85T365 140L359 115V239L368 229H262Q196 229 171 209T146 149ZM209 615L173 665L364 815L418 742L209 615Z" />
<glyph unicode="&#xe2;" horiz-adv-x="552" d="M459 54L444 75L534 54V1L382 -6L368 90L376 87Q333 38 283 14T186 -10Q128 -10 87 28T45 142Q45 200 70 232T140 279T246 293H368L359 282V368Q359 420 332 442T257 465Q232 465 205 460T145 444L159 458L148 369H82L74
502Q135 521 186 530T282 540Q366 540 412 503T459 386V54ZM146 149Q146 106 167 86T220 65Q252 65 290 85T365 140L359 115V239L368 229H262Q196 229 171 209T146 149ZM137 625L102 664L241 797L299 802L445 664L409 625L237 748L305 747L137 625Z" />
<glyph unicode="&#xe3;" horiz-adv-x="552" d="M459 54L444 75L534 54V1L382 -6L368 90L376 87Q333 38 283 14T186 -10Q128 -10 87 28T45 142Q45 200 70 232T140 279T246 293H368L359 282V368Q359 420 332 442T257 465Q232 465 205 460T145 444L159 458L148 369H82L74
502Q135 521 186 530T282 540Q366 540 412 503T459 386V54ZM146 149Q146 106 167 86T220 65Q252 65 290 85T365 140L359 115V239L368 229H262Q196 229 171 209T146 149ZM343 646Q315 646 293 658T249 683T205 696Q186 696 171 685T142 648L97 667Q115 720 141 745T201
770Q228 770 251 758T295 734T339 721Q358 721 373 733T403 769L447 751Q429 698 403 672T343 646Z" />
<glyph unicode="&#xe4;" horiz-adv-x="552" d="M459 54L444 75L534 54V1L382 -6L368 90L376 87Q333 38 283 14T186 -10Q128 -10 87 28T45 142Q45 200 70 232T140 279T246 293H368L359 282V368Q359 420 332 442T257 465Q232 465 205 460T145 444L159 458L148 369H82L74
502Q135 521 186 530T282 540Q366 540 412 503T459 386V54ZM146 149Q146 106 167 86T220 65Q252 65 290 85T365 140L359 115V239L368 229H262Q196 229 171 209T146 149ZM375 637Q349 637 335 652T320 696Q319 724 335 740T375 756Q400 756 415 740T430 696Q430
668 414 653T375 637ZM169 637Q143 637 129 652T114 696Q114 724 130 740T169 756Q194 756 209 740T224 696Q224 668 208 653T169 637Z" />
<glyph unicode="&#xe5;" horiz-adv-x="552" d="M459 54L444 75L534 54V1L382 -6L368 90L376 87Q333 38 283 14T186 -10Q128 -10 87 28T45 142Q45 200 70 232T140 279T246 293H368L359 282V368Q359 420 332 442T257 465Q232 465 205 460T145 444L159 458L148 369H82L74
502Q135 521 186 530T282 540Q366 540 412 503T459 386V54ZM146 149Q146 106 167 86T220 65Q252 65 290 85T365 140L359 115V239L368 229H262Q196 229 171 209T146 149ZM270 614Q236 614 211 627T171 663T156 718Q156 749 170 773T211 810T273 824Q308 824 333
811T372 775T387 721Q387 690 373 666T332 628T270 614ZM271 663Q297 663 310 679T324 720Q324 744 311 759T272 775Q246 775 233 759T219 719Q219 694 232 679T271 663Z" />
<glyph unicode="&#xe6;" horiz-adv-x="863" d="M80 374L72 502Q131 522 181 531T272 540Q339 540 378 515T426 441L432 420L423 428Q451 482 500 511T611 540Q710 540 765 478T820 303Q820 283 819 265T815 235H454L463 259L464 244Q466 162 507 114T616 66Q693
66 781 123L816 67Q761 30 705 10T593 -10Q526 -10 475 21T398 110L424 109Q381 48 323 19T208 -11Q164 -11 127 6T68 58T45 143Q45 223 93 263T242 304H372L362 287V368Q362 418 337 442T260 466Q236 466 207 461T143 444L154 458L143 374H80ZM376 128Q369 154
366 185T362 255L372 235H262Q199 235 173 220T146 156Q146 110 173 87T239 63Q274 63 312 82T381 140L376 128ZM463 286L453 304H726L716 290Q717 381 689 424T601 467Q538 467 502 420T463 286Z" />
<glyph unicode="&#xe7;" horiz-adv-x="514" d="M272 -10Q207 -10 154 22T71 114T40 259Q40 334 61 387T119 474T202 524T298 540Q341 540 387 529T467 500L463 367H397L383 457L392 449Q371 459 345 463T298 467Q249 467 215 443T162 373T144 265Q144 201 163
156T217 89T295 66Q329 66 368 80T449 123L484 70Q430 29 377 10T272 -10ZM283 -240Q259 -240 234 -235T186 -218L206 -168Q224 -174 244 -178T282 -183Q306 -183 322 -174T338 -145Q338 -131 325 -122T290 -107T236 -100L242 0H304V-55Q360 -60 386 -83T412 -142Q412
-175 394 -196T347 -229T283 -240Z" />
<glyph unicode="&#xe8;" horiz-adv-x="549" d="M276 -10Q207 -10 155 20T73 110T43 256Q43 344 73 407T160 505T293 540Q366 540 412 510T481 428T504 308Q504 295 503 282T500 252H121V321H410L401 315Q402 356 391 390T354 444T285 465Q238 465 207 440T161
370T146 269Q146 208 163 163T214 92T300 66Q336 66 378 80T466 122L501 67Q445 28 388 9T276 -10ZM218 816L406 667L368 615L163 744L218 816Z" />
<glyph unicode="&#xe9;" horiz-adv-x="549" d="M276 -10Q207 -10 155 20T73 110T43 256Q43 344 73 407T160 505T293 540Q366 540 412 510T481 428T504 308Q504 295 503 282T500 252H121V321H410L401 315Q402 356 391 390T354 444T285 465Q238 465 207 440T161
370T146 269Q146 208 163 163T214 92T300 66Q336 66 378 80T466 122L501 67Q445 28 388 9T276 -10ZM222 615L186 665L377 815L431 742L222 615Z" />
<glyph unicode="&#xea;" horiz-adv-x="549" d="M276 -10Q207 -10 155 20T73 110T43 256Q43 344 73 407T160 505T293 540Q366 540 412 510T481 428T504 308Q504 295 503 282T500 252H121V321H410L401 315Q402 356 391 390T354 444T285 465Q238 465 207 440T161
370T146 269Q146 208 163 163T214 92T300 66Q336 66 378 80T466 122L501 67Q445 28 388 9T276 -10ZM149 625L114 664L253 797L311 802L457 664L421 625L249 748L317 747L149 625Z" />
<glyph unicode="&#xeb;" horiz-adv-x="549" d="M276 -10Q207 -10 155 20T73 110T43 256Q43 344 73 407T160 505T293 540Q366 540 412 510T481 428T504 308Q504 295 503 282T500 252H121V321H410L401 315Q402 356 391 390T354 444T285 465Q238 465 207 440T161
370T146 269Q146 208 163 163T214 92T300 66Q336 66 378 80T466 122L501 67Q445 28 388 9T276 -10ZM387 637Q361 637 347 652T332 696Q331 724 347 740T387 756Q412 756 427 740T442 696Q442 668 426 653T387 637ZM181 637Q155 637 141 652T126 696Q126 724 142
740T181 756Q206 756 221 740T236 696Q236 668 220 653T181 637Z" />
<glyph unicode="&#xec;" horiz-adv-x="305" d="M209 61L200 73L284 53V0H35V53L119 73L109 61V464L118 455L35 474V527L209 533V61ZM331 816L519 667L481 615L276 744L331 816Z" />
<glyph unicode="&#xed;" horiz-adv-x="305" d="M209 61L200 73L284 53V0H35V53L119 73L109 61V464L118 455L35 474V527L209 533V61ZM349 615L313 665L504 815L558 742L349 615Z" />
<glyph unicode="&#xee;" horiz-adv-x="305" d="M41 625L4 664L122 797L180 802L306 664L268 625L118 748L186 747L41 625ZM209 61L200 73L284 53V0H35V53L119 73L109 61V464L118 455L35 474V527L209 533V61Z" />
<glyph unicode="&#xef;" horiz-adv-x="305" d="M243 637Q219 637 205 652T190 696Q190 724 206 740T243 756Q267 756 281 740T296 696Q296 668 280 653T243 637ZM51 637Q27 637 13 652T-1 696Q-2 724 14 740T51 756Q75 756 89 740T104 696Q104 668 88 653T51 637ZM209
61L200 73L284 53V0H35V53L119 73L109 61V464L118 455L35 474V527L209 533V61Z" />
<glyph unicode="&#xf0;" horiz-adv-x="584" d="M273 -10Q197 -10 145 21T67 109T40 241Q40 325 70 385T151 476T269 508Q328 508 373 481T446 402L436 406Q423 500 383 567T279 670T128 707L136 780Q240 780 315 741T438 636T509 486T532 315Q532 240 516 180T468
78T386 13T273 -10ZM280 63Q325 63 358 86T410 154T428 262Q428 350 392 394T291 439Q246 439 213 418T162 353T144 246Q144 154 180 109T280 63ZM218 571L186 614L441 782L473 738L218 571Z" />
<glyph unicode="&#xf1;" horiz-adv-x="637" d="M35 0V53L123 74L109 57V471L123 453L35 474V527L187 534L200 437L187 442Q236 492 290 516T394 540Q461 540 505 499T548 372V57L537 73L622 53V0H378V53L461 73L448 56V351Q448 409 422 436T353 463Q319 463 280
445T202 388L209 406V56L198 72L279 53V0H35ZM399 646Q371 646 349 658T305 683T261 696Q242 696 227 685T198 648L153 667Q171 720 197 745T257 770Q284 770 307 758T351 734T395 721Q414 721 429 733T459 769L503 751Q485 698 459 672T399 646Z" />
<glyph unicode="&#xf2;" horiz-adv-x="576" d="M295 540Q407 540 471 471T535 274Q535 188 504 124T416 25T277 -10Q166 -10 104 58T42 254Q42 343 72 407T158 505T295 540ZM290 467Q219 467 183 414T146 259Q146 160 181 112T283 63Q332 63 364 87T413 157T430
269Q430 368 394 417T290 467ZM221 816L409 667L371 615L166 744L221 816Z" />
<glyph unicode="&#xf3;" horiz-adv-x="576" d="M295 540Q407 540 471 471T535 274Q535 188 504 124T416 25T277 -10Q166 -10 104 58T42 254Q42 343 72 407T158 505T295 540ZM290 467Q219 467 183 414T146 259Q146 160 181 112T283 63Q332 63 364 87T413 157T430
269Q430 368 394 417T290 467ZM225 615L189 665L380 815L434 742L225 615Z" />
<glyph unicode="&#xf4;" horiz-adv-x="576" d="M295 540Q407 540 471 471T535 274Q535 188 504 124T416 25T277 -10Q166 -10 104 58T42 254Q42 343 72 407T158 505T295 540ZM290 467Q219 467 183 414T146 259Q146 160 181 112T283 63Q332 63 364 87T413 157T430
269Q430 368 394 417T290 467ZM152 625L117 664L256 797L314 802L460 664L424 625L252 748L320 747L152 625Z" />
<glyph unicode="&#xf5;" horiz-adv-x="576" d="M295 540Q407 540 471 471T535 274Q535 188 504 124T416 25T277 -10Q166 -10 104 58T42 254Q42 343 72 407T158 505T295 540ZM290 467Q219 467 183 414T146 259Q146 160 181 112T283 63Q332 63 364 87T413 157T430
269Q430 368 394 417T290 467ZM359 646Q331 646 309 658T265 683T221 696Q202 696 187 685T158 648L113 667Q131 720 157 745T217 770Q244 770 267 758T311 734T355 721Q374 721 389 733T419 769L463 751Q445 698 419 672T359 646Z" />
<glyph unicode="&#xf6;" horiz-adv-x="576" d="M295 540Q407 540 471 471T535 274Q535 188 504 124T416 25T277 -10Q166 -10 104 58T42 254Q42 343 72 407T158 505T295 540ZM290 467Q219 467 183 414T146 259Q146 160 181 112T283 63Q332 63 364 87T413 157T430
269Q430 368 394 417T290 467ZM391 637Q365 637 351 652T336 696Q335 724 351 740T391 756Q416 756 431 740T446 696Q446 668 430 653T391 637ZM185 637Q159 637 145 652T130 696Q130 724 146 740T185 756Q210 756 225 740T240 696Q240 668 224 653T185 637Z" />
<glyph unicode="&#xf7;" horiz-adv-x="545" d="M498 386V313H47V386H498ZM211 173Q211 201 229 217T272 234Q301 234 317 218T334 173Q334 145 316 129T272 112Q244 112 228 128T211 173ZM211 528Q211 556 229 572T272 589Q301 589 317 573T334 528Q334 500 316
484T272 467Q244 467 228 483T211 528Z" />
<glyph unicode="&#xf8;" horiz-adv-x="579" d="M476 618L528 588L450 463L435 448L193 57L187 37L110 -88L57 -57L135 69L151 84L397 480L401 497L476 618ZM297 540Q409 540 473 471T537 274Q537 188 506 124T418 25T280 -10Q168 -10 106 58T44 254Q44 343 74
407T161 505T297 540ZM292 467Q222 467 185 414T148 259Q148 160 183 112T285 63Q334 63 366 87T416 157T433 269Q433 368 397 417T292 467Z" />
<glyph unicode="&#xf9;" horiz-adv-x="624" d="M242 -10Q176 -10 133 32T89 160V470L100 454L14 474V527L189 533V177Q189 121 214 94T283 67Q317 67 356 85T434 142L427 122V472L438 454L352 474V527L527 534V57L513 74L601 54V1L449 -6L435 93L449 88Q400 38
346 14T242 -10ZM235 816L423 667L385 615L180 744L235 816Z" />
<glyph unicode="&#xfa;" horiz-adv-x="624" d="M242 -10Q176 -10 133 32T89 160V470L100 454L14 474V527L189 533V177Q189 121 214 94T283 67Q317 67 356 85T434 142L427 122V472L438 454L352 474V527L527 534V57L513 74L601 54V1L449 -6L435 93L449 88Q400 38
346 14T242 -10ZM239 615L203 665L394 815L448 742L239 615Z" />
<glyph unicode="&#xfb;" horiz-adv-x="624" d="M242 -10Q176 -10 133 32T89 160V470L100 454L14 474V527L189 533V177Q189 121 214 94T283 67Q317 67 356 85T434 142L427 122V472L438 454L352 474V527L527 534V57L513 74L601 54V1L449 -6L435 93L449 88Q400 38
346 14T242 -10ZM166 625L131 664L270 797L328 802L474 664L438 625L266 748L334 747L166 625Z" />
<glyph unicode="&#xfc;" horiz-adv-x="624" d="M242 -10Q176 -10 133 32T89 160V470L100 454L14 474V527L189 533V177Q189 121 214 94T283 67Q317 67 356 85T434 142L427 122V472L438 454L352 474V527L527 534V57L513 74L601 54V1L449 -6L435 93L449 88Q400 38
346 14T242 -10ZM404 637Q378 637 364 652T349 696Q348 724 364 740T404 756Q429 756 444 740T459 696Q459 668 443 653T404 637ZM198 637Q172 637 158 652T143 696Q143 724 159 740T198 756Q223 756 238 740T253 696Q253 668 237 653T198 637Z" />
<glyph unicode="&#xfd;" horiz-adv-x="538" d="M13 -234L22 -162Q35 -164 46 -165T68 -166Q115 -166 144 -145T195 -82T237 24L234 -12L45 472L57 462L-6 474V527L223 534V481L140 465L146 475L288 67L264 72L397 473L404 462L322 474V527L542 534V481L474 464L490
474L318 -1Q299 -53 278 -97T230 -173T166 -222T76 -240Q49 -240 13 -234ZM206 615L170 665L361 815L415 742L206 615Z" />
<glyph unicode="&#xfe;" horiz-adv-x="585" d="M9 -230V-177L98 -154L84 -173V709L99 691L9 714V767L184 774V457L162 454Q208 497 253 518T345 540Q402 540 446 509T516 420T542 275Q542 182 510 118T421 22T285 -11Q258 -11 230 -7T170 6L184 15V-173L172 -156L271
-177V-230H9ZM273 62Q355 62 396 116T438 265Q438 328 422 372T376 441T308 465Q276 465 242 448T171 396L184 418V64L171 80Q227 62 273 62Z" />
<glyph unicode="&#xff;" horiz-adv-x="538" d="M13 -234L22 -162Q35 -164 46 -165T68 -166Q115 -166 144 -145T195 -82T237 24L234 -12L45 472L57 462L-6 474V527L223 534V481L140 465L146 475L288 67L264 72L397 473L404 462L322 474V527L542 534V481L474 464L490
474L318 -1Q299 -53 278 -97T230 -173T166 -222T76 -240Q49 -240 13 -234ZM371 637Q345 637 331 652T316 696Q315 724 331 740T371 756Q396 756 411 740T426 696Q426 668 410 653T371 637ZM165 637Q139 637 125 652T110 696Q110 724 126 740T165 756Q190 756 205
740T220 696Q220 668 204 653T165 637Z" />
<glyph unicode="&#x2013;" horiz-adv-x="614" d="M543 332V255H71V332H543Z" />
<glyph unicode="&#x2014;" horiz-adv-x="864" d="M793 329V251H71V329H793Z" />
<glyph unicode="&#x2018;" horiz-adv-x="210" d="M150 581Q150 553 133 539T95 524Q73 524 55 540T37 589Q37 620 59 670T134 783L169 760Q144 714 135 690T126 652Q126 641 132 631T144 610T150 581Z" />
<glyph unicode="&#x2019;" horiz-adv-x="210" d="M56 727Q56 755 73 769T111 784Q133 784 151 768T170 720Q170 689 149 639T72 525L37 548Q64 595 72 620T81 656Q81 668 75 677T62 698T56 727Z" />
<glyph unicode="&#x201a;" horiz-adv-x="210" d="M59 46Q59 74 76 88T114 103Q136 103 154 87T173 39Q173 8 152 -42T75 -156L40 -133Q67 -86 75 -61T84 -25Q84 -13 78 -4T65 17T59 46Z" />
<glyph unicode="&#x201c;" horiz-adv-x="375" d="M150 595Q150 567 133 553T95 538Q73 538 55 554T37 602Q37 634 59 684T134 797L169 774Q144 728 135 703T126 666Q126 654 132 645T144 624T150 595ZM315 595Q315 567 298 553T260 538Q238 538 220 554T202 602Q202
634 224 684T299 797L334 774Q309 728 300 703T291 666Q291 654 297 645T309 624T315 595Z" />
<glyph unicode="&#x201d;" horiz-adv-x="375" d="M224 727Q224 755 241 769T279 784Q301 784 319 768T338 720Q338 689 317 639T240 525L205 548Q232 595 240 620T249 656Q249 668 243 677T230 698T224 727ZM59 727Q59 755 76 769T114 784Q136 784 154 768T173
720Q173 689 152 639T75 525L40 548Q67 595 75 620T84 656Q84 668 78 677T65 698T59 727Z" />
<glyph unicode="&#x201e;" horiz-adv-x="375" d="M224 46Q224 74 241 88T279 103Q301 103 319 87T338 39Q338 8 317 -42T240 -156L205 -133Q232 -86 240 -61T249 -25Q249 -13 243 -4T230 17T224 46ZM59 46Q59 74 76 88T114 103Q136 103 154 87T173 39Q173 8 152
-42T75 -156L40 -133Q67 -86 75 -61T84 -25Q84 -13 78 -4T65 17T59 46Z" />
<glyph unicode="&#x2022;" horiz-adv-x="394" d="M67 311Q67 350 85 379T133 424T197 441Q237 441 266 425T311 379T327 311Q327 272 309 243T262 198T197 182Q137 182 102 217T67 311Z" />
<glyph unicode="&#x2039;" horiz-adv-x="312" d="M209 58L53 243V297L210 482L258 446L122 250V291L257 96L209 58Z" />
<glyph unicode="&#x203a;" horiz-adv-x="312" d="M103 482L259 297V243L102 58L54 94L189 289V249L55 443L103 482Z" />
</font>
</defs>
</svg>
