<?xml version="1.0" standalone="no"?>
<!DOCTYPE svg PUBLIC "-//W3C//DTD SVG 1.1//EN" "http://www.w3.org/Graphics/SVG/1.1/DTD/svg11.dtd">
<svg xmlns="http://www.w3.org/2000/svg">
<defs >
<font id="Bitter" horiz-adv-x="587" ><font-face
    font-family="Bitter Thin SemiBold"
    units-per-em="1000"
    panose-1="0 0 0 0 0 0 0 0 0 0"
    ascent="935"
    descent="-265"
    alphabetic="0" />
<glyph unicode=" " horiz-adv-x="187" />
<glyph unicode="!" horiz-adv-x="325" d="M118 234L99 702H227L208 240L118 234ZM92 58Q92 90 113 109T163 128Q195 128 214 109T233 58Q233 27 212 8T163 -11Q130 -11 111 8T92 58Z" />
<glyph unicode="&quot;" horiz-adv-x="417" d="M86 511L68 772H177L159 511H86ZM259 511L241 772H350L332 511H259Z" />
<glyph unicode="#" horiz-adv-x="671" d="M79 527H631V452H79V527ZM41 258H593V183H41V258ZM211 702H309L210 0H112L211 702ZM461 702H558L459 0H362L461 702Z" />
<glyph unicode="$" horiz-adv-x="612" d="M271 -133V23L304 3Q298 2 292 2T279 2Q235 2 179 12T69 44L72 225H146L162 120Q192 106 224 100T287 93Q327 93 359 104T411 139T431 195Q431 229 412 250T361 284T291 308T214 332T143 366T92 419T73 503Q73 567 104
610T190 675T312 699L271 676V829H355V677L321 700H332Q360 700 396 694T467 678T531 657L521 489H448L431 590Q407 599 380 604T326 609Q290 609 260 600T211 570T192 517Q192 485 211 465T263 432T333 408T410 384T481 349T532 294T552 210Q552 145 520 101T435
32T315 3L355 29V-133H271Z" />
<glyph unicode="%" horiz-adv-x="861" d="M144 -12L616 712H715L244 -12H144ZM217 349Q134 349 91 398T47 529Q47 611 91 662T224 713Q310 713 351 665T392 539Q392 454 347 402T217 349ZM219 415Q265 415 283 446T302 533Q302 590 285 618T222 646Q176 646 157
616T137 529Q137 475 156 445T219 415ZM638 -11Q556 -11 512 38T468 169Q468 251 513 302T646 353Q732 353 772 305T813 179Q813 94 769 42T638 -11ZM640 56Q686 56 704 87T723 173Q724 230 706 258T644 286Q597 286 578 256T558 168Q558 115 577 86T640 56Z" />
<glyph unicode="&amp;" horiz-adv-x="678" d="M312 -11Q242 -11 187 11T99 77T67 190Q67 237 87 277T149 344T256 379L259 365Q173 374 129 419T85 529Q85 594 118 634T206 694T327 713Q380 713 433 703T537 674L529 521H453L435 619L458 602Q427 612 398 617T337
622Q279 622 244 598T209 518Q209 468 247 441T348 414H646V349L561 327L574 349V222Q574 147 542 95T450 16T312 -11ZM326 84Q385 84 420 117T455 214V342L477 326H336Q287 326 255 310T208 267T192 207Q192 149 229 117T326 84Z" />
<glyph unicode="&apos;" horiz-adv-x="244" d="M86 511L68 772H177L159 511H86Z" />
<glyph unicode="(" horiz-adv-x="313" d="M304 835Q230 731 192 611T154 374Q154 257 192 137T304 -88L227 -134Q132 -20 86 112T39 374Q39 504 85 636T227 881L304 835Z" />
<glyph unicode=")" horiz-adv-x="313" d="M9 -87Q84 18 121 137T159 374Q159 491 122 611T9 835L86 882Q182 768 228 636T274 374Q274 244 228 112T86 -134L9 -87Z" />
<glyph unicode="*" horiz-adv-x="464" d="M302 437L231 550L240 586L276 582L360 481L302 437ZM164 436L103 480L187 583L223 586L231 550L164 436ZM187 583L60 609L83 680L204 636L218 601L187 583ZM231 612L204 636L193 759L267 761L260 635L231 612ZM276 582L247
603L260 635L376 682L401 610L276 582Z" />
<glyph unicode="+" horiz-adv-x="554" d="M252 393L231 372V591H323V372L302 393H514V307H302L323 327V108H231V327L252 307H41V393H252Z" />
<glyph unicode="," horiz-adv-x="245" d="M42 -135Q74 -88 84 -61T94 -23Q94 -9 86 2T70 26T62 61Q62 95 84 112T133 130Q151 130 166 122T192 98T203 54Q203 17 177 -40T87 -165L42 -135Z" />
<glyph unicode="-" horiz-adv-x="450" d="M377 339V247H73V339H377Z" />
<glyph unicode="." horiz-adv-x="226" d="M42 61Q42 92 63 111T113 130Q145 130 164 111T183 61Q183 30 162 11T113 -8Q81 -8 62 11T42 61Z" />
<glyph unicode="/" horiz-adv-x="331" d="M337 806L79 -83H-6L251 806H337Z" />
<glyph unicode="0" horiz-adv-x="637" d="M314 -11Q223 -11 165 28T80 147T53 345Q53 467 81 549T170 672T327 713Q422 713 478 675T558 559T583 364Q583 241 555 157T467 31T314 -11ZM317 83Q368 83 398 112T441 203T455 357Q456 451 443 508T401 592T323 619Q271
619 240 590T194 500T180 349Q180 258 193 200T237 112T317 83Z" />
<glyph unicode="1" horiz-adv-x="423" d="M308 57L284 89L416 63V0H53V63L210 88L185 57V600L219 598L50 503L10 578L206 706H308V57Z" />
<glyph unicode="2" horiz-adv-x="557" d="M38 0V104Q153 202 227 273T338 401T374 512Q374 567 338 594T247 621Q221 621 191 615T128 598L142 619L126 504H52L42 675Q102 694 159 703T267 713Q336 713 389 694T473 635T503 529Q503 457 466 389T356 247T179 83V97H519V0H38Z"
/>
<glyph unicode="3" horiz-adv-x="574" d="M252 -11Q195 -11 138 3T31 45L63 132Q108 110 155 98T248 85Q291 85 325 98T378 138T398 206Q398 241 382 267T333 307T247 321H160V409H244Q313 409 348 437T384 518Q384 575 348 599T255 624Q223 624 191 618T128 601L144
618L132 509H58L50 673Q109 692 168 702T281 713Q346 713 397 696T479 640T509 538Q509 462 464 419T335 365L331 375Q429 369 476 325T523 202Q523 147 502 107T443 41T356 2T252 -11Z" />
<glyph unicode="4" horiz-adv-x="601" d="M356 187L387 162H23L9 247L335 714L479 702V234L448 257H588V162H448L479 187V0H356V187ZM389 257L358 234V644L399 637L107 213L83 257H389Z" />
<glyph unicode="5" horiz-adv-x="543" d="M251 -10Q145 -10 34 42L67 128Q110 109 152 98T233 87Q276 87 308 102T359 146T377 217Q377 266 350 292T272 328T145 338H76L90 702H475L473 607H176L210 629L199 401L167 428H227Q326 428 387 404T477 333T506 223Q506
147 473 96T383 17T251 -10Z" />
<glyph unicode="6" horiz-adv-x="590" d="M157 286L152 369Q196 397 245 413T346 429Q405 429 452 406T529 337T558 222Q558 149 525 97T436 17T307 -11Q232 -11 173 22T80 125T46 307Q46 433 88 524T208 664T389 713Q445 713 507 697L498 608Q472 614 448 616T404
618Q323 618 272 581T197 475T172 304Q172 192 205 138T307 84Q364 84 397 118T431 217Q431 260 415 287T371 328T307 342Q271 342 232 328T157 286Z" />
<glyph unicode="7" horiz-adv-x="526" d="M511 615L248 0H112L385 623L403 604H92L119 623L95 503H21V702H511V615Z" />
<glyph unicode="8" horiz-adv-x="602" d="M290 -11Q243 -11 200 1T121 37T66 97T46 179Q46 218 61 250T102 307T160 347T228 371L300 335Q277 329 253 318T210 289T178 249T165 196Q165 160 182 133T230 92T298 77Q337 77 367 92T415 134T433 194Q433 231 414
254T361 294T289 324T210 352T138 388T85 442T65 522Q65 587 100 629T190 692T309 713Q370 713 422 694T507 634T539 534Q539 497 526 469T488 420T433 387T369 365L282 403Q311 407 336 416T380 441T411 477T422 525Q422 558 406 580T363 614T304 626Q272 626
245 615T201 582T184 528Q184 493 204 470T257 432T329 403T408 375T480 338T533 283T553 200Q553 149 531 109T471 43T386 3T290 -11Z" />
<glyph unicode="9" horiz-adv-x="589" d="M432 418L438 335Q394 307 344 290T242 273Q182 273 135 297T60 367T32 478Q31 552 63 604T153 685T283 713Q358 713 417 681T509 578T543 394Q543 271 501 180T382 39T200 -11Q144 -11 82 5L91 93Q117 88 141 86T184
83Q266 83 317 120T393 227T417 398Q417 510 384 564T282 618Q225 618 192 583T158 486Q158 442 174 414T218 373T280 359Q318 359 357 374T432 418Z" />
<glyph unicode=":" horiz-adv-x="226" d="M42 61Q42 92 63 111T113 130Q145 130 164 111T183 61Q183 30 162 11T113 -8Q81 -8 62 11T42 61ZM42 405Q42 436 63 455T113 474Q145 474 164 455T183 405Q183 374 162 355T113 336Q81 336 62 355T42 405Z" />
<glyph unicode=";" horiz-adv-x="245" d="M42 -135Q74 -88 84 -61T94 -23Q94 -9 86 2T70 26T62 61Q62 95 84 112T133 130Q151 130 166 122T192 98T203 54Q203 17 177 -40T87 -165L42 -135ZM61 405Q61 436 82 455T132 474Q164 474 183 455T202 405Q202 374 181
355T132 336Q100 336 81 355T61 405Z" />
<glyph unicode="&lt;" horiz-adv-x="551" d="M461 118L43 309V398L462 597L494 513L133 343V367L494 205L461 118Z" />
<glyph unicode="=" horiz-adv-x="539" d="M498 488V402H41V488H498ZM498 547V461H41V547H498Z" />
<glyph unicode="&gt;" horiz-adv-x="546" d="M89 575L503 405V316L88 139L58 220L413 370V347L57 484L89 575Z" />
<glyph unicode="?" horiz-adv-x="438" d="M119 238Q117 255 115 271T112 300Q112 338 129 365T171 412T222 453T264 496T281 550Q281 588 254 605T185 623Q157 623 123 616T56 597L30 676Q126 715 219 715Q271 715 313 701T380 654T405 570Q405 523 386 490T337
431T279 384T231 336T211 277Q211 271 211 262T213 244L119 238ZM107 57Q107 89 128 108T180 128Q211 128 230 109T249 59Q249 27 228 8T176 -11Q146 -11 127 7T107 57Z" />
<glyph unicode="@" horiz-adv-x="870" d="M398 -111Q298 -111 221 -66T101 63T57 263Q57 358 86 431T169 555T294 630T448 656Q530 656 598 632T716 560T794 447T822 296Q822 184 772 124T635 64Q584 64 552 86T509 157L526 156Q501 114 462 89T379 64Q348 64
322 78T279 119T263 186Q263 242 298 273T410 305H518L505 290V351Q505 385 482 399T424 414Q397 414 366 407T305 389L289 450Q331 467 372 476T449 485Q514 485 556 452T598 346V183Q598 153 610 141T647 128Q688 128 707 171T726 277Q726 374 693 441T596 544T444
580Q356 580 290 544T188 437T152 264Q152 171 183 104T272 1T409 -36Q444 -36 482 -29T560 -7L585 -73Q538 -92 490 -101T398 -111ZM415 133Q441 133 467 150T514 197L505 168V272L518 256H437Q396 256 379 241T362 195Q362 165 377 149T415 133Z" />
<glyph unicode="A" horiz-adv-x="712" d="M652 59L619 88L708 62V0H430V62L523 86L511 68L466 208L486 192H208L224 207L176 70L172 83L259 62V0H3V62L89 87L61 62L300 700L425 704L652 59ZM240 261L231 278H465L453 258L340 635L368 634L240 261Z" />
<glyph unicode="B" horiz-adv-x="646" d="M367 351L375 363Q445 362 494 344T570 289T597 194Q597 134 568 91T480 24T332 0H40V62L135 87L118 62V637L139 610L40 635V697L236 702H346Q419 702 469 683T545 626T571 529Q571 450 521 406T367 351ZM322 615H221L241
634V383L221 401H299Q344 401 377 412T428 447T447 512Q447 550 432 572T388 605T322 615ZM322 88Q367 88 401 99T453 136T472 202Q472 242 456 267T411 303T347 314H221L241 336V68L221 88H322Z" />
<glyph unicode="C" horiz-adv-x="637" d="M344 -11Q263 -11 196 29T88 150T48 347Q48 462 87 544T199 669T367 713Q419 713 473 701T589 662L581 489H508L486 609L507 588Q470 603 436 610T371 618Q310 618 268 588T203 500T180 363Q180 272 205 211T274 120T375
89Q416 89 462 106T553 161L599 89Q538 39 473 14T344 -11Z" />
<glyph unicode="D" horiz-adv-x="714" d="M350 702Q421 702 479 681T580 618T645 512T668 363Q668 244 626 164T507 42T330 0H40V62L136 87L118 62V637L137 611L40 635V697L254 702H350ZM336 89Q373 89 408 100T472 140T518 221T536 355Q536 435 520 485T476 563T415
602T346 613H221L241 633V69L221 89H336Z" />
<glyph unicode="E" horiz-adv-x="613" d="M484 180H557L556 0H40V62L135 87L118 62V637L135 612L40 635V697L239 702H545V529H471L452 631L476 613H221L241 633V381L221 401H468V315H221L241 337V69L221 89H488L464 69L484 180Z" />
<glyph unicode="F" horiz-adv-x="563" d="M40 0V62L132 86L118 68V637L136 611L40 635V697L239 702H538L539 528H465L447 627L470 613H221L241 633V378L221 396H462V307H221L241 327V68L225 86L338 62V0H40Z" />
<glyph unicode="G" horiz-adv-x="723" d="M373 -11Q275 -11 202 29T88 149T48 346Q48 462 88 544T204 669T385 713Q442 713 503 700T628 661L619 489H545L524 608L543 590Q505 603 466 611T393 619Q326 619 279 588T206 497T180 348Q180 223 233 154T387 84Q419
84 453 91T525 112L510 86V285L530 263L432 280V344L700 349V284L611 263L624 285V44Q556 17 493 3T373 -11Z" />
<glyph unicode="H" horiz-adv-x="790" d="M40 0V62L135 87L118 62V637L139 611L40 635V697L319 702V640L222 611L241 638V382L221 402H569L550 382V637L569 611L472 635V697L750 702V640L655 611L672 638V62L655 87L750 62V0H472V62L566 87L550 62V333L569 313H221L241
333V62L225 87L319 62V0H40Z" />
<glyph unicode="I" horiz-adv-x="359" d="M319 640L227 612L241 632V68L227 86L319 62V0H40V62L131 86L118 68V632L135 612L40 635V697L319 702V640Z" />
<glyph unicode="J" horiz-adv-x="338" d="M23 697L309 702V641L217 611L231 637V89Q231 31 221 -15T189 -93T128 -141T33 -158Q17 -158 0 -157T-36 -153L-26 -65Q-16 -66 -8 -66T8 -67Q63 -67 85 -35T108 65V637L124 613L23 635V697Z" />
<glyph unicode="K" horiz-adv-x="715" d="M647 61L613 86L701 62V0H429V62L509 86L506 65L325 338L359 314H221L241 339V62L225 89L316 62V0H40V62L132 86L118 62V638L132 614L40 635V697L316 702V641L225 614L241 640V383L221 403H366L333 384L484 636L494 617L406
635V697L667 702V640L575 614L603 635L426 349V381L647 61Z" />
<glyph unicode="L" horiz-adv-x="556" d="M460 201H533V0H40V62L133 86L118 62V637L133 613L40 635V697L327 702V640L227 613L241 637V69L221 89H456L438 69L460 201Z" />
<glyph unicode="M" horiz-adv-x="879" d="M839 640L744 611L761 643V62L744 87L839 62V0H570V62L669 88L648 62V570L666 569L469 183L390 178L200 571H218V62L203 86L296 62V0H40V62L136 87L118 62V643L136 612L40 635V697L269 702L451 300H436L626 697L839 702V640Z" />
<glyph unicode="N" horiz-adv-x="779" d="M493 697L751 702V640L655 611L673 638V0H532L203 572L220 573V62L201 88L298 62V0H40V62L137 88L118 62V637L131 614L40 635V697L264 702L589 140H571V638L590 612L493 635V697Z" />
<glyph unicode="O" horiz-adv-x="736" d="M355 -11Q263 -11 194 29T87 148T48 343Q48 435 72 504T140 620T243 690T375 713Q445 713 502 691T601 624T666 515T690 364Q690 246 648 163T530 34T355 -11ZM364 84Q418 84 461 111T531 198T558 358Q558 451 534 508T467
592T369 618Q316 618 273 592T205 507T180 347Q180 254 203 196T267 111T364 84Z" />
<glyph unicode="P" horiz-adv-x="605" d="M299 255H216L241 275V62L223 86L341 62V0H40V62L138 88L118 62V638L141 611L40 635V697L244 702H342Q423 702 475 675T552 599T578 489Q578 422 548 369T456 285T299 255ZM323 614H221L241 633V324L216 344H300Q374 344
413 382T452 486Q452 546 420 580T323 614Z" />
<glyph unicode="Q" horiz-adv-x="743" d="M664 -187Q628 -187 586 -167T482 -106T326 -1L355 -11Q263 -10 194 30T86 149T48 343Q48 435 72 504T140 619T245 689T378 713Q449 713 507 691T608 624T673 515T696 364Q696 263 664 187T574 63T440 -1L443 14Q504 -22
544 -44T612 -78T666 -89Q691 -89 716 -80T773 -51L817 -126Q769 -155 734 -171T664 -187ZM180 347Q180 254 203 196T268 111T367 84Q427 84 471 112T539 202T564 359Q564 450 541 507T474 591T372 618Q315 618 272 590T204 503T180 347Z" />
<glyph unicode="R" horiz-adv-x="664" d="M40 0V62L135 87L118 62V637L141 610L40 635V697L246 702H350Q467 702 527 653T587 512Q587 428 536 374T376 309V323Q415 321 440 309T481 277T513 227L594 68L559 90L648 62V0H498L407 194Q389 234 375 255T339 285T278
293H220L241 311V62L224 87L330 62V0H40ZM241 348L220 379H307Q383 379 422 410T462 503Q462 556 431 585T334 614H220L241 633V348Z" />
<glyph unicode="S" horiz-adv-x="601" d="M183 527Q183 495 203 475T255 440T327 414T405 386T476 348T529 290T549 201Q549 128 512 81T412 11T274 -12Q222 -12 168 -2T61 30L66 212H138L157 88L145 110Q177 95 212 88T280 80Q321 80 354 91T408 126T428 185Q428
219 409 240T357 276T285 302T207 328T136 365T84 422T64 511Q64 579 97 623T187 690T315 713Q365 713 419 703T528 670L518 501H444L425 614L440 599Q413 610 383 616T321 622Q285 622 253 613T202 582T183 527Z" />
<glyph unicode="T" horiz-adv-x="603" d="M150 0V62L263 88L240 57V633L265 613H92L120 637L96 510H22V702H581V510H507L484 633L511 613H338L363 633V57L341 88L453 62V0H150Z" />
<glyph unicode="U" horiz-adv-x="744" d="M445 697L723 702V640L631 612L645 643V271Q645 225 637 183T610 106T559 44T480 4T368 -11Q288 -11 237 9T158 61T117 130T103 201T100 259V643L114 613L22 635V697L300 702V640L209 612L222 643V259Q222 233 224 208T234
160T258 121T301 94T370 84Q413 84 440 94T485 122T510 165T520 216T523 271V643L535 615L445 635V697Z" />
<glyph unicode="V" horiz-adv-x="704" d="M282 -1L68 634L97 612L4 635V697L290 702V640L188 614L203 644L366 107H348L525 637L535 613L439 635V697L700 702V640L608 615L637 637L412 -1H282Z" />
<glyph unicode="W" horiz-adv-x="1022" d="M761 697L1018 702V640L926 615L955 647L772 -1H656L497 553H520L354 -1H238L70 638L83 617L4 635V697L273 702V640L180 614L196 638L319 110L294 111L460 698L573 702L734 113L709 112L846 637L857 615L761 635V697Z" />
<glyph unicode="X" horiz-adv-x="706" d="M640 60L603 86L688 62V0H405V62L493 85L496 65L326 308L355 309L183 60L177 87L269 62V0H19V62L104 87L70 59L295 370L294 337L84 637L113 617L32 635V697L309 702V640L226 617L231 633L384 409L356 414L509 633L515
615L429 635V697L675 702V640L590 610L621 637L411 347L414 379L640 60Z" />
<glyph unicode="Y" horiz-adv-x="646" d="M179 0V62L277 88L259 62V275L270 232L62 633L86 613L3 635V697L274 702V640L179 617L189 639L343 319H319L475 634L484 612L387 635V697L643 702V640L559 617L584 636L372 232L382 275V62L364 88L462 62V0H179Z" />
<glyph unicode="Z" horiz-adv-x="621" d="M37 0V82L437 626L450 611H127L156 626L134 510H60V702H571V620L172 71L168 91H509L482 72L501 192H576L574 0H37Z" />
<glyph unicode="[" horiz-adv-x="347" d="M94 -107V857L335 852V778L197 772V-22L335 -29V-102L94 -107Z" />
<glyph unicode="\" horiz-adv-x="341" d="M-2 806H86L343 -83H257L-2 806Z" />
<glyph unicode="]" horiz-adv-x="347" d="M253 857V-107L11 -102V-29L150 -22V772L11 778V852L253 857Z" />
<glyph unicode="^" horiz-adv-x="545" d="M38 532L229 875H315L506 532H395L242 829H300L146 532H38Z" />
<glyph unicode="_" horiz-adv-x="492" d="M493 -64V-142H-1V-64H493Z" />
<glyph unicode="`" horiz-adv-x="334" d="M98 828L296 673L250 611L34 742L98 828Z" />
<glyph unicode="a" horiz-adv-x="556" d="M471 63L453 87L542 63V1L378 -7L362 89L370 86Q329 37 281 13T184 -11Q123 -11 81 28T39 144Q39 202 64 235T134 282T245 297H360L351 286V362Q351 411 326 432T255 454Q232 454 207 450T151 435L165 450L153 365H76L68
505Q133 524 187 533T287 543Q375 543 423 505T471 384V63ZM160 155Q160 115 179 96T228 77Q257 77 291 95T357 143L351 119V238L360 228H264Q205 228 183 210T160 155Z" />
<glyph unicode="b" horiz-adv-x="586" d="M249 -11Q211 -11 168 -6T75 9V715L95 682L4 706V768L195 776V446L180 464Q218 502 261 522T352 543Q409 543 453 513T523 422T549 275Q549 211 533 159T482 69T390 10T249 -11ZM271 75Q349 75 386 125T424 266Q424 324
409 366T368 431T306 454Q277 454 245 439T180 391L195 429V59L180 89Q231 75 271 75Z" />
<glyph unicode="c" horiz-adv-x="515" d="M273 -11Q205 -11 151 21T66 114T35 261Q35 338 57 391T116 478T201 527T299 543Q344 543 392 532T472 503L468 364H390L376 450L386 441Q367 449 344 453T301 457Q255 457 224 434T176 368T160 268Q160 206 177 164T227
100T300 78Q333 78 371 92T450 133L490 71Q436 29 381 9T273 -11Z" />
<glyph unicode="d" horiz-adv-x="600" d="M235 -11Q178 -11 134 19T63 110T37 255Q37 400 111 471T317 543Q340 543 364 541T414 532L392 518V695L401 682L316 707V768L512 776V68L496 86L582 63V1L418 -6L402 80L415 75Q371 32 327 11T235 -11ZM280 78Q309 78
341 94T406 141L392 104V469L407 441Q355 457 313 457Q236 457 199 406T162 266Q162 208 177 166T218 101T280 78Z" />
<glyph unicode="e" horiz-adv-x="548" d="M275 -11Q205 -11 151 19T67 110T37 257Q37 346 68 410T157 508T294 543Q369 543 416 513T487 429T510 309Q510 294 509 279T505 246H133V322H400L386 313Q387 353 378 385T345 436T284 455Q241 455 214 431T174 366T161
273Q161 216 176 173T223 104T304 79Q339 79 380 92T465 132L506 67Q449 28 390 9T275 -11Z" />
<glyph unicode="f" horiz-adv-x="365" d="M34 0V62L116 84L104 70V460L116 447H31V511L119 530L104 511V582Q104 685 158 734T303 783Q330 783 359 778T420 764L403 684Q382 690 362 693T323 697Q279 697 252 673T224 592V511L208 527H354L352 447H212L224 460V70L212
84L309 62V0H34Z" />
<glyph unicode="g" horiz-adv-x="569" d="M261 -241Q139 -241 79 -208T19 -110Q19 -62 52 -28T149 30L148 6Q112 8 91 23T69 65Q69 73 71 82T81 107T101 146T135 206L136 186Q89 209 64 250T39 348Q39 439 100 491T271 543Q348 543 402 517L373 522L537 529L538
461L454 445L462 459Q479 441 488 416T497 356Q497 265 434 213T266 160Q212 160 164 176L187 188L167 73L147 83H345Q444 83 495 45T547 -67Q547 -151 476 -196T261 -241ZM271 -154Q355 -154 393 -135T432 -77Q432 -42 405 -25T326 -7H157L186 0Q124 -40 124 -87Q124
-121 159 -137T271 -154ZM265 242Q319 242 348 270T378 354Q378 409 351 435T270 462Q216 462 188 434T160 352Q160 298 186 270T265 242Z" />
<glyph unicode="h" horiz-adv-x="627" d="M19 0V62L104 85L89 67V703L104 683L19 706V768L209 776V440L182 446Q231 496 285 519T388 543Q433 543 468 525T524 469T544 375V67L532 85L614 62V0H359V62L439 83L424 64V349Q425 401 401 426T337 451Q307 451 271
435T200 384L209 403V64L197 83L274 62V0H19Z" />
<glyph unicode="i" horiz-adv-x="311" d="M223 72L213 83L293 62V0H32V62L112 83L103 72V456L111 447L32 467V529L223 536V72ZM158 624Q125 624 105 643T85 696Q85 733 106 751T159 770Q190 770 210 752T231 697Q231 661 210 643T158 624Z" />
<glyph unicode="j" horiz-adv-x="284" d="M8 -241Q-7 -241 -21 -240T-53 -235L-44 -149Q-33 -150 -24 -151T-6 -152Q45 -152 67 -129T89 -47V460L102 445L19 467V529L209 536V-10Q209 -71 196 -114T157 -186T94 -227T8 -241ZM141 624Q108 624 88 643T68 696Q68
733 89 751T142 770Q173 770 193 752T214 697Q214 661 193 643T141 624Z" />
<glyph unicode="k" horiz-adv-x="585" d="M19 0V62L104 85L89 62V700L99 685L19 706V768L209 776V314L189 333H320L290 318L386 467L395 453L321 467V528L556 536V474L471 456L504 475L381 288L382 320L520 66L501 82L579 62V0H429L295 261L313 252H189L209 261V62L196
86L277 62V0H19Z" />
<glyph unicode="l" horiz-adv-x="298" d="M209 72L199 83L280 62V0H19V62L99 83L89 72V696L98 686L19 706V768L209 776V72Z" />
<glyph unicode="m" horiz-adv-x="954" d="M536 448L519 444Q567 493 621 518T724 543Q787 543 829 502T871 375V67L859 85L942 62V0H689V62L766 83L751 64V349Q751 401 729 426T673 451Q643 451 608 434T536 381L545 408Q547 400 547 393T547 380V67L535 85L610
62V0H365V62L442 83L427 64V349Q427 401 405 426T349 451Q320 451 284 435T214 384L223 403V64L211 83L285 62V0H32V62L118 85L103 67V464L118 444L32 467V529L196 537L212 440L196 446Q244 494 297 518T400 543Q446 543 482 520T536 448Z" />
<glyph unicode="n" horiz-adv-x="640" d="M32 0V62L118 85L103 67V464L118 444L32 467V529L196 537L212 440L196 446Q245 496 299 519T402 543Q469 543 513 501T557 374V67L545 85L628 62V0H372V62L452 83L437 64V348Q437 401 414 426T351 451Q321 451 285 435T214
384L223 403V64L211 83L288 62V0H32Z" />
<glyph unicode="o" horiz-adv-x="576" d="M295 543Q411 543 475 474T540 276Q540 187 509 123T419 24T278 -11Q163 -11 100 58T36 256Q36 345 67 409T156 508T295 543ZM289 457Q226 457 194 408T161 262Q161 165 192 120T284 75Q328 75 357 97T401 163T416 270Q416
364 384 410T289 457Z" />
<glyph unicode="p" horiz-adv-x="604" d="M22 -230V-168L109 -142L93 -163V461L108 444L22 467V529L186 537L200 450L187 457Q233 499 278 521T370 543Q428 543 472 513T541 423T567 278Q567 182 535 118T444 22T307 -11Q281 -11 254 -7T197 3L213 18V-163L199
-144L296 -168V-230H22ZM292 75Q368 75 405 126T442 266Q442 324 428 366T387 431T324 454Q295 454 264 439T198 391L213 424V66L198 90Q250 75 292 75Z" />
<glyph unicode="q" horiz-adv-x="586" d="M306 -230V-165L405 -140L392 -161V69L415 75Q371 32 327 11T235 -11Q178 -11 134 19T63 109T37 255Q37 359 73 422T175 514T326 543Q369 543 415 537T512 520V-161L497 -140L582 -165V-230H306ZM280 78Q309 78 341 93T406
141L392 104V470L407 441Q355 457 313 457Q236 457 199 406T162 266Q162 208 177 166T218 101T280 78Z" />
<glyph unicode="r" horiz-adv-x="461" d="M32 0V62L115 84L103 65V465L117 444L32 467V529L196 537L212 441L196 445Q241 492 284 517T379 543Q411 543 446 533L438 361H368L354 468L365 444Q359 446 352 447T338 448Q304 448 272 428T213 374L223 407V65L208
84L310 62V0H32Z" />
<glyph unicode="s" horiz-adv-x="484" d="M168 400Q168 374 188 359T239 333T307 311T374 283T426 237T446 162Q446 106 416 68T333 9T214 -11Q176 -11 134 -5T46 14L52 160H128L139 69L127 83Q149 77 173 74T217 70Q245 70 269 78T310 102T326 142Q326 169 306
184T255 211T188 233T122 261T70 308T50 384Q50 440 78 475T152 526T253 543Q291 543 335 536T426 514L421 387H344L328 466L345 448Q296 462 258 462Q218 462 193 445T168 400Z" />
<glyph unicode="t" horiz-adv-x="384" d="M221 -11Q158 -11 124 27T90 143V468L107 451H8V516L108 536L90 515V650L211 671V515L197 532H351L349 451H197L211 468V159Q211 116 226 97T269 78Q286 78 306 84T349 99L372 33Q293 -11 221 -11Z" />
<glyph unicode="u" horiz-adv-x="627" d="M238 -11Q171 -11 127 31T82 161V462L94 444L12 467V529L202 536V181Q202 130 225 106T288 81Q318 81 354 97T426 148L417 125V465L429 444L347 467V529L537 536V66L522 86L608 63V1L444 -6L427 92L444 86Q394 37 341
13T238 -11Z" />
<glyph unicode="v" horiz-adv-x="538" d="M322 528L542 536V474L482 451L499 470L331 -2H190L41 466L59 451L-4 466V528L232 536V474L153 454L163 470L275 74H265L389 463L396 453L322 466V528Z" />
<glyph unicode="w" horiz-adv-x="821" d="M616 528L825 536V474L761 455L777 469L647 -2H517L402 442L425 441L298 -2H168L45 464L59 452L-4 466V528L225 536V474L146 455L159 466L252 70H232L356 529L481 537L597 66H579L679 463L691 451L616 466V528Z" />
<glyph unicode="x" horiz-adv-x="564" d="M10 0V62L94 80L64 63L223 285L250 289L411 528L540 536V474L455 453L490 473L336 262L310 259L139 0H10ZM300 0V62L368 74L361 58L230 245L68 472L93 451L22 466V528L258 536V474L188 459L197 478L314 308L491 63L469
80L551 62V0H300Z" />
<glyph unicode="y" horiz-adv-x="547" d="M10 -235L21 -149Q36 -151 48 -152T72 -153Q118 -153 146 -134T195 -76T237 25L232 -16L42 464L54 453L-6 466V528L233 536V474L156 456L163 467L297 76L269 82L392 465L398 453L323 466V528L551 536V474L486 455L503
466L334 1Q314 -55 292 -99T241 -175T173 -224T81 -241Q50 -241 10 -235Z" />
<glyph unicode="z" horiz-adv-x="496" d="M459 163L460 0H36V71L334 474L350 451H96L129 477L116 381H42L41 532H449V461L150 49L145 81L393 82L361 48L386 163H459Z" />
<glyph unicode="{" horiz-adv-x="354" d="M274 -107Q189 -107 151 -65T113 65V228Q113 276 94 305T22 334V415Q77 415 95 444T113 521V684Q113 773 151 815T274 857H332V783Q285 783 261 774T228 742T219 676V509Q219 455 199 425T146 381T68 368V382Q112 382
145 369T199 326T219 241V73Q219 31 228 8T261 -24T332 -34V-107H274Z" />
<glyph unicode="|" horiz-adv-x="318" d="M113 808H205V-104H113V808Z" />
<glyph unicode="}" horiz-adv-x="354" d="M80 -107Q165 -107 203 -65T241 65V228Q241 276 260 305T332 334V415Q278 415 260 444T241 521V684Q241 773 203 815T80 857H23V783Q69 783 93 774T126 742T135 676V509Q135 455 155 425T209 381T286 368V382Q243 382
209 369T155 326T135 241V73Q135 31 127 8T94 -24T23 -34V-107H80Z" />
<glyph unicode="~" horiz-adv-x="596" d="M404 277Q374 277 346 287T292 312T241 336T190 347Q168 347 146 336T99 293L49 325Q81 384 116 409T192 435Q223 435 250 425T304 400T356 376T407 365Q430 365 452 377T497 419L546 386Q514 327 479 302T404 277Z" />
<glyph unicode="&#xa0;" horiz-adv-x="187" />
<glyph unicode="&#xa1;" horiz-adv-x="325" d="M207 272L226 -197H98L118 266L207 272ZM233 447Q233 416 212 397T163 378Q130 378 111 397T92 447Q92 478 113 497T163 516Q195 516 214 497T233 447Z" />
<glyph unicode="&#xa2;" horiz-adv-x="547" d="M493 181Q444 144 396 126T299 103L331 129V-21H251V127L287 103Q218 103 166 133T85 220T55 356Q55 439 86 494T169 578T282 612L251 587V737H331V591L287 612Q323 614 358 610T423 596T474 575L470 446H400L388
519Q369 527 348 530T309 533Q264 533 233 511T186 451T170 361Q170 306 186 267T234 207T308 186Q341 186 378 199T454 239L493 181Z" />
<glyph unicode="&#xa3;" horiz-adv-x="662" d="M61 0V62L164 93L128 66Q153 85 162 118T171 193Q171 229 167 269T156 352L175 330H61V395L164 405L152 386Q149 420 146 454T142 513Q142 589 171 633T252 695T369 713Q415 713 466 706T572 684L562 520H489L470
628L483 610Q454 617 428 620T380 624Q326 624 296 600T266 514Q266 492 269 457T276 389L254 405H447V330H262L280 357Q285 324 288 293T292 232Q292 185 279 146T231 77L217 90L503 89L485 68L506 191H580V0H61Z" />
<glyph unicode="&#xa4;" horiz-adv-x="660" d="M586 121L527 58L423 155L469 156Q443 133 408 119T328 105Q283 105 248 119T188 159L237 161L129 59L76 116L182 215L180 166Q157 191 145 224T133 294Q133 331 145 365T181 427L174 385L72 480L132 544L237 444L195
440Q222 462 257 475T336 488Q379 488 412 476T468 444L427 446L529 541L581 485L479 389L477 436Q502 410 515 376T529 303Q529 266 517 232T480 170L478 220L586 121ZM330 178Q364 178 386 193T419 236T430 297Q431 351 408 383T333 415Q299 415 276 400T242
357T231 294Q231 243 255 211T330 178Z" />
<glyph unicode="&#xa5;" horiz-adv-x="703" d="M124 286V344H263L254 323L92 633L116 613L36 635V697L304 702V640L209 617L216 639L370 323H349L505 634L514 612L417 635V697L669 702V640L589 617L614 636L449 321L439 344H577V286H124ZM211 0V62L307 88L289
62V189L309 169H124V228H577V169H388L412 190V62L394 88L490 62V0H211Z" />
<glyph unicode="&#xa6;" horiz-adv-x="318" d="M113 437V808H205V437H113ZM113 -104V267H205V-104H113Z" />
<glyph unicode="&#xa7;" horiz-adv-x="557" d="M246 -181Q208 -181 168 -175T84 -157L91 -19H165L176 -108L165 -90Q185 -97 205 -100T245 -104Q290 -104 320 -84T351 -24Q351 8 331 31T279 74T212 113T144 156T92 211T71 286Q71 333 94 364T157 414T243 439L258
405Q241 400 222 385T189 347T176 300Q176 268 196 245T250 202T319 162T389 118T442 60T463 -20Q463 -73 435 -109T357 -163T246 -181ZM306 97L299 132Q317 138 336 154T369 192T383 240Q383 273 363 296T310 339T241 379T172 424T119 482T98 562Q98 635 153 673T297
712Q334 712 376 705T463 684L458 563H384L368 643L385 623Q365 629 345 632T304 636Q261 636 235 617T208 563Q208 532 228 509T280 466T349 428T417 385T469 331T490 255Q490 209 465 176T398 124T306 97Z" />
<glyph unicode="&#xa8;" horiz-adv-x="461" d="M336 630Q307 630 291 648T274 697Q274 728 292 746T336 764Q366 764 382 746T399 697Q399 666 381 648T336 630ZM123 630Q95 630 79 648T62 697Q61 728 79 746T123 764Q153 764 170 746T187 697Q187 666 168 648T123 630Z" />
<glyph unicode="&#xa9;" horiz-adv-x="870" d="M431 153Q355 153 306 204T256 347Q256 413 281 458T349 526T445 549Q509 549 574 518L571 418H514L504 479L511 473Q498 478 482 481T452 484Q401 484 376 448T351 353Q351 286 378 253T450 220Q474 220 502 229T558
260L589 212Q550 181 509 167T431 153ZM423 -11Q345 -11 280 15T166 88T92 201T65 344Q65 424 93 491T171 608T289 685T439 713Q517 713 584 687T700 614T777 501T805 359Q805 280 776 212T695 94T574 17T423 -11ZM429 56Q494 56 548 78T641 140T702 234T724 354Q724
439 687 505T584 608T433 646Q346 646 282 608T183 504T147 350Q147 264 181 198T280 94T429 56Z" />
<glyph unicode="&#xaa;" horiz-adv-x="438" d="M363 366L348 387L414 368V321L291 317L280 385L286 383Q257 349 221 331T146 313Q97 313 67 343T36 427Q36 468 54 491T107 525T189 536H278L271 530V583Q271 617 253 632T199 647Q182 647 162 644T119 634L129
646L118 585H61L55 685Q103 699 146 706T223 713Q292 713 327 685T363 598V366ZM129 437Q129 410 143 394T180 378Q202 378 227 389T276 419L271 406V499L278 491H204Q192 491 179 490T154 483T136 466T129 437ZM39 159V243H414V159H39Z" />
<glyph unicode="&#xab;" horiz-adv-x="523" d="M209 52L49 239V300L210 487L267 444L133 247V294L266 98L209 52ZM418 52L258 239V300L419 487L476 444L342 247V294L475 98L418 52Z" />
<glyph unicode="&#xac;" horiz-adv-x="600" d="M433 113V322L447 307H47V393H531V113H433Z" />
<glyph unicode="&#xad;" horiz-adv-x="432" d="M624 339V247H320V339H624Z" />
<glyph unicode="&#xae;" horiz-adv-x="726" d="M220 299V332L267 346L256 332V586L270 570L220 582V615L328 618H373Q431 618 461 596T492 532Q492 498 467 475T387 444L391 455Q420 453 435 442T462 407L500 332L479 345L521 332V299H445L403 393Q394 413 385
421T364 431T338 434H310L321 445V332L311 346L365 332V299H220ZM321 466L310 477H347Q385 477 404 490T423 528Q423 549 408 560T361 572H310L321 585V466ZM354 161Q269 161 204 198T101 299T64 449Q64 536 103 603T210 710T366 749Q452 749 519 712T624 611T663
461Q663 397 640 343T574 247T476 184T354 161ZM356 214Q426 214 482 245T570 333T603 460Q603 531 572 583T487 666T365 696Q295 696 241 665T156 578T125 450Q125 380 154 327T235 244T356 214Z" />
<glyph unicode="&#xaf;" horiz-adv-x="429" d="M359 749V664H70V749H359Z" />
<glyph unicode="&#xb0;" horiz-adv-x="442" d="M201 427Q130 427 86 468T41 583Q41 630 61 665T117 719T202 739Q273 739 317 698T361 586Q361 513 317 470T201 427ZM201 494Q239 494 259 517T280 585Q281 628 259 650T201 672Q165 672 144 650T122 585Q122 541
143 518T201 494Z" />
<glyph unicode="&#xb1;" horiz-adv-x="586" d="M268 460L247 439V640H339V439L318 460H521V373H318L339 394V193H247V394L268 373H65L64 460H268ZM521 124V37H65V124H521Z" />
<glyph unicode="&#xb2;" horiz-adv-x="364" d="M29 345V416Q93 467 136 508T201 585T223 649Q223 680 206 693T161 706Q126 706 94 693L106 710L97 639H36L29 758Q67 769 104 774T177 780Q241 780 283 754T326 666Q326 631 310 598T266 534T204 473T136 414L134
423H333V345H29Z" />
<glyph unicode="&#xb3;" horiz-adv-x="371" d="M164 337Q128 337 91 345T20 370L49 434Q75 422 102 416T154 409Q188 409 212 424T236 473Q236 499 218 515T157 531H99V595H152Q193 595 211 610T230 654Q230 686 211 699T160 712Q144 712 126 709T90 700L105 714L98
651H37L32 755Q69 767 107 773T181 780Q223 780 257 769T311 734T331 670Q331 623 302 598T226 566L221 570Q281 566 309 540T337 467Q337 423 314 394T251 351T164 337Z" />
<glyph unicode="&#xb4;" horiz-adv-x="338" d="M103 611L61 670L260 825L322 741L103 611Z" />
<glyph unicode="&#xb5;" horiz-adv-x="656" d="M136 118L164 66Q172 32 182 -11T201 -108T209 -230H89V463L101 445L18 467V529L209 534V176Q209 127 231 104T292 81Q323 81 359 98T432 150L423 129V465L435 445L353 467V529L543 535V66L528 86L614 63V1L450 -6L433
92L446 86Q401 38 353 14T262 -11Q213 -11 179 20T136 118Z" />
<glyph unicode="&#xb6;" horiz-adv-x="629" d="M138 -170V-108L233 -83L216 -108V333L238 312Q179 312 134 335T63 403T38 507Q38 566 63 609T134 677T239 702H582V640L486 611L504 638V-170H403V642L423 613H297L317 642V-170H138Z" />
<glyph unicode="&#xb7;" horiz-adv-x="226" d="M42 326Q42 357 63 376T113 395Q145 395 164 376T183 326Q183 295 162 276T113 257Q81 257 62 276T42 326Z" />
<glyph unicode="&#xb8;" horiz-adv-x="322" d="M146 -247Q121 -247 94 -242T43 -224L67 -165Q85 -172 106 -176T146 -181Q168 -181 182 -173T197 -147Q197 -133 184 -124T147 -109T95 -104L101 0H173V-52Q231 -58 257 -82T284 -142Q284 -177 265 -200T215 -235T146 -247Z" />
<glyph unicode="&#xb9;" horiz-adv-x="288" d="M211 396L196 417L280 396V345H35V396L132 414L117 396V690H143L34 629L6 688L136 773H211V396Z" />
<glyph unicode="&#xba;" horiz-adv-x="475" d="M228 312Q142 312 93 364T43 505Q43 568 67 615T136 687T244 713Q332 713 382 662T432 522Q432 460 408 413T338 339T228 312ZM59 159V243H417V159H59ZM235 382Q267 382 288 398T320 444T331 518Q331 579 308 611T239
643Q191 643 168 609T144 511Q144 447 167 415T235 382Z" />
<glyph unicode="&#xbb;" horiz-adv-x="523" d="M314 487L474 300V239L313 52L256 95L391 293V245L257 442L314 487ZM105 487L265 300V239L104 52L47 95L182 293V245L48 442L105 487Z" />
<glyph unicode="&#xbc;" horiz-adv-x="876" d="M226 327L211 348L295 327V276H50V327L147 345L132 327V621H158L49 560L21 619L151 704H226V327ZM165 -8L588 711H684L261 -8H165ZM689 112L701 92H496L484 162L664 434L786 426V146L764 161H847V92H764L786 112V0H689V112ZM703
161L689 146V378L703 377L546 135L534 161H703Z" />
<glyph unicode="&#xbd;" horiz-adv-x="899" d="M234 327L219 348L303 327V276H58V327L155 345L140 327V621H166L57 560L29 619L159 704H234V327ZM172 -8L595 711H691L268 -8H172ZM553 0V71Q617 122 660 163T725 240T747 304Q747 335 730 348T685 361Q650 361 618
348L630 365L621 294H560L553 413Q591 424 628 429T701 435Q765 435 807 409T850 321Q850 286 834 253T790 189T728 128T660 69L658 78H857V0H553Z" />
<glyph unicode="&#xbe;" horiz-adv-x="912" d="M164 268Q128 268 91 276T20 301L49 365Q75 353 102 347T154 340Q188 340 212 355T236 404Q236 430 218 446T157 462H99V526H152Q193 526 211 541T230 585Q230 617 211 630T160 643Q144 643 126 640T90 631L105 645L98
582H37L32 686Q69 698 107 704T181 711Q223 711 257 700T311 665T331 601Q331 554 302 529T226 497L221 501Q281 497 309 471T337 398Q337 354 314 325T251 282T164 268ZM202 -8L625 711H721L298 -8H202ZM725 112L737 92H532L520 162L700 434L822 426V146L800 161H883V92H800L822
112V0H725V112ZM739 161L725 146V378L739 377L582 135L570 161H739Z" />
<glyph unicode="&#xbf;" horiz-adv-x="432" d="M304 294Q308 278 309 261T311 232Q311 194 294 167T252 120T202 79T160 36T143 -18Q143 -56 170 -73T238 -91Q266 -91 300 -84T368 -65L394 -144Q298 -183 205 -183Q153 -183 111 -169T44 -122T19 -38Q19 9 38 42T87
101T144 148T193 196T213 255Q213 261 213 270T211 288L304 294ZM316 475Q316 443 295 424T244 404Q213 404 194 423T175 473Q175 505 196 524T247 543Q278 543 297 525T316 475Z" />
<glyph unicode="&#xc0;" horiz-adv-x="712" d="M652 59L619 88L708 62V0H430V62L523 86L511 68L466 208L486 192H208L224 207L176 70L172 83L259 62V0H3V62L89 87L61 62L300 700L425 704L652 59ZM240 261L231 278H465L453 258L340 635L368 634L240 261ZM465 752L230
849L279 942L498 818L465 752Z" />
<glyph unicode="&#xc1;" horiz-adv-x="712" d="M652 59L619 88L708 62V0H430V62L523 86L511 68L466 208L486 192H208L224 207L176 70L172 83L259 62V0H3V62L89 87L61 62L300 700L425 704L652 59ZM240 261L231 278H465L453 258L340 635L368 634L240 261ZM270 752L235
818L455 942L503 849L270 752Z" />
<glyph unicode="&#xc2;" horiz-adv-x="712" d="M652 59L619 88L708 62V0H430V62L523 86L511 68L466 208L486 192H208L224 207L176 70L172 83L259 62V0H3V62L89 87L61 62L300 700L425 704L652 59ZM240 261L231 278H465L453 258L340 635L368 634L240 261ZM220 748L180
796L323 922L392 928L544 796L503 748L318 863L400 862L220 748Z" />
<glyph unicode="&#xc3;" horiz-adv-x="712" d="M652 59L619 88L708 62V0H430V62L523 86L511 68L466 208L486 192H208L224 207L176 70L172 83L259 62V0H3V62L89 87L61 62L300 700L425 704L652 59ZM240 261L231 278H465L453 258L340 635L368 634L240 261ZM233 775L183
798Q201 854 226 878T286 903Q312 903 337 893T386 871T429 860Q447 860 461 871T490 906L542 883Q523 827 496 803T433 778Q408 778 383 788T335 809T291 820Q274 820 261 810T233 775Z" />
<glyph unicode="&#xc4;" horiz-adv-x="712" d="M652 59L619 88L708 62V0H430V62L523 86L511 68L466 208L486 192H208L224 207L176 70L172 83L259 62V0H3V62L89 87L61 62L300 700L425 704L652 59ZM240 261L231 278H465L453 258L340 635L368 634L240 261ZM468 763Q439
763 423 781T406 830Q406 861 424 879T468 897Q498 897 514 879T531 830Q531 799 513 781T468 763ZM255 763Q227 763 211 781T194 830Q193 861 211 879T255 897Q285 897 302 879T319 830Q319 799 300 781T255 763Z" />
<glyph unicode="&#xc5;" horiz-adv-x="712" d="M652 59L619 88L708 62V0H430V62L523 86L511 68L466 208L486 192H208L224 207L176 70L172 83L259 62V0H3V62L89 87L61 62L300 700L425 704L652 59ZM240 261L231 278H465L453 258L340 635L368 634L240 261ZM361 732Q323
732 295 746T252 786T237 844Q237 877 252 902T295 943T364 959Q402 959 429 945T472 905T487 846Q487 815 472 789T429 747T361 732ZM361 789Q387 789 400 805T413 846Q413 871 401 886T362 902Q337 902 324 886T311 844Q311 820 323 805T361 789Z" />
<glyph unicode="&#xc6;" horiz-adv-x="943" d="M1 0V62L89 87L56 61L334 630L347 611L249 635V697L463 702H875V529H801L781 636L804 613H556L576 633V387L556 407H798V321H556L576 343V69L556 89H816L793 67L814 180H888L887 0H381V62L470 88L453 67V226L473
206H224L252 226L171 60L164 87L257 62V0H1ZM272 276L258 292H473L453 275V627L473 613H416L441 626L272 276Z" />
<glyph unicode="&#xc7;" horiz-adv-x="637" d="M344 -11Q263 -11 196 29T88 150T48 347Q48 462 87 544T199 669T367 713Q419 713 473 701T589 662L581 489H508L486 609L507 588Q470 603 436 610T371 618Q310 618 268 588T203 500T180 363Q180 272 205 211T274
120T375 89Q416 89 462 106T553 161L599 89Q538 39 473 14T344 -11ZM355 -247Q330 -247 303 -242T252 -224L276 -165Q294 -172 315 -176T355 -181Q377 -181 391 -173T406 -147Q406 -133 393 -124T356 -109T304 -104L310 0H382V-52Q440 -58 466 -82T493 -142Q493
-177 474 -200T424 -235T355 -247Z" />
<glyph unicode="&#xc8;" horiz-adv-x="613" d="M484 180H557L556 0H40V62L135 87L118 62V637L135 612L40 635V697L239 702H545V529H471L452 631L476 613H221L241 633V381L221 401H468V315H221L241 337V69L221 89H488L464 69L484 180ZM418 752L183 849L232 942L451
818L418 752Z" />
<glyph unicode="&#xc9;" horiz-adv-x="613" d="M484 180H557L556 0H40V62L135 87L118 62V637L135 612L40 635V697L239 702H545V529H471L452 631L476 613H221L241 633V381L221 401H468V315H221L241 337V69L221 89H488L464 69L484 180ZM222 752L187 818L407 942L455
849L222 752Z" />
<glyph unicode="&#xca;" horiz-adv-x="613" d="M484 180H557L556 0H40V62L135 87L118 62V637L135 612L40 635V697L239 702H545V529H471L452 631L476 613H221L241 633V381L221 401H468V315H221L241 337V69L221 89H488L464 69L484 180ZM173 748L133 796L276 922L345
928L497 796L456 748L271 863L353 862L173 748Z" />
<glyph unicode="&#xcb;" horiz-adv-x="613" d="M484 180H557L556 0H40V62L135 87L118 62V637L135 612L40 635V697L239 702H545V529H471L452 631L476 613H221L241 633V381L221 401H468V315H221L241 337V69L221 89H488L464 69L484 180ZM420 763Q391 763 375 781T358
830Q358 861 376 879T420 897Q450 897 466 879T483 830Q483 799 465 781T420 763ZM207 763Q179 763 163 781T146 830Q145 861 163 879T207 897Q237 897 254 879T271 830Q271 799 252 781T207 763Z" />
<glyph unicode="&#xcc;" horiz-adv-x="359" d="M319 640L227 612L241 632V68L227 86L319 62V0H40V62L131 86L118 68V632L135 612L40 635V697L319 702V640ZM538 752L303 849L352 942L571 818L538 752Z" />
<glyph unicode="&#xcd;" horiz-adv-x="359" d="M319 640L227 612L241 632V68L227 86L319 62V0H40V62L131 86L118 68V632L135 612L40 635V697L319 702V640ZM87 752L52 818L272 942L320 849L87 752Z" />
<glyph unicode="&#xce;" horiz-adv-x="359" d="M319 640L227 612L241 632V68L227 86L319 62V0H40V62L131 86L118 68V632L135 612L40 635V697L319 702V640ZM293 748L253 796L396 922L465 928L617 796L576 748L391 863L473 862L293 748Z" />
<glyph unicode="&#xcf;" horiz-adv-x="359" d="M319 640L227 612L241 632V68L227 86L319 62V0H40V62L131 86L118 68V632L135 612L40 635V697L319 702V640ZM285 763Q256 763 240 781T223 830Q223 861 241 879T285 897Q315 897 331 879T348 830Q348 799 330 781T285
763ZM72 763Q44 763 28 781T11 830Q10 861 28 879T72 897Q102 897 119 879T136 830Q136 799 117 781T72 763Z" />
<glyph unicode="&#xd0;" horiz-adv-x="714" d="M40 317V398H382V317H40ZM350 702Q421 702 479 681T580 618T645 512T668 363Q668 244 626 164T507 42T330 0H40V62L136 87L118 62V637L137 611L40 635V697L254 702H350ZM336 89Q373 89 408 100T472 140T518 221T536
355Q536 435 520 485T476 563T415 602T346 613H221L241 633V69L221 89H336Z" />
<glyph unicode="&#xd1;" horiz-adv-x="779" d="M493 697L751 702V640L655 611L673 638V0H532L203 572L220 573V62L201 88L298 62V0H40V62L137 88L118 62V637L131 614L40 635V697L264 702L589 140H571V638L590 612L493 635V697ZM272 775L222 798Q240 854 265 878T325
903Q351 903 376 893T425 871T468 860Q486 860 500 871T529 906L581 883Q562 827 535 803T472 778Q447 778 422 788T374 809T330 820Q313 820 300 810T272 775Z" />
<glyph unicode="&#xd2;" horiz-adv-x="736" d="M355 -11Q263 -11 194 29T87 148T48 343Q48 435 72 504T140 620T243 690T375 713Q445 713 502 691T601 624T666 515T690 364Q690 246 648 163T530 34T355 -11ZM364 84Q418 84 461 111T531 198T558 358Q558 451 534
508T467 592T369 618Q316 618 273 592T205 507T180 347Q180 254 203 196T267 111T364 84ZM474 752L239 849L288 942L507 818L474 752Z" />
<glyph unicode="&#xd3;" horiz-adv-x="736" d="M355 -11Q263 -11 194 29T87 148T48 343Q48 435 72 504T140 620T243 690T375 713Q445 713 502 691T601 624T666 515T690 364Q690 246 648 163T530 34T355 -11ZM364 84Q418 84 461 111T531 198T558 358Q558 451 534
508T467 592T369 618Q316 618 273 592T205 507T180 347Q180 254 203 196T267 111T364 84ZM279 752L244 818L464 942L512 849L279 752Z" />
<glyph unicode="&#xd4;" horiz-adv-x="736" d="M355 -11Q263 -11 194 29T87 148T48 343Q48 435 72 504T140 620T243 690T375 713Q445 713 502 691T601 624T666 515T690 364Q690 246 648 163T530 34T355 -11ZM364 84Q418 84 461 111T531 198T558 358Q558 451 534
508T467 592T369 618Q316 618 273 592T205 507T180 347Q180 254 203 196T267 111T364 84ZM229 748L189 796L332 922L401 928L553 796L512 748L327 863L409 862L229 748Z" />
<glyph unicode="&#xd5;" horiz-adv-x="736" d="M355 -11Q263 -11 194 29T87 148T48 343Q48 435 72 504T140 620T243 690T375 713Q445 713 502 691T601 624T666 515T690 364Q690 246 648 163T530 34T355 -11ZM364 84Q418 84 461 111T531 198T558 358Q558 451 534
508T467 592T369 618Q316 618 273 592T205 507T180 347Q180 254 203 196T267 111T364 84ZM242 775L192 798Q210 854 235 878T295 903Q321 903 346 893T395 871T438 860Q456 860 470 871T499 906L551 883Q532 827 505 803T442 778Q417 778 392 788T344 809T300 820Q283
820 270 810T242 775Z" />
<glyph unicode="&#xd6;" horiz-adv-x="736" d="M355 -11Q263 -11 194 29T87 148T48 343Q48 435 72 504T140 620T243 690T375 713Q445 713 502 691T601 624T666 515T690 364Q690 246 648 163T530 34T355 -11ZM364 84Q418 84 461 111T531 198T558 358Q558 451 534
508T467 592T369 618Q316 618 273 592T205 507T180 347Q180 254 203 196T267 111T364 84ZM477 763Q448 763 432 781T415 830Q415 861 433 879T477 897Q507 897 523 879T540 830Q540 799 522 781T477 763ZM264 763Q236 763 220 781T203 830Q202 861 220 879T264
897Q294 897 311 879T328 830Q328 799 309 781T264 763Z" />
<glyph unicode="&#xd7;" horiz-adv-x="501" d="M108 143L44 207L201 364L202 333L43 492L108 557L267 398L237 399L393 557L457 493L300 336L299 367L458 208L393 143L234 302L265 300L108 143Z" />
<glyph unicode="&#xd8;" horiz-adv-x="739" d="M593 778L657 739L579 615L560 592L239 83L232 66L142 -77L77 -38L167 104L180 119L508 637L513 652L593 778ZM357 -11Q265 -11 196 29T89 148T50 343Q50 435 74 504T142 620T245 690T376 713Q446 713 504 691T603
624T668 515T691 364Q691 246 649 163T531 34T357 -11ZM366 84Q420 84 463 111T533 198T559 358Q559 451 535 508T469 592T371 618Q317 618 274 592T207 507T182 347Q182 254 205 196T269 111T366 84Z" />
<glyph unicode="&#xd9;" horiz-adv-x="744" d="M445 697L723 702V640L631 612L645 643V271Q645 225 637 183T610 106T559 44T480 4T368 -11Q288 -11 237 9T158 61T117 130T103 201T100 259V643L114 613L22 635V697L300 702V640L209 612L222 643V259Q222 233 224
208T234 160T258 121T301 94T370 84Q413 84 440 94T485 122T510 165T520 216T523 271V643L535 615L445 635V697ZM477 752L242 849L291 942L510 818L477 752Z" />
<glyph unicode="&#xda;" horiz-adv-x="744" d="M445 697L723 702V640L631 612L645 643V271Q645 225 637 183T610 106T559 44T480 4T368 -11Q288 -11 237 9T158 61T117 130T103 201T100 259V643L114 613L22 635V697L300 702V640L209 612L222 643V259Q222 233 224
208T234 160T258 121T301 94T370 84Q413 84 440 94T485 122T510 165T520 216T523 271V643L535 615L445 635V697ZM281 752L246 818L466 942L514 849L281 752Z" />
<glyph unicode="&#xdb;" horiz-adv-x="744" d="M445 697L723 702V640L631 612L645 643V271Q645 225 637 183T610 106T559 44T480 4T368 -11Q288 -11 237 9T158 61T117 130T103 201T100 259V643L114 613L22 635V697L300 702V640L209 612L222 643V259Q222 233 224
208T234 160T258 121T301 94T370 84Q413 84 440 94T485 122T510 165T520 216T523 271V643L535 615L445 635V697ZM232 748L192 796L335 922L404 928L556 796L515 748L330 863L412 862L232 748Z" />
<glyph unicode="&#xdc;" horiz-adv-x="744" d="M445 697L723 702V640L631 612L645 643V271Q645 225 637 183T610 106T559 44T480 4T368 -11Q288 -11 237 9T158 61T117 130T103 201T100 259V643L114 613L22 635V697L300 702V640L209 612L222 643V259Q222 233 224
208T234 160T258 121T301 94T370 84Q413 84 440 94T485 122T510 165T520 216T523 271V643L535 615L445 635V697ZM479 763Q450 763 434 781T417 830Q417 861 435 879T479 897Q509 897 525 879T542 830Q542 799 524 781T479 763ZM266 763Q238 763 222 781T205 830Q204
861 222 879T266 897Q296 897 313 879T330 830Q330 799 311 781T266 763Z" />
<glyph unicode="&#xdd;" horiz-adv-x="646" d="M179 0V62L277 88L259 62V275L270 232L62 633L86 613L3 635V697L274 702V640L179 617L189 639L343 319H319L475 634L484 612L387 635V697L643 702V640L559 617L584 636L372 232L382 275V62L364 88L462 62V0H179ZM233
752L198 818L418 942L466 849L233 752Z" />
<glyph unicode="&#xde;" horiz-adv-x="593" d="M40 0V62L135 87L118 62V637L135 612L40 635V697L319 702V640L226 610L241 635V535L221 558H351Q455 558 510 512T565 369Q565 261 498 207T313 153H221L241 175V63L224 87L338 62V0H40ZM241 219L221 239H289Q334
239 368 251T422 290T442 362Q442 402 426 426T380 460T311 471H221L241 491V219Z" />
<glyph unicode="&#xdf;" horiz-adv-x="682" d="M432 415Q432 390 449 374T493 344T550 316T608 281T652 232T670 159Q670 101 642 63T567 7T461 -11Q425 -11 387 -5T310 14L317 155L391 154L402 61L388 84Q406 76 426 72T464 67Q489 67 509 75T542 100T555 143Q555
171 538 190T494 224T437 255T379 289T335 334T318 399Q318 436 332 458T368 497T410 528T445 561T460 608Q460 636 445 655T405 686T348 697Q294 697 259 670T224 582V0H34V62L121 85L104 65V457L121 447H31V511L119 530L104 513V572Q104 630 123 670T177 735T256
771T351 783Q415 783 466 765T546 710T576 620Q576 582 562 558T526 516T483 486T447 456T432 415Z" />
<glyph unicode="&#xe0;" horiz-adv-x="557" d="M471 63L453 87L542 63V1L378 -7L362 89L370 86Q329 37 281 13T184 -11Q123 -11 81 28T39 144Q39 202 64 235T134 282T245 297H360L351 286V362Q351 411 326 432T255 454Q232 454 207 450T151 435L165 450L153 365H76L68
505Q133 524 187 533T287 543Q375 543 423 505T471 384V63ZM160 155Q160 115 179 96T228 77Q257 77 291 95T357 143L351 119V238L360 228H264Q205 228 183 210T160 155ZM210 828L408 673L362 611L146 742L210 828Z" />
<glyph unicode="&#xe1;" horiz-adv-x="557" d="M471 63L453 87L542 63V1L378 -7L362 89L370 86Q329 37 281 13T184 -11Q123 -11 81 28T39 144Q39 202 64 235T134 282T245 297H360L351 286V362Q351 411 326 432T255 454Q232 454 207 450T151 435L165 450L153 365H76L68
505Q133 524 187 533T287 543Q375 543 423 505T471 384V63ZM160 155Q160 115 179 96T228 77Q257 77 291 95T357 143L351 119V238L360 228H264Q205 228 183 210T160 155ZM209 611L167 670L366 825L428 741L209 611Z" />
<glyph unicode="&#xe2;" horiz-adv-x="557" d="M471 63L453 87L542 63V1L378 -7L362 89L370 86Q329 37 281 13T184 -11Q123 -11 81 28T39 144Q39 202 64 235T134 282T245 297H360L351 286V362Q351 411 326 432T255 454Q232 454 207 450T151 435L165 450L153 365H76L68
505Q133 524 187 533T287 543Q375 543 423 505T471 384V63ZM160 155Q160 115 179 96T228 77Q257 77 291 95T357 143L351 119V238L360 228H264Q205 228 183 210T160 155ZM136 623L96 668L236 806L305 812L455 668L414 623L231 749L313 748L136 623Z" />
<glyph unicode="&#xe3;" horiz-adv-x="557" d="M471 63L453 87L542 63V1L378 -7L362 89L370 86Q329 37 281 13T184 -11Q123 -11 81 28T39 144Q39 202 64 235T134 282T245 297H360L351 286V362Q351 411 326 432T255 454Q232 454 207 450T151 435L165 450L153 365H76L68
505Q133 524 187 533T287 543Q375 543 423 505T471 384V63ZM160 155Q160 115 179 96T228 77Q257 77 291 95T357 143L351 119V238L360 228H264Q205 228 183 210T160 155ZM346 644Q319 644 296 656T252 680T207 692Q189 692 174 681T143 645L91 668Q111 724 138 752T201
781Q230 781 253 769T297 744T341 732Q360 732 375 743T405 780L458 758Q438 701 411 673T346 644Z" />
<glyph unicode="&#xe4;" horiz-adv-x="557" d="M471 63L453 87L542 63V1L378 -7L362 89L370 86Q329 37 281 13T184 -11Q123 -11 81 28T39 144Q39 202 64 235T134 282T245 297H360L351 286V362Q351 411 326 432T255 454Q232 454 207 450T151 435L165 450L153 365H76L68
505Q133 524 187 533T287 543Q375 543 423 505T471 384V63ZM160 155Q160 115 179 96T228 77Q257 77 291 95T357 143L351 119V238L360 228H264Q205 228 183 210T160 155ZM380 630Q351 630 335 648T318 697Q318 728 336 746T380 764Q410 764 426 746T443 697Q443
666 425 648T380 630ZM167 630Q139 630 123 648T106 697Q105 728 123 746T167 764Q197 764 214 746T231 697Q231 666 212 648T167 630Z" />
<glyph unicode="&#xe5;" horiz-adv-x="557" d="M471 63L453 87L542 63V1L378 -7L362 89L370 86Q329 37 281 13T184 -11Q123 -11 81 28T39 144Q39 202 64 235T134 282T245 297H360L351 286V362Q351 411 326 432T255 454Q232 454 207 450T151 435L165 450L153 365H76L68
505Q133 524 187 533T287 543Q375 543 423 505T471 384V63ZM160 155Q160 115 179 96T228 77Q257 77 291 95T357 143L351 119V238L360 228H264Q205 228 183 210T160 155ZM274 610Q236 610 208 624T165 664T150 722Q150 755 165 780T208 821T277 837Q315 837 342
823T385 783T400 724Q400 693 385 667T342 625T274 610ZM274 667Q300 667 313 683T326 724Q326 749 314 764T275 780Q250 780 237 764T224 722Q224 698 236 683T274 667Z" />
<glyph unicode="&#xe6;" horiz-adv-x="859" d="M75 369L67 505Q129 525 181 534T276 543Q341 543 379 521T428 453L435 432L425 442Q453 491 501 517T608 543Q709 543 765 481T821 305Q821 283 820 264T816 232H465L474 255L475 241Q478 166 516 123T616 79Q689
79 775 133L816 67Q761 30 703 10T588 -11Q520 -11 469 20T391 109L421 108Q378 47 320 18T205 -12Q160 -12 123 6T62 59T39 145Q39 225 88 265T240 306H363L353 290V362Q353 410 330 432T257 455Q235 455 209 450T149 436L161 450L149 369H75ZM364 130Q359 156
356 185T353 251L363 232H265Q208 232 184 218T160 160Q160 118 184 97T243 75Q274 75 307 91T370 142L364 130ZM474 288L463 306H707L697 293Q698 379 673 418T596 457Q539 457 507 414T474 288Z" />
<glyph unicode="&#xe7;" horiz-adv-x="515" d="M273 -11Q205 -11 151 21T66 114T35 261Q35 338 57 391T116 478T201 527T299 543Q344 543 392 532T472 503L468 364H390L376 450L386 441Q367 449 344 453T301 457Q255 457 224 434T176 368T160 268Q160 206 177
164T227 100T300 78Q333 78 371 92T450 133L490 71Q436 29 381 9T273 -11ZM281 -247Q256 -247 229 -242T178 -224L202 -165Q220 -172 241 -176T281 -181Q303 -181 317 -173T332 -147Q332 -133 319 -124T282 -109T230 -104L236 0H308V-52Q366 -58 392 -82T419 -142Q419
-177 400 -200T350 -235T281 -247Z" />
<glyph unicode="&#xe8;" horiz-adv-x="549" d="M275 -11Q205 -11 151 19T67 110T37 257Q37 346 68 410T157 508T294 543Q369 543 416 513T487 429T510 309Q510 294 509 279T505 246H133V322H400L386 313Q387 353 378 385T345 436T284 455Q241 455 214 431T174
366T161 273Q161 216 176 173T223 104T304 79Q339 79 380 92T465 132L506 67Q449 28 390 9T275 -11ZM219 828L417 673L371 611L155 742L219 828Z" />
<glyph unicode="&#xe9;" horiz-adv-x="549" d="M275 -11Q205 -11 151 19T67 110T37 257Q37 346 68 410T157 508T294 543Q369 543 416 513T487 429T510 309Q510 294 509 279T505 246H133V322H400L386 313Q387 353 378 385T345 436T284 455Q241 455 214 431T174
366T161 273Q161 216 176 173T223 104T304 79Q339 79 380 92T465 132L506 67Q449 28 390 9T275 -11ZM218 611L176 670L375 825L437 741L218 611Z" />
<glyph unicode="&#xea;" horiz-adv-x="549" d="M275 -11Q205 -11 151 19T67 110T37 257Q37 346 68 410T157 508T294 543Q369 543 416 513T487 429T510 309Q510 294 509 279T505 246H133V322H400L386 313Q387 353 378 385T345 436T284 455Q241 455 214 431T174
366T161 273Q161 216 176 173T223 104T304 79Q339 79 380 92T465 132L506 67Q449 28 390 9T275 -11ZM146 623L106 668L246 806L315 812L465 668L424 623L241 749L323 748L146 623Z" />
<glyph unicode="&#xeb;" horiz-adv-x="549" d="M275 -11Q205 -11 151 19T67 110T37 257Q37 346 68 410T157 508T294 543Q369 543 416 513T487 429T510 309Q510 294 509 279T505 246H133V322H400L386 313Q387 353 378 385T345 436T284 455Q241 455 214 431T174
366T161 273Q161 216 176 173T223 104T304 79Q339 79 380 92T465 132L506 67Q449 28 390 9T275 -11ZM390 630Q361 630 345 648T328 697Q328 728 346 746T390 764Q420 764 436 746T453 697Q453 666 435 648T390 630ZM177 630Q149 630 133 648T116 697Q115 728 133
746T177 764Q207 764 224 746T241 697Q241 666 222 648T177 630Z" />
<glyph unicode="&#xec;" horiz-adv-x="311" d="M223 72L213 83L293 62V0H32V62L112 83L103 72V456L111 447L32 467V529L223 536V72ZM339 828L537 673L491 611L275 742L339 828Z" />
<glyph unicode="&#xed;" horiz-adv-x="311" d="M223 72L213 83L293 62V0H32V62L112 83L103 72V456L111 447L32 467V529L223 536V72ZM349 611L307 670L506 825L568 741L349 611Z" />
<glyph unicode="&#xee;" horiz-adv-x="311" d="M42 623L-1 668L119 806L188 812L317 668L273 623L114 749L196 748L42 623ZM223 72L213 83L293 62V0H32V62L112 83L103 72V456L111 447L32 467V529L223 536V72Z" />
<glyph unicode="&#xef;" horiz-adv-x="311" d="M248 630Q221 630 205 648T189 697Q188 728 206 746T248 764Q275 764 291 746T308 697Q308 666 290 648T248 630ZM51 630Q24 630 9 648T-8 697Q-8 728 9 746T51 764Q79 764 95 746T112 697Q112 666 94 648T51 630ZM223
72L213 83L293 62V0H32V62L112 83L103 72V456L111 447L32 467V529L223 536V72Z" />
<glyph unicode="&#xf0;" horiz-adv-x="583" d="M272 -11Q193 -11 140 20T60 108T33 240Q33 323 63 382T146 472T262 503Q319 503 363 478T434 403L423 408Q410 501 371 564T268 662T121 697L131 783Q237 783 314 744T440 638T514 488T538 316Q538 243 522 183T473
80T390 13T272 -11ZM280 75Q321 75 350 96T396 157T413 258Q413 342 381 382T289 422Q250 422 221 403T175 345T158 244Q158 157 191 116T280 75ZM216 560L177 611L436 785L475 734L216 560Z" />
<glyph unicode="&#xf1;" horiz-adv-x="640" d="M32 0V62L118 85L103 67V464L118 444L32 467V529L196 537L212 440L196 446Q245 496 299 519T402 543Q469 543 513 501T557 374V67L545 85L628 62V0H372V62L452 83L437 64V348Q437 401 414 426T351 451Q321 451 285
435T214 384L223 403V64L211 83L288 62V0H32ZM401 644Q374 644 351 656T307 680T262 692Q244 692 229 681T198 645L146 668Q166 724 193 752T256 781Q285 781 308 769T352 744T396 732Q415 732 430 743T460 780L513 758Q493 701 466 673T401 644Z" />
<glyph unicode="&#xf2;" horiz-adv-x="576" d="M295 543Q411 543 475 474T540 276Q540 187 509 123T419 24T278 -11Q163 -11 100 58T36 256Q36 345 67 409T156 508T295 543ZM289 457Q226 457 194 408T161 262Q161 165 192 120T284 75Q328 75 357 97T401 163T416
270Q416 364 384 410T289 457ZM223 828L421 673L375 611L159 742L223 828Z" />
<glyph unicode="&#xf3;" horiz-adv-x="576" d="M295 543Q411 543 475 474T540 276Q540 187 509 123T419 24T278 -11Q163 -11 100 58T36 256Q36 345 67 409T156 508T295 543ZM289 457Q226 457 194 408T161 262Q161 165 192 120T284 75Q328 75 357 97T401 163T416
270Q416 364 384 410T289 457ZM222 611L180 670L379 825L441 741L222 611Z" />
<glyph unicode="&#xf4;" horiz-adv-x="576" d="M295 543Q411 543 475 474T540 276Q540 187 509 123T419 24T278 -11Q163 -11 100 58T36 256Q36 345 67 409T156 508T295 543ZM289 457Q226 457 194 408T161 262Q161 165 192 120T284 75Q328 75 357 97T401 163T416
270Q416 364 384 410T289 457ZM150 623L110 668L250 806L319 812L469 668L428 623L245 749L327 748L150 623Z" />
<glyph unicode="&#xf5;" horiz-adv-x="576" d="M295 543Q411 543 475 474T540 276Q540 187 509 123T419 24T278 -11Q163 -11 100 58T36 256Q36 345 67 409T156 508T295 543ZM289 457Q226 457 194 408T161 262Q161 165 192 120T284 75Q328 75 357 97T401 163T416
270Q416 364 384 410T289 457ZM359 644Q332 644 309 656T265 680T220 692Q202 692 187 681T156 645L104 668Q124 724 151 752T214 781Q243 781 266 769T310 744T354 732Q373 732 388 743T418 780L471 758Q451 701 424 673T359 644Z" />
<glyph unicode="&#xf6;" horiz-adv-x="576" d="M295 543Q411 543 475 474T540 276Q540 187 509 123T419 24T278 -11Q163 -11 100 58T36 256Q36 345 67 409T156 508T295 543ZM289 457Q226 457 194 408T161 262Q161 165 192 120T284 75Q328 75 357 97T401 163T416
270Q416 364 384 410T289 457ZM393 630Q364 630 348 648T331 697Q331 728 349 746T393 764Q423 764 439 746T456 697Q456 666 438 648T393 630ZM180 630Q152 630 136 648T119 697Q118 728 136 746T180 764Q210 764 227 746T244 697Q244 666 225 648T180 630Z" />
<glyph unicode="&#xf7;" horiz-adv-x="539" d="M498 393V307H41V393H498ZM199 168Q199 199 220 218T270 237Q302 237 321 218T340 168Q340 137 319 118T270 99Q238 99 219 118T199 168ZM199 534Q199 565 220 584T270 603Q302 603 321 584T340 534Q340 503 319
484T270 465Q238 465 219 484T199 534Z" />
<glyph unicode="&#xf8;" horiz-adv-x="580" d="M475 625L536 590L455 460L436 444L198 61L192 38L111 -92L50 -56L132 75L151 93L392 481L397 501L475 625ZM298 543Q414 543 478 474T543 276Q543 187 512 123T422 24T280 -11Q166 -11 103 58T39 256Q39 345 70
409T158 508T298 543ZM292 457Q228 457 196 408T164 262Q164 165 195 120T287 75Q331 75 360 97T403 163T418 270Q418 364 386 410T292 457Z" />
<glyph unicode="&#xf9;" horiz-adv-x="627" d="M238 -11Q171 -11 127 31T82 161V462L94 444L12 467V529L202 536V181Q202 130 225 106T288 81Q318 81 354 97T426 148L417 125V465L429 444L347 467V529L537 536V66L522 86L608 63V1L444 -6L427 92L444 86Q394 37
341 13T238 -11ZM238 828L436 673L390 611L174 742L238 828Z" />
<glyph unicode="&#xfa;" horiz-adv-x="627" d="M238 -11Q171 -11 127 31T82 161V462L94 444L12 467V529L202 536V181Q202 130 225 106T288 81Q318 81 354 97T426 148L417 125V465L429 444L347 467V529L537 536V66L522 86L608 63V1L444 -6L427 92L444 86Q394 37
341 13T238 -11ZM237 611L195 670L394 825L456 741L237 611Z" />
<glyph unicode="&#xfb;" horiz-adv-x="627" d="M238 -11Q171 -11 127 31T82 161V462L94 444L12 467V529L202 536V181Q202 130 225 106T288 81Q318 81 354 97T426 148L417 125V465L429 444L347 467V529L537 536V66L522 86L608 63V1L444 -6L427 92L444 86Q394 37
341 13T238 -11ZM165 623L125 668L265 806L334 812L484 668L443 623L260 749L342 748L165 623Z" />
<glyph unicode="&#xfc;" horiz-adv-x="627" d="M238 -11Q171 -11 127 31T82 161V462L94 444L12 467V529L202 536V181Q202 130 225 106T288 81Q318 81 354 97T426 148L417 125V465L429 444L347 467V529L537 536V66L522 86L608 63V1L444 -6L427 92L444 86Q394 37
341 13T238 -11ZM409 630Q380 630 364 648T347 697Q347 728 365 746T409 764Q439 764 455 746T472 697Q472 666 454 648T409 630ZM196 630Q168 630 152 648T135 697Q134 728 152 746T196 764Q226 764 243 746T260 697Q260 666 241 648T196 630Z" />
<glyph unicode="&#xfd;" horiz-adv-x="547" d="M10 -235L21 -149Q36 -151 48 -152T72 -153Q118 -153 146 -134T195 -76T237 25L232 -16L42 464L54 453L-6 466V528L233 536V474L156 456L163 467L297 76L269 82L392 465L398 453L323 466V528L551 536V474L486 455L503
466L334 1Q314 -55 292 -99T241 -175T173 -224T81 -241Q50 -241 10 -235ZM207 611L165 670L364 825L426 741L207 611Z" />
<glyph unicode="&#xfe;" horiz-adv-x="588" d="M7 -230V-168L93 -143L77 -164V702L94 680L7 706V768L197 776V462L171 457Q218 499 263 521T355 543Q412 543 456 513T526 423T552 278Q552 182 520 118T428 22T291 -11Q266 -11 239 -7T181 3L197 13V-164L185 -145L280
-168V-230H7ZM276 75Q353 75 390 126T427 266Q427 324 412 366T371 431T309 454Q280 454 248 439T183 391L197 414V74L182 90Q234 75 276 75Z" />
<glyph unicode="&#xff;" horiz-adv-x="547" d="M10 -235L21 -149Q36 -151 48 -152T72 -153Q118 -153 146 -134T195 -76T237 25L232 -16L42 464L54 453L-6 466V528L233 536V474L156 456L163 467L297 76L269 82L392 465L398 453L323 466V528L551 536V474L486 455L503
466L334 1Q314 -55 292 -99T241 -175T173 -224T81 -241Q50 -241 10 -235ZM379 630Q350 630 334 648T317 697Q317 728 335 746T379 764Q409 764 425 746T442 697Q442 666 424 648T379 630ZM166 630Q138 630 122 648T105 697Q104 728 122 746T166 764Q196 764 213
746T230 697Q230 666 211 648T166 630Z" />
<glyph unicode="&#x2013;" horiz-adv-x="610" d="M544 339V247H66V339H544Z" />
<glyph unicode="&#x2014;" horiz-adv-x="860" d="M794 335V244H66V335H794Z" />
<glyph unicode="&#x2018;" horiz-adv-x="217" d="M161 569Q161 536 142 520T98 504Q73 504 52 522T31 576Q31 611 55 664T140 786L181 759Q153 710 144 685T134 647Q134 634 141 624T154 601T161 569Z" />
<glyph unicode="&#x2019;" horiz-adv-x="217" d="M51 722Q51 755 70 771T114 787Q139 787 159 769T180 714Q180 680 156 627T72 505L31 532Q59 581 68 606T77 644Q77 657 71 667T58 690T51 722Z" />
<glyph unicode="&#x201a;" horiz-adv-x="217" d="M57 52Q57 85 76 101T120 117Q145 117 165 99T186 44Q186 10 162 -43T78 -165L37 -138Q65 -89 74 -64T83 -26Q83 -13 77 -3T64 20T57 52Z" />
<glyph unicode="&#x201c;" horiz-adv-x="394" d="M161 582Q161 549 142 533T98 517Q73 517 52 535T31 590Q31 624 55 677T140 799L181 772Q153 723 144 698T134 660Q134 648 141 637T154 614T161 582ZM338 582Q338 549 319 533T275 517Q250 517 229 535T208 590Q208
624 232 677T317 799L358 772Q330 723 321 698T311 660Q311 648 318 637T331 614T338 582Z" />
<glyph unicode="&#x201d;" horiz-adv-x="394" d="M234 722Q234 755 253 771T297 787Q322 787 342 769T363 714Q363 680 339 627T255 505L214 532Q242 581 251 606T260 644Q260 657 254 667T241 690T234 722ZM57 722Q57 755 76 771T120 787Q145 787 165 769T186
714Q186 680 162 627T78 505L37 532Q65 581 74 606T83 644Q83 657 77 667T64 690T57 722Z" />
<glyph unicode="&#x201e;" horiz-adv-x="394" d="M234 52Q234 85 253 101T297 117Q322 117 342 99T363 44Q363 10 339 -43T255 -165L214 -138Q242 -89 251 -64T260 -26Q260 -13 254 -3T241 20T234 52ZM57 52Q57 85 76 101T120 117Q145 117 165 99T186 44Q186 10
162 -43T78 -165L37 -138Q65 -89 74 -64T83 -26Q83 -13 77 -3T64 20T57 52Z" />
<glyph unicode="&#x2022;" horiz-adv-x="409" d="M59 309Q59 353 79 385T133 435T205 453Q250 453 282 435T332 384T350 309Q350 266 330 234T277 183T205 165Q138 165 99 204T59 309Z" />
<glyph unicode="&#x2039;" horiz-adv-x="314" d="M209 52L49 239V300L210 487L267 444L133 247V294L266 98L209 52Z" />
<glyph unicode="&#x203a;" horiz-adv-x="314" d="M105 487L265 300V239L104 52L47 95L182 293V245L48 442L105 487Z" />
</font>
</defs>
</svg>
