<?xml version="1.0" standalone="no"?>
<!DOCTYPE svg PUBLIC "-//W3C//DTD SVG 1.1//EN" "http://www.w3.org/Graphics/SVG/1.1/DTD/svg11.dtd">
<svg xmlns="http://www.w3.org/2000/svg">
<defs >
<font id="Cabin" horiz-adv-x="989" ><font-face
    font-family="Cabin Medium"
    units-per-em="2000"
    panose-1="0 0 0 0 0 0 0 0 0 0"
    ascent="1930"
    descent="-500"
    alphabetic="0" />
<glyph unicode=" " horiz-adv-x="417" />
<glyph unicode="!" horiz-adv-x="396" d="M76 374L85 428L225 1400H473L268 428L259 374H76ZM-17 0L26 237H260L218 0H-17Z" />
<glyph unicode="&quot;" horiz-adv-x="620" d="M95 988L131 1400H352L240 988H95ZM412 988L448 1400H669L557 988H412Z" />
<glyph unicode="#" horiz-adv-x="1326" d="M21 -22L776 1400H942L188 -22H21ZM409 -22L1164 1400H1330L576 -22H409ZM247 837L337 1018H1335L1244 837H247ZM40 430L152 618H1152L1036 430H40Z" />
<glyph unicode="$" horiz-adv-x="1113" d="M515 68L473 -288H300L382 68H515ZM649 1346L689 1688H862L782 1346H649ZM397 -28Q257 -28 150 1T-20 67L51 319Q110 267 205 221T427 175Q510 175 577 197T684 265T723 386Q723 454 691 497T598 571T456 633Q391 658
331 685T224 751T150 845T122 979Q122 1058 154 1137T253 1282T420 1388T656 1428Q792 1428 896 1395T1061 1327L1000 1099Q909 1161 826 1193T639 1225Q572 1225 507 1205T399 1140T356 1023Q356 943 419 903T587 824Q655 798 723 770T847 699T937 593T971 433Q971
353 943 272T848 122T672 13T397 -28Z" />
<glyph unicode="%" horiz-adv-x="1738" d="M587 628Q450 628 382 713T313 933Q314 1061 365 1174T510 1357T727 1428Q858 1428 931 1348T1005 1134Q1005 1036 975 946T890 784T759 670T587 628ZM614 785Q684 785 730 837T800 967T823 1117Q823 1195 791 1233T701
1271Q629 1271 584 1219T516 1089T494 940Q494 865 524 825T614 785ZM230 0L1292 1400H1473L413 0H230ZM1221 -28Q1084 -28 1016 57T947 277Q948 405 999 518T1144 701T1361 772Q1492 772 1565 692T1639 478Q1639 380 1609 290T1524 128T1393 14T1221 -28ZM1248
129Q1318 129 1364 181T1434 311T1457 461Q1457 539 1425 577T1335 615Q1263 615 1218 563T1150 433T1128 284Q1128 209 1158 169T1248 129Z" />
<glyph unicode="&amp;" horiz-adv-x="1158" d="M810 0L745 103L690 190L374 663L341 708Q297 790 271 871T244 1026Q244 1114 281 1184T380 1303T519 1379T676 1406Q801 1406 861 1345T922 1183Q922 1104 889 1036T802 911T682 805T555 717L484 821Q554 879 610
925T700 1021T733 1136Q733 1193 707 1218T633 1243Q561 1243 504 1189T447 1031Q447 987 461 933T509 816L559 739L801 350L892 230L1045 0H810ZM890 202L787 353Q804 382 819 427T847 524T870 622T887 703H1086Q1075 643 1052 558T990 379T890 202ZM397 -47Q263
-47 181 -5T60 108T21 270Q21 369 63 451T177 604T343 744L418 625Q344 565 292 481T240 301Q240 250 259 207T323 138T443 112Q523 112 581 142T687 221L772 93Q688 20 598 -13T397 -47Z" />
<glyph unicode="&apos;" horiz-adv-x="303" d="M95 988L131 1400H352L240 988H95Z" />
<glyph unicode="(" horiz-adv-x="578" d="M246 -272Q184 -145 145 -3T107 319Q107 652 222 948T545 1500H739Q604 1323 509 1126T364 719T313 297Q313 125 346 -15T427 -272H246Z" />
<glyph unicode=")" horiz-adv-x="578" d="M332 1500Q394 1373 433 1231T471 909Q471 576 356 280T33 -272H-161Q-26 -95 69 102T214 509T265 931Q265 1103 232 1243T151 1500H332Z" />
<glyph unicode="*" horiz-adv-x="829" d="M392 1116L145 1278L229 1383L563 1120L571 1123L823 958L740 852L400 1116H392ZM477 730H348L433 1112L486 1504H615L532 1119L477 730ZM402 1121L827 1386L876 1275L571 1112L564 1116L137 853L87 964L395 1127L402 1121Z" />
<glyph unicode="+" horiz-adv-x="853" d="M229 208L353 909H531L408 208H229ZM17 475L46 642H744L714 475H17Z" />
<glyph unicode="," horiz-adv-x="385" d="M57 -225H-58L60 0H-23L19 237H254L215 22L57 -225Z" />
<glyph unicode="-" horiz-adv-x="803" d="M93 533L125 711H698L667 533H93Z" />
<glyph unicode="." horiz-adv-x="384" d="M-23 0L18 237H252L211 0H-23Z" />
<glyph unicode="/" horiz-adv-x="748" d="M-92 -170L712 1400H936L132 -170H-92Z" />
<glyph unicode="0" horiz-adv-x="1364" d="M533 -28Q385 -28 282 39T125 230T71 519Q71 693 122 856T268 1148T495 1352T789 1428Q934 1428 1038 1363T1197 1178T1252 897Q1252 724 1201 559T1054 262T827 51T533 -28ZM567 169Q681 169 767 233T911 402T998 634T1028
886Q1028 1061 954 1147T755 1233Q639 1233 553 1170T410 1004T325 775T296 525Q296 348 367 259T567 169Z" />
<glyph unicode="1" horiz-adv-x="672" d="M133 0L343 1185L399 1140Q336 1093 287 1063T196 1016T113 988L119 1182Q171 1196 232 1230T348 1308T437 1400H595L347 0H133Z" />
<glyph unicode="2" horiz-adv-x="1003" d="M-60 1L405 575Q495 687 555 769T647 919T678 1057Q678 1134 637 1178T517 1223Q417 1223 328 1173T150 1048L162 1273Q249 1341 354 1384T578 1428Q742 1428 822 1339T903 1111Q903 999 860 899T739 694T560 469L279
127L244 202H809L773 1H-60Z" />
<glyph unicode="3" horiz-adv-x="1035" d="M358 -28Q237 -28 133 6T-60 94L27 287Q106 232 189 198T367 164Q482 164 556 227T631 408Q632 511 569 567T375 624H277L313 825H408Q539 825 620 889T702 1067Q702 1149 654 1192T517 1236Q438 1236 359 1205T202 1126L204
1333Q283 1377 377 1402T577 1428Q744 1428 837 1340T931 1110Q931 1012 886 931T761 793T576 714L583 760Q712 731 785 644T859 416Q859 286 794 186T614 29T358 -28Z" />
<glyph unicode="4" horiz-adv-x="1146" d="M580 0L781 1139L823 1076L287 459L251 526H1040L1007 344H-45L881 1400H1035L787 0H580Z" />
<glyph unicode="5" horiz-adv-x="1019" d="M339 -27Q223 -27 128 2T-50 88L51 271Q120 226 190 198T350 169Q440 169 507 205T613 305T651 456Q651 571 581 635T379 699Q313 699 249 693T119 674L331 1400H972L923 1191H367L493 1285L339 774L281 861Q324 872
370 877T466 882Q659 882 766 774T873 484Q873 331 802 216T610 37T339 -27Z" />
<glyph unicode="6" horiz-adv-x="1121" d="M463 -28Q338 -28 245 22T100 166T48 385Q48 547 115 703T298 997T558 1246T856 1428L980 1278Q898 1242 808 1190T630 1070T467 924T340 752T268 558L234 640Q298 731 399 786T634 841Q797 841 894 740T992 478Q992
336 923 222T735 40T463 -28ZM480 156Q565 156 632 197T737 307T775 455Q775 543 721 599T574 656Q486 656 417 615T309 505T270 356Q271 266 329 211T480 156Z" />
<glyph unicode="7" horiz-adv-x="998" d="M38 0L778 1286L824 1195H163L199 1400H1078L267 0H38Z" />
<glyph unicode="8" horiz-adv-x="1175" d="M579 683Q479 683 399 721T273 827T226 987Q226 1111 288 1211T459 1369T701 1428Q823 1428 899 1386T1010 1273T1046 1119Q1046 990 984 892T815 739T579 683ZM605 852Q710 852 774 920T839 1085Q839 1158 799 1201T674
1244Q568 1244 500 1178T432 1014Q433 944 477 898T605 852ZM463 -28Q337 -28 243 16T98 139T46 325Q46 434 89 525T209 685T386 791T601 829Q788 829 896 734T1005 479Q1005 331 932 217T735 37T463 -28ZM483 164Q574 164 643 202T752 305T791 455Q790 548 733
604T571 661Q481 661 411 620T302 510T262 355Q263 267 320 216T483 164Z" />
<glyph unicode="9" horiz-adv-x="1139" d="M641 1428Q766 1428 859 1378T1004 1234T1056 1015Q1056 853 989 697T806 403T546 154T248 -28L124 122Q206 158 296 210T474 330T637 476T764 648T836 842L870 760Q806 669 705 614T470 559Q307 559 210 660T112 922Q112
1064 181 1178T369 1360T641 1428ZM624 1244Q539 1244 472 1203T367 1093T329 945Q329 857 383 801T530 744Q618 744 687 785T795 895T834 1044Q833 1134 775 1189T624 1244Z" />
<glyph unicode=":" horiz-adv-x="384" d="M105 751L146 988H380L339 751H105ZM-23 0L18 237H252L211 0H-23Z" />
<glyph unicode=";" horiz-adv-x="385" d="M57 -225H-58L60 0H-23L19 237H254L215 22L57 -225ZM106 751L147 988H381L340 751H106Z" />
<glyph unicode="&lt;" horiz-adv-x="849" d="M22 465L55 652L808 975L774 783L123 517L125 596L694 326L662 143L22 465Z" />
<glyph unicode="=" horiz-adv-x="872" d="M44 631L74 796H791L761 631H44ZM-12 312L18 477H735L705 312H-12Z" />
<glyph unicode="&gt;" horiz-adv-x="803" d="M726 653L693 466L-60 143L-26 335L625 601L623 522L54 792L86 975L726 653Z" />
<glyph unicode="?" horiz-adv-x="914" d="M211 374L217 411Q231 495 266 557T348 669T445 766Q499 817 545 864T619 963T647 1078Q647 1152 596 1188T473 1225Q395 1225 326 1204T189 1149L200 1342Q276 1380 362 1404T561 1428Q724 1428 808 1347T894 1141Q894
1051 860 979T769 845T647 722Q597 675 554 631T480 536T438 423L430 374H211ZM137 0L179 237H414L371 0H137Z" />
<glyph unicode="@" horiz-adv-x="1359" d="M427 -174Q247 -174 147 -67T47 231Q47 412 119 570T312 849T584 1038T891 1106Q1077 1106 1176 997T1276 703Q1276 621 1255 532T1191 364T1083 237T928 188Q900 188 882 200T863 256Q863 315 889 384T959 543T1051
758Q1024 797 973 830T845 864Q751 864 650 809T462 664T323 466T269 250Q269 182 299 131T404 80Q457 80 524 106T658 185T778 312Q777 305 773 295T766 271T759 241T756 205Q756 163 774 124T840 84Q873 84 921 102T1018 150T1102 212Q1024 98 916 11T682 -125T427
-174ZM488 212Q455 212 440 238T425 305Q425 393 467 471T576 611T713 707T840 742Q856 742 883 736T916 698Q888 618 836 533T721 375T597 257T488 212Z" />
<glyph unicode="A" horiz-adv-x="1169" d="M-79 0L630 1400H842L1057 0H829L775 377L743 549L665 1173L720 1164L429 551L334 375L149 0H-79ZM246 361L355 565H812L849 361H246Z" />
<glyph unicode="B" horiz-adv-x="1173" d="M54 0L300 1400H659Q751 1400 827 1385T958 1335T1043 1241T1073 1093Q1073 956 1003 860T818 721L804 768Q937 744 1006 666T1075 463Q1075 349 1034 262T917 117T741 30T522 0H54ZM345 826H614Q718 826 784 886T850
1051Q850 1107 830 1142T771 1193T676 1210H485L306 192H519Q608 192 680 220T796 305T840 449Q840 543 786 592T624 642H312L345 826Z" />
<glyph unicode="C" horiz-adv-x="1154" d="M623 -28Q459 -28 339 43T154 248T89 571Q89 756 150 912T321 1184T572 1364T876 1428Q974 1428 1068 1405T1226 1346L1165 1141Q1100 1169 1022 1197T846 1225Q722 1225 626 1173T464 1030T364 826T329 586Q329 465
364 373T473 228T666 175Q754 175 840 201T1009 258L997 53Q920 18 819 -5T623 -28Z" />
<glyph unicode="D" horiz-adv-x="1369" d="M54 0L300 1400H784Q945 1400 1065 1334T1251 1139T1317 819Q1317 637 1256 487T1088 228T840 60T538 0H54ZM291 107L211 203H574Q695 203 788 251T946 382T1043 574T1076 804Q1076 991 995 1094T748 1197H385L500 1293L291
107Z" />
<glyph unicode="E" horiz-adv-x="1063" d="M295 108L214 204H926L890 0H54L300 1400H1119L1083 1196H389L504 1292L295 108ZM347 833H888L852 629H311L347 833Z" />
<glyph unicode="F" horiz-adv-x="996" d="M272 0H54L300 1400H1097L1061 1196H385L501 1292L272 0ZM347 833H865L829 629H311L347 833Z" />
<glyph unicode="G" horiz-adv-x="1263" d="M643 -28Q483 -28 358 44T161 250T90 573Q90 757 151 913T320 1184T571 1364T876 1428Q942 1428 1012 1418T1146 1389T1254 1347L1196 1148Q1124 1179 1031 1202T851 1225Q721 1225 624 1171T461 1026T363 823T330 592Q330
403 416 289T683 175Q736 175 807 188T947 232L861 110L949 609L1030 513H770L803 702H1183L1073 78Q994 35 887 4T643 -28Z" />
<glyph unicode="H" horiz-adv-x="1401" d="M54 0L300 1400H518L272 0H54ZM921 0L1168 1400H1386L1139 0H921ZM290 627L326 836H1173L1136 627H290Z" />
<glyph unicode="I" horiz-adv-x="534" d="M54 0L300 1400H518L272 0H54Z" />
<glyph unicode="J" horiz-adv-x="535" d="M-147 -344L-139 -198H-103Q-59 -198 -29 -180T21 -119T54 0L301 1400H519L262 -57Q237 -199 145 -271T-90 -344H-147Z" />
<glyph unicode="K" horiz-adv-x="1144" d="M782 0L420 741L991 1400H1254L589 669L612 829L1026 0H782ZM54 0L300 1400H518L272 0H54Z" />
<glyph unicode="L" horiz-adv-x="954" d="M54 0L300 1400H518L291 108L211 204H861L824 0H54Z" />
<glyph unicode="M" horiz-adv-x="1552" d="M-10 0L415 1400H608L827 635L747 647L1229 1400H1421L1353 0H1125L1194 1086L1243 1069L728 316L474 1082L533 1083L218 0H-10Z" />
<glyph unicode="N" horiz-adv-x="1336" d="M54 0L300 1400H522L965 322L910 317L1101 1400H1320L1072 0H892L419 1134L474 1140L272 0H54Z" />
<glyph unicode="O" horiz-adv-x="1447" d="M621 -28Q458 -28 338 43T154 247T89 568Q89 753 150 910T319 1183T567 1363T865 1428Q1028 1428 1147 1357T1332 1153T1397 832Q1397 647 1336 490T1167 217T919 37T621 -28ZM657 175Q773 175 865 228T1023 371T1122
577T1157 816Q1157 936 1123 1028T1016 1173T828 1225Q712 1225 620 1172T463 1029T364 824T329 584Q329 465 363 373T470 228T657 175Z" />
<glyph unicode="P" horiz-adv-x="1118" d="M314 677H621Q713 677 778 716T878 827T913 995Q913 1097 867 1154T710 1211H392L507 1308L275 0H54L300 1400H724Q863 1400 956 1357T1095 1229T1141 1018Q1141 876 1099 774T982 606T811 509T606 477H279L314 677Z" />
<glyph unicode="Q" horiz-adv-x="1446" d="M621 -28Q458 -28 338 43T154 247T89 568Q89 753 150 910T319 1183T567 1363T865 1428Q1028 1428 1147 1357T1332 1153T1397 832Q1397 658 1335 503T1165 228T916 40T621 -28ZM657 175Q773 175 866 230T1026 377T1127
584T1162 816Q1162 936 1127 1028T1017 1173T828 1225Q712 1225 620 1172T463 1029T364 824T329 584Q329 465 363 373T470 228T657 175ZM1126 -5L737 398L887 544L1274 138L1126 -5Z" />
<glyph unicode="R" horiz-adv-x="1171" d="M54 0L300 1400H717Q930 1400 1037 1312T1144 1050Q1144 941 1109 858T1015 713T882 612T731 554T582 535H260L290 740H622Q717 740 781 780T878 886T911 1030Q911 1111 868 1164T716 1217H383L508 1314L275 0H54ZM800
0L598 601L818 651L1029 0H800Z" />
<glyph unicode="S" horiz-adv-x="1100" d="M428 -28Q288 -28 181 1T11 67L82 319Q141 267 236 221T458 175Q541 175 608 197T715 265T754 386Q754 454 722 497T629 571T487 633Q422 658 362 685T255 751T181 845T153 979Q153 1058 186 1137T284 1282T451 1388T687
1428Q823 1428 928 1395T1093 1327L1031 1099Q941 1161 858 1193T671 1225Q603 1225 538 1205T430 1140T387 1023Q387 943 450 903T618 824Q687 798 754 770T878 699T968 593T1002 433Q1002 353 974 272T879 122T703 13T428 -28Z" />
<glyph unicode="T" horiz-adv-x="1081" d="M327 0L544 1238H762L545 0H327ZM167 1196L203 1400H1161L1125 1196H167Z" />
<glyph unicode="U" horiz-adv-x="1359" d="M572 -28Q346 -28 237 89T128 415Q128 444 132 495T145 597L287 1400H505L379 686Q369 633 363 577T356 472Q357 386 379 319T456 214T607 175Q712 175 783 220T901 339T973 504T1016 686L1142 1400H1360L1218 597Q1185
407 1103 267T888 49T572 -28Z" />
<glyph unicode="V" horiz-adv-x="1226" d="M374 0L146 1400H374L566 162L507 171L1120 1400H1347L630 0H374Z" />
<glyph unicode="W" horiz-adv-x="1816" d="M298 0L181 1400H409L484 210L437 219L961 1384H1148L1264 223L1215 230L1706 1400H1933L1307 0H1103L985 1155L1037 1146L512 0H298Z" />
<glyph unicode="X" horiz-adv-x="1170" d="M-86 0L508 755L601 587L159 0H-86ZM720 726L1053 0H808L565 564L485 702L175 1400H427L646 851L720 726ZM702 680L616 834L1037 1400H1282L702 680Z" />
<glyph unicode="Y" horiz-adv-x="1140" d="M350 0L478 731L498 544L152 1400H382L646 736L552 749L1031 1400H1261L623 557L700 731L570 0H350Z" />
<glyph unicode="Z" horiz-adv-x="1031" d="M-80 0L813 1276L855 1196H214L250 1400H1153L258 124L217 204H858L822 0H-80Z" />
<glyph unicode="[" horiz-adv-x="629" d="M-11 -271L301 1500H776L746 1329H364L479 1426L193 -196L112 -100H494L464 -271H-11Z" />
<glyph unicode="\" horiz-adv-x="652" d="M353 -170L128 1400H339L564 -170H353Z" />
<glyph unicode="]" horiz-adv-x="640" d="M-136 -271L-106 -100H163L415 1329H146L176 1500H638L326 -271H-136Z" />
<glyph unicode="^" horiz-adv-x="882" d="M42 911L83 1139L507 1518L844 1089L804 861L469 1256L42 911Z" />
<glyph unicode="_" horiz-adv-x="1032" d="M-140 -251L-108 -72H928L897 -251H-140Z" />
<glyph unicode="`" horiz-adv-x="763" d="M559 1147L220 1291L257 1501L583 1284L559 1147Z" />
<glyph unicode="a" horiz-adv-x="1117" d="M384 -20Q278 -20 201 31T81 172T39 382Q39 500 77 611T187 812T356 954T575 1007Q633 1007 683 991T774 937T841 833L770 807L838 988H1022L905 299Q897 252 897 222Q897 176 918 163T993 149L940 -20Q871 -20 825 -14T748
13T698 79T664 199L725 158Q686 108 636 68T524 4T384 -20ZM454 159Q522 159 576 191T670 280T729 410T750 567Q750 698 699 763T556 828Q469 828 402 772T296 622T257 418Q257 307 303 233T454 159Z" />
<glyph unicode="b" horiz-adv-x="1074" d="M517 -20Q403 -20 326 33T209 181L265 217L206 0H17L281 1500H492L368 796L336 830Q379 897 433 935T544 990T655 1007Q770 1007 847 951T962 799T1001 589Q1001 455 965 344T864 151T709 25T517 -20ZM496 159Q581 159
646 213T747 361T784 568Q784 682 739 755T595 828Q509 828 441 774T333 626T293 412Q293 283 346 221T496 159Z" />
<glyph unicode="c" horiz-adv-x="852" d="M425 -20Q287 -20 203 36T81 188T42 400Q42 517 78 626T185 821T363 957T607 1007Q690 1007 755 989T860 942L806 759Q761 791 711 809T606 828Q494 828 416 774T298 628T258 426Q258 302 314 230T491 158Q595 158 714
227L703 48Q654 20 585 0T425 -20Z" />
<glyph unicode="d" horiz-adv-x="1075" d="M379 -20Q273 -20 197 34T80 181T39 390Q39 506 75 616T178 815T338 955T545 1007Q624 1007 680 980T775 902T839 785L780 792L904 1500H1114L850 0H655L680 213L716 173Q647 81 561 31T379 -20ZM450 159Q514 159 568
189T664 275T727 405T750 567Q750 694 700 761T557 828Q470 828 402 771T296 620T257 413Q257 304 302 232T450 159Z" />
<glyph unicode="e" horiz-adv-x="941" d="M247 575Q286 562 320 556T401 550Q522 550 589 576T682 643T709 722Q709 764 688 787T634 819T572 828Q499 828 440 789T337 683T270 529L262 471Q256 350 288 282T378 187T505 159Q577 159 653 177T794 227L777 56Q719
23 638 2T457 -20Q314 -20 222 37T84 190T39 407Q39 522 78 629T189 822T362 957T586 1007Q736 1007 814 933T893 740Q893 670 864 610T776 505T630 436T427 411Q370 411 317 417T232 434L247 575Z" />
<glyph unicode="f" horiz-adv-x="633" d="M286 1232Q299 1305 330 1365T424 1463T590 1500Q639 1500 682 1493T751 1480L698 1305Q669 1314 648 1317T608 1320Q561 1320 537 1300T501 1236T475 1115L279 0H69L286 1232ZM75 821L124 988H670L640 821H75Z" />
<glyph unicode="g" horiz-adv-x="942" d="M391 227Q240 227 156 311T72 551Q72 668 127 772T282 941T520 1007Q666 1007 751 921T837 682Q837 597 806 516T716 370T575 266T391 227ZM416 384Q487 384 538 424T617 529T645 668Q645 755 606 801T492 847Q420 847
369 808T291 705T264 566Q264 479 303 432T416 384ZM301 -500Q158 -500 73 -461T-49 -363T-87 -243Q-87 -196 -65 -146T5 -51T131 27L275 -29Q230 -41 190 -67T123 -130T96 -209Q96 -268 154 -306T320 -345Q404 -345 468 -323T568 -264T605 -186Q605 -137 565 -112T461
-73T326 -48T190 -18T86 36T46 133Q46 175 80 222T190 302L299 250Q277 239 262 224T247 187Q247 153 304 137T478 99Q524 90 580 76T687 34T770 -38T803 -154Q803 -244 743 -323T570 -451T301 -500ZM787 842L718 934Q753 956 812 973T942 991H987L947 856H876Q866
856 839 853T787 842Z" />
<glyph unicode="h" horiz-adv-x="1039" d="M17 0L281 1500H493L227 0H17ZM616 0L700 491Q709 545 715 589T721 671Q721 744 683 786T575 828Q503 828 448 795T342 705L371 877Q440 948 509 977T661 1007Q753 1007 813 967T904 859T934 705Q934 672 930 624T913
509L826 0H616Z" />
<glyph unicode="i" horiz-adv-x="452" d="M17 0L191 988H401L227 0H17ZM226 1180L263 1400H474L436 1180H226Z" />
<glyph unicode="j" horiz-adv-x="453" d="M-166 -484L-156 -318Q-100 -313 -73 -297T-32 -243T-6 -135L192 988H402L189 -217Q168 -332 100 -400T-90 -478L-166 -484ZM226 1180L265 1400H475L436 1180H226Z" />
<glyph unicode="k" horiz-adv-x="900" d="M17 0L281 1500H492L227 0H17ZM537 0L289 520L708 988H950L453 452L476 612L778 0H537Z" />
<glyph unicode="l" horiz-adv-x="493" d="M246 -20Q139 -20 94 33T48 163Q48 185 53 223T71 330L277 1500H487L279 311Q273 273 271 254T268 222Q268 174 293 162T372 149L320 -20H246Z" />
<glyph unicode="m" horiz-adv-x="1632" d="M17 0L191 988H361V752L227 0H17ZM614 0Q644 171 663 285T695 470T713 579T721 636T723 668Q723 763 679 795T569 828Q498 828 443 798T344 705L348 883Q413 948 482 977T628 1007Q690 1007 749 985T852 905T907 740L945
694L823 0H614ZM1208 0Q1240 181 1260 298T1292 485T1309 590T1316 641T1318 666Q1318 755 1281 791T1171 828Q1086 828 1036 790T960 697T926 589L864 774Q880 832 929 885T1056 973T1234 1007Q1383 1007 1457 928T1531 704Q1531 690 1530 671T1522 612T1504 499T1471
304T1418 0H1208Z" />
<glyph unicode="n" horiz-adv-x="1048" d="M17 0L191 988H372L371 809L227 0H17ZM624 0Q655 175 674 290T705 474T722 579T728 630T730 654Q730 744 693 786T573 828Q503 828 445 797T344 704L359 891Q430 955 499 981T647 1007Q803 1007 873 920T944 683Q944
670 943 652T936 595T919 484T887 295T834 0H624Z" />
<glyph unicode="o" horiz-adv-x="1058" d="M427 -20Q296 -20 210 36T82 187T39 401Q39 521 80 629T195 823T372 957T596 1007Q727 1007 813 951T942 798T985 585Q985 466 944 358T829 164T652 29T427 -20ZM457 159Q551 159 621 214T730 363T769 569Q769 695 718
761T567 828Q473 828 403 773T293 624T254 418Q254 294 304 227T457 159Z" />
<glyph unicode="p" horiz-adv-x="1076" d="M-69 -484L191 988H369L365 773L317 819Q393 905 472 956T660 1007Q772 1007 848 953T962 804T1001 589Q1001 464 966 354T866 160T709 28T506 -20Q398 -20 325 32T218 180L264 215L141 -484H-69ZM492 159Q578 159 644
215T747 365T784 572Q784 685 740 756T600 828Q516 828 446 776T335 629T293 410Q293 280 346 220T492 159Z" />
<glyph unicode="q" horiz-adv-x="1076" d="M555 -484L676 199L708 158Q642 71 557 26T386 -20Q269 -20 192 34T77 181T39 390Q39 508 76 618T182 817T347 956T559 1007Q675 1007 736 952T846 793L776 768L858 988H1025L766 -484H555ZM453 159Q537 159 604 210T710
355T749 571Q749 702 700 765T560 828Q470 828 402 772T296 622T257 418Q257 305 304 232T453 159Z" />
<glyph unicode="r" horiz-adv-x="642" d="M17 0L191 988H382L355 704L230 0H17ZM343 673L355 834Q397 888 447 929T552 993T663 1016H709L630 803H552Q511 803 470 785T394 736T343 673Z" />
<glyph unicode="s" horiz-adv-x="801" d="M289 -20Q178 -20 101 7T-23 61L31 251Q73 220 144 186T306 151Q393 151 433 188T474 280Q474 345 431 373T326 421Q265 442 212 468T126 542T94 669Q94 753 136 830T266 957T493 1007Q586 1007 652 986T760 939L709 759Q670
796 611 823T474 850Q398 850 348 818T297 718Q297 656 345 630T482 572Q536 552 584 523T661 445T691 316Q691 262 671 203T606 94T482 12T289 -20Z" />
<glyph unicode="t" horiz-adv-x="636" d="M309 -20Q197 -20 150 38T103 174Q103 180 105 196T115 263T143 425T196 728T284 1221L497 1243L322 222Q322 171 352 160T459 149H517L468 -20H309ZM73 821L121 988H667L636 821H73Z" />
<glyph unicode="u" horiz-adv-x="1028" d="M362 -20Q218 -20 144 62T69 291Q69 316 72 348T84 425L180 988H390L298 449Q291 410 288 383T285 338Q285 160 438 160Q500 160 554 188T650 275L628 105Q575 50 512 15T362 -20ZM609 0L626 187L767 988H977L804 0H609Z" />
<glyph unicode="v" horiz-adv-x="914" d="M250 0L72 988H285L403 147L346 157L756 988H969L443 0H250Z" />
<glyph unicode="w" horiz-adv-x="1359" d="M194 0L97 988H312L349 144L306 152L652 963H837L897 144L853 151L1186 988H1401L956 0H765L688 791L739 782L384 0H194Z" />
<glyph unicode="x" horiz-adv-x="914" d="M539 0L400 361L321 480L101 988H348L473 618L546 501L785 0H539ZM-76 0L337 524L427 377L170 0H-76ZM532 461L449 606L706 988H956L532 461Z" />
<glyph unicode="y" horiz-adv-x="972" d="M-18 -484L333 139L307 -43L66 988H299L447 200L383 210L797 988H1030L199 -484H-18Z" />
<glyph unicode="z" horiz-adv-x="886" d="M-57 0L593 894L633 815H105L135 988H911L262 94L222 174H751L719 0H-57Z" />
<glyph unicode="{" horiz-adv-x="614" d="M387 -272Q229 -272 159 -206T89 -30Q89 17 102 74T131 191T160 310T173 418Q173 483 142 514T37 546L60 682Q155 682 199 736T261 895Q275 980 278 1055T291 1190Q314 1327 413 1413T699 1500H773L744 1328H690Q647 1328
609 1320T540 1289T488 1229T457 1132Q450 1091 447 1041T439 937T426 836Q409 727 343 675T176 598L182 630Q257 610 301 569T346 448Q346 414 335 361T307 248T280 133T268 42Q268 -11 288 -42T346 -87T437 -100H491L461 -272H387Z" />
<glyph unicode="|" horiz-adv-x="448" d="M-54 -419L286 1500H497L157 -419H-54Z" />
<glyph unicode="}" horiz-adv-x="614" d="M227 1500Q385 1500 455 1434T525 1258Q525 1211 512 1154T483 1037T454 918T441 810Q441 745 472 714T577 682L554 546Q459 546 415 492T353 333Q339 248 336 173T323 38Q300 -99 201 -185T-85 -272H-159L-130 -100H-76Q-33
-100 5 -92T74 -61T126 -1T157 96Q164 137 167 187T175 291T188 392Q205 501 271 553T438 630L432 598Q357 618 313 659T268 780Q268 814 279 867T307 980T334 1095T346 1186Q346 1239 326 1270T268 1315T177 1328H123L153 1500H227Z" />
<glyph unicode="~" horiz-adv-x="874" d="M599 584Q540 584 495 607T409 655T320 679Q283 679 257 657T223 594H67Q93 719 158 785T320 851Q382 851 428 828T515 780T599 756Q673 756 687 846H844Q797 584 599 584Z" />
<glyph unicode="&#xa0;" horiz-adv-x="417" />
<glyph unicode="&#xa1;" horiz-adv-x="386" d="M294 626L285 572L145 -400H-103L102 572L111 626H294ZM387 1000L344 763H110L152 1000H387Z" />
<glyph unicode="&#xa2;" horiz-adv-x="902" d="M494 68L452 -288H279L361 68H494ZM513 926L553 1268H726L646 926H513ZM426 -20Q288 -20 204 36T82 188T43 400Q43 517 79 626T186 821T364 957T608 1007Q691 1007 756 989T862 942L807 759Q762 791 712 809T608
828Q495 828 418 774T300 628T259 426Q259 302 315 230T492 158Q596 158 715 227L704 48Q656 20 586 0T426 -20Z" />
<glyph unicode="&#xa3;" horiz-adv-x="1066" d="M193 98L157 205H849L812 0H-52Q4 96 44 177T115 331T170 479T219 636L329 1023Q365 1149 426 1239T580 1379T804 1428Q873 1428 930 1414T1042 1372L982 1144Q935 1180 888 1202T782 1225Q714 1225 666 1195T588
1114T538 997L441 652Q412 548 382 461T309 287T193 98ZM64 629L93 788H827L798 629H64Z" />
<glyph unicode="&#xa4;" horiz-adv-x="1273" d="M524 184Q392 184 298 237T154 382T104 595Q104 721 151 832T282 1027T474 1160T706 1208Q836 1208 930 1156T1075 1010T1126 797Q1126 670 1079 559T948 364T757 232T524 184ZM559 373Q664 373 743 424T868 564T913
770Q913 880 853 949T672 1019Q565 1019 485 964T361 819T317 620Q318 513 377 443T559 373ZM16 98L-55 182L247 438L317 353L16 98ZM1014 94L795 363L884 436L1104 168L1014 94ZM341 963L127 1224L216 1298L431 1036L341 963ZM986 957L915 1041L1215 1294L1285
1210L986 957Z" />
<glyph unicode="&#xa5;" horiz-adv-x="1142" d="M84 554L111 714H886L858 554H84ZM34 274L61 434H836L808 274H34ZM262 0L390 731L410 544L63 1400H294L558 736L464 749L943 1400H1173L535 557L612 731L482 0H262Z" />
<glyph unicode="&#xa6;" horiz-adv-x="443" d="M142 684L286 1500H492L348 684H142ZM-54 -420L90 396H296L152 -420H-54Z" />
<glyph unicode="&#xa7;" horiz-adv-x="912" d="M474 901Q370 874 305 821T239 685Q239 626 270 587T350 520T454 463T558 397T638 304T669 164Q669 64 616 -11T474 -127T277 -169Q193 -169 123 -145T0 -85L51 77Q106 36 174 10T311 -17Q404 -17 459 24T515 131Q515
190 483 229T401 298T293 356T186 421T103 510T70 640Q70 754 154 838T377 971L474 901ZM674 648Q674 714 644 757T565 830T463 888T361 951T283 1037T252 1167Q252 1264 303 1339T443 1457T645 1500Q737 1500 804 1476T923 1419L873 1258Q821 1295 756 1322T616
1349Q533 1349 475 1309T417 1198Q417 1148 448 1113T528 1049T632 988T736 917T816 819T847 679Q847 601 808 543T699 440T534 355L452 433Q513 446 563 479T644 556T674 648Z" />
<glyph unicode="&#xa8;" horiz-adv-x="807" d="M152 1182L185 1350H362L328 1182H152ZM534 1182L568 1350H744L711 1182H534Z" />
<glyph unicode="&#xa9;" horiz-adv-x="1358" d="M589 74Q445 74 339 140T175 325T116 605Q116 777 171 920T324 1167T550 1328T821 1386Q965 1386 1071 1321T1235 1136T1293 857Q1293 685 1238 542T1086 294T861 132T589 74ZM609 183Q744 183 847 237T1021 385T1128
599T1164 851Q1164 973 1125 1068T1006 1219T802 1275Q666 1275 563 1221T388 1074T281 860T244 608Q244 486 283 390T403 239T609 183ZM660 388Q547 388 480 462T413 661Q413 780 463 871T596 1014T780 1066Q828 1066 874 1055T955 1025L913 883Q875 902 837 913T754
925Q697 925 656 891T592 801T570 678Q570 613 598 570T686 527Q730 527 772 539T859 572L850 432Q809 411 758 400T660 388Z" />
<glyph unicode="&#xaa;" horiz-adv-x="622" d="M265 868Q195 868 153 906T112 1011Q112 1074 145 1116T234 1186T355 1229T486 1250L468 1135Q430 1133 391 1123T326 1091T300 1034Q300 993 351 993Q372 993 391 999T431 1020L454 1150Q457 1172 460 1192T467
1231T470 1262Q471 1286 453 1298T386 1311Q345 1311 303 1303T214 1278L228 1416Q289 1437 345 1446T456 1456Q547 1456 598 1416T650 1294Q650 1282 649 1269T645 1244L616 1081Q614 1067 612 1058T610 1038Q610 1022 618 1016T644 1010H650L613 868H554Q486
868 454 900T451 1010L470 978Q460 944 427 920T350 882T265 868Z" />
<glyph unicode="&#xab;" horiz-adv-x="1120" d="M720 156L515 568L866 980H1111L697 494L716 656L967 156H720ZM239 156L34 568L385 980H630L215 494L235 655L485 156H239Z" />
<glyph unicode="&#xac;" horiz-adv-x="1009" d="M665 302L742 741L822 645H60L89 812H932L844 302H665Z" />
<glyph unicode="&#xad;" horiz-adv-x="843" d="M113 533L145 711H718L687 533H113Z" />
<glyph unicode="&#xae;" horiz-adv-x="1358" d="M589 74Q445 74 339 140T175 325T116 605Q116 777 171 920T324 1167T550 1328T821 1386Q965 1386 1071 1321T1235 1136T1293 857Q1293 685 1238 542T1086 294T861 132T589 74ZM609 183Q744 183 847 237T1020 385T1127
599T1164 852Q1164 974 1125 1069T1006 1220T802 1275Q667 1275 564 1221T389 1074T282 861T245 609Q245 487 284 391T404 239T609 183ZM421 414L537 1068H768Q822 1068 863 1054T928 1004T952 908Q952 828 913 773T824 685L912 414H757L681 644H610L571 414H421ZM634
777H688Q745 777 771 805T797 887Q797 915 782 931T722 948H665L634 777Z" />
<glyph unicode="&#xaf;" horiz-adv-x="900" d="M160 1182L189 1332H820L790 1182H160Z" />
<glyph unicode="&#xb0;" horiz-adv-x="572" d="M283 964Q180 964 127 1026T73 1180Q73 1272 113 1347T223 1466T379 1510Q485 1510 538 1448T592 1292Q592 1200 552 1126T441 1008T283 964ZM301 1062Q355 1062 394 1093T455 1173T477 1277Q477 1334 449 1373T362
1412Q309 1412 270 1380T208 1299T186 1197Q186 1139 215 1101T301 1062Z" />
<glyph unicode="&#xb1;" horiz-adv-x="875" d="M440 360H276L399 1053H563L440 360ZM-35 109L-6 268H690L662 109H-35ZM85 786H782L753 627H57L85 786Z" />
<glyph unicode="&#xb2;" horiz-adv-x="607" d="M39 772L317 1088Q375 1153 407 1204T439 1306Q439 1342 417 1364T350 1387Q295 1387 245 1362T147 1301L162 1468Q213 1499 278 1521T413 1544Q514 1544 571 1492T628 1355Q628 1266 578 1189T454 1026L252 794L246
924H591L564 772H39Z" />
<glyph unicode="&#xb3;" horiz-adv-x="607" d="M274 752Q200 752 139 770T28 821L93 972Q133 941 175 921T273 901Q334 901 370 928T407 1006Q407 1046 380 1069T295 1093H237L263 1233H323Q379 1233 413 1260T447 1329Q447 1362 425 1382T355 1403Q307 1403 262
1387T172 1344L185 1501Q237 1525 295 1538T420 1552Q521 1552 575 1503T630 1374Q630 1294 582 1239T453 1156L457 1180Q518 1163 553 1123T588 1015Q588 938 545 879T431 786T274 752Z" />
<glyph unicode="&#xb4;" horiz-adv-x="810" d="M220 1146L248 1294L630 1506L594 1272L220 1146Z" />
<glyph unicode="&#xb5;" horiz-adv-x="1072" d="M670 119Q617 57 549 18T398 -21Q351 -21 313 -10T245 21L155 -484H-52L208 988H418L320 423Q316 400 314 376T311 332Q311 159 472 159Q534 159 584 190T678 267L670 119ZM663 239L795 988H1005L891 342Q885 308
881 280T877 228Q877 149 942 149H973L915 -20H861Q773 -20 721 15T656 122L663 239Z" />
<glyph unicode="&#xb6;" horiz-adv-x="1174" d="M788 1232L570 0H457L559 570L635 474Q457 465 344 521T178 674T124 876Q124 969 164 1061T284 1231T478 1354T744 1400H1225L1195 1232H788ZM1067 1248L846 0H707L927 1248H1067Z" />
<glyph unicode="&#xb7;" horiz-adv-x="460" d="M85 426L131 686H361L315 426H85Z" />
<glyph unicode="&#xb8;" horiz-adv-x="631" d="M370 -158L304 -128Q331 -119 355 -114T408 -108Q479 -108 519 -144T560 -245Q560 -341 487 -402T305 -463Q253 -463 216 -452T151 -425L204 -319Q232 -334 261 -343T326 -353Q378 -353 407 -329T436 -270Q436 -205
347 -205Q324 -205 301 -208T249 -220L342 0H447L370 -158Z" />
<glyph unicode="&#xb9;" horiz-adv-x="420" d="M157 772L270 1414L316 1372Q264 1320 214 1292T119 1252L131 1396Q183 1413 239 1446T329 1516H456L324 772H157Z" />
<glyph unicode="&#xba;" horiz-adv-x="664" d="M372 868Q248 868 184 939T120 1108Q120 1205 168 1284T297 1409T476 1456Q601 1456 665 1387T729 1219Q729 1114 680 1035T550 912T372 868ZM396 1002Q445 1002 479 1032T531 1110T549 1210Q549 1262 525 1292T452
1323Q402 1323 368 1293T317 1216T299 1120Q299 1066 323 1034T396 1002Z" />
<glyph unicode="&#xbb;" horiz-adv-x="1122" d="M484 156L899 642L879 481L629 980H874L1081 568L730 156H484ZM3 156L419 642L399 480L149 980H394L599 568L248 156H3Z" />
<glyph unicode="&#xbc;" horiz-adv-x="1260" d="M387 656L500 1298L546 1256Q494 1204 444 1176T349 1136L361 1280Q413 1297 469 1330T559 1400H686L554 656H387ZM-51 0L1011 1400H1192L132 0H-51ZM1072 0H923L1038 632L1083 590L780 243L728 288H1221L1198 159H549L1070
744H1204L1072 0Z" />
<glyph unicode="&#xbd;" horiz-adv-x="1360" d="M-51 0L1011 1400H1192L132 0H-51ZM671 0L949 316Q1007 381 1039 432T1071 534Q1071 570 1049 592T982 615Q927 615 877 590T779 529L794 696Q845 727 910 749T1045 772Q1146 772 1203 720T1260 583Q1260 494 1210
417T1086 254L884 22L878 152H1223L1196 0H671ZM389 656L502 1298L548 1256Q496 1204 446 1176T351 1136L363 1280Q415 1297 471 1330T561 1400H688L556 656H389Z" />
<glyph unicode="&#xbe;" horiz-adv-x="1465" d="M153 0L1215 1400H1396L336 0H153ZM266 628Q192 628 131 646T20 697L85 848Q125 817 167 797T265 777Q326 777 362 804T399 882Q399 922 372 945T287 969H229L255 1109H315Q371 1109 405 1136T439 1205Q439 1238
417 1258T347 1279Q299 1279 254 1263T164 1220L177 1377Q229 1401 287 1414T412 1428Q513 1428 567 1379T622 1250Q622 1170 574 1115T445 1032L449 1056Q510 1039 545 999T580 891Q580 814 537 755T423 662T266 628ZM1277 0H1128L1243 632L1288 590L985 243L933
288H1426L1403 159H754L1275 744H1409L1277 0Z" />
<glyph unicode="&#xbf;" horiz-adv-x="903" d="M700 626L694 589Q680 505 645 443T563 331T466 234Q412 183 366 136T292 37T264 -78Q264 -152 315 -188T438 -225Q516 -225 585 -204T722 -149L711 -342Q635 -380 549 -404T350 -428Q187 -428 103 -347T17 -141Q17
-51 51 21T142 155T264 278Q314 325 357 369T431 464T473 577L481 626H700ZM774 1000L732 763H497L540 1000H774Z" />
<glyph unicode="&#xc0;" horiz-adv-x="1169" d="M-79 0L630 1400H842L1057 0H829L775 377L743 549L665 1173L720 1164L429 551L334 375L149 0H-79ZM246 361L355 565H812L849 361H246ZM939 1559L600 1703L637 1913L963 1696L939 1559Z" />
<glyph unicode="&#xc1;" horiz-adv-x="1169" d="M-79 0L630 1400H842L1057 0H829L775 377L743 549L665 1173L720 1164L429 551L334 375L149 0H-79ZM246 361L355 565H812L849 361H246ZM588 1558L616 1706L998 1918L962 1684L588 1558Z" />
<glyph unicode="&#xc2;" horiz-adv-x="1169" d="M-79 0L630 1400H842L1057 0H829L775 377L743 549L665 1173L720 1164L429 551L334 375L149 0H-79ZM246 361L355 565H812L849 361H246ZM535 1553L567 1696L826 1890L1041 1669L1013 1532L788 1694L535 1553Z" />
<glyph unicode="&#xc3;" horiz-adv-x="1169" d="M-79 0L630 1400H842L1057 0H829L775 377L743 549L665 1173L720 1164L429 551L334 375L149 0H-79ZM246 361L355 565H812L849 361H246ZM931 1570Q887 1570 841 1592T751 1635T670 1657Q638 1657 618 1638T591 1586H442Q464
1699 517 1758T651 1817Q698 1817 741 1795T824 1752T904 1730Q936 1730 955 1749T980 1807H1133Q1109 1684 1059 1627T931 1570Z" />
<glyph unicode="&#xc4;" horiz-adv-x="1169" d="M-79 0L630 1400H842L1057 0H829L775 377L743 549L665 1173L720 1164L429 551L334 375L149 0H-79ZM246 361L355 565H812L849 361H246ZM488 1594L521 1762H698L664 1594H488ZM870 1594L904 1762H1080L1047 1594H870Z" />
<glyph unicode="&#xc5;" horiz-adv-x="1169" d="M-79 0L630 1400H842L1057 0H829L775 377L743 549L665 1173L720 1164L429 551L334 375L149 0H-79ZM246 361L355 565H812L849 361H246ZM758 1550Q673 1550 630 1596T586 1707Q586 1773 619 1827T709 1913T832 1945Q917
1945 960 1900T1004 1788Q1004 1722 971 1668T883 1582T758 1550ZM775 1644Q823 1644 858 1681T893 1768Q893 1805 871 1827T815 1850Q768 1850 733 1813T698 1725Q698 1688 720 1666T775 1644Z" />
<glyph unicode="&#xc6;" horiz-adv-x="1623" d="M-107 0L772 1400H1680L1643 1195H988L1103 1291L894 108L813 204H1486L1450 0H643L869 1286L904 1273L116 0H-107ZM250 351L387 562H775L737 351H250ZM914 629L950 833H1452L1416 629H914Z" />
<glyph unicode="&#xc7;" horiz-adv-x="1154" d="M623 -28Q459 -28 339 43T154 248T89 571Q89 756 150 912T321 1184T572 1364T876 1428Q974 1428 1068 1405T1226 1346L1165 1141Q1100 1169 1022 1197T846 1225Q722 1225 626 1173T464 1030T364 826T329 586Q329
465 364 373T473 228T666 175Q754 175 840 201T1009 258L997 53Q920 18 819 -5T623 -28ZM619 -158L553 -128Q580 -119 604 -114T657 -108Q728 -108 768 -144T809 -245Q809 -341 736 -402T554 -463Q502 -463 465 -452T400 -425L453 -319Q481 -334 510 -343T575 -353Q627
-353 656 -329T685 -270Q685 -205 596 -205Q573 -205 550 -208T498 -220L591 0H696L619 -158Z" />
<glyph unicode="&#xc8;" horiz-adv-x="1063" d="M295 108L214 204H926L890 0H54L300 1400H1119L1083 1196H389L504 1292L295 108ZM347 833H888L852 629H311L347 833ZM918 1559L579 1703L616 1913L942 1696L918 1559Z" />
<glyph unicode="&#xc9;" horiz-adv-x="1063" d="M295 108L214 204H926L890 0H54L300 1400H1119L1083 1196H389L504 1292L295 108ZM347 833H888L852 629H311L347 833ZM567 1558L595 1706L977 1918L941 1684L567 1558Z" />
<glyph unicode="&#xca;" horiz-adv-x="1063" d="M295 108L214 204H926L890 0H54L300 1400H1119L1083 1196H389L504 1292L295 108ZM347 833H888L852 629H311L347 833ZM513 1553L545 1696L804 1890L1019 1669L991 1532L766 1694L513 1553Z" />
<glyph unicode="&#xcb;" horiz-adv-x="1063" d="M295 108L214 204H926L890 0H54L300 1400H1119L1083 1196H389L504 1292L295 108ZM347 833H888L852 629H311L347 833ZM466 1594L499 1762H676L642 1594H466ZM848 1594L882 1762H1058L1025 1594H848Z" />
<glyph unicode="&#xcc;" horiz-adv-x="534" d="M54 0L300 1400H518L272 0H54ZM619 1559L280 1703L317 1913L643 1696L619 1559Z" />
<glyph unicode="&#xcd;" horiz-adv-x="534" d="M54 0L300 1400H518L272 0H54ZM268 1558L296 1706L678 1918L642 1684L268 1558Z" />
<glyph unicode="&#xce;" horiz-adv-x="534" d="M54 0L300 1400H518L272 0H54ZM215 1553L247 1696L506 1890L721 1669L693 1532L468 1694L215 1553Z" />
<glyph unicode="&#xcf;" horiz-adv-x="534" d="M54 0L300 1400H518L272 0H54ZM168 1594L201 1762H378L344 1594H168ZM550 1594L584 1762H760L727 1594H550Z" />
<glyph unicode="&#xd0;" horiz-adv-x="1384" d="M72 0L318 1400H800Q961 1400 1080 1333T1265 1140T1331 838Q1331 646 1271 492T1103 227T856 59T553 0H72ZM306 108L225 205H589Q752 205 864 286T1034 507T1092 820Q1092 991 1011 1094T764 1197H400L515 1293L306
108ZM46 625L76 799H689L659 625H46Z" />
<glyph unicode="&#xd1;" horiz-adv-x="1336" d="M54 0L300 1400H522L965 322L910 317L1101 1400H1320L1072 0H892L419 1134L474 1140L272 0H54ZM997 1567Q953 1567 907 1586T817 1625T738 1644Q713 1644 694 1629T671 1579H532Q550 1679 599 1731T723 1783Q767
1783 812 1764T901 1726T982 1706Q1008 1706 1026 1723T1049 1773H1188Q1173 1671 1123 1619T997 1567Z" />
<glyph unicode="&#xd2;" horiz-adv-x="1447" d="M621 -28Q458 -28 338 43T154 247T89 568Q89 753 150 910T319 1183T567 1363T865 1428Q1028 1428 1147 1357T1332 1153T1397 832Q1397 647 1336 490T1167 217T919 37T621 -28ZM657 175Q773 175 865 228T1023 371T1122
577T1157 816Q1157 936 1123 1028T1016 1173T828 1225Q712 1225 620 1172T463 1029T364 824T329 584Q329 465 363 373T470 228T657 175ZM1079 1559L740 1703L777 1913L1103 1696L1079 1559Z" />
<glyph unicode="&#xd3;" horiz-adv-x="1447" d="M621 -28Q458 -28 338 43T154 247T89 568Q89 753 150 910T319 1183T567 1363T865 1428Q1028 1428 1147 1357T1332 1153T1397 832Q1397 647 1336 490T1167 217T919 37T621 -28ZM657 175Q773 175 865 228T1023 371T1122
577T1157 816Q1157 936 1123 1028T1016 1173T828 1225Q712 1225 620 1172T463 1029T364 824T329 584Q329 465 363 373T470 228T657 175ZM728 1558L756 1706L1138 1918L1102 1684L728 1558Z" />
<glyph unicode="&#xd4;" horiz-adv-x="1447" d="M621 -28Q458 -28 338 43T154 247T89 568Q89 753 150 910T319 1183T567 1363T865 1428Q1028 1428 1147 1357T1332 1153T1397 832Q1397 647 1336 490T1167 217T919 37T621 -28ZM657 175Q773 175 865 228T1023 371T1122
577T1157 816Q1157 936 1123 1028T1016 1173T828 1225Q712 1225 620 1172T463 1029T364 824T329 584Q329 465 363 373T470 228T657 175ZM675 1553L707 1696L966 1890L1181 1669L1153 1532L928 1694L675 1553Z" />
<glyph unicode="&#xd5;" horiz-adv-x="1447" d="M621 -28Q458 -28 338 43T154 247T89 568Q89 753 150 910T319 1183T567 1363T865 1428Q1028 1428 1147 1357T1332 1153T1397 832Q1397 647 1336 490T1167 217T919 37T621 -28ZM657 175Q773 175 865 228T1023 371T1122
577T1157 816Q1157 936 1123 1028T1016 1173T828 1225Q712 1225 620 1172T463 1029T364 824T329 584Q329 465 363 373T470 228T657 175ZM1071 1570Q1027 1570 981 1592T891 1635T810 1657Q778 1657 758 1638T731 1586H582Q604 1699 657 1758T791 1817Q838 1817
881 1795T964 1752T1044 1730Q1076 1730 1095 1749T1120 1807H1273Q1249 1684 1199 1627T1071 1570Z" />
<glyph unicode="&#xd6;" horiz-adv-x="1447" d="M621 -28Q458 -28 338 43T154 247T89 568Q89 753 150 910T319 1183T567 1363T865 1428Q1028 1428 1147 1357T1332 1153T1397 832Q1397 647 1336 490T1167 217T919 37T621 -28ZM657 175Q773 175 865 228T1023 371T1122
577T1157 816Q1157 936 1123 1028T1016 1173T828 1225Q712 1225 620 1172T463 1029T364 824T329 584Q329 465 363 373T470 228T657 175ZM627 1594L660 1762H837L803 1594H627ZM1009 1594L1043 1762H1219L1186 1594H1009Z" />
<glyph unicode="&#xd7;" horiz-adv-x="900" d="M110 201L6 326L687 912L791 787L110 201ZM699 311L570 204L91 802L220 909L699 311Z" />
<glyph unicode="&#xd8;" horiz-adv-x="1447" d="M1255 1488H1447L230 -88H40L1255 1488ZM621 -28Q458 -28 338 43T154 247T89 568Q89 753 150 910T319 1183T567 1363T865 1428Q1028 1428 1147 1357T1332 1153T1397 832Q1397 647 1336 490T1167 217T919 37T621
-28ZM657 175Q773 175 865 228T1023 371T1122 577T1157 816Q1157 936 1123 1028T1016 1173T828 1225Q712 1225 620 1172T463 1029T364 824T329 584Q329 465 363 373T470 228T657 175Z" />
<glyph unicode="&#xd9;" horiz-adv-x="1359" d="M572 -28Q346 -28 237 89T128 415Q128 444 132 495T145 597L287 1400H505L379 686Q369 633 363 577T356 472Q357 386 379 319T456 214T607 175Q712 175 783 220T901 339T973 504T1016 686L1142 1400H1360L1218 597Q1185
407 1103 267T888 49T572 -28ZM1037 1559L698 1703L735 1913L1061 1696L1037 1559Z" />
<glyph unicode="&#xda;" horiz-adv-x="1359" d="M572 -28Q346 -28 237 89T128 415Q128 444 132 495T145 597L287 1400H505L379 686Q369 633 363 577T356 472Q357 386 379 319T456 214T607 175Q712 175 783 220T901 339T973 504T1016 686L1142 1400H1360L1218 597Q1185
407 1103 267T888 49T572 -28ZM686 1558L714 1706L1096 1918L1060 1684L686 1558Z" />
<glyph unicode="&#xdb;" horiz-adv-x="1359" d="M572 -28Q346 -28 237 89T128 415Q128 444 132 495T145 597L287 1400H505L379 686Q369 633 363 577T356 472Q357 386 379 319T456 214T607 175Q712 175 783 220T901 339T973 504T1016 686L1142 1400H1360L1218 597Q1185
407 1103 267T888 49T572 -28ZM633 1553L665 1696L924 1890L1139 1669L1111 1532L886 1694L633 1553Z" />
<glyph unicode="&#xdc;" horiz-adv-x="1359" d="M572 -28Q346 -28 237 89T128 415Q128 444 132 495T145 597L287 1400H505L379 686Q369 633 363 577T356 472Q357 386 379 319T456 214T607 175Q712 175 783 220T901 339T973 504T1016 686L1142 1400H1360L1218 597Q1185
407 1103 267T888 49T572 -28ZM585 1594L618 1762H795L761 1594H585ZM967 1594L1001 1762H1177L1144 1594H967Z" />
<glyph unicode="&#xdd;" horiz-adv-x="1140" d="M350 0L478 731L498 544L152 1400H382L646 736L552 749L1031 1400H1261L623 557L700 731L570 0H350ZM564 1558L592 1706L974 1918L938 1684L564 1558Z" />
<glyph unicode="&#xde;" horiz-adv-x="1051" d="M37 0L285 1400H505L257 0H37ZM246 360L280 549H583Q709 549 776 603T843 760Q843 809 822 842T757 893T646 910H343L376 1098H701Q884 1098 977 1019T1071 795Q1071 658 1009 561T835 412T571 360H246Z" />
<glyph unicode="&#xdf;" horiz-adv-x="1172" d="M595 -28Q538 -28 488 -23T384 -4L413 174Q463 163 513 157T620 151Q721 151 793 198T865 336Q865 394 836 434T765 505T681 566T610 636T581 732Q581 803 635 868T775 1009Q836 1063 871 1109T907 1222Q906 1281
863 1315T738 1349Q620 1349 549 1280T456 1087L265 0H54L199 821H60L108 988H228L244 1083Q270 1233 345 1332T532 1479T775 1528Q935 1528 1027 1457T1119 1267Q1119 1164 1077 1099T958 963Q886 896 844 855T802 765Q802 725 830 694T899 632T982 564T1051 476T1080
355Q1081 265 1042 195T934 75T779 -1T595 -28Z" />
<glyph unicode="&#xe0;" horiz-adv-x="1117" d="M384 -20Q278 -20 201 31T81 172T39 382Q39 500 77 611T187 812T356 954T575 1007Q633 1007 683 991T774 937T841 833L770 807L838 988H1022L905 299Q897 252 897 222Q897 176 918 163T993 149L940 -20Q871 -20
825 -14T748 13T698 79T664 199L725 158Q686 108 636 68T524 4T384 -20ZM454 159Q522 159 576 191T670 280T729 410T750 567Q750 698 699 763T556 828Q469 828 402 772T296 622T257 418Q257 307 303 233T454 159ZM861 1147L522 1291L559 1501L885 1284L861 1147Z"
/>
<glyph unicode="&#xe1;" horiz-adv-x="1117" d="M384 -20Q278 -20 201 31T81 172T39 382Q39 500 77 611T187 812T356 954T575 1007Q633 1007 683 991T774 937T841 833L770 807L838 988H1022L905 299Q897 252 897 222Q897 176 918 163T993 149L940 -20Q871 -20
825 -14T748 13T698 79T664 199L725 158Q686 108 636 68T524 4T384 -20ZM454 159Q522 159 576 191T670 280T729 410T750 567Q750 698 699 763T556 828Q469 828 402 772T296 622T257 418Q257 307 303 233T454 159ZM510 1146L538 1294L920 1506L884 1272L510 1146Z"
/>
<glyph unicode="&#xe2;" horiz-adv-x="1117" d="M384 -20Q278 -20 201 31T81 172T39 382Q39 500 77 611T187 812T356 954T575 1007Q633 1007 683 991T774 937T841 833L770 807L838 988H1022L905 299Q897 252 897 222Q897 176 918 163T993 149L940 -20Q871 -20
825 -14T748 13T698 79T664 199L725 158Q686 108 636 68T524 4T384 -20ZM454 159Q522 159 576 191T670 280T729 410T750 567Q750 698 699 763T556 828Q469 828 402 772T296 622T257 418Q257 307 303 233T454 159ZM457 1141L489 1284L748 1478L963 1257L935 1120L710
1282L457 1141Z" />
<glyph unicode="&#xe3;" horiz-adv-x="1117" d="M384 -20Q278 -20 201 31T81 172T39 382Q39 500 77 611T187 812T356 954T575 1007Q633 1007 683 991T774 937T841 833L770 807L838 988H1022L905 299Q897 252 897 222Q897 176 918 163T993 149L940 -20Q871 -20
825 -14T748 13T698 79T664 199L725 158Q686 108 636 68T524 4T384 -20ZM454 159Q522 159 576 191T670 280T729 410T750 567Q750 698 699 763T556 828Q469 828 402 772T296 622T257 418Q257 307 303 233T454 159ZM853 1158Q809 1158 763 1180T673 1223T592 1245Q560
1245 540 1226T513 1174H364Q386 1287 439 1346T573 1405Q620 1405 663 1383T746 1340T826 1318Q858 1318 877 1337T902 1395H1055Q1031 1272 981 1215T853 1158Z" />
<glyph unicode="&#xe4;" horiz-adv-x="1117" d="M384 -20Q278 -20 201 31T81 172T39 382Q39 500 77 611T187 812T356 954T575 1007Q633 1007 683 991T774 937T841 833L770 807L838 988H1022L905 299Q897 252 897 222Q897 176 918 163T993 149L940 -20Q871 -20
825 -14T748 13T698 79T664 199L725 158Q686 108 636 68T524 4T384 -20ZM454 159Q522 159 576 191T670 280T729 410T750 567Q750 698 699 763T556 828Q469 828 402 772T296 622T257 418Q257 307 303 233T454 159ZM410 1182L443 1350H620L586 1182H410ZM792 1182L826
1350H1002L969 1182H792Z" />
<glyph unicode="&#xe5;" horiz-adv-x="1117" d="M384 -20Q278 -20 201 31T81 172T39 382Q39 500 77 611T187 812T356 954T575 1007Q633 1007 683 991T774 937T841 833L770 807L838 988H1022L905 299Q897 252 897 222Q897 176 918 163T993 149L940 -20Q871 -20
825 -14T748 13T698 79T664 199L725 158Q686 108 636 68T524 4T384 -20ZM454 159Q522 159 576 191T670 280T729 410T750 567Q750 698 699 763T556 828Q469 828 402 772T296 622T257 418Q257 307 303 233T454 159ZM680 1138Q595 1138 552 1184T508 1295Q508 1361
541 1415T631 1501T754 1533Q839 1533 882 1488T926 1376Q926 1310 893 1256T805 1170T680 1138ZM697 1232Q745 1232 780 1269T815 1356Q815 1393 793 1415T737 1438Q690 1438 655 1401T620 1313Q620 1276 642 1254T697 1232Z" />
<glyph unicode="&#xe6;" horiz-adv-x="1490" d="M601 477Q542 479 474 467T345 427T246 353T207 238Q207 188 237 164T311 140Q358 140 411 167T507 251T566 400Q570 421 572 438T577 476T583 530T590 615Q598 722 570 773T440 824Q379 824 319 808T184 758L194
925Q283 966 367 986T530 1007Q584 1007 633 994T717 947T768 851T772 690L756 733Q775 820 832 881T972 975T1142 1007Q1279 1007 1360 921T1441 679Q1441 623 1430 576T1398 471H706L740 614H1244Q1248 633 1249 651T1250 683Q1249 750 1214 789T1099 828Q1026
828 969 792T874 696T815 564T795 417Q795 321 826 262T909 176T1020 149Q1064 149 1113 159T1212 187T1308 227L1296 58Q1232 27 1152 4T975 -20Q817 -20 730 49T630 257L682 247Q630 162 564 100T416 5T236 -29Q111 -29 47 31T-17 194Q-17 300 26 373T139 494T294
567T462 605T611 621L601 477Z" />
<glyph unicode="&#xe7;" horiz-adv-x="852" d="M425 -20Q287 -20 203 36T81 188T42 400Q42 517 78 626T185 821T363 957T607 1007Q690 1007 755 989T860 942L806 759Q761 791 711 809T606 828Q494 828 416 774T298 628T258 426Q258 302 314 230T491 158Q595 158
714 227L703 48Q654 20 585 0T425 -20ZM410 -158L344 -128Q371 -119 395 -114T448 -108Q519 -108 559 -144T600 -245Q600 -341 527 -402T345 -463Q293 -463 256 -452T191 -425L244 -319Q272 -334 301 -343T366 -353Q418 -353 447 -329T476 -270Q476 -205 387 -205Q364
-205 341 -208T289 -220L382 0H487L410 -158Z" />
<glyph unicode="&#xe8;" horiz-adv-x="941" d="M247 575Q286 562 320 556T401 550Q522 550 589 576T682 643T709 722Q709 764 688 787T634 819T572 828Q499 828 440 789T337 683T270 529L262 471Q256 350 288 282T378 187T505 159Q577 159 653 177T794 227L777
56Q719 23 638 2T457 -20Q314 -20 222 37T84 190T39 407Q39 522 78 629T189 822T362 957T586 1007Q736 1007 814 933T893 740Q893 670 864 610T776 505T630 436T427 411Q370 411 317 417T232 434L247 575ZM812 1147L473 1291L510 1501L836 1284L812 1147Z" />
<glyph unicode="&#xe9;" horiz-adv-x="941" d="M247 575Q286 562 320 556T401 550Q522 550 589 576T682 643T709 722Q709 764 688 787T634 819T572 828Q499 828 440 789T337 683T270 529L262 471Q256 350 288 282T378 187T505 159Q577 159 653 177T794 227L777
56Q719 23 638 2T457 -20Q314 -20 222 37T84 190T39 407Q39 522 78 629T189 822T362 957T586 1007Q736 1007 814 933T893 740Q893 670 864 610T776 505T630 436T427 411Q370 411 317 417T232 434L247 575ZM461 1146L489 1294L871 1506L835 1272L461 1146Z" />
<glyph unicode="&#xea;" horiz-adv-x="941" d="M247 575Q286 562 320 556T401 550Q522 550 589 576T682 643T709 722Q709 764 688 787T634 819T572 828Q499 828 440 789T337 683T270 529L262 471Q256 350 288 282T378 187T505 159Q577 159 653 177T794 227L777
56Q719 23 638 2T457 -20Q314 -20 222 37T84 190T39 407Q39 522 78 629T189 822T362 957T586 1007Q736 1007 814 933T893 740Q893 670 864 610T776 505T630 436T427 411Q370 411 317 417T232 434L247 575ZM408 1141L440 1284L699 1478L914 1257L886 1120L661 1282L408
1141Z" />
<glyph unicode="&#xeb;" horiz-adv-x="941" d="M247 575Q286 562 320 556T401 550Q522 550 589 576T682 643T709 722Q709 764 688 787T634 819T572 828Q499 828 440 789T337 683T270 529L262 471Q256 350 288 282T378 187T505 159Q577 159 653 177T794 227L777
56Q719 23 638 2T457 -20Q314 -20 222 37T84 190T39 407Q39 522 78 629T189 822T362 957T586 1007Q736 1007 814 933T893 740Q893 670 864 610T776 505T630 436T427 411Q370 411 317 417T232 434L247 575ZM361 1182L394 1350H571L537 1182H361ZM743 1182L777 1350H953L920
1182H743Z" />
<glyph unicode="&#xec;" horiz-adv-x="452" d="M17 0L191 988H401L227 0H17ZM506 1147L167 1291L204 1501L530 1284L506 1147Z" />
<glyph unicode="&#xed;" horiz-adv-x="452" d="M17 0L191 988H401L227 0H17ZM155 1146L183 1294L565 1506L529 1272L155 1146Z" />
<glyph unicode="&#xee;" horiz-adv-x="452" d="M17 0L191 988H401L227 0H17ZM101 1141L133 1284L392 1478L607 1257L579 1120L354 1282L101 1141Z" />
<glyph unicode="&#xef;" horiz-adv-x="452" d="M17 0L191 988H401L227 0H17ZM310 1182L343 1350H520L486 1182H310ZM692 1182L726 1350H902L869 1182H692Z" />
<glyph unicode="&#xf0;" horiz-adv-x="985" d="M386 -25Q269 -25 186 23T58 154T13 344Q13 479 71 594T231 781T469 852Q547 852 599 827T683 765T730 696L704 663Q718 808 681 933T562 1153T364 1305L433 1402Q572 1348 677 1245T842 996T902 667Q902 459 837
304T655 62T386 -25ZM408 156Q471 156 528 193T620 300T656 464Q656 559 613 616T486 674Q407 674 349 631T258 519T226 371Q226 280 272 218T408 156ZM363 991L306 1113L862 1350L917 1228L363 991Z" />
<glyph unicode="&#xf1;" horiz-adv-x="1048" d="M17 0L191 988H372L371 809L227 0H17ZM624 0Q655 175 674 290T705 474T722 579T728 630T730 654Q730 744 693 786T573 828Q503 828 445 797T344 704L359 891Q430 955 499 981T647 1007Q803 1007 873 920T944 683Q944
670 943 652T936 595T919 484T887 295T834 0H624ZM811 1150Q767 1150 721 1172T631 1215T550 1237Q518 1237 498 1218T471 1166H322Q344 1279 397 1338T531 1397Q578 1397 621 1375T704 1332T784 1310Q816 1310 835 1329T860 1387H1013Q989 1264 939 1207T811 1150Z"
/>
<glyph unicode="&#xf2;" horiz-adv-x="1058" d="M427 -20Q296 -20 210 36T82 187T39 401Q39 521 80 629T195 823T372 957T596 1007Q727 1007 813 951T942 798T985 585Q985 466 944 358T829 164T652 29T427 -20ZM457 159Q551 159 621 214T730 363T769 569Q769 695
718 761T567 828Q473 828 403 773T293 624T254 418Q254 294 304 227T457 159ZM816 1147L477 1291L514 1501L840 1284L816 1147Z" />
<glyph unicode="&#xf3;" horiz-adv-x="1058" d="M427 -20Q296 -20 210 36T82 187T39 401Q39 521 80 629T195 823T372 957T596 1007Q727 1007 813 951T942 798T985 585Q985 466 944 358T829 164T652 29T427 -20ZM457 159Q551 159 621 214T730 363T769 569Q769 695
718 761T567 828Q473 828 403 773T293 624T254 418Q254 294 304 227T457 159ZM465 1146L493 1294L875 1506L839 1272L465 1146Z" />
<glyph unicode="&#xf4;" horiz-adv-x="1058" d="M427 -20Q296 -20 210 36T82 187T39 401Q39 521 80 629T195 823T372 957T596 1007Q727 1007 813 951T942 798T985 585Q985 466 944 358T829 164T652 29T427 -20ZM457 159Q551 159 621 214T730 363T769 569Q769 695
718 761T567 828Q473 828 403 773T293 624T254 418Q254 294 304 227T457 159ZM412 1141L444 1284L703 1478L918 1257L890 1120L665 1282L412 1141Z" />
<glyph unicode="&#xf5;" horiz-adv-x="1058" d="M427 -20Q296 -20 210 36T82 187T39 401Q39 521 80 629T195 823T372 957T596 1007Q727 1007 813 951T942 798T985 585Q985 466 944 358T829 164T652 29T427 -20ZM457 159Q551 159 621 214T730 363T769 569Q769 695
718 761T567 828Q473 828 403 773T293 624T254 418Q254 294 304 227T457 159ZM808 1158Q764 1158 718 1180T628 1223T547 1245Q515 1245 495 1226T468 1174H319Q341 1287 394 1346T528 1405Q575 1405 618 1383T701 1340T781 1318Q813 1318 832 1337T857 1395H1010Q986
1272 936 1215T808 1158Z" />
<glyph unicode="&#xf6;" horiz-adv-x="1058" d="M427 -20Q296 -20 210 36T82 187T39 401Q39 521 80 629T195 823T372 957T596 1007Q727 1007 813 951T942 798T985 585Q985 466 944 358T829 164T652 29T427 -20ZM457 159Q551 159 621 214T730 363T769 569Q769 695
718 761T567 828Q473 828 403 773T293 624T254 418Q254 294 304 227T457 159ZM365 1182L398 1350H575L541 1182H365ZM747 1182L781 1350H957L924 1182H747Z" />
<glyph unicode="&#xf7;" horiz-adv-x="934" d="M17 475L46 642H825L795 475H17ZM235 105L274 327H483L444 105H235ZM357 790L395 1012H604L566 790H357Z" />
<glyph unicode="&#xf8;" horiz-adv-x="1058" d="M860 1060H1026L167 -80H1L860 1060ZM427 -20Q296 -20 210 36T82 187T39 401Q39 521 80 629T195 823T372 957T596 1007Q727 1007 813 951T942 798T985 585Q985 466 944 358T829 164T652 29T427 -20ZM457 159Q551
159 621 214T730 363T769 569Q769 695 718 761T567 828Q473 828 403 773T293 624T254 418Q254 294 304 227T457 159Z" />
<glyph unicode="&#xf9;" horiz-adv-x="1028" d="M362 -20Q218 -20 144 62T69 291Q69 316 72 348T84 425L180 988H390L298 449Q291 410 288 383T285 338Q285 160 438 160Q500 160 554 188T650 275L628 105Q575 50 512 15T362 -20ZM609 0L626 187L767 988H977L804
0H609ZM788 1147L449 1291L486 1501L812 1284L788 1147Z" />
<glyph unicode="&#xfa;" horiz-adv-x="1028" d="M362 -20Q218 -20 144 62T69 291Q69 316 72 348T84 425L180 988H390L298 449Q291 410 288 383T285 338Q285 160 438 160Q500 160 554 188T650 275L628 105Q575 50 512 15T362 -20ZM609 0L626 187L767 988H977L804
0H609ZM437 1146L465 1294L847 1506L811 1272L437 1146Z" />
<glyph unicode="&#xfb;" horiz-adv-x="1028" d="M362 -20Q218 -20 144 62T69 291Q69 316 72 348T84 425L180 988H390L298 449Q291 410 288 383T285 338Q285 160 438 160Q500 160 554 188T650 275L628 105Q575 50 512 15T362 -20ZM609 0L626 187L767 988H977L804
0H609ZM384 1141L416 1284L675 1478L890 1257L862 1120L637 1282L384 1141Z" />
<glyph unicode="&#xfc;" horiz-adv-x="1028" d="M362 -20Q218 -20 144 62T69 291Q69 316 72 348T84 425L180 988H390L298 449Q291 410 288 383T285 338Q285 160 438 160Q500 160 554 188T650 275L628 105Q575 50 512 15T362 -20ZM609 0L626 187L767 988H977L804
0H609ZM337 1182L370 1350H547L513 1182H337ZM719 1182L753 1350H929L896 1182H719Z" />
<glyph unicode="&#xfd;" horiz-adv-x="972" d="M-18 -484L333 139L307 -43L66 988H299L447 200L383 210L797 988H1030L199 -484H-18ZM407 1146L435 1294L817 1506L781 1272L407 1146Z" />
<glyph unicode="&#xfe;" horiz-adv-x="1076" d="M-69 -484L281 1500H491L367 805L337 857Q401 925 481 966T665 1007Q776 1007 850 953T963 804T1001 589Q1001 464 966 354T866 160T709 28T506 -20Q398 -20 325 32T218 180L264 215L141 -484H-69ZM492 159Q578
159 644 215T747 365T784 572Q784 685 740 756T600 828Q516 828 446 776T335 629T293 410Q293 280 346 220T492 159Z" />
<glyph unicode="&#xff;" horiz-adv-x="972" d="M-18 -484L333 139L307 -43L66 988H299L447 200L383 210L797 988H1030L199 -484H-18ZM306 1182L339 1350H516L482 1182H306ZM688 1182L722 1350H898L865 1182H688Z" />
<glyph unicode="&#x2013;" horiz-adv-x="1266" d="M0 533L32 711H1266L1234 533H0Z" />
<glyph unicode="&#x2014;" horiz-adv-x="1431" d="M0 533L32 711H1431L1400 533H0Z" />
<glyph unicode="&#x2018;" horiz-adv-x="392" d="M348 1400H463L345 1175H428L386 938H151L190 1153L348 1400Z" />
<glyph unicode="&#x2019;" horiz-adv-x="362" d="M244 938H129L247 1163H164L206 1400H441L402 1185L244 938Z" />
<glyph unicode="&#x201a;" horiz-adv-x="385" d="M57 -225H-58L60 0H-23L19 237H254L215 22L57 -225Z" />
<glyph unicode="&#x201c;" horiz-adv-x="737" d="M350 1411H465L347 1186H430L388 949H153L192 1164L350 1411ZM696 1411H811L693 1186H776L734 949H499L538 1164L696 1411Z" />
<glyph unicode="&#x201d;" horiz-adv-x="708" d="M244 938H129L247 1163H164L206 1400H441L402 1185L244 938ZM589 938H474L592 1163H509L551 1400H786L747 1185L589 938Z" />
<glyph unicode="&#x201e;" horiz-adv-x="730" d="M57 -225H-58L60 0H-23L19 237H254L215 22L57 -225ZM402 -225H287L405 0H322L364 237H599L560 22L402 -225Z" />
<glyph unicode="&#x2022;" horiz-adv-x="578" d="M244 338Q170 338 124 392T77 523Q77 590 111 647T202 739T321 774Q395 774 441 721T488 589Q488 522 453 465T363 373T244 338Z" />
<glyph unicode="&#x2039;" horiz-adv-x="647" d="M243 156L30 568L387 980H637L216 494L235 655L493 156H243Z" />
<glyph unicode="&#x203a;" horiz-adv-x="648" d="M3 156L424 642L405 481L149 980H399L610 568L253 156H3Z" />
</font>
</defs>
</svg>
