<?xml version="1.0" standalone="no"?>
<!DOCTYPE svg PUBLIC "-//W3C//DTD SVG 1.1//EN" "http://www.w3.org/Graphics/SVG/1.1/DTD/svg11.dtd">
<svg xmlns="http://www.w3.org/2000/svg">
<defs >
<font id="Cabin" horiz-adv-x="1054" ><font-face
    font-family="Cabin SemiBold"
    units-per-em="2000"
    panose-1="0 0 0 0 0 0 0 0 0 0"
    ascent="1930"
    descent="-500"
    alphabetic="0" />
<glyph unicode=" " horiz-adv-x="450" />
<glyph unicode="!" horiz-adv-x="494" d="M152 389V444L123 1400H371L343 444V389H152ZM125 0V250H369V0H125Z" />
<glyph unicode="&quot;" horiz-adv-x="685" d="M103 993L64 1400H295L256 993H103ZM428 993L389 1400H620L581 993H428Z" />
<glyph unicode="#" horiz-adv-x="1416" d="M131 -22L301 426H63L151 624H377L457 834H211L273 1020H527L675 1400H854L708 1020H950L1096 1400H1274L1128 1020H1352L1287 834H1058L978 624H1230L1139 426H902L732 -22H551L721 426H482L309 -22H131ZM556 624H797L879
834H638L556 624Z" />
<glyph unicode="$" horiz-adv-x="1163" d="M560 -28Q474 -28 385 -13T221 24T98 70L127 316Q191 285 267 257T426 210T595 191Q709 191 777 234T846 368Q846 437 809 480T697 555T507 626Q394 663 302 711T156 837T101 1036Q101 1150 158 1239T328 1378T607 1428Q739
1428 855 1399T1050 1336L1026 1096Q910 1154 807 1182T594 1210Q478 1210 410 1170T342 1045Q342 982 377 943T477 876T638 819Q788 772 892 715T1049 576T1103 373Q1103 303 1079 232T995 102T828 8T560 -28ZM534 -288L554 68H696L716 -288H534ZM554 1346L534
1688H716L696 1346H554Z" />
<glyph unicode="%" horiz-adv-x="1823" d="M426 628Q319 628 243 680T127 824T87 1034Q87 1213 180 1320T426 1428Q579 1428 671 1321T764 1034Q764 916 724 825T609 681T426 628ZM426 791Q497 791 536 854T575 1034Q575 1150 535 1207T426 1265Q360 1265 319
1208T277 1034Q277 918 314 855T426 791ZM410 0L1229 1400H1416L599 0H410ZM1398 -28Q1291 -28 1215 24T1099 168T1059 378Q1059 557 1152 664T1398 772Q1551 772 1643 665T1736 378Q1736 260 1696 169T1581 25T1398 -28ZM1398 135Q1469 135 1508 198T1547 378Q1547
494 1507 551T1398 609Q1332 609 1291 552T1249 378Q1249 262 1286 199T1398 135Z" />
<glyph unicode="&amp;" horiz-adv-x="1242" d="M526 -47Q371 -47 270 5T118 144T67 332Q67 418 98 489T184 620T314 733Q244 820 204 905T164 1075Q164 1179 217 1253T355 1367T540 1406Q705 1406 789 1326T874 1122Q874 1035 830 967T717 843T570 731L887 386Q899
418 906 459T918 545T925 630T928 703H1138Q1137 646 1129 565T1098 396T1029 225L1225 0H975L904 77Q828 15 738 -16T526 -47ZM549 123Q633 123 691 147T791 210L419 609Q365 560 330 496T294 351Q294 293 317 241T396 156T549 123ZM477 845Q537 887 582 926T651
1008T676 1101Q676 1166 639 1198T537 1230Q471 1230 425 1190T378 1067Q378 1019 400 966T477 845Z" />
<glyph unicode="&apos;" horiz-adv-x="359" d="M103 993L64 1400H295L256 993H103Z" />
<glyph unicode="(" horiz-adv-x="645" d="M395 -272Q323 -163 262 -34T164 254T127 614Q127 814 164 973T262 1262T395 1500H588Q490 1335 421 1120T351 614Q351 323 420 108T588 -272H395Z" />
<glyph unicode=")" horiz-adv-x="645" d="M57 -272Q155 -107 225 108T295 614Q295 905 225 1120T57 1500H250Q322 1391 383 1262T481 974T518 614Q518 414 481 255T383 -34T250 -272H57Z" />
<glyph unicode="*" horiz-adv-x="864" d="M63 967L325 1121L63 1274L136 1389L374 1225L364 1506H500L490 1225L728 1389L801 1274L539 1121L801 967L728 852L490 1016L500 728H364L374 1016L136 852L63 967Z" />
<glyph unicode="+" horiz-adv-x="894" d="M353 202V469H84V644H353V912H541V644H810V469H541V202H353Z" />
<glyph unicode="," horiz-adv-x="452" d="M236 -231H120L201 0H111V250H355V23L236 -231Z" />
<glyph unicode="-" horiz-adv-x="840" d="M110 531V713H730V531H110Z" />
<glyph unicode="." horiz-adv-x="434" d="M95 0V250H339V0H95Z" />
<glyph unicode="/" horiz-adv-x="692" d="M-17 -170L519 1400H747L211 -170H-17Z" />
<glyph unicode="0" horiz-adv-x="1406" d="M703 -28Q523 -28 391 65T186 325T113 712Q113 925 187 1086T394 1338T703 1428Q881 1428 1013 1338T1219 1086T1293 712Q1293 492 1221 326T1017 66T703 -28ZM703 181Q809 181 888 238T1012 413T1057 712Q1057 970 958
1096T703 1222Q552 1222 451 1097T349 712Q349 532 394 414T518 239T703 181Z" />
<glyph unicode="1" horiz-adv-x="707" d="M295 0V1070Q244 1033 200 1012T108 980L82 1182Q129 1194 183 1228T284 1307T353 1400H525V0H295Z" />
<glyph unicode="2" d="M97 1L471 572Q540 678 584 755T650 893T672 1012Q672 1105 620 1158T475 1211Q372 1211 289 1163T137 1046L108 1283Q190 1349 290 1389T516 1429Q643 1429 728 1377T856 1239T899 1049Q899 964 876 884T803 709T672 491L490 216H951V1H97Z" />
<glyph unicode="3" horiz-adv-x="1079" d="M469 -28Q347 -28 245 1T72 68L129 269Q202 230 287 203T469 175Q587 175 655 230T724 391Q724 500 654 559T440 619H318V834H439Q555 834 618 888T682 1037Q682 1127 628 1176T471 1225Q386 1225 311 1197T163 1124L127
1339Q199 1377 292 1402T497 1428Q631 1428 724 1382T865 1253T913 1066Q913 930 838 837T630 711L629 757Q780 731 870 639T961 393Q961 259 898 165T724 22T469 -28Z" />
<glyph unicode="4" horiz-adv-x="1211" d="M719 0V335H23L784 1400H945V527H1125V335H945V0H719ZM339 453L296 527H719V1133L773 1067L339 453Z" />
<glyph unicode="5" horiz-adv-x="1077" d="M486 -27Q372 -27 274 3T99 83L154 295Q228 251 306 222T479 193Q601 193 673 258T746 435Q746 558 665 624T440 691Q371 691 305 682T171 659L259 1400H919L906 1177H438L389 771L313 856Q359 869 411 875T520 881Q659
881 762 827T923 672T980 435Q980 292 916 189T740 29T486 -27Z" />
<glyph unicode="6" horiz-adv-x="1128" d="M584 -28Q437 -28 330 37T165 219T106 493Q106 661 163 807T315 1073T520 1283T739 1428L899 1295Q833 1262 756 1210T603 1088T465 935T365 754T327 548L258 643Q309 733 401 787T631 841Q750 841 843 787T990 637T1044
419Q1044 287 987 186T827 29T584 -28ZM586 167Q691 167 758 237T825 410Q825 512 758 579T586 647Q481 647 414 579T347 409Q347 307 414 237T586 167Z" />
<glyph unicode="7" horiz-adv-x="1015" d="M163 0L702 1275L767 1182H84V1400H999L407 0H163Z" />
<glyph unicode="8" horiz-adv-x="1209" d="M605 -28Q453 -28 344 26T175 178T115 401Q115 529 176 625T348 774T605 828Q751 828 861 775T1033 625T1095 401Q1095 275 1035 178T865 27T605 -28ZM605 175Q733 175 803 240T873 411Q873 516 803 584T605 653Q478
653 407 585T336 411Q336 305 407 240T605 175ZM605 682Q486 682 390 729T237 859T179 1050Q179 1142 222 1229T359 1372T605 1428Q756 1428 848 1372T981 1229T1023 1050Q1023 942 972 859T826 729T605 682ZM605 857Q707 857 759 913T811 1049Q811 1133 759 1185T605
1238Q502 1238 447 1186T391 1049Q391 970 446 914T605 857Z" />
<glyph unicode="9" horiz-adv-x="1128" d="M417 0L257 133Q320 165 394 215T542 331T675 479T772 654T809 852L878 757Q828 668 736 614T505 559Q386 559 293 613T146 763T92 981Q92 1113 149 1214T309 1371T552 1428Q699 1428 806 1363T971 1181T1030 907Q1030
745 974 603T828 345T630 141T417 0ZM550 758Q655 758 721 824T787 991Q787 1093 721 1160T550 1228Q446 1228 380 1160T314 990Q314 891 380 825T550 758Z" />
<glyph unicode=":" horiz-adv-x="434" d="M95 743V993H339V743H95ZM95 0V250H339V0H95Z" />
<glyph unicode=";" horiz-adv-x="450" d="M236 -231H120L201 0H111V250H355V23L236 -231ZM111 743V993H355V743H111Z" />
<glyph unicode="&lt;" horiz-adv-x="826" d="M785 140L77 459V654L785 975V780L265 557L785 335V140Z" />
<glyph unicode="=" horiz-adv-x="894" d="M84 628V801H810V628H84ZM84 307V480H810V307H84Z" />
<glyph unicode="&gt;" horiz-adv-x="826" d="M41 140L749 459V654L41 975V780L561 557L41 335V140Z" />
<glyph unicode="?" horiz-adv-x="930" d="M271 389V419Q271 501 294 561T354 671T435 766Q506 843 547 900T589 1037Q589 1094 564 1132T494 1189T396 1209Q317 1209 250 1188T119 1133L95 1342Q166 1380 250 1404T451 1428Q575 1428 662 1381T796 1253T843 1074Q843
1001 819 942T753 830T660 722Q600 657 553 590T506 431V389H271ZM265 0V250H509V0H265Z" />
<glyph unicode="@" horiz-adv-x="1447" d="M593 -174Q365 -174 231 -39T97 340Q97 504 157 643T322 886T564 1048T851 1106Q1087 1106 1218 969T1349 600Q1349 499 1321 405T1231 249T1065 188Q1028 188 1004 205T979 290Q979 379 1015 488T1089 758Q1052 797
991 830T847 864Q753 864 663 816T499 687T381 507T337 306Q337 248 354 197T412 113T519 80Q577 80 644 106T774 185T879 312Q878 302 876 284T873 242Q873 210 883 173T919 110T989 84Q1021 84 1063 99T1149 138T1227 192L1233 186Q1168 79 1069 -2T849 -128T593
-174ZM585 212Q539 212 518 250T497 346Q497 428 533 499T625 625T746 711T865 742Q882 742 912 736T955 698Q941 618 901 533T806 375T694 257T585 212Z" />
<glyph unicode="A" horiz-adv-x="1243" d="M917 349H326V554H917V349ZM591 1173H653L239 0H9L508 1400H735L1235 0H1004L591 1173Z" />
<glyph unicode="B" horiz-adv-x="1231" d="M156 0V1400H653Q850 1400 952 1314T1054 1061Q1054 940 1000 855T838 736L848 778Q1008 747 1090 652T1172 399Q1172 212 1052 106T720 0H156ZM388 208H690Q799 208 864 256T929 419Q929 539 861 585T690 631H388V208ZM388
838H620Q716 838 769 877T822 1015Q822 1115 769 1154T620 1193H388V838Z" />
<glyph unicode="C" horiz-adv-x="1223" d="M787 -28Q577 -28 416 62T164 315T73 700Q73 921 166 1084T422 1338T795 1428Q904 1428 998 1405T1161 1346L1136 1127Q1060 1162 976 1185T793 1209Q639 1209 536 1143T380 961T327 700Q327 555 378 440T532 258T787
191Q889 191 972 213T1136 273L1161 53Q1083 17 989 -5T787 -28Z" />
<glyph unicode="D" horiz-adv-x="1445" d="M156 0V1400H678Q879 1400 1035 1317T1281 1077T1370 700Q1370 480 1281 324T1036 84T678 0H156ZM388 208H678Q823 208 920 268T1066 439T1116 700Q1116 850 1067 960T920 1131T678 1192H388V208Z" />
<glyph unicode="E" horiz-adv-x="1126" d="M156 0V1400H1037V1180H392V841H897V621H392V220H1056V0H156Z" />
<glyph unicode="F" horiz-adv-x="1049" d="M156 0V1400H1015V1180H388V841H872V621H388V0H156Z" />
<glyph unicode="G" horiz-adv-x="1334" d="M772 -28Q560 -28 403 62T160 316T73 702Q73 922 166 1085T424 1338T802 1428Q914 1428 1015 1405T1191 1347L1167 1131Q1089 1165 998 1187T804 1209Q640 1209 535 1142T378 961T327 704Q327 555 378 439T534 257T798
191Q842 191 897 198T1005 219V505H803V702H1237V78Q1161 34 1040 3T772 -28Z" />
<glyph unicode="H" horiz-adv-x="1443" d="M156 0V1400H388V837H1054V1400H1286V0H1054V619H388V0H156Z" />
<glyph unicode="I" horiz-adv-x="544" d="M156 0V1400H388V0H156Z" />
<glyph unicode="J" horiz-adv-x="544" d="M4 -344L-20 -144Q74 -144 115 -104T156 36V1400H388V-15Q388 -192 305 -268T69 -344H4Z" />
<glyph unicode="K" horiz-adv-x="1210" d="M926 0L408 741L926 1400H1201L675 742L1203 0H926ZM156 0V1400H388V0H156Z" />
<glyph unicode="L" horiz-adv-x="1001" d="M156 0V1400H388V208H988V0H156Z" />
<glyph unicode="M" horiz-adv-x="1651" d="M91 0L283 1400H475L827 742L1175 1400H1369L1560 0H1318L1181 1085L1244 1073L827 308L407 1072L470 1083L333 0H91Z" />
<glyph unicode="N" horiz-adv-x="1412" d="M156 0V1400H391L1023 444V1400H1256V0H1063L388 1013V0H156Z" />
<glyph unicode="O" horiz-adv-x="1527" d="M764 -28Q564 -28 408 62T163 315T74 700Q74 921 163 1084T408 1338T764 1428Q964 1428 1120 1338T1365 1085T1454 700Q1454 479 1365 316T1120 62T764 -28ZM764 197Q911 197 1010 262T1159 442T1209 700Q1209 844 1159
958T1010 1137T764 1203Q616 1203 517 1138T368 958T318 700Q318 556 368 442T517 263T764 197Z" />
<glyph unicode="P" horiz-adv-x="1175" d="M156 0V1400H641Q795 1400 904 1353T1072 1206T1130 947Q1130 788 1073 687T906 536T645 487H392V0H156ZM392 685H616Q755 685 824 748T894 944Q894 1077 825 1139T612 1202H392V685Z" />
<glyph unicode="Q" horiz-adv-x="1527" d="M831 418L971 566L1441 114L1302 -34L831 418ZM764 -28Q564 -28 408 62T163 315T74 700Q74 921 163 1084T408 1338T764 1428Q964 1428 1120 1338T1365 1085T1454 700Q1454 479 1365 316T1120 62T764 -28ZM764 197Q911
197 1010 262T1159 442T1209 700Q1209 844 1159 958T1010 1137T764 1203Q616 1203 517 1138T368 958T318 700Q318 556 368 442T517 263T764 197Z" />
<glyph unicode="R" horiz-adv-x="1235" d="M156 0V1400H647Q792 1400 901 1355T1070 1215T1130 975Q1130 825 1066 732T890 585L1205 0H939L663 529Q660 529 658 529T653 529H392V0H156ZM392 727H603Q756 727 821 793T887 966Q887 1078 822 1140T609 1202H392V727Z" />
<glyph unicode="S" horiz-adv-x="1163" d="M560 -28Q474 -28 385 -13T221 24T98 70L127 316Q191 285 267 257T426 210T595 191Q709 191 777 234T846 368Q846 437 809 480T697 555T507 626Q394 663 302 711T156 837T101 1036Q101 1150 158 1239T328 1378T607 1428Q739
1428 855 1399T1050 1336L1026 1096Q910 1154 807 1182T594 1210Q478 1210 410 1170T342 1045Q342 982 377 943T477 876T638 819Q788 772 892 715T1049 576T1103 373Q1103 303 1079 232T995 102T828 8T560 -28Z" />
<glyph unicode="T" horiz-adv-x="1093" d="M430 0V1180H30V1400H1063V1180H662V0H430Z" />
<glyph unicode="U" horiz-adv-x="1440" d="M720 -28Q523 -28 395 49T203 266T140 598V1400H372V659Q372 560 386 475T436 326T542 227T720 191Q830 191 898 226T1004 326T1054 475T1068 659V1400H1300V598Q1300 407 1237 267T1046 49T720 -28Z" />
<glyph unicode="V" horiz-adv-x="1231" d="M502 0L3 1400H240L642 256H588L992 1400H1229L729 0H502Z" />
<glyph unicode="W" horiz-adv-x="1914" d="M410 0L16 1400H258L543 348L866 1390H1052L1383 364L1661 1400H1903L1498 0H1281L959 1004L638 0H410Z" />
<glyph unicode="X" horiz-adv-x="1228" d="M0 0L485 714L19 1400H279L614 904L949 1400H1209L743 714L1228 0H967L614 522L261 0H0Z" />
<glyph unicode="Y" horiz-adv-x="1181" d="M475 0V581L-18 1400H239L644 701H536L942 1400H1199L707 581V0H475Z" />
<glyph unicode="Z" horiz-adv-x="1097" d="M17 0L764 1269L805 1192H107V1400H1083L334 131L294 208H1073V0H17Z" />
<glyph unicode="[" horiz-adv-x="664" d="M136 -271V1500H650V1312H340V-83H650V-271H136Z" />
<glyph unicode="\" horiz-adv-x="652" d="M479 -170L-17 1400H211L707 -170H479Z" />
<glyph unicode="]" horiz-adv-x="664" d="M14 -271V-83H324V1312H14V1500H528V-271H14Z" />
<glyph unicode="^" horiz-adv-x="1024" d="M100 850V1091L512 1518L924 1091V850L512 1230L100 850Z" />
<glyph unicode="_" horiz-adv-x="1122" d="M1 -254V-72H1121V-254H1Z" />
<glyph unicode="`" horiz-adv-x="947" d="M666 1144L280 1294V1512L666 1289V1144Z" />
<glyph unicode="a" horiz-adv-x="983" d="M339 -20Q255 -20 188 16T83 118T44 274Q44 358 82 418T184 519T323 582T475 617T615 629Q612 735 567 775T423 816Q360 816 297 798T154 735L131 917Q210 961 299 985T483 1010Q600 1010 679 969T798 834T839 583V339Q839
266 846 228T873 176T936 162H963L939 -20H877Q809 -20 764 -5T691 39T642 106Q591 48 511 14T339 -20ZM417 153Q464 153 520 177T616 247V477Q520 474 443 453T322 390T277 284Q277 217 312 185T417 153Z" />
<glyph unicode="b" horiz-adv-x="1130" d="M624 -20Q514 -20 427 21T279 139L342 184L322 0H116V1500H339V817L287 852Q348 924 433 967T624 1010Q768 1010 867 939T1019 751T1071 495Q1071 354 1017 237T863 50T624 -20ZM593 168Q672 168 728 210T813 327T843
495Q843 591 814 664T728 780T593 822Q510 822 451 783T360 670T328 495Q328 391 360 318T451 207T593 168Z" />
<glyph unicode="c" horiz-adv-x="909" d="M577 -20Q407 -20 292 49T119 235T60 493Q60 637 117 755T292 943T587 1013Q669 1013 737 996T855 951L832 766Q783 791 724 806T601 822Q451 822 370 734T288 496Q288 353 369 260T598 167Q661 167 720 184T834 231L857
45Q809 18 735 -1T577 -20Z" />
<glyph unicode="d" horiz-adv-x="1130" d="M516 -20Q374 -20 272 50T114 237T59 494Q59 633 112 750T267 939T516 1010Q622 1010 703 972T843 861L791 818V1500H1014V0H807L787 184L850 139Q789 63 708 22T516 -20ZM551 168Q628 168 685 206T774 317T806 494Q806
596 774 669T685 782T551 822Q468 822 409 780T319 664T287 494Q287 401 318 327T409 211T551 168Z" />
<glyph unicode="e" horiz-adv-x="1028" d="M596 -20Q418 -20 299 52T119 242T58 503Q58 640 114 755T279 940T543 1010Q679 1010 775 955T921 804T972 583Q972 555 969 525T959 462H289Q303 353 350 289T467 197T618 168Q698 168 772 187T911 241L928 56Q871 28
787 4T596 -20ZM299 614H744Q744 668 724 715T659 792T542 822Q437 822 379 765T299 614Z" />
<glyph unicode="f" horiz-adv-x="673" d="M181 0V812H29L52 993H181V1212Q181 1344 256 1422T475 1500Q524 1500 563 1495T635 1479L611 1297Q592 1303 573 1306T525 1309Q469 1309 437 1279T404 1180V993H640V812H404V0H181Z" />
<glyph unicode="g" horiz-adv-x="1000" d="M514 -503Q376 -503 272 -469T108 -371T49 -214Q49 -138 92 -80T214 19Q172 43 148 77T123 155Q123 202 150 238T229 296Q151 349 110 434T69 621Q69 728 116 817T254 959T475 1013Q543 1013 601 995T707 944Q743 965
801 979T932 994Q945 994 956 994T979 994L960 851Q942 851 924 851T886 851Q877 851 855 850T810 845Q844 798 861 740T879 621Q879 511 832 422T695 279T475 225Q444 225 416 229T359 240Q329 229 329 201Q329 176 359 161T455 136L660 106Q820 84 909 15T999
-181Q999 -281 941 -353T774 -464T514 -503ZM526 -325Q657 -325 725 -292T793 -194Q793 -138 748 -110T607 -65L366 -28Q315 -49 279 -85T243 -175Q243 -252 319 -288T526 -325ZM475 394Q573 394 623 456T674 620Q674 720 624 781T475 843Q376 843 326 782T275
620Q275 518 325 456T475 394Z" />
<glyph unicode="h" horiz-adv-x="1095" d="M116 0V1500H340V838L281 867Q346 927 422 968T609 1010Q739 1010 823 952T947 791T987 552V0H764V533Q764 681 714 751T554 822Q465 822 404 778T300 660L340 785V0H116Z" />
<glyph unicode="i" horiz-adv-x="460" d="M118 0V993H341V0H118ZM118 1169V1400H341V1169H118Z" />
<glyph unicode="j" horiz-adv-x="460" d="M10 -484L-11 -304Q40 -302 68 -287T107 -234T118 -129V993H341V-219Q341 -320 307 -375T214 -454T81 -480L10 -484ZM118 1169V1400H341V1169H118Z" />
<glyph unicode="k" horiz-adv-x="943" d="M116 0V1500H339V571L668 993H926L552 521L935 0H676L339 464V0H116Z" />
<glyph unicode="l" horiz-adv-x="506" d="M373 -20Q282 -20 226 15T143 107T117 233V1500H341V335Q341 254 351 218T389 172T475 162L451 -20H373Z" />
<glyph unicode="m" horiz-adv-x="1744" d="M118 0V993H304L327 831L280 871Q349 936 431 973T616 1010Q693 1010 756 987T867 914T944 789L887 806Q934 902 1026 956T1248 1010Q1381 1010 1467 958T1594 805T1636 564V0H1412V552Q1412 691 1365 756T1209 822Q1146
822 1103 802T1035 744T1000 660T989 560V0H765V539Q765 642 742 704T673 794T559 822Q468 822 405 781T304 661L341 781V0H118Z" />
<glyph unicode="n" horiz-adv-x="1109" d="M118 0V993H317L336 806L274 865Q346 936 430 973T615 1010Q815 1010 908 884T1001 551V0H778V539Q778 685 727 753T559 822Q468 822 404 780T304 659L341 777V0H118Z" />
<glyph unicode="o" horiz-adv-x="1125" d="M563 -20Q403 -20 291 50T119 237T59 495Q59 636 118 754T290 942T563 1013Q722 1013 835 943T1007 754T1067 495Q1067 354 1008 237T835 50T563 -20ZM563 168Q695 168 766 257T838 495Q838 645 767 735T563 825Q431
825 359 735T287 495Q287 347 359 258T563 168Z" />
<glyph unicode="p" horiz-adv-x="1133" d="M118 -484V993H296L339 806L273 835Q340 915 424 962T631 1010Q774 1010 872 940T1022 753T1073 495Q1073 354 1023 237T875 50T631 -20Q514 -20 434 18T290 136L341 181V-484H118ZM595 168Q713 168 779 257T845 495Q845
644 779 733T595 822Q511 822 452 783T361 670T330 495Q330 391 361 318T451 207T595 168Z" />
<glyph unicode="q" horiz-adv-x="1133" d="M792 -484V181L843 138Q788 61 707 21T512 -20Q363 -20 263 50T111 237T60 495Q60 633 112 750T265 939T511 1010Q635 1010 717 963T860 835L795 806L843 993H1015V-484H792ZM546 168Q627 168 684 206T772 318T803 495Q803
649 736 735T546 822Q424 822 356 733T288 495Q288 347 356 258T546 168Z" />
<glyph unicode="r" horiz-adv-x="650" d="M118 0V993H320L331 866Q383 927 452 970T601 1013Q625 1013 646 1008L628 781Q609 786 590 787T551 789Q483 789 426 758T346 686V0H118Z" />
<glyph unicode="s" horiz-adv-x="839" d="M400 -20Q290 -20 208 3T63 58L85 257Q145 218 222 188T392 157Q474 157 517 183T560 265Q560 308 535 335T468 382T372 420Q289 448 222 483T116 575T76 720Q76 802 118 868T242 974T446 1013Q542 1013 612 992T740 940L718
745Q659 788 595 816T450 845Q378 845 337 817T295 734Q295 672 347 643T509 574Q567 553 617 528T705 469T764 388T785 276Q785 192 745 125T620 19T400 -20Z" />
<glyph unicode="t" horiz-adv-x="683" d="M449 -20Q355 -20 297 17T212 111T185 232V812H33L53 993H185V1221L408 1244V993H642V812H408V337Q408 254 418 218T464 172T580 162H640L621 -20H449Z" />
<glyph unicode="u" horiz-adv-x="1084" d="M510 -20Q369 -20 280 36T150 196T108 443V993H331V461Q331 316 380 244T540 171Q624 171 685 211T780 328L742 213V993H965V0H760L739 181L791 124Q750 62 675 21T510 -20Z" />
<glyph unicode="v" horiz-adv-x="989" d="M391 0L10 993H238L495 268L750 993H979L599 0H391Z" />
<glyph unicode="w" horiz-adv-x="1451" d="M314 0L21 993H253L430 264L626 969H826L1020 264L1199 993H1431L1137 0H931L726 678L520 0H314Z" />
<glyph unicode="x" horiz-adv-x="970" d="M21 0L356 496L24 993H285L491 667L680 993H945L616 501L949 0H687L481 325L283 0H21Z" />
<glyph unicode="y" horiz-adv-x="1051" d="M196 -484L419 58L6 993H255L529 318L795 993H1043L427 -484H196Z" />
<glyph unicode="z" horiz-adv-x="943" d="M39 0L604 892L630 802H80V993H903L338 101L306 191H902V0H39Z" />
<glyph unicode="{" horiz-adv-x="654" d="M563 -272Q373 -272 289 -185T204 41Q204 103 212 181T220 327Q220 435 185 488T53 541V687Q149 687 184 740T220 901Q220 969 212 1047T204 1187Q204 1325 288 1412T563 1500H637V1311H583Q487 1311 434 1270T381 1127Q381
1063 389 984T397 841Q397 727 340 673T187 593V635Q283 611 340 556T397 387Q397 324 389 245T381 101Q381 -1 434 -42T583 -83H637V-272H563Z" />
<glyph unicode="|" horiz-adv-x="452" d="M115 -419V1500H337V-419H115Z" />
<glyph unicode="}" horiz-adv-x="654" d="M17 -272V-83H71Q168 -83 220 -42T273 101Q273 166 265 245T257 387Q257 501 314 556T467 635V593Q371 618 314 672T257 841Q257 904 265 983T273 1127Q273 1229 221 1270T71 1311H17V1500H91Q281 1500 365 1413T450 1187Q450
1126 442 1048T434 901Q434 793 469 740T601 687V541Q505 541 470 488T434 327Q434 260 442 182T450 41Q450 -97 366 -184T91 -272H17Z" />
<glyph unicode="~" horiz-adv-x="928" d="M635 582Q573 582 524 605T429 653T328 677Q250 677 250 593H84Q89 720 142 787T293 854Q357 854 407 830T504 782T600 758Q678 758 678 842H843Q839 716 786 649T635 582Z" />
<glyph unicode="&#xa0;" horiz-adv-x="450" />
<glyph unicode="&#xa1;" horiz-adv-x="469" d="M152 611V556L123 -400H371L343 556V611H152ZM125 1000V750H369V1000H125Z" />
<glyph unicode="&#xa2;" horiz-adv-x="909" d="M577 -20Q407 -20 292 49T119 235T60 493Q60 637 117 755T292 943T587 1013Q669 1013 737 996T855 951L832 766Q783 791 724 806T601 822Q451 822 370 734T288 496Q288 353 369 260T598 167Q661 167 720 184T834
231L857 45Q809 18 735 -1T577 -20ZM470 -288L490 68H632L652 -288H470ZM490 929L470 1271H652L632 929H490Z" />
<glyph unicode="&#xa3;" horiz-adv-x="1040" d="M97 0Q139 110 167 205T215 403T249 636L284 972Q307 1185 409 1306T714 1428Q786 1428 849 1411T974 1358L954 1118Q897 1162 844 1186T728 1210Q632 1210 580 1152T516 988L481 652Q467 522 449 430T404 260T333
98L272 218H984V0H97ZM95 627V793H860V627H95Z" />
<glyph unicode="&#xa4;" horiz-adv-x="1451" d="M725 1210Q880 1210 999 1143T1185 960T1253 696Q1253 549 1186 433T1001 249T725 182Q566 182 448 250T264 434T198 696Q198 843 265 959T450 1143T725 1210ZM725 1008Q628 1008 561 968T460 857T425 696Q425 606
459 536T561 425T725 384Q822 384 889 424T990 535T1025 696Q1025 786 991 857T889 968T725 1008ZM200 1315L473 1042L381 949L107 1224L200 1315ZM382 445L474 352L200 77L107 168L382 445ZM1064 448L1343 168L1250 77L971 358L1064 448ZM1250 1315L1343 1224L1072
951L979 1044L1250 1315Z" />
<glyph unicode="&#xa5;" horiz-adv-x="1181" d="M475 0V581L-18 1400H239L644 701H536L942 1400H1199L707 581V0H475ZM185 265V431H997V265H185ZM185 545V711H997V545H185Z" />
<glyph unicode="&#xa6;" horiz-adv-x="454" d="M116 684V1500H338V684H116ZM116 -420V396H338V-420H116Z" />
<glyph unicode="&#xa7;" horiz-adv-x="917" d="M413 -169Q329 -169 253 -145T127 -89L148 91Q207 53 282 25T423 -3Q501 -3 548 31T597 131Q598 190 561 227T465 291T338 346T212 412T115 511T77 663Q77 762 126 834T264 958Q221 991 192 1050T163 1191Q163 1276
201 1346T314 1458T502 1500Q589 1500 666 1474T791 1419L770 1239Q711 1278 635 1306T493 1334Q424 1334 375 1303T326 1214Q326 1160 363 1124T458 1060T583 1001T707 928T803 822T841 665Q841 612 823 559T763 457T655 373Q706 337 729 284T753 155Q753 81 723
7T619 -118T413 -169ZM556 453Q603 476 635 523T668 631Q668 689 632 731T529 809T378 882Q328 860 288 817T247 699Q247 639 283 597T388 522T556 453Z" />
<glyph unicode="&#xa8;" horiz-adv-x="981" d="M597 1182V1355H782V1182H597ZM200 1182V1355H385V1182H200Z" />
<glyph unicode="&#xa9;" horiz-adv-x="1416" d="M709 73Q528 73 387 154T166 384T85 730Q85 928 165 1075T387 1304T709 1385Q889 1385 1029 1304T1250 1076T1330 730Q1330 532 1250 384T1030 155T709 73ZM725 385Q631 385 558 427T444 546T402 726Q402 882 492
975T725 1069Q777 1069 828 1057T921 1026L903 874Q859 893 816 905T725 917Q648 917 607 865T566 726Q566 643 607 589T725 535Q773 535 816 548T903 581L921 431Q880 409 828 397T725 385ZM709 194Q871 194 978 264T1139 456T1193 730Q1193 882 1140 1003T979
1194T709 1264Q545 1264 437 1194T276 1003T222 730Q222 578 275 457T437 265T709 194Z" />
<glyph unicode="&#xaa;" horiz-adv-x="713" d="M241 868Q165 868 114 912T62 1035Q62 1092 91 1131T167 1194T272 1233T387 1251Q386 1274 368 1289T297 1305Q255 1305 212 1296T124 1271L113 1418Q174 1438 231 1448T344 1459Q450 1459 512 1405T574 1249V1082Q574
1041 583 1031T614 1021H641L631 868H549Q500 868 467 885T415 931Q386 901 338 885T241 868ZM314 999Q333 999 352 1005T389 1023V1131Q333 1125 297 1108T260 1050Q260 1024 275 1012T314 999Z" />
<glyph unicode="&#xab;" horiz-adv-x="1196" d="M333 156L24 568L333 980H600L291 568L600 156H333ZM853 156L544 568L853 980H1120L811 568L1120 156H853Z" />
<glyph unicode="&#xac;" horiz-adv-x="1029" d="M756 302V637H84V812H944V302H756Z" />
<glyph unicode="&#xad;" horiz-adv-x="888" d="M134 531V713H754V531H134Z" />
<glyph unicode="&#xae;" horiz-adv-x="1416" d="M709 73Q528 73 388 155T167 384T86 730Q86 928 166 1075T387 1304T709 1386Q889 1386 1029 1305T1249 1076T1329 730Q1329 532 1249 385T1029 155T709 73ZM709 194Q871 194 978 265T1138 457T1192 730Q1192 882
1139 1002T978 1193T709 1264Q546 1264 438 1194T277 1003T223 730Q223 578 276 457T438 265T709 194ZM464 411V1071H711Q821 1071 882 1020T943 860Q943 801 914 755T844 684L989 411H823L706 639H621V411H464ZM621 783H698Q741 783 761 805T781 862Q781 898 761
919T698 940H621V783Z" />
<glyph unicode="&#xaf;" horiz-adv-x="1050" d="M200 1182V1337H850V1182H200Z" />
<glyph unicode="&#xb0;" horiz-adv-x="579" d="M289 964Q160 964 89 1044T17 1236Q17 1348 88 1429T289 1510Q419 1510 490 1429T562 1236Q562 1124 491 1044T289 964ZM289 1071Q364 1071 401 1119T439 1236Q439 1306 402 1354T289 1403Q218 1403 179 1355T139
1236Q139 1167 178 1119T289 1071Z" />
<glyph unicode="&#xb1;" horiz-adv-x="909" d="M367 363V628H92V795H367V1059H542V795H817V628H542V363H367ZM92 103V270H817V103H92Z" />
<glyph unicode="&#xb2;" horiz-adv-x="656" d="M65 772L287 1088Q335 1158 353 1198T371 1279Q371 1324 345 1352T267 1381Q213 1381 168 1356T81 1295L67 1468Q115 1500 176 1522T308 1544Q421 1544 490 1480T560 1312Q560 1267 550 1226T513 1138T442 1026L280
794L247 932H596V772H65Z" />
<glyph unicode="&#xb3;" horiz-adv-x="678" d="M326 744Q250 744 185 761T65 808L103 967Q148 939 194 921T295 902Q350 902 381 923T413 987Q413 1030 384 1056T289 1082H230V1228H291Q338 1228 365 1249T393 1309Q393 1342 369 1364T294 1386Q246 1386 203 1370T121
1325L107 1491Q156 1516 214 1530T337 1544Q451 1544 515 1487T579 1340Q579 1262 539 1216T443 1148V1172Q515 1152 559 1103T603 973Q603 866 524 805T326 744Z" />
<glyph unicode="&#xb4;" horiz-adv-x="947" d="M280 1144V1289L666 1512V1294L280 1144Z" />
<glyph unicode="&#xb5;" horiz-adv-x="1216" d="M143 -484V993H366V423Q366 299 416 235T577 170Q646 170 696 195T785 265V993H1006V343Q1006 270 1013 231T1039 177T1096 162H1132L1107 -20H1031Q952 -20 899 10T815 99Q769 49 707 16T559 -18Q501 -18 452 -5T365
31V-484H143Z" />
<glyph unicode="&#xb6;" horiz-adv-x="1248" d="M601 0V468Q419 479 301 549T124 723T66 938Q66 1052 128 1158T318 1332T641 1400H1160V1215H1018V0H871V1215H718V0H601Z" />
<glyph unicode="&#xb7;" horiz-adv-x="468" d="M110 426V686H358V426H110Z" />
<glyph unicode="&#xb8;" horiz-adv-x="782" d="M375 -158L301 -128Q325 -119 348 -114T399 -108Q484 -108 533 -153T582 -278Q582 -371 518 -420T361 -469Q308 -469 268 -458T200 -431L235 -320Q266 -335 297 -344T364 -354Q406 -354 432 -337T458 -284Q458 -249
433 -230T357 -211Q334 -211 312 -214T263 -225L317 0H424L375 -158Z" />
<glyph unicode="&#xb9;" horiz-adv-x="489" d="M204 772V1312Q172 1286 141 1270T78 1246L67 1396Q116 1413 166 1446T244 1516H379V772H204Z" />
<glyph unicode="&#xba;" horiz-adv-x="749" d="M374 868Q275 868 205 910T97 1019T60 1164Q60 1241 97 1308T204 1417T374 1459Q473 1459 543 1418T651 1309T688 1164Q688 1086 651 1019T544 910T374 868ZM374 1010Q432 1010 465 1056T498 1164Q498 1227 465 1272T374
1318Q315 1318 282 1273T249 1164Q249 1102 282 1056T374 1010Z" />
<glyph unicode="&#xbb;" horiz-adv-x="1197" d="M597 156L906 568L597 980H863L1172 568L863 156H597ZM77 156L386 568L77 980H343L652 568L343 156H77Z" />
<glyph unicode="&#xbc;" horiz-adv-x="1344" d="M453 656V1196Q421 1170 390 1154T327 1130L316 1280Q365 1297 415 1330T493 1400H628V656H453ZM144 0L963 1400H1150L333 0H144ZM1014 0V159H609L1026 744H1170V294H1268V159H1170V0H1014ZM832 246L766 294H1014V408V632L1073
590L962 429L832 246Z" />
<glyph unicode="&#xbd;" horiz-adv-x="1422" d="M453 656V1196Q421 1170 390 1154T327 1130L316 1280Q365 1297 415 1330T493 1400H628V656H453ZM126 0L945 1400H1132L315 0H126ZM831 0L1053 316Q1101 386 1119 426T1137 507Q1137 552 1111 580T1033 609Q979 609
934 584T847 523L833 696Q881 728 942 750T1074 772Q1187 772 1256 708T1326 540Q1326 495 1316 454T1279 366T1208 254L1046 22L1013 160H1362V0H831Z" />
<glyph unicode="&#xbe;" horiz-adv-x="1469" d="M326 628Q250 628 185 645T65 692L103 851Q148 823 194 805T295 786Q350 786 381 807T413 871Q413 914 384 940T289 966H230V1112H291Q338 1112 365 1133T393 1193Q393 1226 369 1248T294 1270Q246 1270 203 1254T121
1209L107 1375Q156 1400 214 1414T337 1428Q451 1428 515 1371T579 1224Q579 1146 539 1100T443 1032V1056Q515 1036 559 987T603 857Q603 750 524 689T326 628ZM283 0L1102 1400H1289L472 0H283ZM1139 0V159H734L1151 744H1295V294H1393V159H1295V0H1139ZM957
246L891 294H1139V408V632L1198 590L1087 429L957 246Z" />
<glyph unicode="&#xbf;" horiz-adv-x="841" d="M648 611V581Q648 499 625 439T565 329T484 234Q413 157 372 100T330 -37Q330 -94 355 -132T425 -189T523 -209Q602 -209 669 -188T800 -133L824 -342Q753 -380 669 -404T468 -428Q344 -428 257 -381T123 -253T76
-74Q76 -1 100 58T166 170T259 278Q319 343 366 410T413 569V611H648ZM654 1000V750H410V1000H654Z" />
<glyph unicode="&#xc0;" horiz-adv-x="1243" d="M917 349H326V554H917V349ZM591 1173H653L239 0H9L508 1400H735L1235 0H1004L591 1173ZM814 1522L428 1638V1842L814 1652V1522Z" />
<glyph unicode="&#xc1;" horiz-adv-x="1243" d="M917 349H326V554H917V349ZM591 1173H653L239 0H9L508 1400H735L1235 0H1004L591 1173ZM430 1522V1652L816 1842V1638L430 1522Z" />
<glyph unicode="&#xc2;" horiz-adv-x="1243" d="M917 349H326V554H917V349ZM591 1173H653L239 0H9L508 1400H735L1235 0H1004L591 1173ZM362 1496V1634L622 1817L882 1634V1496L622 1635L362 1496Z" />
<glyph unicode="&#xc3;" horiz-adv-x="1243" d="M917 349H326V554H917V349ZM591 1173H653L239 0H9L508 1400H735L1235 0H1004L591 1173ZM793 1562Q747 1562 697 1582T599 1624T513 1645Q446 1645 446 1574H302Q302 1675 339 1728T451 1781Q497 1781 547 1760T645
1718T731 1697Q798 1697 798 1768H942Q942 1669 905 1616T793 1562Z" />
<glyph unicode="&#xc4;" horiz-adv-x="1243" d="M917 349H326V554H917V349ZM591 1173H653L239 0H9L508 1400H735L1235 0H1004L591 1173ZM331 1574V1738H516V1574H331ZM728 1574V1738H913V1574H728Z" />
<glyph unicode="&#xc5;" horiz-adv-x="1243" d="M917 349H326V554H917V349ZM591 1173H653L239 0H9L508 1400H735L1235 0H1004L591 1173ZM622 1509Q523 1509 467 1567T411 1704Q411 1782 467 1841T622 1900Q723 1900 778 1841T833 1704Q833 1626 778 1568T622 1509ZM622
1607Q662 1607 691 1633T720 1704Q720 1746 692 1773T622 1800Q582 1800 553 1773T524 1704Q524 1660 553 1634T622 1607Z" />
<glyph unicode="&#xc6;" horiz-adv-x="1732" d="M-19 0L664 1400H1644V1179H1040V841H1505V621H1040V220H1662V0H790V1174L218 0H-19ZM337 346V571H822V346H337Z" />
<glyph unicode="&#xc7;" horiz-adv-x="1223" d="M787 -28Q577 -28 416 62T164 315T73 700Q73 921 166 1084T422 1338T795 1428Q904 1428 998 1405T1161 1346L1136 1127Q1060 1162 976 1185T793 1209Q639 1209 536 1143T380 961T327 700Q327 555 378 440T532 258T787
191Q889 191 972 213T1136 273L1161 53Q1083 17 989 -5T787 -28ZM765 -158L691 -128Q715 -119 738 -114T789 -108Q874 -108 923 -153T972 -278Q972 -371 908 -420T751 -469Q698 -469 658 -458T590 -431L625 -320Q656 -335 687 -344T754 -354Q796 -354 822 -337T848
-284Q848 -249 823 -230T747 -211Q724 -211 702 -214T653 -225L707 0H814L765 -158Z" />
<glyph unicode="&#xc8;" horiz-adv-x="1126" d="M156 0V1400H1037V1180H392V841H897V621H392V220H1056V0H156ZM809 1522L423 1638V1842L809 1652V1522Z" />
<glyph unicode="&#xc9;" horiz-adv-x="1126" d="M156 0V1400H1037V1180H392V841H897V621H392V220H1056V0H156ZM425 1522V1652L811 1842V1638L425 1522Z" />
<glyph unicode="&#xca;" horiz-adv-x="1126" d="M156 0V1400H1037V1180H392V841H897V621H392V220H1056V0H156ZM357 1496V1634L617 1817L877 1634V1496L617 1635L357 1496Z" />
<glyph unicode="&#xcb;" horiz-adv-x="1126" d="M156 0V1400H1037V1180H392V841H897V621H392V220H1056V0H156ZM326 1574V1738H511V1574H326ZM723 1574V1738H908V1574H723Z" />
<glyph unicode="&#xcc;" horiz-adv-x="544" d="M156 0V1400H388V0H156ZM465 1522L79 1638V1842L465 1652V1522Z" />
<glyph unicode="&#xcd;" horiz-adv-x="544" d="M156 0V1400H388V0H156ZM81 1522V1652L467 1842V1638L81 1522Z" />
<glyph unicode="&#xce;" horiz-adv-x="544" d="M156 0V1400H388V0H156ZM13 1496V1634L273 1817L533 1634V1496L273 1635L13 1496Z" />
<glyph unicode="&#xcf;" horiz-adv-x="544" d="M156 0V1400H388V0H156ZM-18 1574V1738H167V1574H-18ZM379 1574V1738H564V1574H379Z" />
<glyph unicode="&#xd0;" horiz-adv-x="1461" d="M176 0V621H42V802H176V1400H696Q896 1400 1052 1317T1297 1077T1386 700Q1386 480 1297 324T1052 84T696 0H176ZM404 220H696Q914 220 1023 350T1133 700Q1133 921 1024 1051T696 1181H404V802H656V621H404V220Z" />
<glyph unicode="&#xd1;" horiz-adv-x="1412" d="M156 0V1400H391L1023 444V1400H1256V0H1063L388 1013V0H156ZM879 1562Q833 1562 783 1582T685 1624T599 1645Q532 1645 532 1574H388Q388 1675 425 1728T537 1781Q583 1781 633 1760T731 1718T817 1697Q884 1697
884 1768H1028Q1028 1669 991 1616T879 1562Z" />
<glyph unicode="&#xd2;" horiz-adv-x="1527" d="M764 -28Q564 -28 408 62T163 315T74 700Q74 921 163 1084T408 1338T764 1428Q964 1428 1120 1338T1365 1085T1454 700Q1454 479 1365 316T1120 62T764 -28ZM764 197Q911 197 1010 262T1159 442T1209 700Q1209 844
1159 958T1010 1137T764 1203Q616 1203 517 1138T368 958T318 700Q318 556 368 442T517 263T764 197ZM956 1522L570 1638V1842L956 1652V1522Z" />
<glyph unicode="&#xd3;" horiz-adv-x="1527" d="M764 -28Q564 -28 408 62T163 315T74 700Q74 921 163 1084T408 1338T764 1428Q964 1428 1120 1338T1365 1085T1454 700Q1454 479 1365 316T1120 62T764 -28ZM764 197Q911 197 1010 262T1159 442T1209 700Q1209 844
1159 958T1010 1137T764 1203Q616 1203 517 1138T368 958T318 700Q318 556 368 442T517 263T764 197ZM572 1522V1652L958 1842V1638L572 1522Z" />
<glyph unicode="&#xd4;" horiz-adv-x="1527" d="M764 -28Q564 -28 408 62T163 315T74 700Q74 921 163 1084T408 1338T764 1428Q964 1428 1120 1338T1365 1085T1454 700Q1454 479 1365 316T1120 62T764 -28ZM764 197Q911 197 1010 262T1159 442T1209 700Q1209 844
1159 958T1010 1137T764 1203Q616 1203 517 1138T368 958T318 700Q318 556 368 442T517 263T764 197ZM504 1496V1634L764 1817L1024 1634V1496L764 1635L504 1496Z" />
<glyph unicode="&#xd5;" horiz-adv-x="1527" d="M764 -28Q564 -28 408 62T163 315T74 700Q74 921 163 1084T408 1338T764 1428Q964 1428 1120 1338T1365 1085T1454 700Q1454 479 1365 316T1120 62T764 -28ZM764 197Q911 197 1010 262T1159 442T1209 700Q1209 844
1159 958T1010 1137T764 1203Q616 1203 517 1138T368 958T318 700Q318 556 368 442T517 263T764 197ZM935 1562Q889 1562 839 1582T741 1624T655 1645Q588 1645 588 1574H444Q444 1675 481 1728T593 1781Q639 1781 689 1760T787 1718T873 1697Q940 1697 940 1768H1084Q1084
1669 1047 1616T935 1562Z" />
<glyph unicode="&#xd6;" horiz-adv-x="1527" d="M764 -28Q564 -28 408 62T163 315T74 700Q74 921 163 1084T408 1338T764 1428Q964 1428 1120 1338T1365 1085T1454 700Q1454 479 1365 316T1120 62T764 -28ZM764 197Q911 197 1010 262T1159 442T1209 700Q1209 844
1159 958T1010 1137T764 1203Q616 1203 517 1138T368 958T318 700Q318 556 368 442T517 263T764 197ZM473 1574V1738H658V1574H473ZM870 1574V1738H1055V1574H870Z" />
<glyph unicode="&#xd7;" horiz-adv-x="848" d="M189 195L65 318L659 919L782 796L189 195ZM659 195L65 796L189 919L782 318L659 195Z" />
<glyph unicode="&#xd8;" horiz-adv-x="1527" d="M129 -88L1204 1488H1399L323 -88H129ZM764 -28Q564 -28 408 62T163 315T74 700Q74 921 163 1084T408 1338T764 1428Q964 1428 1120 1338T1365 1085T1454 700Q1454 479 1365 316T1120 62T764 -28ZM764 197Q911 197
1010 262T1159 442T1209 700Q1209 844 1159 958T1010 1137T764 1203Q616 1203 517 1138T368 958T318 700Q318 556 368 442T517 263T764 197Z" />
<glyph unicode="&#xd9;" horiz-adv-x="1440" d="M720 -28Q523 -28 395 49T203 266T140 598V1400H372V659Q372 560 386 475T436 326T542 227T720 191Q830 191 898 226T1004 326T1054 475T1068 659V1400H1300V598Q1300 407 1237 267T1046 49T720 -28ZM912 1522L526
1638V1842L912 1652V1522Z" />
<glyph unicode="&#xda;" horiz-adv-x="1440" d="M720 -28Q523 -28 395 49T203 266T140 598V1400H372V659Q372 560 386 475T436 326T542 227T720 191Q830 191 898 226T1004 326T1054 475T1068 659V1400H1300V598Q1300 407 1237 267T1046 49T720 -28ZM528 1522V1652L914
1842V1638L528 1522Z" />
<glyph unicode="&#xdb;" horiz-adv-x="1440" d="M720 -28Q523 -28 395 49T203 266T140 598V1400H372V659Q372 560 386 475T436 326T542 227T720 191Q830 191 898 226T1004 326T1054 475T1068 659V1400H1300V598Q1300 407 1237 267T1046 49T720 -28ZM460 1496V1634L720
1817L980 1634V1496L720 1635L460 1496Z" />
<glyph unicode="&#xdc;" horiz-adv-x="1440" d="M720 -28Q523 -28 395 49T203 266T140 598V1400H372V659Q372 560 386 475T436 326T542 227T720 191Q830 191 898 226T1004 326T1054 475T1068 659V1400H1300V598Q1300 407 1237 267T1046 49T720 -28ZM429 1574V1738H614V1574H429ZM826
1574V1738H1011V1574H826Z" />
<glyph unicode="&#xdd;" horiz-adv-x="1181" d="M475 0V581L-18 1400H239L644 701H536L942 1400H1199L707 581V0H475ZM398 1522V1652L784 1842V1638L398 1522Z" />
<glyph unicode="&#xde;" horiz-adv-x="1140" d="M156 0V1400H392V1103H662Q881 1103 988 1003T1096 726Q1096 549 989 449T662 349H392V0H156ZM392 547H638Q758 547 808 594T859 726Q859 818 809 861T638 905H392V547Z" />
<glyph unicode="&#xdf;" horiz-adv-x="1221" d="M728 -28Q675 -28 627 -23T526 -6V174Q576 164 626 159T730 153Q831 153 890 196T950 317Q950 384 914 429T823 508T715 577T625 656T588 767Q588 833 623 882T735 1007Q785 1057 810 1094T836 1188Q836 1256 786
1298T638 1340Q519 1340 459 1271T399 1079V0H178V812H33L53 993H178V1075Q178 1303 307 1415T642 1528Q830 1528 943 1444T1057 1213Q1057 1146 1039 1100T988 1016T915 939Q864 888 840 855T815 786Q815 742 851 709T942 644T1050 571T1140 470T1177 323Q1177
204 1113 126T947 10T728 -28Z" />
<glyph unicode="&#xe0;" horiz-adv-x="983" d="M339 -20Q255 -20 188 16T83 118T44 274Q44 358 82 418T184 519T323 582T475 617T615 629Q612 735 567 775T423 816Q360 816 297 798T154 735L131 917Q210 961 299 985T483 1010Q600 1010 679 969T798 834T839 583V339Q839
266 846 228T873 176T936 162H963L939 -20H877Q809 -20 764 -5T691 39T642 106Q591 48 511 14T339 -20ZM417 153Q464 153 520 177T616 247V477Q520 474 443 453T322 390T277 284Q277 217 312 185T417 153ZM675 1144L289 1294V1512L675 1289V1144Z" />
<glyph unicode="&#xe1;" horiz-adv-x="983" d="M339 -20Q255 -20 188 16T83 118T44 274Q44 358 82 418T184 519T323 582T475 617T615 629Q612 735 567 775T423 816Q360 816 297 798T154 735L131 917Q210 961 299 985T483 1010Q600 1010 679 969T798 834T839 583V339Q839
266 846 228T873 176T936 162H963L939 -20H877Q809 -20 764 -5T691 39T642 106Q591 48 511 14T339 -20ZM417 153Q464 153 520 177T616 247V477Q520 474 443 453T322 390T277 284Q277 217 312 185T417 153ZM291 1144V1289L677 1512V1294L291 1144Z" />
<glyph unicode="&#xe2;" horiz-adv-x="983" d="M339 -20Q255 -20 188 16T83 118T44 274Q44 358 82 418T184 519T323 582T475 617T615 629Q612 735 567 775T423 816Q360 816 297 798T154 735L131 917Q210 961 299 985T483 1010Q600 1010 679 969T798 834T839 583V339Q839
266 846 228T873 176T936 162H963L939 -20H877Q809 -20 764 -5T691 39T642 106Q591 48 511 14T339 -20ZM417 153Q464 153 520 177T616 247V477Q520 474 443 453T322 390T277 284Q277 217 312 185T417 153ZM223 1115V1260L483 1483L743 1260V1115L483 1279L223 1115Z"
/>
<glyph unicode="&#xe3;" horiz-adv-x="983" d="M339 -20Q255 -20 188 16T83 118T44 274Q44 358 82 418T184 519T323 582T475 617T615 629Q612 735 567 775T423 816Q360 816 297 798T154 735L131 917Q210 961 299 985T483 1010Q600 1010 679 969T798 834T839 583V339Q839
266 846 228T873 176T936 162H963L939 -20H877Q809 -20 764 -5T691 39T642 106Q591 48 511 14T339 -20ZM417 153Q464 153 520 177T616 247V477Q520 474 443 453T322 390T277 284Q277 217 312 185T417 153ZM649 1157Q599 1157 552 1180T461 1225T375 1248Q307 1248
307 1173H145Q150 1287 193 1347T317 1408Q367 1408 414 1386T505 1341T591 1318Q659 1318 659 1392H821Q817 1278 774 1218T649 1157Z" />
<glyph unicode="&#xe4;" horiz-adv-x="983" d="M339 -20Q255 -20 188 16T83 118T44 274Q44 358 82 418T184 519T323 582T475 617T615 629Q612 735 567 775T423 816Q360 816 297 798T154 735L131 917Q210 961 299 985T483 1010Q600 1010 679 969T798 834T839 583V339Q839
266 846 228T873 176T936 162H963L939 -20H877Q809 -20 764 -5T691 39T642 106Q591 48 511 14T339 -20ZM417 153Q464 153 520 177T616 247V477Q520 474 443 453T322 390T277 284Q277 217 312 185T417 153ZM589 1182V1355H774V1182H589ZM192 1182V1355H377V1182H192Z"
/>
<glyph unicode="&#xe5;" horiz-adv-x="983" d="M339 -20Q255 -20 188 16T83 118T44 274Q44 358 82 418T184 519T323 582T475 617T615 629Q612 735 567 775T423 816Q360 816 297 798T154 735L131 917Q210 961 299 985T483 1010Q600 1010 679 969T798 834T839 583V339Q839
266 846 228T873 176T936 162H963L939 -20H877Q809 -20 764 -5T691 39T642 106Q591 48 511 14T339 -20ZM417 153Q464 153 520 177T616 247V477Q520 474 443 453T322 390T277 284Q277 217 312 185T417 153ZM483 1139Q384 1139 330 1197T275 1335Q275 1414 330 1473T483
1532Q583 1532 637 1473T691 1335Q691 1256 638 1198T483 1139ZM483 1237Q523 1237 551 1263T580 1335Q580 1378 552 1405T483 1433Q443 1433 415 1406T386 1335Q386 1290 415 1264T483 1237Z" />
<glyph unicode="&#xe6;" horiz-adv-x="1564" d="M370 -20Q274 -20 201 14T86 112T44 261Q44 364 97 432T236 540T426 597T631 614H1280Q1280 700 1235 761T1092 822Q980 822 916 743T852 520Q852 392 896 315T1011 203T1162 168Q1235 168 1308 188T1447 241L1464
56Q1406 26 1327 3T1145 -20Q972 -20 856 52T680 242T621 503V563Q621 683 582 749T423 816Q360 816 297 798T154 735L131 917Q210 961 299 985T483 1010Q611 1010 693 961T811 796L694 775Q750 880 853 945T1098 1010Q1232 1010 1323 953T1461 799T1508 583Q1508
555 1505 525T1495 462H642Q457 462 367 417T277 283Q277 216 322 185T435 153Q505 153 571 187T691 289L761 189Q697 97 591 39T370 -20Z" />
<glyph unicode="&#xe7;" horiz-adv-x="909" d="M577 -20Q407 -20 292 49T119 235T60 493Q60 637 117 755T292 943T587 1013Q669 1013 737 996T855 951L832 766Q783 791 724 806T601 822Q451 822 370 734T288 496Q288 353 369 260T598 167Q661 167 720 184T834
231L857 45Q809 18 735 -1T577 -20ZM550 -158L476 -128Q500 -119 523 -114T574 -108Q659 -108 708 -153T757 -278Q757 -371 693 -420T536 -469Q483 -469 443 -458T375 -431L410 -320Q441 -335 472 -344T539 -354Q581 -354 607 -337T633 -284Q633 -249 608 -230T532
-211Q509 -211 487 -214T438 -225L492 0H599L550 -158Z" />
<glyph unicode="&#xe8;" horiz-adv-x="1028" d="M596 -20Q418 -20 299 52T119 242T58 503Q58 640 114 755T279 940T543 1010Q679 1010 775 955T921 804T972 583Q972 555 969 525T959 462H289Q303 353 350 289T467 197T618 168Q698 168 772 187T911 241L928 56Q871
28 787 4T596 -20ZM299 614H744Q744 668 724 715T659 792T542 822Q437 822 379 765T299 614ZM752 1144L366 1294V1512L752 1289V1144Z" />
<glyph unicode="&#xe9;" horiz-adv-x="1028" d="M596 -20Q418 -20 299 52T119 242T58 503Q58 640 114 755T279 940T543 1010Q679 1010 775 955T921 804T972 583Q972 555 969 525T959 462H289Q303 353 350 289T467 197T618 168Q698 168 772 187T911 241L928 56Q871
28 787 4T596 -20ZM299 614H744Q744 668 724 715T659 792T542 822Q437 822 379 765T299 614ZM368 1144V1289L754 1512V1294L368 1144Z" />
<glyph unicode="&#xea;" horiz-adv-x="1028" d="M596 -20Q418 -20 299 52T119 242T58 503Q58 640 114 755T279 940T543 1010Q679 1010 775 955T921 804T972 583Q972 555 969 525T959 462H289Q303 353 350 289T467 197T618 168Q698 168 772 187T911 241L928 56Q871
28 787 4T596 -20ZM299 614H744Q744 668 724 715T659 792T542 822Q437 822 379 765T299 614ZM300 1115V1260L560 1483L820 1260V1115L560 1279L300 1115Z" />
<glyph unicode="&#xeb;" horiz-adv-x="1028" d="M596 -20Q418 -20 299 52T119 242T58 503Q58 640 114 755T279 940T543 1010Q679 1010 775 955T921 804T972 583Q972 555 969 525T959 462H289Q303 353 350 289T467 197T618 168Q698 168 772 187T911 241L928 56Q871
28 787 4T596 -20ZM299 614H744Q744 668 724 715T659 792T542 822Q437 822 379 765T299 614ZM666 1182V1355H851V1182H666ZM269 1182V1355H454V1182H269Z" />
<glyph unicode="&#xec;" horiz-adv-x="460" d="M118 0V993H341V0H118ZM422 1144L36 1294V1512L422 1289V1144Z" />
<glyph unicode="&#xed;" horiz-adv-x="460" d="M118 0V993H341V0H118ZM38 1144V1289L424 1512V1294L38 1144Z" />
<glyph unicode="&#xee;" horiz-adv-x="460" d="M118 0V993H341V0H118ZM-30 1115V1260L230 1483L490 1260V1115L230 1279L-30 1115Z" />
<glyph unicode="&#xef;" horiz-adv-x="460" d="M118 0V993H341V0H118ZM336 1182V1355H521V1182H336ZM-61 1182V1355H124V1182H-61Z" />
<glyph unicode="&#xf0;" horiz-adv-x="1014" d="M489 -25Q357 -25 256 32T98 188T41 410Q41 522 91 623T236 788T467 852Q576 852 642 812T749 722L717 690Q710 831 662 949T515 1154T259 1284L297 1402Q455 1371 577 1291T783 1092T910 827T953 515Q953 368 913
265T807 98T658 5T489 -25ZM495 164Q604 164 665 237T727 415Q727 520 666 594T491 668Q415 668 363 633T285 540T258 414Q258 312 318 238T495 164ZM331 987L259 1106L780 1400L850 1281L331 987Z" />
<glyph unicode="&#xf1;" horiz-adv-x="1109" d="M118 0V993H317L336 806L274 865Q346 936 430 973T615 1010Q815 1010 908 884T1001 551V0H778V539Q778 685 727 753T559 822Q468 822 404 780T304 659L341 777V0H118ZM753 1144Q703 1144 656 1167T565 1212T479
1235Q411 1235 411 1160H249Q254 1274 297 1334T421 1395Q471 1395 518 1373T609 1328T695 1305Q763 1305 763 1379H925Q921 1265 878 1205T753 1144Z" />
<glyph unicode="&#xf2;" horiz-adv-x="1125" d="M563 -20Q403 -20 291 50T119 237T59 495Q59 636 118 754T290 942T563 1013Q722 1013 835 943T1007 754T1067 495Q1067 354 1008 237T835 50T563 -20ZM563 168Q695 168 766 257T838 495Q838 645 767 735T563 825Q431
825 359 735T287 495Q287 347 359 258T563 168ZM755 1144L369 1294V1512L755 1289V1144Z" />
<glyph unicode="&#xf3;" horiz-adv-x="1125" d="M563 -20Q403 -20 291 50T119 237T59 495Q59 636 118 754T290 942T563 1013Q722 1013 835 943T1007 754T1067 495Q1067 354 1008 237T835 50T563 -20ZM563 168Q695 168 766 257T838 495Q838 645 767 735T563 825Q431
825 359 735T287 495Q287 347 359 258T563 168ZM371 1144V1289L757 1512V1294L371 1144Z" />
<glyph unicode="&#xf4;" horiz-adv-x="1125" d="M563 -20Q403 -20 291 50T119 237T59 495Q59 636 118 754T290 942T563 1013Q722 1013 835 943T1007 754T1067 495Q1067 354 1008 237T835 50T563 -20ZM563 168Q695 168 766 257T838 495Q838 645 767 735T563 825Q431
825 359 735T287 495Q287 347 359 258T563 168ZM303 1115V1260L563 1483L823 1260V1115L563 1279L303 1115Z" />
<glyph unicode="&#xf5;" horiz-adv-x="1125" d="M563 -20Q403 -20 291 50T119 237T59 495Q59 636 118 754T290 942T563 1013Q722 1013 835 943T1007 754T1067 495Q1067 354 1008 237T835 50T563 -20ZM563 168Q695 168 766 257T838 495Q838 645 767 735T563 825Q431
825 359 735T287 495Q287 347 359 258T563 168ZM729 1157Q679 1157 632 1180T541 1225T455 1248Q387 1248 387 1173H225Q230 1287 273 1347T397 1408Q447 1408 494 1386T585 1341T671 1318Q739 1318 739 1392H901Q897 1278 854 1218T729 1157Z" />
<glyph unicode="&#xf6;" horiz-adv-x="1125" d="M563 -20Q403 -20 291 50T119 237T59 495Q59 636 118 754T290 942T563 1013Q722 1013 835 943T1007 754T1067 495Q1067 354 1008 237T835 50T563 -20ZM563 168Q695 168 766 257T838 495Q838 645 767 735T563 825Q431
825 359 735T287 495Q287 347 359 258T563 168ZM669 1182V1355H854V1182H669ZM272 1182V1355H457V1182H272Z" />
<glyph unicode="&#xf7;" horiz-adv-x="974" d="M84 469V644H890V469H84ZM372 99V332H602V99H372ZM372 782V1015H602V782H372Z" />
<glyph unicode="&#xf8;" horiz-adv-x="1125" d="M849 1060H1017L277 -80H108L849 1060ZM563 -20Q403 -20 291 50T119 237T59 495Q59 636 118 754T290 942T563 1013Q722 1013 835 943T1007 754T1067 495Q1067 354 1008 237T835 50T563 -20ZM563 168Q695 168 766
257T838 495Q838 645 767 735T563 825Q431 825 359 735T287 495Q287 347 359 258T563 168Z" />
<glyph unicode="&#xf9;" horiz-adv-x="1084" d="M510 -20Q369 -20 280 36T150 196T108 443V993H331V461Q331 316 380 244T540 171Q624 171 685 211T780 328L742 213V993H965V0H760L739 181L791 124Q750 62 675 21T510 -20ZM734 1144L348 1294V1512L734 1289V1144Z" />
<glyph unicode="&#xfa;" horiz-adv-x="1084" d="M510 -20Q369 -20 280 36T150 196T108 443V993H331V461Q331 316 380 244T540 171Q624 171 685 211T780 328L742 213V993H965V0H760L739 181L791 124Q750 62 675 21T510 -20ZM350 1144V1289L736 1512V1294L350 1144Z" />
<glyph unicode="&#xfb;" horiz-adv-x="1084" d="M510 -20Q369 -20 280 36T150 196T108 443V993H331V461Q331 316 380 244T540 171Q624 171 685 211T780 328L742 213V993H965V0H760L739 181L791 124Q750 62 675 21T510 -20ZM282 1115V1260L542 1483L802 1260V1115L542
1279L282 1115Z" />
<glyph unicode="&#xfc;" horiz-adv-x="1084" d="M510 -20Q369 -20 280 36T150 196T108 443V993H331V461Q331 316 380 244T540 171Q624 171 685 211T780 328L742 213V993H965V0H760L739 181L791 124Q750 62 675 21T510 -20ZM648 1182V1355H833V1182H648ZM251 1182V1355H436V1182H251Z"
/>
<glyph unicode="&#xfd;" horiz-adv-x="1051" d="M196 -484L419 58L6 993H255L529 318L795 993H1043L427 -484H196ZM333 1144V1289L719 1512V1294L333 1144Z" />
<glyph unicode="&#xfe;" horiz-adv-x="1163" d="M117 -483V1500H341V818L288 856Q361 932 442 971T639 1010Q789 1010 892 940T1050 752T1104 495Q1104 356 1051 239T894 51T639 -20Q517 -20 438 20T289 137L341 176V-483H117ZM607 162Q737 162 806 256T876 495Q876
641 807 731T607 822Q515 822 453 782T360 668T328 495Q328 396 359 321T453 204T607 162Z" />
<glyph unicode="&#xff;" horiz-adv-x="1051" d="M196 -484L419 58L6 993H255L529 318L795 993H1043L427 -484H196ZM631 1182V1355H816V1182H631ZM234 1182V1355H419V1182H234Z" />
<glyph unicode="&#x2013;" horiz-adv-x="1099" d="M0 531V713H1099V531H0Z" />
<glyph unicode="&#x2014;" horiz-adv-x="1469" d="M0 531V713H1469V531H0Z" />
<glyph unicode="&#x2018;" horiz-adv-x="438" d="M229 1400H345L264 1169H354V919H110V1146L229 1400Z" />
<glyph unicode="&#x2019;" horiz-adv-x="425" d="M209 919H93L174 1150H84V1400H328V1173L209 919Z" />
<glyph unicode="&#x201a;" horiz-adv-x="425" d="M465 -231H349L430 0H340V250H584V23L465 -231Z" />
<glyph unicode="&#x201c;" horiz-adv-x="796" d="M229 1417H345L264 1186H354V936H110V1163L229 1417ZM587 1417H703L622 1186H712V936H468V1163L587 1417Z" />
<glyph unicode="&#x201d;" horiz-adv-x="783" d="M209 919H93L174 1150H84V1400H328V1173L209 919ZM567 919H451L532 1150H442V1400H686V1173L567 919Z" />
<glyph unicode="&#x201e;" horiz-adv-x="783" d="M465 -231H349L430 0H340V250H584V23L465 -231ZM567 -231H451L532 0H442V250H686V23L567 -231Z" />
<glyph unicode="&#x2022;" horiz-adv-x="602" d="M301 338Q211 338 147 402T83 556Q83 646 147 710T301 774Q391 774 455 710T519 556Q519 466 455 402T301 338Z" />
<glyph unicode="&#x2039;" horiz-adv-x="676" d="M333 156L24 568L333 980H600L291 568L600 156H333Z" />
<glyph unicode="&#x203a;" horiz-adv-x="677" d="M77 156L386 568L77 980H343L652 568L343 156H77Z" />
</font>
</defs>
</svg>
