<?xml version="1.0" standalone="no"?>
<!DOCTYPE svg PUBLIC "-//W3C//DTD SVG 1.1//EN" "http://www.w3.org/Graphics/SVG/1.1/DTD/svg11.dtd">
<svg xmlns="http://www.w3.org/2000/svg">
<defs >
<font id="Cabin" horiz-adv-x="989" ><font-face
    font-family="Cabin SemiBold"
    units-per-em="2000"
    panose-1="0 0 0 0 0 0 0 0 0 0"
    ascent="1930"
    descent="-500"
    alphabetic="0" />
<glyph unicode=" " horiz-adv-x="423" />
<glyph unicode="!" horiz-adv-x="404" d="M81 389L91 444L231 1400H479L281 444L272 389H81ZM-15 0L29 250H273L229 0H-15Z" />
<glyph unicode="&quot;" horiz-adv-x="642" d="M104 993L139 1400H369L257 993H104ZM429 993L464 1400H694L582 993H429Z" />
<glyph unicode="#" horiz-adv-x="1345" d="M21 -22L784 1400H956L194 -22H21ZM412 -22L1175 1400H1347L585 -22H412ZM247 834L340 1020H1354L1259 834H247ZM39 429L154 620H1168L1051 429H39Z" />
<glyph unicode="$" horiz-adv-x="1121" d="M526 68L484 -288H302L384 68H526ZM650 1346L690 1688H871L791 1346H650ZM408 -28Q266 -28 158 2T-20 70L54 336Q115 283 211 237T438 191Q519 191 583 211T683 274T720 387Q720 452 689 493T598 566T453 628Q383 654
322 683T217 752T147 848T121 984Q121 1069 156 1148T258 1290T426 1391T656 1428Q797 1428 905 1394T1074 1324L1009 1084Q914 1146 829 1178T638 1210Q570 1210 508 1191T407 1131T367 1022Q367 943 431 904T599 827Q668 803 736 775T860 704T951 597T985 436Q985
355 956 273T861 123T683 14T408 -28Z" />
<glyph unicode="%" horiz-adv-x="1749" d="M591 628Q453 628 384 712T315 933Q315 1061 366 1174T511 1358T731 1428Q862 1428 936 1349T1010 1133Q1010 1035 980 945T895 783T763 670T591 628ZM619 791Q686 791 730 843T797 970T820 1115Q820 1191 789 1228T703
1265Q634 1265 590 1213T525 1086T504 940Q504 868 532 830T619 791ZM230 0L1297 1400H1484L419 0H230ZM1229 -28Q1091 -28 1022 56T953 277Q953 405 1004 518T1149 702T1369 772Q1500 772 1574 693T1648 477Q1648 379 1618 289T1533 127T1401 14T1229 -28ZM1257
135Q1324 135 1368 187T1435 314T1458 459Q1458 535 1427 572T1341 609Q1272 609 1228 557T1163 430T1142 284Q1142 212 1170 174T1257 135Z" />
<glyph unicode="&amp;" horiz-adv-x="1177" d="M813 0L749 102L692 186L388 644L339 713Q298 789 270 869T242 1026Q242 1114 279 1184T381 1304T523 1380T682 1406Q809 1406 872 1344T936 1177Q936 1097 903 1031T817 909T700 808T575 723L499 833Q564 884 617
928T701 1020T733 1130Q733 1185 709 1207T639 1230Q569 1230 515 1180T461 1034Q461 989 476 938T524 828L579 745L810 372L909 238L1070 0H813ZM908 210L797 373Q812 404 824 447T848 536T868 626T884 703H1098Q1088 644 1066 560T1005 385T908 210ZM400 -47Q265
-47 182 -5T59 111T20 273Q20 376 64 459T181 611T342 743L424 620Q353 559 305 479T256 307Q256 258 274 216T335 149T454 123Q530 123 586 149T687 221L778 87Q699 21 607 -13T400 -47Z" />
<glyph unicode="&apos;" horiz-adv-x="317" d="M104 993L139 1400H369L257 993H104Z" />
<glyph unicode="(" horiz-adv-x="609" d="M243 -272Q179 -140 142 1T104 322Q105 657 221 951T543 1500H747Q613 1324 518 1125T374 715T324 292Q324 121 356 -17T435 -272H243Z" />
<glyph unicode=")" horiz-adv-x="609" d="M366 1500Q430 1368 467 1227T505 906Q504 571 388 277T66 -272H-138Q-4 -96 91 103T235 513T285 936Q285 1107 253 1245T174 1500H366Z" />
<glyph unicode="*" horiz-adv-x="838" d="M391 1114L145 1276L237 1388L571 1122L580 1126L834 961L743 849L401 1116L391 1114ZM485 728H348L431 1098L487 1506H623L539 1114L485 728ZM398 1120L830 1389L882 1273L586 1113L577 1118L143 851L89 967L389 1127L398 1120Z" />
<glyph unicode="+" horiz-adv-x="856" d="M226 202L351 912H539L414 202H226ZM15 469L45 644H750L719 469H15Z" />
<glyph unicode="," horiz-adv-x="391" d="M58 -231H-57L65 0H-25L19 250H263L223 23L58 -231Z" />
<glyph unicode="-" horiz-adv-x="809" d="M91 531L125 713H706L673 531H91Z" />
<glyph unicode="." horiz-adv-x="390" d="M-25 0L19 250H263L219 0H-25Z" />
<glyph unicode="/" horiz-adv-x="731" d="M-87 -170L717 1400H953L149 -170H-87Z" />
<glyph unicode="0" horiz-adv-x="1370" d="M536 -28Q389 -28 286 39T128 230T73 519Q73 694 124 856T270 1148T497 1352T792 1428Q939 1428 1043 1362T1202 1177T1257 895Q1257 722 1206 557T1059 260T831 50T536 -28ZM573 181Q684 181 767 244T907 411T991 638T1020
881Q1020 1054 948 1138T756 1222Q644 1222 560 1160T421 996T337 772T309 528Q309 352 380 267T573 181Z" />
<glyph unicode="1" horiz-adv-x="692" d="M133 0L341 1172L393 1118Q339 1078 293 1051T205 1007T119 980L128 1182Q178 1194 238 1228T352 1307T439 1400H611L363 0H133Z" />
<glyph unicode="2" horiz-adv-x="1017" d="M-60 1L406 572Q494 681 555 761T647 910T679 1046Q679 1122 638 1166T522 1210Q422 1210 334 1161T156 1037L170 1274Q261 1343 366 1385T592 1428Q757 1428 837 1338T917 1112Q917 996 870 891T742 680T562 456L295
136L258 216H824L786 1H-60Z" />
<glyph unicode="3" horiz-adv-x="1040" d="M359 -28Q236 -28 132 5T-60 93L32 295Q107 241 190 208T367 175Q481 175 554 236T628 413Q628 513 568 566T383 619H276L314 834H419Q545 834 623 895T701 1062Q701 1139 654 1182T518 1225Q437 1225 357 1195T197 1118L199
1332Q278 1375 374 1401T579 1428Q749 1428 843 1340T937 1110Q937 1014 893 933T769 796T585 719L592 765Q720 737 793 650T867 421Q867 287 800 186T618 29T359 -28Z" />
<glyph unicode="4" horiz-adv-x="1159" d="M583 0L784 1133L831 1067L296 453L259 527H1055L1020 335H-48L889 1400H1050L802 0H583Z" />
<glyph unicode="5" horiz-adv-x="1017" d="M333 -27Q215 -27 121 3T-53 89L54 284Q120 239 189 211T347 182Q432 182 497 216T600 311T638 456Q638 566 571 627T374 688Q309 688 244 682T113 662L329 1400H973L920 1177H364L499 1277L345 771L280 858Q324 870
371 875T469 881Q657 881 764 776T872 489Q872 335 800 219T605 38T333 -27Z" />
<glyph unicode="6" horiz-adv-x="1132" d="M471 -28Q345 -28 251 23T105 167T53 387Q53 548 121 704T305 998T566 1247T864 1428L995 1275Q921 1242 834 1192T658 1077T492 931T359 759T284 563L245 643Q310 733 409 787T643 841Q805 841 901 741T998 477Q998
335 930 221T742 39T471 -28ZM489 167Q571 167 635 205T737 309T774 452Q774 537 720 592T577 647Q494 647 428 608T324 503T287 359Q289 274 345 221T489 167Z" />
<glyph unicode="7" horiz-adv-x="1012" d="M39 0L772 1275L822 1182H169L207 1400H1092L282 0H39Z" />
<glyph unicode="8" horiz-adv-x="1178" d="M581 682Q480 682 400 720T274 826T227 987Q227 1112 290 1212T462 1370T706 1428Q829 1428 905 1386T1016 1273T1052 1120Q1052 990 989 892T819 738T581 682ZM610 857Q712 857 775 924T839 1084Q839 1154 799 1196T677
1238Q573 1238 507 1174T440 1015Q441 946 485 902T610 857ZM466 -28Q338 -28 244 16T98 139T47 325Q47 435 90 526T210 686T388 791T604 828Q793 828 902 733T1011 479Q1011 330 937 216T740 37T466 -28ZM489 175Q577 175 645 211T751 310T789 454Q789 543 733
598T574 653Q486 653 418 615T311 510T273 361Q273 275 329 225T489 175Z" />
<glyph unicode="9" horiz-adv-x="1150" d="M646 1428Q772 1428 866 1377T1012 1233T1064 1013Q1064 852 996 696T812 402T551 153T253 -28L122 125Q196 158 283 208T459 323T625 469T758 641T833 837L872 757Q807 667 708 613T474 559Q312 559 216 659T119 923Q119
1065 187 1179T375 1361T646 1428ZM628 1233Q546 1233 482 1195T380 1091T343 948Q343 863 397 808T540 753Q623 753 689 792T793 897T830 1041Q828 1126 772 1179T628 1233Z" />
<glyph unicode=":" horiz-adv-x="390" d="M103 743L147 993H391L347 743H103ZM-25 0L19 250H263L219 0H-25Z" />
<glyph unicode=";" horiz-adv-x="391" d="M58 -231H-57L65 0H-25L19 250H263L223 23L58 -231ZM104 743L148 993H392L348 743H104Z" />
<glyph unicode="&lt;" horiz-adv-x="851" d="M23 459L57 654L809 975L773 775L129 512L132 596L695 329L662 140L23 459Z" />
<glyph unicode="=" horiz-adv-x="877" d="M43 628L73 801H799L768 628H43ZM-13 307L17 480H743L712 307H-13Z" />
<glyph unicode="&gt;" horiz-adv-x="801" d="M726 656L692 461L-60 140L-24 340L620 603L617 519L54 786L87 975L726 656Z" />
<glyph unicode="?" horiz-adv-x="929" d="M209 389L214 419Q228 501 261 561T342 671T440 766Q495 816 541 862T616 959T645 1072Q645 1140 598 1174T479 1209Q400 1209 329 1188T189 1133L200 1342Q279 1380 367 1404T572 1428Q736 1428 822 1347T909 1141Q909
1051 874 979T782 844T658 722Q606 676 563 633T491 541T451 431L444 389H209ZM135 0L179 250H423L379 0H135Z" />
<glyph unicode="@" horiz-adv-x="1371" d="M432 -174Q248 -174 147 -67T45 232Q45 413 117 571T313 850T588 1038T899 1106Q1088 1106 1189 997T1290 702Q1290 620 1269 531T1205 364T1095 237T938 188Q909 188 891 200T872 256Q872 315 898 384T968 543T1062
758Q1034 797 983 830T853 864Q757 864 655 810T466 665T324 466T270 251Q270 183 301 132T407 80Q462 80 529 106T664 185T786 312Q785 305 781 295T774 271T767 241T764 205Q764 163 782 124T849 84Q883 84 931 102T1030 150T1115 212Q1037 98 927 11T689 -125T432
-174ZM493 212Q459 212 444 239T428 305Q428 393 471 471T582 611T720 707T848 742Q864 742 891 736T925 698Q897 618 845 533T728 375T602 257T493 212Z" />
<glyph unicode="A" horiz-adv-x="1186" d="M-82 0L633 1400H855L1076 0H834L779 369L744 557L667 1150L726 1140L446 559L343 367L160 0H-82ZM254 353L371 573H811L851 353H254Z" />
<glyph unicode="B" horiz-adv-x="1195" d="M53 0L299 1400H679Q770 1400 846 1385T977 1335T1064 1240T1095 1090Q1095 955 1024 858T837 716L821 766Q958 743 1029 666T1100 463Q1100 350 1058 263T940 118T765 30T550 0H53ZM351 831H634Q731 831 793 888T856
1049Q856 1103 838 1136T784 1184T696 1199H496L321 201H544Q628 201 696 229T805 313T846 452Q846 542 794 591T637 640H317L351 831Z" />
<glyph unicode="C" horiz-adv-x="1166" d="M629 -28Q463 -28 342 43T154 249T87 572Q87 757 149 913T321 1185T575 1364T882 1428Q981 1428 1077 1406T1238 1346L1173 1127Q1109 1154 1029 1181T851 1209Q728 1209 633 1159T474 1022T376 824T343 591Q343 473
376 383T483 242T675 191Q763 191 851 216T1022 273L1009 53Q931 17 828 -5T629 -28Z" />
<glyph unicode="D" horiz-adv-x="1382" d="M53 0L299 1400H790Q954 1400 1075 1334T1264 1138T1331 818Q1331 636 1270 486T1100 227T850 59T544 0H53ZM306 117L220 219H583Q703 219 794 265T948 391T1043 576T1075 799Q1075 983 995 1082T753 1181H390L512 1283L306
117Z" />
<glyph unicode="E" horiz-adv-x="1080" d="M311 118L225 220H946L907 0H53L299 1400H1136L1097 1180H394L517 1282L311 118ZM363 841H904L865 621H324L363 841Z" />
<glyph unicode="F" horiz-adv-x="1007" d="M285 0H53L299 1400H1108L1069 1180H390L513 1282L285 0ZM364 841H879L840 621H325L364 841Z" />
<glyph unicode="G" horiz-adv-x="1274" d="M646 -28Q484 -28 358 44T160 251T88 575Q88 758 149 913T320 1184T573 1364T882 1428Q948 1428 1020 1418T1157 1390T1266 1347L1202 1131Q1132 1163 1037 1186T854 1209Q727 1209 631 1158T471 1018T376 822T344 598Q344
412 428 302T689 191Q744 191 814 203T956 243L860 116L947 607L1033 505H776L811 702H1195L1085 78Q1006 35 897 4T646 -28Z" />
<glyph unicode="H" horiz-adv-x="1414" d="M53 0L299 1400H531L285 0H53ZM921 0L1168 1400H1400L1153 0H921ZM293 619L332 842H1179L1139 619H293Z" />
<glyph unicode="I" horiz-adv-x="546" d="M53 0L299 1400H531L285 0H53Z" />
<glyph unicode="J" horiz-adv-x="546" d="M-144 -344L-134 -181H-89Q-51 -181 -24 -164T22 -107T53 3L300 1400H532L275 -54Q250 -198 156 -271T-81 -344H-144Z" />
<glyph unicode="K" horiz-adv-x="1169" d="M790 0L433 741L1002 1400H1283L613 664L638 835L1046 0H790ZM53 0L299 1400H531L285 0H53Z" />
<glyph unicode="L" horiz-adv-x="963" d="M53 0L299 1400H531L306 118L220 220H873L833 0H53Z" />
<glyph unicode="M" horiz-adv-x="1577" d="M-12 0L416 1400H620L844 641L757 654L1241 1400H1443L1379 0H1137L1204 1071L1257 1052L739 308L479 1066L543 1067L230 0H-12Z" />
<glyph unicode="N" horiz-adv-x="1351" d="M53 0L299 1400H531L976 348L917 341L1104 1400H1336L1088 0H898L424 1109L483 1116L285 0H53Z" />
<glyph unicode="O" horiz-adv-x="1461" d="M629 -28Q463 -28 341 43T153 249T87 570Q87 755 149 911T320 1184T570 1364T871 1428Q1037 1428 1158 1357T1346 1151T1413 830Q1413 645 1351 489T1180 216T930 36T629 -28ZM666 191Q781 191 871 242T1025 380T1123
579T1157 811Q1157 930 1123 1019T1017 1159T833 1209Q718 1209 627 1158T473 1020T377 821T343 589Q343 471 377 381T482 241T666 191Z" />
<glyph unicode="P" horiz-adv-x="1138" d="M325 685H635Q723 685 787 721T886 826T921 993Q921 1093 876 1147T723 1202H395L517 1304L286 0H53L299 1400H743Q882 1400 975 1355T1116 1224T1163 1015Q1163 876 1121 773T1003 604T827 504T611 471H287L325 685Z" />
<glyph unicode="Q" horiz-adv-x="1460" d="M629 -28Q463 -28 341 43T153 249T87 570Q87 755 149 911T320 1184T570 1364T871 1428Q1037 1428 1158 1357T1346 1151T1413 830Q1413 657 1351 503T1179 229T928 41T629 -28ZM666 191Q781 191 872 245T1027 390T1126
590T1160 811Q1160 930 1125 1019T1018 1159T833 1209Q718 1209 627 1158T473 1020T377 821T343 589Q343 471 377 381T482 241T666 191ZM1135 -11L734 401L896 559L1296 146L1135 -11Z" />
<glyph unicode="R" horiz-adv-x="1191" d="M53 0L299 1400H732Q948 1400 1056 1311T1164 1048Q1164 940 1128 857T1031 711T896 609T746 549T605 529H259L289 748H627Q722 748 786 786T884 887T917 1025Q917 1106 873 1156T722 1206H382L519 1314L286 0H53ZM809
0L600 609L834 659L1052 0H809Z" />
<glyph unicode="S" horiz-adv-x="1112" d="M439 -28Q297 -28 189 2T11 70L85 336Q146 283 242 237T469 191Q550 191 614 211T714 274T751 387Q751 452 720 493T629 566T484 628Q414 654 353 683T247 752T177 848T152 984Q152 1069 186 1148T288 1290T456 1391T687
1428Q828 1428 936 1394T1105 1324L1039 1084Q944 1146 859 1178T669 1210Q601 1210 539 1191T437 1131T398 1022Q398 943 462 904T630 827Q699 803 767 775T891 704T981 597T1015 436Q1015 355 987 273T891 123T713 14T439 -28Z" />
<glyph unicode="T" horiz-adv-x="1098" d="M330 0L543 1219H775L562 0H330ZM164 1180L203 1400H1181L1142 1180H164Z" />
<glyph unicode="U" horiz-adv-x="1370" d="M578 -28Q349 -28 238 90T127 418Q127 446 131 497T144 598L286 1400H517L391 686Q382 635 376 580T369 478Q370 395 392 330T468 228T615 191Q717 191 786 233T901 347T972 506T1015 686L1141 1400H1373L1231 598Q1198
409 1115 268T898 50T578 -28Z" />
<glyph unicode="V" horiz-adv-x="1245" d="M373 0L144 1400H386L582 170L519 180L1126 1400H1367L652 0H373Z" />
<glyph unicode="W" horiz-adv-x="1835" d="M301 0L178 1400H420L504 240L452 250L975 1390H1156L1284 258L1231 265L1714 1400H1955L1324 0H1114L984 1115L1042 1106L523 0H301Z" />
<glyph unicode="X" horiz-adv-x="1193" d="M-91 0L516 755L611 574L173 0H-91ZM742 725L1080 0H814L576 551L492 703L175 1400H443L660 862L742 725ZM722 677L628 843L1040 1400H1304L722 677Z" />
<glyph unicode="Y" horiz-adv-x="1165" d="M356 0L484 732L506 533L150 1400H395L662 735L561 748L1042 1400H1288L636 546L718 732L589 0H356Z" />
<glyph unicode="Z" horiz-adv-x="1046" d="M-79 0L805 1265L850 1180H213L252 1400H1167L282 135L237 220H874L835 0H-79Z" />
<glyph unicode="[" horiz-adv-x="637" d="M-13 -271L299 1500H781L748 1312H366L488 1414L206 -186L120 -83H502L469 -271H-13Z" />
<glyph unicode="\" horiz-adv-x="674" d="M356 -170L133 1400H358L581 -170H356Z" />
<glyph unicode="]" horiz-adv-x="649" d="M-136 -271L-103 -83H154L400 1312H143L176 1500H638L326 -271H-136Z" />
<glyph unicode="^" horiz-adv-x="891" d="M41 903L84 1144L504 1518L841 1091L799 850L463 1243L41 903Z" />
<glyph unicode="_" horiz-adv-x="1047" d="M-140 -254L-107 -72H943L911 -254H-140Z" />
<glyph unicode="`" horiz-adv-x="769" d="M563 1144L220 1291L258 1509L588 1289L563 1144Z" />
<glyph unicode="a" horiz-adv-x="1136" d="M392 -20Q282 -20 203 32T81 176T38 387Q38 505 76 616T187 816T359 957T583 1010Q646 1010 696 994T786 943T856 848L776 813L846 993H1041L925 305Q917 258 917 228Q917 184 938 173T1013 162L959 -20Q881 -20 832
-14T753 14T703 77T663 190L733 150Q694 106 646 67T535 4T392 -20ZM467 168Q541 168 595 203T684 297T736 428T753 573Q753 694 705 758T565 822Q479 822 413 767T309 621T271 421Q271 311 317 240T467 168Z" />
<glyph unicode="b" horiz-adv-x="1091" d="M529 -20Q413 -20 335 34T216 183L276 223L217 0H16L280 1500H505L381 798L349 840Q390 902 442 939T553 993T667 1010Q783 1010 861 954T980 802T1020 589Q1020 463 985 352T885 158T730 27T529 -20ZM504 168Q589 168
653 222T753 367T789 567Q789 680 745 751T603 822Q513 822 447 767T343 620T306 414Q306 293 355 231T504 168Z" />
<glyph unicode="c" horiz-adv-x="860" d="M428 -20Q288 -20 203 36T79 188T40 401Q40 518 76 627T185 823T365 959T612 1010Q698 1010 762 991T868 942L812 748Q767 782 717 802T611 822Q503 822 427 769T311 625T271 427Q271 308 325 238T497 167Q602 167 723
241L711 50Q660 20 589 0T428 -20Z" />
<glyph unicode="d" horiz-adv-x="1092" d="M385 -20Q274 -20 197 34T79 180T38 388Q38 505 73 616T176 817T338 958T548 1010Q633 1010 692 979T790 895T851 774L783 792L909 1500H1133L869 0H658L689 215L727 171Q655 80 569 30T385 -20ZM461 168Q529 168 583
201T675 291T733 421T753 573Q753 689 708 755T566 822Q479 822 413 766T309 618T271 415Q271 308 316 238T461 168Z" />
<glyph unicode="e" horiz-adv-x="954" d="M261 575Q298 563 330 558T404 553Q525 553 592 578T685 642T712 719Q712 762 690 784T636 814T578 822Q502 822 444 781T345 675T286 540L274 457Q271 346 303 283T392 194T513 168Q592 168 669 188T811 241L790 56Q731
23 648 2T465 -20Q319 -20 225 37T84 191T38 408Q38 523 77 630T190 824T364 960T591 1010Q744 1010 824 934T905 735Q905 657 872 596T778 492T630 428T435 406Q378 406 328 412T245 428L261 575Z" />
<glyph unicode="f" horiz-adv-x="647" d="M287 1234Q299 1304 331 1364T426 1462T598 1500Q643 1500 687 1494T764 1483L709 1297Q678 1304 660 1306T623 1309Q574 1309 550 1291T515 1231T491 1123L293 0H69L287 1234ZM76 812L129 993H681L649 812H76Z" />
<glyph unicode="g" horiz-adv-x="954" d="M394 227Q239 227 155 313T71 553Q71 671 127 775T284 945T525 1010Q672 1010 759 925T846 685Q846 598 815 517T724 370T581 266T394 227ZM421 393Q491 393 540 431T616 533T643 668Q643 753 606 797T495 842Q425 842
376 804T301 704T275 569Q275 485 311 439T421 393ZM307 -500Q163 -500 76 -462T-50 -364T-89 -241Q-89 -189 -65 -140T7 -48T129 28L280 -32Q236 -44 196 -68T130 -126T104 -203Q104 -263 161 -300T325 -337Q405 -337 469 -317T570 -261T607 -184Q607 -135 567
-110T462 -72T327 -48T191 -19T87 36T46 137Q46 184 81 228T188 304L305 248Q285 240 272 226T258 192Q258 158 316 143T484 108Q532 100 588 86T696 45T781 -28T814 -149Q814 -244 754 -323T579 -451T307 -500ZM799 841L724 940Q756 961 815 977T945 994H999L958
851H879Q869 851 845 849T799 841Z" />
<glyph unicode="h" horiz-adv-x="1053" d="M16 0L280 1500H505L240 0H16ZM617 0L701 491Q710 542 715 587T721 671Q721 741 685 781T581 822Q513 822 460 791T355 709L385 885Q455 953 524 981T674 1010Q766 1010 827 971T918 864T949 710Q949 676 945 629T929
517L841 0H617Z" />
<glyph unicode="i" horiz-adv-x="464" d="M16 0L191 993H415L240 0H16ZM223 1169L262 1400H487L447 1169H223Z" />
<glyph unicode="j" horiz-adv-x="465" d="M-164 -484L-153 -304Q-98 -301 -72 -288T-32 -238T-6 -129L192 993H416L202 -219Q182 -331 114 -402T-82 -480L-164 -484ZM223 1169L264 1400H488L447 1169H223Z" />
<glyph unicode="k" horiz-adv-x="922" d="M16 0L280 1500H505L240 0H16ZM545 0L294 520L719 993H975L473 446L498 617L800 0H545Z" />
<glyph unicode="l" horiz-adv-x="506" d="M249 -20Q142 -20 95 34T48 169Q48 191 54 231T73 345L277 1500H501L295 325Q288 286 286 265T283 231Q283 184 308 173T383 162L329 -20H249Z" />
<glyph unicode="m" horiz-adv-x="1647" d="M16 0L191 993H373L374 750L240 0H16ZM615 0Q644 169 664 282T696 465T714 575T722 634T724 668Q724 760 678 791T570 822Q503 822 452 794T357 710L361 894Q418 949 488 979T637 1010Q701 1010 761 987T864 909T918
753L960 697L837 0H615ZM1210 0Q1242 179 1262 295T1293 480T1310 584T1317 634T1319 660Q1319 752 1282 787T1177 822Q1095 822 1047 787T975 701T942 600L877 792Q886 840 933 890T1060 975T1242 1010Q1396 1010 1470 926T1545 696Q1545 682 1544 663T1537 604T1519
492T1487 300T1434 0H1210Z" />
<glyph unicode="n" horiz-adv-x="1057" d="M16 0L191 993H385L390 847L240 0H16ZM619 0Q650 175 670 289T701 472T717 576T723 627T725 651Q725 739 689 780T573 822Q506 822 453 793T357 707L377 906Q440 959 507 984T655 1010Q810 1010 881 920T953 681Q953
669 952 651T945 594T928 484T896 295T845 0H619Z" />
<glyph unicode="o" horiz-adv-x="1073" d="M435 -20Q301 -20 213 37T81 190T37 404Q37 523 78 632T196 826T376 960T604 1010Q738 1010 826 953T958 800T1002 585Q1002 467 961 359T843 165T663 30T435 -20ZM466 168Q558 168 626 223T733 369T772 569Q772 690
722 756T573 822Q482 822 413 768T306 623T267 423Q267 302 317 235T466 168Z" />
<glyph unicode="p" horiz-adv-x="1092" d="M-70 -484L191 993H383V782L330 835Q404 914 484 962T675 1010Q787 1010 863 957T980 808T1020 591Q1020 462 985 351T885 156T728 27T523 -20Q408 -20 336 34T230 175L277 219L154 -484H-70ZM507 168Q590 168 654 222T753
367T789 571Q789 683 746 752T608 822Q521 822 453 769T345 623T305 409Q305 287 357 228T507 168Z" />
<glyph unicode="q" horiz-adv-x="1093" d="M558 -484L678 195L714 147Q646 66 565 23T392 -20Q272 -20 194 35T77 185T38 396Q38 514 75 623T181 820T347 959T562 1010Q678 1010 741 957T855 800L777 773L867 993H1044L783 -484H558ZM467 168Q554 168 618 220T718
365T754 576Q754 697 708 759T569 822Q480 822 413 767T308 621T270 423Q270 310 317 239T467 168Z" />
<glyph unicode="r" horiz-adv-x="656" d="M16 0L191 993H398L366 702L241 0H16ZM354 669L371 851Q405 896 453 933T556 993T669 1016H723L641 795H557Q516 795 475 778T402 731T354 669Z" />
<glyph unicode="s" horiz-adv-x="812" d="M295 -20Q191 -20 111 5T-24 58L31 257Q79 223 152 190T312 157Q396 157 434 192T473 280Q473 342 432 370T324 420Q260 441 207 469T121 544T89 672Q89 761 133 838T268 962T496 1010Q589 1010 659 989T774 940L722 753Q678
790 616 817T473 845Q400 845 352 816T303 721Q303 659 353 633T491 575Q552 553 600 522T675 441T703 314Q703 255 681 196T611 88T484 10T295 -20Z" />
<glyph unicode="t" horiz-adv-x="651" d="M315 -20Q201 -20 153 40T105 180Q105 186 107 202T117 269T144 429T197 730T285 1221L512 1244L339 231Q339 183 367 173T470 162H532L479 -20H315ZM75 812L127 993H679L647 812H75Z" />
<glyph unicode="u" horiz-adv-x="1048" d="M373 -20Q222 -20 146 66T69 302Q69 329 73 361T84 436L179 993H403L312 457Q305 418 302 392T299 344Q299 171 450 171Q512 171 564 198T657 279L636 97Q581 46 519 13T373 -20ZM615 0L636 212L775 993H999L824 0H615Z" />
<glyph unicode="v" horiz-adv-x="933" d="M256 0L73 993H296L418 165L355 175L765 993H988L454 0H256Z" />
<glyph unicode="w" horiz-adv-x="1376" d="M196 0L97 993H320L360 160L313 169L658 969H850L912 160L865 168L1197 993H1420L971 0H776L692 782L748 773L390 0H196Z" />
<glyph unicode="x" horiz-adv-x="931" d="M537 0L408 342L321 482L100 993H365L485 635L567 506L802 0H537ZM-77 0L339 528L436 360L189 0H-77ZM553 466L461 622L708 993H976L553 466Z" />
<glyph unicode="y" horiz-adv-x="999" d="M-13 -484L343 149L316 -44L67 993H316L463 216L393 227L809 993H1058L214 -484H-13Z" />
<glyph unicode="z" horiz-adv-x="899" d="M-57 0L581 887L624 802H103L137 993H925L289 106L245 191H765L730 0H-57Z" />
<glyph unicode="{" horiz-adv-x="641" d="M400 -272Q240 -272 168 -206T97 -27Q97 23 109 78T138 191T166 305T179 413Q179 478 147 509T40 541L65 687Q160 687 205 740T269 900Q282 982 284 1052T297 1186Q320 1326 421 1413T712 1500H786L753 1311H699Q659 1311
622 1304T555 1276T504 1220T473 1127Q467 1087 464 1039T457 939T445 841Q426 728 357 674T184 593L191 635Q269 614 315 572T362 445Q362 410 351 358T324 247T297 137T285 51Q285 1 305 -28T362 -70T453 -83H507L474 -272H400Z" />
<glyph unicode="|" horiz-adv-x="457" d="M-56 -419L284 1500H508L168 -419H-56Z" />
<glyph unicode="}" horiz-adv-x="641" d="M241 1500Q401 1500 473 1434T544 1255Q544 1205 532 1150T503 1037T475 923T462 815Q462 750 494 719T601 687L576 541Q481 541 436 488T372 328Q359 246 357 176T344 42Q321 -98 220 -185T-71 -272H-145L-112 -83H-58Q-18
-83 19 -76T86 -48T137 8T168 101Q174 141 177 189T184 289T196 387Q215 500 284 554T457 635L450 593Q372 614 326 656T279 783Q279 818 290 870T317 981T344 1091T356 1177Q356 1227 336 1256T279 1298T188 1311H134L167 1500H241Z" />
<glyph unicode="~" horiz-adv-x="882" d="M604 582Q546 582 500 605T412 653T322 677Q285 677 260 655T226 593H64Q89 720 156 787T320 854Q381 854 428 830T516 782T602 758Q672 758 686 847H847Q803 582 604 582Z" />
<glyph unicode="&#xa0;" horiz-adv-x="423" />
<glyph unicode="&#xa1;" horiz-adv-x="399" d="M304 611L294 556L154 -400H-94L104 556L113 611H304ZM400 1000L356 750H112L156 1000H400Z" />
<glyph unicode="&#xa2;" horiz-adv-x="908" d="M497 68L455 -288H273L355 68H497ZM508 929L548 1271H729L649 929H508ZM428 -20Q289 -20 204 36T80 188T40 401Q40 518 77 627T186 823T366 959T613 1010Q699 1010 763 991T868 942L813 748Q768 782 718 802T611
822Q503 822 428 769T312 625T272 427Q272 308 325 238T498 167Q603 167 724 241L712 50Q661 20 590 0T428 -20Z" />
<glyph unicode="&#xa3;" horiz-adv-x="1075" d="M206 98L166 218H858L820 0H-47Q4 93 42 171T110 323T165 473T215 636L323 1015Q359 1140 420 1233T577 1377T812 1428Q881 1428 938 1414T1050 1373L987 1132Q940 1167 892 1188T787 1210Q716 1210 669 1180T592
1099T546 988L452 652Q423 551 394 465T322 291T206 98ZM61 627L90 793H835L806 627H61Z" />
<glyph unicode="&#xa4;" horiz-adv-x="1281" d="M529 182Q394 182 299 235T154 381T103 595Q103 722 150 833T282 1029T477 1162T711 1210Q842 1210 937 1158T1083 1012T1135 797Q1135 669 1088 558T957 362T764 230T529 182ZM565 384Q667 384 744 434T864 571T907
768Q907 875 849 941T675 1008Q572 1008 495 956T376 815T333 623Q333 518 391 451T565 384ZM17 84L-64 180L250 447L330 350L17 84ZM1019 80L789 361L892 445L1121 165L1019 80ZM344 952L119 1227L221 1312L445 1038L344 952ZM994 949L912 1046L1223 1308L1304
1212L994 949Z" />
<glyph unicode="&#xa5;" horiz-adv-x="1173" d="M90 545L119 711H903L874 545H90ZM40 265L69 431H853L824 265H40ZM268 0L397 732L418 533L62 1400H308L575 735L474 748L955 1400H1201L549 546L631 732L501 0H268Z" />
<glyph unicode="&#xa6;" horiz-adv-x="454" d="M140 684L284 1500H505L361 684H140ZM-56 -420L88 396H309L165 -420H-56Z" />
<glyph unicode="&#xa7;" horiz-adv-x="918" d="M465 900Q371 870 312 815T253 685Q253 629 283 591T361 524T462 467T564 401T642 309T672 173Q672 72 620 -5T477 -125T274 -169Q191 -169 121 -144T0 -86L52 94Q106 53 176 25T314 -3Q401 -3 455 35T509 136Q509
192 478 230T396 299T291 359T186 426T104 514T72 639Q72 752 154 836T376 972L465 900ZM666 649Q666 714 637 756T560 828T459 884T359 945T282 1029T252 1159Q252 1258 305 1335T449 1456T654 1500Q745 1500 811 1476T925 1419L873 1239Q820 1278 754 1306T611
1334Q535 1334 479 1298T423 1195Q423 1146 454 1112T533 1049T636 990T739 920T818 824T849 684Q849 605 811 547T704 443T543 356L460 438Q517 454 563 486T638 560T666 649Z" />
<glyph unicode="&#xa8;" horiz-adv-x="804" d="M148 1182L182 1355H363L329 1182H148ZM535 1182L569 1355H750L716 1182H535Z" />
<glyph unicode="&#xa9;" horiz-adv-x="1370" d="M595 74Q449 74 341 140T173 326T114 607Q114 778 170 920T324 1167T552 1329T827 1386Q973 1386 1080 1320T1247 1135T1307 855Q1307 684 1251 541T1097 293T870 131T595 74ZM617 194Q751 194 853 247T1025 391T1131
600T1167 848Q1167 968 1129 1062T1010 1210T805 1264Q671 1264 568 1212T395 1068T288 859T252 611Q252 492 291 398T411 249T617 194ZM665 385Q550 385 482 460T413 661Q413 781 463 872T598 1016T786 1069Q836 1069 884 1057T967 1026L922 874Q883 893 844 905T759
917Q703 917 663 886T601 800T579 680Q579 616 607 576T692 535Q738 535 781 548T871 581L862 431Q820 409 767 397T665 385Z" />
<glyph unicode="&#xaa;" horiz-adv-x="625" d="M265 868Q193 868 150 906T107 1012Q107 1073 140 1116T227 1188T349 1231T484 1253L464 1133Q428 1130 392 1121T333 1092T309 1039Q309 999 356 999Q375 999 392 1005T428 1023L449 1147Q455 1178 458 1198T464
1234T467 1263Q467 1283 450 1294T386 1305Q344 1305 300 1297T211 1273L226 1419Q289 1439 347 1449T459 1459Q553 1459 605 1417T658 1295Q658 1283 657 1271T653 1249L624 1084Q622 1073 621 1064T619 1047Q619 1032 626 1027T652 1021H658L621 868H557Q486
868 453 901T449 1012L469 982Q461 948 427 922T349 882T265 868Z" />
<glyph unicode="&#xab;" horiz-adv-x="1145" d="M728 156L518 568L874 980H1138L713 489L734 661L993 156H728ZM240 156L29 568L386 980H650L225 489L245 660L505 156H240Z" />
<glyph unicode="&#xac;" horiz-adv-x="1010" d="M659 302L735 740L821 637H60L90 812H935L847 302H659Z" />
<glyph unicode="&#xad;" horiz-adv-x="849" d="M111 531L145 713H726L693 531H111Z" />
<glyph unicode="&#xae;" horiz-adv-x="1370" d="M595 74Q449 74 341 140T173 326T114 607Q114 778 170 920T324 1167T552 1329T827 1386Q973 1386 1080 1320T1247 1135T1307 855Q1307 684 1251 541T1097 293T870 131T595 74ZM617 194Q750 194 852 247T1025 392T1130
601T1166 849Q1166 969 1128 1062T1009 1210T805 1264Q672 1264 569 1212T396 1068T290 860T253 612Q253 493 292 398T412 249T617 194ZM420 411L537 1071H774Q829 1071 872 1056T939 1006T963 907Q963 826 923 771T836 684L927 411H760L682 639H619L580 411H420ZM645
783H694Q749 783 773 809T797 884Q797 910 783 925T725 940H673L645 783Z" />
<glyph unicode="&#xaf;" horiz-adv-x="905" d="M160 1182L190 1337H825L794 1182H160Z" />
<glyph unicode="&#xb0;" horiz-adv-x="578" d="M288 964Q183 964 130 1026T76 1180Q76 1271 116 1346T227 1465T384 1510Q491 1510 544 1447T598 1292Q598 1200 558 1126T447 1008T288 964ZM307 1071Q360 1071 397 1100T455 1177T475 1276Q475 1332 448 1367T365
1403Q314 1403 276 1373T218 1295T197 1198Q197 1143 225 1107T307 1071Z" />
<glyph unicode="&#xb1;" horiz-adv-x="881" d="M449 363H273L396 1059H572L449 363ZM-38 103L-8 270H698L668 103H-38ZM84 795H791L761 628H54L84 795Z" />
<glyph unicode="&#xb2;" horiz-adv-x="618" d="M37 772L315 1088Q373 1154 403 1203T434 1301Q434 1337 413 1359T346 1381Q292 1381 243 1356T145 1295L160 1468Q214 1500 279 1522T416 1544Q517 1544 574 1493T632 1355Q632 1268 583 1191T458 1026L256 794L246
932H595L567 772H37Z" />
<glyph unicode="&#xb3;" horiz-adv-x="622" d="M283 752Q207 752 145 771T34 822L100 981Q139 950 181 930T279 910Q337 910 372 935T408 1008Q408 1046 382 1068T298 1090H238L265 1236H327Q379 1236 411 1260T443 1324Q443 1355 423 1374T357 1394Q309 1394
264 1378T173 1333L188 1499Q241 1524 301 1538T427 1552Q529 1552 583 1503T637 1375Q637 1295 589 1239T463 1156L467 1180Q527 1163 562 1124T597 1017Q597 939 554 879T440 786T283 752Z" />
<glyph unicode="&#xb4;" horiz-adv-x="821" d="M220 1144L250 1299L641 1512L604 1272L220 1144Z" />
<glyph unicode="&#xb5;" horiz-adv-x="1105" d="M689 117Q638 59 568 19T414 -21Q368 -21 331 -10T264 20L175 -484H-47L213 993H437L337 423Q333 400 331 377T328 337Q328 170 488 170Q550 170 599 198T691 274L689 117ZM676 245L808 993H1032L918 343Q912 309
908 282T904 233Q904 162 965 162H1001L943 -20H878Q792 -20 741 16T675 121L676 245Z" />
<glyph unicode="&#xb6;" horiz-adv-x="1189" d="M794 1215L579 0H456L558 571L638 468Q460 457 346 514T178 667T123 873Q123 967 164 1060T285 1230T482 1353T750 1400H1239L1206 1215H794ZM1078 1231L860 0H705L922 1231H1078Z" />
<glyph unicode="&#xb7;" horiz-adv-x="460" d="M84 426L130 686H363L317 426H84Z" />
<glyph unicode="&#xb8;" horiz-adv-x="628" d="M371 -158L303 -128Q330 -119 355 -114T408 -108Q480 -108 520 -144T561 -248Q561 -345 487 -407T303 -469Q251 -469 213 -458T148 -431L203 -320Q231 -335 260 -344T326 -354Q377 -354 406 -331T435 -273Q435 -211
345 -211Q321 -211 298 -214T246 -225L341 0H448L371 -158Z" />
<glyph unicode="&#xb9;" horiz-adv-x="423" d="M142 772L255 1415L304 1367Q250 1316 198 1287T100 1246L115 1396Q167 1413 223 1446T314 1516H449L317 772H142Z" />
<glyph unicode="&#xba;" horiz-adv-x="672" d="M375 868Q249 868 185 939T120 1110Q121 1209 169 1287T299 1412T479 1459Q605 1459 670 1389T735 1219Q735 1118 686 1039T555 914T375 868ZM399 1010Q447 1010 479 1039T527 1115T543 1211Q543 1261 521 1289T454
1318Q407 1318 375 1289T326 1214T310 1121Q310 1069 333 1040T399 1010Z" />
<glyph unicode="&#xbb;" horiz-adv-x="1147" d="M489 156L914 647L894 476L634 980H899L1110 568L753 156H489ZM1 156L427 647L406 475L147 980H411L621 568L265 156H1Z" />
<glyph unicode="&#xbc;" horiz-adv-x="1279" d="M369 656L482 1299L531 1251Q477 1200 425 1171T327 1130L342 1280Q394 1297 450 1330T541 1400H676L544 656H369ZM-47 0L1020 1400H1207L142 0H-47ZM1084 0H928L1043 632L1091 590L789 246L733 294H1234L1210 159H551L1072
744H1216L1084 0Z" />
<glyph unicode="&#xbd;" horiz-adv-x="1377" d="M-47 0L1020 1400H1207L142 0H-47ZM682 0L960 316Q1018 382 1048 431T1079 529Q1079 565 1058 587T991 609Q937 609 888 584T790 523L805 696Q859 728 924 750T1061 772Q1162 772 1219 721T1277 583Q1277 496 1228
419T1103 254L901 22L891 160H1240L1212 0H682ZM373 656L486 1299L535 1251Q481 1200 429 1171T331 1130L346 1280Q398 1297 454 1330T545 1400H680L548 656H373Z" />
<glyph unicode="&#xbe;" horiz-adv-x="1485" d="M158 0L1225 1400H1412L347 0H158ZM281 628Q205 628 143 647T32 698L98 857Q137 826 179 806T277 786Q335 786 370 811T406 884Q406 922 380 944T296 966H236L263 1112H325Q377 1112 409 1136T441 1200Q441 1231
421 1250T355 1270Q307 1270 262 1254T171 1209L186 1375Q239 1400 299 1414T425 1428Q527 1428 581 1379T635 1251Q635 1171 587 1115T461 1032L465 1056Q525 1039 560 1000T595 893Q595 815 552 755T438 662T281 628ZM1289 0H1133L1248 632L1296 590L994 246L938
294H1439L1415 159H756L1277 744H1421L1289 0Z" />
<glyph unicode="&#xbf;" horiz-adv-x="917" d="M710 611L705 581Q691 499 658 439T577 329T479 234Q424 184 378 138T303 41T274 -72Q274 -140 321 -174T440 -209Q519 -209 590 -188T730 -133L719 -342Q640 -380 552 -404T347 -428Q183 -428 97 -347T10 -141Q10
-51 45 21T137 156T261 278Q313 324 356 367T428 459T468 569L475 611H710ZM784 1000L740 750H496L540 1000H784Z" />
<glyph unicode="&#xc0;" horiz-adv-x="1186" d="M-82 0L633 1400H855L1076 0H834L779 369L744 557L667 1150L726 1140L446 559L343 367L160 0H-82ZM254 353L371 573H811L851 353H254ZM946 1551L603 1698L641 1916L971 1696L946 1551Z" />
<glyph unicode="&#xc1;" horiz-adv-x="1186" d="M-82 0L633 1400H855L1076 0H834L779 369L744 557L667 1150L726 1140L446 559L343 367L160 0H-82ZM254 353L371 573H811L851 353H254ZM589 1551L619 1706L1010 1919L973 1679L589 1551Z" />
<glyph unicode="&#xc2;" horiz-adv-x="1186" d="M-82 0L633 1400H855L1076 0H834L779 369L744 557L667 1150L726 1140L446 559L343 367L160 0H-82ZM254 353L371 573H811L851 353H254ZM538 1545L570 1694L831 1890L1048 1667L1019 1522L792 1686L538 1545Z" />
<glyph unicode="&#xc3;" horiz-adv-x="1186" d="M-82 0L633 1400H855L1076 0H834L779 369L744 557L667 1150L726 1140L446 559L343 367L160 0H-82ZM254 353L371 573H811L851 353H254ZM940 1564Q897 1564 850 1586T758 1629T676 1651Q643 1651 622 1632T595 1580H443Q463
1695 517 1755T652 1815Q699 1815 743 1794T829 1750T909 1728Q940 1728 959 1747T985 1805H1142Q1120 1681 1070 1623T940 1564Z" />
<glyph unicode="&#xc4;" horiz-adv-x="1186" d="M-82 0L633 1400H855L1076 0H834L779 369L744 557L667 1150L726 1140L446 559L343 367L160 0H-82ZM254 353L371 573H811L851 353H254ZM487 1589L521 1762H702L668 1589H487ZM874 1589L908 1762H1089L1055 1589H874Z" />
<glyph unicode="&#xc5;" horiz-adv-x="1186" d="M-82 0L633 1400H855L1076 0H834L779 369L744 557L667 1150L726 1140L446 559L343 367L160 0H-82ZM254 353L371 573H811L851 353H254ZM763 1546Q680 1546 636 1591T592 1702Q592 1767 626 1821T716 1907T838 1939Q922
1939 965 1894T1009 1782Q1009 1716 976 1663T887 1578T763 1546ZM781 1644Q828 1644 861 1679T894 1762Q894 1798 873 1819T820 1840Q775 1840 741 1804T707 1720Q707 1685 728 1665T781 1644Z" />
<glyph unicode="&#xc6;" horiz-adv-x="1646" d="M-109 0L778 1400H1703L1663 1179H999L1122 1281L916 118L830 220H1512L1473 0H654L879 1276L916 1263L131 0H-109ZM258 346L404 571H797L757 346H258ZM936 621L975 841H1475L1436 621H936Z" />
<glyph unicode="&#xc7;" horiz-adv-x="1166" d="M629 -28Q463 -28 342 43T154 249T87 572Q87 757 149 913T321 1185T575 1364T882 1428Q981 1428 1077 1406T1238 1346L1173 1127Q1109 1154 1029 1181T851 1209Q728 1209 633 1159T474 1022T376 824T343 591Q343
473 376 383T483 242T675 191Q763 191 851 216T1022 273L1009 53Q931 17 828 -5T629 -28ZM626 -158L558 -128Q585 -119 610 -114T663 -108Q735 -108 775 -144T816 -248Q816 -345 742 -407T558 -469Q506 -469 468 -458T403 -431L458 -320Q486 -335 515 -344T581
-354Q632 -354 661 -331T690 -273Q690 -211 600 -211Q576 -211 553 -214T501 -225L596 0H703L626 -158Z" />
<glyph unicode="&#xc8;" horiz-adv-x="1080" d="M311 118L225 220H946L907 0H53L299 1400H1136L1097 1180H394L517 1282L311 118ZM363 841H904L865 621H324L363 841ZM928 1551L585 1698L623 1916L953 1696L928 1551Z" />
<glyph unicode="&#xc9;" horiz-adv-x="1080" d="M311 118L225 220H946L907 0H53L299 1400H1136L1097 1180H394L517 1282L311 118ZM363 841H904L865 621H324L363 841ZM571 1551L601 1706L992 1919L955 1679L571 1551Z" />
<glyph unicode="&#xca;" horiz-adv-x="1080" d="M311 118L225 220H946L907 0H53L299 1400H1136L1097 1180H394L517 1282L311 118ZM363 841H904L865 621H324L363 841ZM521 1545L553 1694L814 1890L1031 1667L1002 1522L775 1686L521 1545Z" />
<glyph unicode="&#xcb;" horiz-adv-x="1080" d="M311 118L225 220H946L907 0H53L299 1400H1136L1097 1180H394L517 1282L311 118ZM363 841H904L865 621H324L363 841ZM470 1589L504 1762H685L651 1589H470ZM857 1589L891 1762H1072L1038 1589H857Z" />
<glyph unicode="&#xcc;" horiz-adv-x="546" d="M53 0L299 1400H531L285 0H53ZM628 1551L285 1698L323 1916L653 1696L628 1551Z" />
<glyph unicode="&#xcd;" horiz-adv-x="546" d="M53 0L299 1400H531L285 0H53ZM271 1551L301 1706L692 1919L655 1679L271 1551Z" />
<glyph unicode="&#xce;" horiz-adv-x="546" d="M53 0L299 1400H531L285 0H53ZM220 1545L252 1694L513 1890L730 1667L701 1522L474 1686L220 1545Z" />
<glyph unicode="&#xcf;" horiz-adv-x="546" d="M53 0L299 1400H531L285 0H53ZM170 1589L204 1762H385L351 1589H170ZM557 1589L591 1762H772L738 1589H557Z" />
<glyph unicode="&#xd0;" horiz-adv-x="1401" d="M74 0L320 1400H811Q974 1400 1095 1333T1284 1139T1351 836Q1351 645 1290 491T1120 226T869 58T564 0H74ZM325 117L239 220H603Q763 220 872 298T1038 511T1095 815Q1095 982 1016 1081T772 1181H408L531 1283L325
117ZM49 622L81 802H705L674 622H49Z" />
<glyph unicode="&#xd1;" horiz-adv-x="1351" d="M53 0L299 1400H531L976 348L917 341L1104 1400H1336L1088 0H898L424 1109L483 1116L285 0H53ZM1002 1562Q959 1562 913 1581T823 1619T745 1638Q720 1638 702 1623T679 1574H535Q554 1675 603 1728T729 1781Q773
1781 818 1762T905 1723T985 1704Q1011 1704 1028 1721T1051 1771H1195Q1180 1667 1130 1615T1002 1562Z" />
<glyph unicode="&#xd2;" horiz-adv-x="1461" d="M629 -28Q463 -28 341 43T153 249T87 570Q87 755 149 911T320 1184T570 1364T871 1428Q1037 1428 1158 1357T1346 1151T1413 830Q1413 645 1351 489T1180 216T930 36T629 -28ZM666 191Q781 191 871 242T1025 380T1123
579T1157 811Q1157 930 1123 1019T1017 1159T833 1209Q718 1209 627 1158T473 1020T377 821T343 589Q343 471 377 381T482 241T666 191ZM1089 1551L746 1698L784 1916L1114 1696L1089 1551Z" />
<glyph unicode="&#xd3;" horiz-adv-x="1461" d="M629 -28Q463 -28 341 43T153 249T87 570Q87 755 149 911T320 1184T570 1364T871 1428Q1037 1428 1158 1357T1346 1151T1413 830Q1413 645 1351 489T1180 216T930 36T629 -28ZM666 191Q781 191 871 242T1025 380T1123
579T1157 811Q1157 930 1123 1019T1017 1159T833 1209Q718 1209 627 1158T473 1020T377 821T343 589Q343 471 377 381T482 241T666 191ZM732 1551L762 1706L1153 1919L1116 1679L732 1551Z" />
<glyph unicode="&#xd4;" horiz-adv-x="1461" d="M629 -28Q463 -28 341 43T153 249T87 570Q87 755 149 911T320 1184T570 1364T871 1428Q1037 1428 1158 1357T1346 1151T1413 830Q1413 645 1351 489T1180 216T930 36T629 -28ZM666 191Q781 191 871 242T1025 380T1123
579T1157 811Q1157 930 1123 1019T1017 1159T833 1209Q718 1209 627 1158T473 1020T377 821T343 589Q343 471 377 381T482 241T666 191ZM681 1545L713 1694L974 1890L1191 1667L1162 1522L935 1686L681 1545Z" />
<glyph unicode="&#xd5;" horiz-adv-x="1461" d="M629 -28Q463 -28 341 43T153 249T87 570Q87 755 149 911T320 1184T570 1364T871 1428Q1037 1428 1158 1357T1346 1151T1413 830Q1413 645 1351 489T1180 216T930 36T629 -28ZM666 191Q781 191 871 242T1025 380T1123
579T1157 811Q1157 930 1123 1019T1017 1159T833 1209Q718 1209 627 1158T473 1020T377 821T343 589Q343 471 377 381T482 241T666 191ZM1083 1564Q1040 1564 993 1586T901 1629T819 1651Q786 1651 765 1632T738 1580H586Q606 1695 660 1755T795 1815Q842 1815
886 1794T972 1750T1052 1728Q1083 1728 1102 1747T1128 1805H1285Q1263 1681 1213 1623T1083 1564Z" />
<glyph unicode="&#xd6;" horiz-adv-x="1461" d="M629 -28Q463 -28 341 43T153 249T87 570Q87 755 149 911T320 1184T570 1364T871 1428Q1037 1428 1158 1357T1346 1151T1413 830Q1413 645 1351 489T1180 216T930 36T629 -28ZM666 191Q781 191 871 242T1025 380T1123
579T1157 811Q1157 930 1123 1019T1017 1159T833 1209Q718 1209 627 1158T473 1020T377 821T343 589Q343 471 377 381T482 241T666 191ZM631 1589L665 1762H846L812 1589H631ZM1018 1589L1052 1762H1233L1199 1589H1018Z" />
<glyph unicode="&#xd7;" horiz-adv-x="911" d="M118 195L8 327L696 915L805 784L118 195ZM716 311L581 199L94 800L229 912L716 311Z" />
<glyph unicode="&#xd8;" horiz-adv-x="1461" d="M1256 1488H1453L238 -88H43L1256 1488ZM629 -28Q463 -28 341 43T153 249T87 570Q87 755 149 911T320 1184T570 1364T871 1428Q1037 1428 1158 1357T1346 1151T1413 830Q1413 645 1351 489T1180 216T930 36T629
-28ZM666 191Q781 191 871 242T1025 380T1123 579T1157 811Q1157 930 1123 1019T1017 1159T833 1209Q718 1209 627 1158T473 1020T377 821T343 589Q343 471 377 381T482 241T666 191Z" />
<glyph unicode="&#xd9;" horiz-adv-x="1370" d="M578 -28Q349 -28 238 90T127 418Q127 446 131 497T144 598L286 1400H517L391 686Q382 635 376 580T369 478Q370 395 392 330T468 228T615 191Q717 191 786 233T901 347T972 506T1015 686L1141 1400H1373L1231 598Q1198
409 1115 268T898 50T578 -28ZM1041 1551L698 1698L736 1916L1066 1696L1041 1551Z" />
<glyph unicode="&#xda;" horiz-adv-x="1370" d="M578 -28Q349 -28 238 90T127 418Q127 446 131 497T144 598L286 1400H517L391 686Q382 635 376 580T369 478Q370 395 392 330T468 228T615 191Q717 191 786 233T901 347T972 506T1015 686L1141 1400H1373L1231 598Q1198
409 1115 268T898 50T578 -28ZM684 1551L714 1706L1105 1919L1068 1679L684 1551Z" />
<glyph unicode="&#xdb;" horiz-adv-x="1370" d="M578 -28Q349 -28 238 90T127 418Q127 446 131 497T144 598L286 1400H517L391 686Q382 635 376 580T369 478Q370 395 392 330T468 228T615 191Q717 191 786 233T901 347T972 506T1015 686L1141 1400H1373L1231 598Q1198
409 1115 268T898 50T578 -28ZM633 1545L665 1694L926 1890L1143 1667L1114 1522L887 1686L633 1545Z" />
<glyph unicode="&#xdc;" horiz-adv-x="1370" d="M578 -28Q349 -28 238 90T127 418Q127 446 131 497T144 598L286 1400H517L391 686Q382 635 376 580T369 478Q370 395 392 330T468 228T615 191Q717 191 786 233T901 347T972 506T1015 686L1141 1400H1373L1231 598Q1198
409 1115 268T898 50T578 -28ZM583 1589L617 1762H798L764 1589H583ZM970 1589L1004 1762H1185L1151 1589H970Z" />
<glyph unicode="&#xdd;" horiz-adv-x="1165" d="M356 0L484 732L506 533L150 1400H395L662 735L561 748L1042 1400H1288L636 546L718 732L589 0H356ZM572 1551L602 1706L993 1919L956 1679L572 1551Z" />
<glyph unicode="&#xde;" horiz-adv-x="1059" d="M35 0L283 1400H516L268 0H35ZM251 349L286 547H580Q707 547 772 601T837 757Q837 806 817 839T753 888T643 905H349L384 1103H703Q889 1103 984 1022T1079 793Q1079 653 1016 554T839 402T570 349H251Z" />
<glyph unicode="&#xdf;" horiz-adv-x="1205" d="M611 -28Q556 -28 507 -23T406 -6L438 182Q487 171 536 166T640 160Q741 160 811 207T882 347Q882 404 854 443T783 512T698 573T626 642T597 737Q597 807 649 870T784 1007Q849 1064 885 1109T921 1217Q921 1275
878 1307T754 1340Q636 1340 567 1271T475 1079L285 0H59L202 812H66L117 993H234L248 1075Q274 1228 351 1329T543 1479T792 1528Q958 1528 1054 1457T1150 1265Q1150 1164 1106 1100T986 966Q920 905 877 864T833 773Q833 733 861 702T930 640T1014 574T1084
486T1113 363Q1113 271 1072 199T961 76T800 -1T611 -28Z" />
<glyph unicode="&#xe0;" horiz-adv-x="1136" d="M392 -20Q282 -20 203 32T81 176T38 387Q38 505 76 616T187 816T359 957T583 1010Q646 1010 696 994T786 943T856 848L776 813L846 993H1041L925 305Q917 258 917 228Q917 184 938 173T1013 162L959 -20Q881 -20
832 -14T753 14T703 77T663 190L733 150Q694 106 646 67T535 4T392 -20ZM467 168Q541 168 595 203T684 297T736 428T753 573Q753 694 705 758T565 822Q479 822 413 767T309 621T271 421Q271 311 317 240T467 168ZM868 1144L525 1291L563 1509L893 1289L868 1144Z"
/>
<glyph unicode="&#xe1;" horiz-adv-x="1136" d="M392 -20Q282 -20 203 32T81 176T38 387Q38 505 76 616T187 816T359 957T583 1010Q646 1010 696 994T786 943T856 848L776 813L846 993H1041L925 305Q917 258 917 228Q917 184 938 173T1013 162L959 -20Q881 -20
832 -14T753 14T703 77T663 190L733 150Q694 106 646 67T535 4T392 -20ZM467 168Q541 168 595 203T684 297T736 428T753 573Q753 694 705 758T565 822Q479 822 413 767T309 621T271 421Q271 311 317 240T467 168ZM511 1144L541 1299L932 1512L895 1272L511 1144Z"
/>
<glyph unicode="&#xe2;" horiz-adv-x="1136" d="M392 -20Q282 -20 203 32T81 176T38 387Q38 505 76 616T187 816T359 957T583 1010Q646 1010 696 994T786 943T856 848L776 813L846 993H1041L925 305Q917 258 917 228Q917 184 938 173T1013 162L959 -20Q881 -20
832 -14T753 14T703 77T663 190L733 150Q694 106 646 67T535 4T392 -20ZM467 168Q541 168 595 203T684 297T736 428T753 573Q753 694 705 758T565 822Q479 822 413 767T309 621T271 421Q271 311 317 240T467 168ZM460 1138L492 1287L753 1483L970 1260L941 1115L714
1279L460 1138Z" />
<glyph unicode="&#xe3;" horiz-adv-x="1136" d="M392 -20Q282 -20 203 32T81 176T38 387Q38 505 76 616T187 816T359 957T583 1010Q646 1010 696 994T786 943T856 848L776 813L846 993H1041L925 305Q917 258 917 228Q917 184 938 173T1013 162L959 -20Q881 -20
832 -14T753 14T703 77T663 190L733 150Q694 106 646 67T535 4T392 -20ZM467 168Q541 168 595 203T684 297T736 428T753 573Q753 694 705 758T565 822Q479 822 413 767T309 621T271 421Q271 311 317 240T467 168ZM862 1157Q819 1157 772 1179T680 1222T598 1244Q565
1244 544 1225T517 1173H365Q385 1288 439 1348T574 1408Q621 1408 665 1387T751 1343T831 1321Q862 1321 881 1340T907 1398H1064Q1042 1274 992 1216T862 1157Z" />
<glyph unicode="&#xe4;" horiz-adv-x="1136" d="M392 -20Q282 -20 203 32T81 176T38 387Q38 505 76 616T187 816T359 957T583 1010Q646 1010 696 994T786 943T856 848L776 813L846 993H1041L925 305Q917 258 917 228Q917 184 938 173T1013 162L959 -20Q881 -20
832 -14T753 14T703 77T663 190L733 150Q694 106 646 67T535 4T392 -20ZM467 168Q541 168 595 203T684 297T736 428T753 573Q753 694 705 758T565 822Q479 822 413 767T309 621T271 421Q271 311 317 240T467 168ZM409 1182L443 1355H624L590 1182H409ZM796 1182L830
1355H1011L977 1182H796Z" />
<glyph unicode="&#xe5;" horiz-adv-x="1136" d="M392 -20Q282 -20 203 32T81 176T38 387Q38 505 76 616T187 816T359 957T583 1010Q646 1010 696 994T786 943T856 848L776 813L846 993H1041L925 305Q917 258 917 228Q917 184 938 173T1013 162L959 -20Q881 -20
832 -14T753 14T703 77T663 190L733 150Q694 106 646 67T535 4T392 -20ZM467 168Q541 168 595 203T684 297T736 428T753 573Q753 694 705 758T565 822Q479 822 413 767T309 621T271 421Q271 311 317 240T467 168ZM685 1139Q602 1139 558 1184T514 1295Q514 1360
548 1414T638 1500T760 1532Q844 1532 887 1487T931 1375Q931 1309 898 1256T809 1171T685 1139ZM703 1237Q750 1237 783 1272T816 1355Q816 1391 795 1412T742 1433Q697 1433 663 1397T629 1313Q629 1278 650 1258T703 1237Z" />
<glyph unicode="&#xe6;" horiz-adv-x="1507" d="M600 471Q544 472 479 461T356 423T260 353T223 244Q223 197 251 173T322 148Q367 148 418 175T510 258T566 401Q569 418 571 434T576 472T582 529T590 618Q599 719 572 767T445 816Q382 816 321 799T179 746L191
926Q282 968 370 989T539 1010Q600 1010 649 997T733 951T782 859T790 705L772 755Q784 828 839 885T978 976T1153 1010Q1293 1010 1375 921T1458 676Q1458 620 1447 573T1413 462H711L745 614H1250Q1254 631 1255 647T1256 677Q1255 740 1223 781T1110 822Q1039
822 983 789T889 698T830 570T809 428Q809 329 841 271T925 188T1033 162Q1078 162 1130 172T1234 201T1331 241L1313 57Q1252 26 1170 3T988 -20Q824 -20 736 50T636 248L693 239Q638 160 572 100T425 5T244 -29Q115 -29 49 32T-17 197Q-17 304 26 377T141 498T296
571T464 609T612 624L600 471Z" />
<glyph unicode="&#xe7;" horiz-adv-x="860" d="M428 -20Q288 -20 203 36T79 188T40 401Q40 518 76 627T185 823T365 959T612 1010Q698 1010 762 991T868 942L812 748Q767 782 717 802T611 822Q503 822 427 769T311 625T271 427Q271 308 325 238T497 167Q602 167
723 241L711 50Q660 20 589 0T428 -20ZM414 -158L346 -128Q373 -119 398 -114T451 -108Q523 -108 563 -144T604 -248Q604 -345 530 -407T346 -469Q294 -469 256 -458T191 -431L246 -320Q274 -335 303 -344T369 -354Q420 -354 449 -331T478 -273Q478 -211 388 -211Q364
-211 341 -214T289 -225L384 0H491L414 -158Z" />
<glyph unicode="&#xe8;" horiz-adv-x="954" d="M261 575Q298 563 330 558T404 553Q525 553 592 578T685 642T712 719Q712 762 690 784T636 814T578 822Q502 822 444 781T345 675T286 540L274 457Q271 346 303 283T392 194T513 168Q592 168 669 188T811 241L790
56Q731 23 648 2T465 -20Q319 -20 225 37T84 191T38 408Q38 523 77 630T190 824T364 960T591 1010Q744 1010 824 934T905 735Q905 657 872 596T778 492T630 428T435 406Q378 406 328 412T245 428L261 575ZM818 1144L475 1291L513 1509L843 1289L818 1144Z" />
<glyph unicode="&#xe9;" horiz-adv-x="954" d="M261 575Q298 563 330 558T404 553Q525 553 592 578T685 642T712 719Q712 762 690 784T636 814T578 822Q502 822 444 781T345 675T286 540L274 457Q271 346 303 283T392 194T513 168Q592 168 669 188T811 241L790
56Q731 23 648 2T465 -20Q319 -20 225 37T84 191T38 408Q38 523 77 630T190 824T364 960T591 1010Q744 1010 824 934T905 735Q905 657 872 596T778 492T630 428T435 406Q378 406 328 412T245 428L261 575ZM461 1144L491 1299L882 1512L845 1272L461 1144Z" />
<glyph unicode="&#xea;" horiz-adv-x="954" d="M261 575Q298 563 330 558T404 553Q525 553 592 578T685 642T712 719Q712 762 690 784T636 814T578 822Q502 822 444 781T345 675T286 540L274 457Q271 346 303 283T392 194T513 168Q592 168 669 188T811 241L790
56Q731 23 648 2T465 -20Q319 -20 225 37T84 191T38 408Q38 523 77 630T190 824T364 960T591 1010Q744 1010 824 934T905 735Q905 657 872 596T778 492T630 428T435 406Q378 406 328 412T245 428L261 575ZM411 1138L443 1287L704 1483L921 1260L892 1115L665 1279L411
1138Z" />
<glyph unicode="&#xeb;" horiz-adv-x="954" d="M261 575Q298 563 330 558T404 553Q525 553 592 578T685 642T712 719Q712 762 690 784T636 814T578 822Q502 822 444 781T345 675T286 540L274 457Q271 346 303 283T392 194T513 168Q592 168 669 188T811 241L790
56Q731 23 648 2T465 -20Q319 -20 225 37T84 191T38 408Q38 523 77 630T190 824T364 960T591 1010Q744 1010 824 934T905 735Q905 657 872 596T778 492T630 428T435 406Q378 406 328 412T245 428L261 575ZM360 1182L394 1355H575L541 1182H360ZM747 1182L781 1355H962L928
1182H747Z" />
<glyph unicode="&#xec;" horiz-adv-x="464" d="M16 0L191 993H415L240 0H16ZM513 1144L170 1291L208 1509L538 1289L513 1144Z" />
<glyph unicode="&#xed;" horiz-adv-x="464" d="M16 0L191 993H415L240 0H16ZM156 1144L186 1299L577 1512L540 1272L156 1144Z" />
<glyph unicode="&#xee;" horiz-adv-x="464" d="M16 0L191 993H415L240 0H16ZM106 1138L138 1287L399 1483L616 1260L587 1115L360 1279L106 1138Z" />
<glyph unicode="&#xef;" horiz-adv-x="464" d="M16 0L191 993H415L240 0H16ZM311 1182L345 1355H526L492 1182H311ZM698 1182L732 1355H913L879 1182H698Z" />
<glyph unicode="&#xf0;" horiz-adv-x="991" d="M389 -25Q273 -25 188 23T56 155T10 346Q10 479 67 594T227 781T469 852Q548 852 601 826T687 762T736 687L708 657Q723 798 685 923T563 1145T361 1299L433 1402Q569 1345 677 1242T847 992T910 659Q910 456 846
302T665 62T389 -25ZM414 164Q474 164 530 198T622 297T658 458Q658 554 615 611T487 668Q408 668 351 626T263 516T232 372Q232 282 278 223T414 164ZM366 982L306 1108L862 1345L920 1219L366 982Z" />
<glyph unicode="&#xf1;" horiz-adv-x="1057" d="M16 0L191 993H385L390 847L240 0H16ZM619 0Q650 175 670 289T701 472T717 576T723 627T725 651Q725 739 689 780T573 822Q506 822 453 793T357 707L377 906Q440 959 507 984T655 1010Q810 1010 881 920T953 681Q953
669 952 651T945 594T928 484T896 295T845 0H619ZM819 1144Q776 1144 729 1166T637 1209T555 1231Q522 1231 501 1212T474 1160H322Q342 1275 396 1335T531 1395Q578 1395 622 1374T708 1330T788 1308Q819 1308 838 1327T864 1385H1021Q999 1261 949 1203T819 1144Z"
/>
<glyph unicode="&#xf2;" horiz-adv-x="1073" d="M435 -20Q301 -20 213 37T81 190T37 404Q37 523 78 632T196 826T376 960T604 1010Q738 1010 826 953T958 800T1002 585Q1002 467 961 359T843 165T663 30T435 -20ZM466 168Q558 168 626 223T733 369T772 569Q772
690 722 756T573 822Q482 822 413 768T306 623T267 423Q267 302 317 235T466 168ZM828 1144L485 1291L523 1509L853 1289L828 1144Z" />
<glyph unicode="&#xf3;" horiz-adv-x="1073" d="M435 -20Q301 -20 213 37T81 190T37 404Q37 523 78 632T196 826T376 960T604 1010Q738 1010 826 953T958 800T1002 585Q1002 467 961 359T843 165T663 30T435 -20ZM466 168Q558 168 626 223T733 369T772 569Q772
690 722 756T573 822Q482 822 413 768T306 623T267 423Q267 302 317 235T466 168ZM471 1144L501 1299L892 1512L855 1272L471 1144Z" />
<glyph unicode="&#xf4;" horiz-adv-x="1073" d="M435 -20Q301 -20 213 37T81 190T37 404Q37 523 78 632T196 826T376 960T604 1010Q738 1010 826 953T958 800T1002 585Q1002 467 961 359T843 165T663 30T435 -20ZM466 168Q558 168 626 223T733 369T772 569Q772
690 722 756T573 822Q482 822 413 768T306 623T267 423Q267 302 317 235T466 168ZM420 1138L452 1287L713 1483L930 1260L901 1115L674 1279L420 1138Z" />
<glyph unicode="&#xf5;" horiz-adv-x="1073" d="M435 -20Q301 -20 213 37T81 190T37 404Q37 523 78 632T196 826T376 960T604 1010Q738 1010 826 953T958 800T1002 585Q1002 467 961 359T843 165T663 30T435 -20ZM466 168Q558 168 626 223T733 369T772 569Q772
690 722 756T573 822Q482 822 413 768T306 623T267 423Q267 302 317 235T466 168ZM822 1157Q779 1157 732 1179T640 1222T558 1244Q525 1244 504 1225T477 1173H325Q345 1288 399 1348T534 1408Q581 1408 625 1387T711 1343T791 1321Q822 1321 841 1340T867 1398H1024Q1002
1274 952 1216T822 1157Z" />
<glyph unicode="&#xf6;" horiz-adv-x="1073" d="M435 -20Q301 -20 213 37T81 190T37 404Q37 523 78 632T196 826T376 960T604 1010Q738 1010 826 953T958 800T1002 585Q1002 467 961 359T843 165T663 30T435 -20ZM466 168Q558 168 626 223T733 369T772 569Q772
690 722 756T573 822Q482 822 413 768T306 623T267 423Q267 302 317 235T466 168ZM370 1182L404 1355H585L551 1182H370ZM757 1182L791 1355H972L938 1182H757Z" />
<glyph unicode="&#xf7;" horiz-adv-x="939" d="M15 469L45 644H833L803 469H15ZM234 99L275 332H492L452 99H234ZM355 782L395 1015H613L572 782H355Z" />
<glyph unicode="&#xf8;" horiz-adv-x="1073" d="M865 1060H1034L181 -80H12L865 1060ZM435 -20Q301 -20 213 37T81 190T37 404Q37 523 78 632T196 826T376 960T604 1010Q738 1010 826 953T958 800T1002 585Q1002 467 961 359T843 165T663 30T435 -20ZM466 168Q558
168 626 223T733 369T772 569Q772 690 722 756T573 822Q482 822 413 768T306 623T267 423Q267 302 317 235T466 168Z" />
<glyph unicode="&#xf9;" horiz-adv-x="1048" d="M373 -20Q222 -20 146 66T69 302Q69 329 73 361T84 436L179 993H403L312 457Q305 418 302 392T299 344Q299 171 450 171Q512 171 564 198T657 279L636 97Q581 46 519 13T373 -20ZM615 0L636 212L775 993H999L824
0H615ZM800 1144L457 1291L495 1509L825 1289L800 1144Z" />
<glyph unicode="&#xfa;" horiz-adv-x="1048" d="M373 -20Q222 -20 146 66T69 302Q69 329 73 361T84 436L179 993H403L312 457Q305 418 302 392T299 344Q299 171 450 171Q512 171 564 198T657 279L636 97Q581 46 519 13T373 -20ZM615 0L636 212L775 993H999L824
0H615ZM443 1144L473 1299L864 1512L827 1272L443 1144Z" />
<glyph unicode="&#xfb;" horiz-adv-x="1048" d="M373 -20Q222 -20 146 66T69 302Q69 329 73 361T84 436L179 993H403L312 457Q305 418 302 392T299 344Q299 171 450 171Q512 171 564 198T657 279L636 97Q581 46 519 13T373 -20ZM615 0L636 212L775 993H999L824
0H615ZM392 1138L424 1287L685 1483L902 1260L873 1115L646 1279L392 1138Z" />
<glyph unicode="&#xfc;" horiz-adv-x="1048" d="M373 -20Q222 -20 146 66T69 302Q69 329 73 361T84 436L179 993H403L312 457Q305 418 302 392T299 344Q299 171 450 171Q512 171 564 198T657 279L636 97Q581 46 519 13T373 -20ZM615 0L636 212L775 993H999L824
0H615ZM342 1182L376 1355H557L523 1182H342ZM729 1182L763 1355H944L910 1182H729Z" />
<glyph unicode="&#xfd;" horiz-adv-x="999" d="M-13 -484L343 149L316 -44L67 993H316L463 216L393 227L809 993H1058L214 -484H-13ZM417 1144L447 1299L838 1512L801 1272L417 1144Z" />
<glyph unicode="&#xfe;" horiz-adv-x="1092" d="M-70 -484L280 1500H504L380 807L348 865Q413 930 493 970T678 1010Q789 1010 865 957T980 808T1020 591Q1020 462 985 351T885 156T728 27T523 -20Q408 -20 336 34T230 175L277 219L154 -484H-70ZM507 168Q590
168 654 222T753 367T789 571Q789 683 746 752T608 822Q521 822 453 769T345 623T305 409Q305 287 357 228T507 168Z" />
<glyph unicode="&#xff;" horiz-adv-x="999" d="M-13 -484L343 149L316 -44L67 993H316L463 216L393 227L809 993H1058L214 -484H-13ZM315 1182L349 1355H530L496 1182H315ZM702 1182L736 1355H917L883 1182H702Z" />
<glyph unicode="&#x2013;" horiz-adv-x="1283" d="M0 531L33 713H1283L1250 531H0Z" />
<glyph unicode="&#x2014;" horiz-adv-x="1456" d="M0 531L33 713H1456L1425 531H0Z" />
<glyph unicode="&#x2018;" horiz-adv-x="401" d="M353 1400H468L346 1169H436L392 919H148L188 1146L353 1400Z" />
<glyph unicode="&#x2019;" horiz-adv-x="377" d="M248 919H133L255 1150H165L209 1400H453L413 1173L248 919Z" />
<glyph unicode="&#x201a;" horiz-adv-x="391" d="M58 -231H-57L65 0H-25L19 250H263L223 23L58 -231Z" />
<glyph unicode="&#x201c;" horiz-adv-x="759" d="M356 1417H471L349 1186H439L395 936H151L191 1163L356 1417ZM714 1417H829L707 1186H797L753 936H509L549 1163L714 1417Z" />
<glyph unicode="&#x201d;" horiz-adv-x="735" d="M248 919H133L255 1150H165L209 1400H453L413 1173L248 919ZM606 919H491L613 1150H523L567 1400H811L771 1173L606 919Z" />
<glyph unicode="&#x201e;" horiz-adv-x="749" d="M58 -231H-57L65 0H-25L19 250H263L223 23L58 -231ZM416 -231H301L423 0H333L377 250H621L581 23L416 -231Z" />
<glyph unicode="&#x2022;" horiz-adv-x="580" d="M245 338Q170 338 123 392T75 523Q75 591 110 648T202 739T322 774Q397 774 444 720T491 589Q491 521 456 464T365 373T245 338Z" />
<glyph unicode="&#x2039;" horiz-adv-x="661" d="M243 156L28 568L387 980H653L225 489L245 661L509 156H243Z" />
<glyph unicode="&#x203a;" horiz-adv-x="662" d="M1 156L429 647L408 475L147 980H413L626 568L267 156H1Z" />
</font>
</defs>
</svg>
