<?xml version="1.0" standalone="no"?>
<!DOCTYPE svg PUBLIC "-//W3C//DTD SVG 1.1//EN" "http://www.w3.org/Graphics/SVG/1.1/DTD/svg11.dtd">
<svg xmlns="http://www.w3.org/2000/svg">
<defs >
<font id="Cabin" horiz-adv-x="1054" ><font-face
    font-family="Cabin"
    units-per-em="2000"
    panose-1="0 0 0 0 0 0 0 0 0 0"
    ascent="1930"
    descent="-500"
    alphabetic="0" />
<glyph unicode=" " horiz-adv-x="450" />
<glyph unicode="!" horiz-adv-x="484" d="M158 344V396L118 1400H366L326 396V344H158ZM134 0V212H350V0H134Z" />
<glyph unicode="&quot;" horiz-adv-x="644" d="M108 980L72 1400H272L236 980H108ZM408 980L372 1400H572L536 980H408Z" />
<glyph unicode="#" horiz-adv-x="1408" d="M134 -22L306 432H66L146 614H376L466 844H214L272 1014H530L678 1400H840L690 1014H956L1106 1400H1266L1118 1014H1344L1286 844H1054L964 614H1220L1138 432H894L722 -22H560L734 432H468L294 -22H134ZM538 614H802L892
844H628L538 614Z" />
<glyph unicode="$" horiz-adv-x="1168" d="M560 -28Q473 -28 386 -15T225 18T102 62L128 264Q182 238 258 210T424 163T604 144Q739 144 818 193T898 348Q898 427 858 477T738 564T536 636Q421 670 324 716T169 841T110 1050Q110 1161 167 1246T336 1380T610 1428Q748
1428 863 1398T1054 1332L1034 1130Q920 1198 817 1227T602 1256Q479 1256 399 1210T318 1060Q318 990 354 946T461 870T638 806Q784 762 889 706T1050 567T1106 362Q1106 272 1072 200T970 77T800 -1T560 -28ZM542 -288L562 68H678L698 -288H542ZM562 1346L542
1688H698L678 1346H562Z" />
<glyph unicode="%" horiz-adv-x="1798" d="M412 628Q308 628 234 680T120 824T80 1034Q80 1213 172 1320T412 1428Q562 1428 653 1321T744 1034Q744 916 705 825T592 681T412 628ZM412 772Q493 772 536 840T580 1034Q580 1160 535 1222T412 1284Q340 1284 292
1222T244 1034Q244 908 287 840T412 772ZM414 0L1220 1400H1388L584 0H414ZM1386 -28Q1282 -28 1208 24T1094 168T1054 378Q1054 557 1146 664T1386 772Q1536 772 1627 665T1718 378Q1718 260 1679 169T1566 25T1386 -28ZM1386 116Q1467 116 1510 184T1554 378Q1554
504 1509 566T1386 628Q1314 628 1266 566T1218 378Q1218 252 1261 184T1386 116Z" />
<glyph unicode="&amp;" horiz-adv-x="1222" d="M518 -46Q377 -46 278 4T125 138T72 324Q72 401 98 470T179 604T324 732Q237 839 206 921T174 1072Q174 1177 222 1252T352 1366T530 1406Q701 1406 780 1327T860 1130Q860 1043 812 971T687 836T522 712L902 322Q924
349 938 399T961 507T974 618T980 702H1142Q1140 643 1130 558T1093 378T1012 200L1186 0H1002L914 92Q820 14 729 -16T518 -46ZM522 90Q630 90 702 123T824 210L408 626Q338 577 292 502T246 338Q246 270 275 214T365 124T522 90ZM446 812Q528 869 584 915T669
1009T698 1118Q698 1190 652 1229T528 1268Q453 1268 395 1219T336 1068Q336 1023 357 959T446 812Z" />
<glyph unicode="&apos;" horiz-adv-x="344" d="M108 980L72 1400H272L236 980H108Z" />
<glyph unicode="(" horiz-adv-x="626" d="M408 -272Q334 -164 273 -35T176 254T140 614Q140 814 176 974T273 1263T408 1500H566Q466 1332 393 1117T320 614Q320 328 393 112T566 -272H408Z" />
<glyph unicode=")" horiz-adv-x="626" d="M60 -272Q161 -104 233 112T306 614Q306 901 234 1116T60 1500H218Q292 1392 353 1263T450 974T486 614Q486 414 450 254T353 -35T218 -272H60Z" />
<glyph unicode="*" horiz-adv-x="854" d="M68 954L344 1118L68 1280L122 1376L382 1198L372 1500H482L472 1198L732 1376L786 1280L510 1118L786 954L732 858L472 1036L482 734H372L382 1036L122 858L68 954Z" />
<glyph unicode="+" horiz-adv-x="884" d="M362 220V486H92V638H362V904H522V638H792V486H522V220H362Z" />
<glyph unicode="," horiz-adv-x="432" d="M228 -214H114L186 0H116V212H332V20L228 -214Z" />
<glyph unicode="-" horiz-adv-x="848" d="M114 536V708H734V536H114Z" />
<glyph unicode="." horiz-adv-x="416" d="M100 0V212H316V0H100Z" />
<glyph unicode="/" horiz-adv-x="646" d="M-20 -170L516 1400H706L170 -170H-20Z" />
<glyph unicode="0" horiz-adv-x="1396" d="M698 -28Q513 -28 381 67T179 329T108 712Q108 928 183 1089T391 1339T698 1428Q876 1428 1008 1339T1214 1089T1288 712Q1288 496 1218 329T1016 67T698 -28ZM698 144Q822 144 908 210T1040 403T1086 712Q1086 985 981
1120T698 1256Q530 1256 420 1121T310 712Q310 530 355 403T487 210T698 144Z" />
<glyph unicode="1" horiz-adv-x="652" d="M308 0V1126Q236 1068 189 1043T100 1004L68 1182Q122 1200 178 1233T283 1310T362 1400H492V0H308Z" />
<glyph unicode="2" horiz-adv-x="1048" d="M114 2L496 582Q559 677 604 755T672 899T696 1026Q696 1130 638 1191T478 1252Q378 1252 294 1209T138 1094L114 1294Q183 1350 280 1390T498 1430Q626 1430 713 1379T844 1241T888 1046Q888 953 863 870T788 696T664
494L452 174H942V2H114Z" />
<glyph unicode="3" horiz-adv-x="1082" d="M480 -28Q365 -28 266 2T80 78L126 254Q212 205 295 175T482 144Q613 144 686 209T760 378Q760 494 680 564T430 634H342V806H430Q559 806 634 867T710 1034Q710 1147 652 1201T486 1256Q401 1256 327 1223T182 1142L150
1336Q227 1380 316 1404T512 1428Q642 1428 732 1381T870 1251T918 1058Q918 922 839 829T624 706V752Q783 721 872 632T962 384Q962 256 899 164T726 22T480 -28Z" />
<glyph unicode="4" horiz-adv-x="1156" d="M730 0V362H40L784 1400H922V524H1102V362H922V0H730ZM320 470L286 524H730V1150L764 1094L320 470Z" />
<glyph unicode="5" horiz-adv-x="1082" d="M492 -28Q381 -28 279 1T102 78L148 254Q222 214 302 185T482 156Q616 156 699 231T782 434Q782 578 692 653T458 728Q382 728 315 717T176 688L262 1400H922L914 1220H418L366 782L324 864Q369 873 419 878T520 884Q669
884 774 826T934 665T990 434Q990 292 925 189T747 29T492 -28Z" />
<glyph unicode="6" horiz-adv-x="1136" d="M590 -28Q443 -28 339 37T179 220T124 492Q124 657 178 802T323 1067T524 1279T744 1428L874 1306Q785 1262 703 1202T551 1068T429 908T347 726T318 524L254 632Q302 728 401 784T634 840Q756 840 850 785T997 633T1050
416Q1050 286 992 186T831 29T590 -28ZM590 136Q710 136 782 215T854 410Q854 523 782 599T590 676Q470 676 397 599T324 408Q324 290 397 213T590 136Z" />
<glyph unicode="7" horiz-adv-x="1006" d="M180 0L744 1306L796 1220H80V1400H986L380 0H180Z" />
<glyph unicode="8" horiz-adv-x="1212" d="M606 -28Q456 -28 347 26T179 177T120 400Q120 530 181 627T351 778T606 832Q751 832 860 778T1031 627T1092 400Q1092 274 1033 178T864 27T606 -28ZM606 144Q744 144 820 214T896 400Q896 520 820 598T606 676Q468
676 392 598T316 400Q316 285 392 215T606 144ZM606 686Q489 686 394 732T241 861T184 1050Q184 1142 227 1229T363 1372T606 1428Q756 1428 847 1372T979 1229T1020 1050Q1020 943 969 861T825 733T606 686ZM606 842Q717 842 773 903T830 1050Q830 1142 774 1199T606
1256Q495 1256 435 1199T374 1050Q374 965 434 904T606 842Z" />
<glyph unicode="9" horiz-adv-x="1136" d="M412 0L282 122Q365 165 443 222T590 351T709 505T789 681T818 876L882 768Q834 672 735 616T502 560Q380 560 286 615T139 767T86 984Q86 1114 144 1214T305 1371T546 1428Q693 1428 797 1363T957 1180T1012 908Q1012
748 959 608T819 351T625 145T412 0ZM546 724Q666 724 739 801T812 992Q812 1111 739 1187T546 1264Q426 1264 354 1185T282 990Q282 878 354 801T546 724Z" />
<glyph unicode=":" horiz-adv-x="416" d="M100 768V980H316V768H100ZM100 0V212H316V0H100Z" />
<glyph unicode=";" horiz-adv-x="432" d="M228 -214H114L186 0H116V212H332V20L228 -214ZM116 768V980H332V768H116Z" />
<glyph unicode="&lt;" horiz-adv-x="834" d="M782 150L72 476V648L782 974V802L224 562L782 322V150Z" />
<glyph unicode="=" horiz-adv-x="884" d="M92 636V788H792V636H92ZM92 320V472H792V320H92Z" />
<glyph unicode="&gt;" horiz-adv-x="834" d="M52 150L762 476V648L52 974V802L610 562L52 322V150Z" />
<glyph unicode="?" horiz-adv-x="924" d="M310 344V394Q310 481 334 546T395 663T474 766Q540 847 578 906T616 1050Q616 1121 584 1166T501 1234T396 1256Q321 1256 258 1235T138 1180L120 1342Q180 1380 258 1404T442 1428Q567 1428 652 1379T780 1249T824 1074Q824
996 799 936T735 825T654 722Q594 649 546 577T498 406V344H310ZM296 0V212H512V0H296Z" />
<glyph unicode="@" horiz-adv-x="1452" d="M596 -174Q368 -174 234 -39T100 340Q100 504 160 643T325 886T567 1048T854 1106Q1090 1106 1221 969T1352 600Q1352 499 1324 405T1234 249T1068 188Q1031 188 1007 205T982 290Q982 379 1018 488T1092 758Q1055 797
994 830T850 864Q756 864 666 816T502 687T384 507T340 306Q340 248 357 197T415 113T522 80Q580 80 647 106T777 185T882 312Q881 302 879 284T876 242Q876 210 886 173T922 110T992 84Q1024 84 1066 99T1152 138T1230 192L1236 186Q1171 79 1072 -2T852 -128T596
-174ZM588 212Q542 212 521 250T500 346Q500 428 536 499T628 625T749 711T868 742Q885 742 915 736T958 698Q944 618 904 533T809 375T697 257T588 212Z" />
<glyph unicode="A" horiz-adv-x="1232" d="M916 378H316V550H916V378ZM588 1214H644L214 0H14L516 1400H716L1218 0H1018L588 1214Z" />
<glyph unicode="B" horiz-adv-x="1194" d="M160 0V1400H602Q790 1400 897 1316T1004 1058Q1004 941 953 852T800 736L828 768Q974 744 1054 652T1134 400Q1134 216 1016 108T688 0H160ZM350 172H672Q788 172 857 230T926 406Q926 538 856 592T672 646H350V172ZM350
818H578Q680 818 744 859T808 1024Q808 1147 744 1188T578 1230H350V818Z" />
<glyph unicode="C" horiz-adv-x="1232" d="M784 -28Q580 -28 421 61T170 314T78 700Q78 922 170 1085T424 1338T792 1428Q899 1428 996 1405T1166 1346L1146 1170Q1071 1206 981 1231T790 1256Q625 1256 513 1182T344 981T286 700Q286 545 342 419T510 219T786
144Q890 144 978 166T1146 228L1166 52Q1091 18 997 -5T784 -28Z" />
<glyph unicode="D" horiz-adv-x="1454" d="M160 0V1400H678Q881 1400 1038 1317T1284 1078T1374 700Q1374 479 1285 323T1038 83T678 0H160ZM350 172H678Q838 172 946 238T1110 424T1166 700Q1166 857 1111 976T947 1161T678 1228H350V172Z" />
<glyph unicode="E" horiz-adv-x="1108" d="M160 0V1400H1014V1228H350V818H878V646H350V172H1032V0H160Z" />
<glyph unicode="F" horiz-adv-x="1046" d="M160 0V1400H1014V1228H350V818H862V646H350V0H160Z" />
<glyph unicode="G" horiz-adv-x="1344" d="M764 -28Q570 -28 415 61T169 315T78 702Q78 923 171 1086T428 1338T802 1428Q915 1428 1017 1405T1196 1348L1178 1182Q1096 1214 1004 1235T808 1256Q629 1256 514 1182T342 981T286 700Q286 540 343 415T518 217T818
144Q863 144 930 152T1052 182V530H832V702H1242V78Q1160 33 1038 3T764 -28Z" />
<glyph unicode="H" horiz-adv-x="1412" d="M160 0V1400H350V822H1062V1400H1252V0H1062V642H350V0H160Z" />
<glyph unicode="I" horiz-adv-x="510" d="M160 0V1400H350V0H160Z" />
<glyph unicode="J" horiz-adv-x="510" d="M-14 -344L-40 -180Q68 -180 114 -133T160 16V1400H350V-28Q350 -193 273 -268T38 -344H-14Z" />
<glyph unicode="K" horiz-adv-x="1132" d="M888 0L370 742L888 1400H1118L586 746L1124 0H888ZM160 0V1400H350V0H160Z" />
<glyph unicode="L" horiz-adv-x="1002" d="M160 0V1400H350V172H992V0H160Z" />
<glyph unicode="M" horiz-adv-x="1624" d="M96 0L284 1400H446L814 706L1178 1400H1342L1528 0H1328L1186 1142L1236 1134L816 332L388 1134L438 1142L296 0H96Z" />
<glyph unicode="N" horiz-adv-x="1408" d="M160 0V1400H366L1056 352V1400H1248V0H1086L350 1106V0H160Z" />
<glyph unicode="O" horiz-adv-x="1540" d="M770 -28Q570 -28 414 61T169 314T80 700Q80 922 169 1085T414 1338T770 1428Q970 1428 1126 1339T1371 1086T1460 700Q1460 478 1371 315T1126 62T770 -28ZM770 156Q931 156 1039 228T1201 424T1256 700Q1256 852 1202
975T1039 1171T770 1244Q609 1244 501 1172T339 976T284 700Q284 548 338 425T501 229T770 156Z" />
<glyph unicode="P" horiz-adv-x="1144" d="M160 0V1400H622Q763 1400 870 1355T1036 1210T1096 946Q1096 785 1037 685T870 537T622 490H360V0H160ZM360 660H594Q747 660 823 729T900 944Q900 1090 828 1160T594 1230H360V660Z" />
<glyph unicode="Q" horiz-adv-x="1540" d="M882 404L990 514L1430 82L1322 -28L882 404ZM770 -28Q570 -28 414 61T169 314T80 700Q80 922 169 1085T414 1338T770 1428Q970 1428 1126 1339T1371 1086T1460 700Q1460 478 1371 315T1126 62T770 -28ZM770 156Q931
156 1039 228T1201 424T1256 700Q1256 852 1202 975T1039 1171T770 1244Q609 1244 501 1172T339 976T284 700Q284 548 338 425T501 229T770 156Z" />
<glyph unicode="R" horiz-adv-x="1206" d="M160 0V1400H614Q760 1400 869 1355T1038 1216T1098 974Q1098 830 1036 733T854 580L1168 0H936L652 546Q649 546 647 546T642 546H360V0H160ZM360 716H612Q755 716 827 785T900 974Q900 1096 828 1163T612 1230H360V716Z" />
<glyph unicode="S" horiz-adv-x="1168" d="M560 -28Q473 -28 386 -15T225 18T102 62L128 264Q182 238 258 210T424 163T604 144Q739 144 818 193T898 348Q898 427 858 477T738 564T536 636Q421 670 324 716T169 841T110 1050Q110 1161 167 1246T336 1380T610 1428Q748
1428 863 1398T1054 1332L1034 1130Q920 1198 817 1227T602 1256Q479 1256 399 1210T318 1060Q318 990 354 946T461 870T638 806Q784 762 889 706T1050 567T1106 362Q1106 272 1072 200T970 77T800 -1T560 -28Z" />
<glyph unicode="T" horiz-adv-x="1066" d="M438 0V1228H30V1400H1036V1228H628V0H438Z" />
<glyph unicode="U" horiz-adv-x="1448" d="M724 -28Q527 -28 399 47T207 262T144 594V1400H334V646Q334 550 349 460T404 299T522 186T724 144Q849 144 926 186T1043 299T1099 461T1114 646V1400H1304V594Q1304 402 1241 263T1050 48T724 -28Z" />
<glyph unicode="V" horiz-adv-x="1220" d="M510 0L8 1400H208L638 186H582L1012 1400H1212L710 0H510Z" />
<glyph unicode="W" horiz-adv-x="1892" d="M404 0L8 1400H208L504 246L846 1372H1046L1388 246L1684 1400H1884L1488 0H1286L946 1126L606 0H404Z" />
<glyph unicode="X" horiz-adv-x="1186" d="M8 0L484 706L16 1400H236L594 870L950 1400H1170L704 706L1178 0H958L594 542L228 0H8Z" />
<glyph unicode="Y" horiz-adv-x="1134" d="M472 0V606L-22 1400H194L610 720H522L938 1400H1154L662 606V0H472Z" />
<glyph unicode="Z" horiz-adv-x="1098" d="M18 0L820 1300L856 1228H108V1400H1084L278 100L244 172H1074V0H18Z" />
<glyph unicode="[" horiz-adv-x="654" d="M140 -270V1500H654V1364H306V-134H654V-270H140Z" />
<glyph unicode="\" horiz-adv-x="606" d="M476 -170L-20 1400H170L666 -170H476Z" />
<glyph unicode="]" horiz-adv-x="654" d="M0 -270V-134H348V1364H0V1500H514V-270H0Z" />
<glyph unicode="^" horiz-adv-x="1024" d="M100 884V1086L512 1518L924 1086V884L512 1276L100 884Z" />
<glyph unicode="_" horiz-adv-x="1132" d="M6 -244V-72H1126V-244H6Z" />
<glyph unicode="`" horiz-adv-x="934" d="M654 1152L280 1298V1494L654 1274V1152Z" />
<glyph unicode="a" horiz-adv-x="960" d="M350 -20Q259 -20 191 17T86 118T48 264Q48 347 84 406T182 505T320 568T477 602T634 614Q634 754 579 797T420 840Q365 840 303 823T162 752L136 898Q195 943 283 971T468 1000Q592 1000 668 957T779 810T814 530V330Q814
260 820 215T850 147T926 124H944L916 -20H902Q815 -20 768 -3T695 46T650 124Q595 60 520 20T350 -20ZM384 124Q456 124 523 160T634 256V490Q491 485 403 462T273 393T232 274Q232 195 274 160T384 124Z" />
<glyph unicode="b" horiz-adv-x="1110" d="M604 -20Q501 -20 405 29T270 176L314 208L280 0H120V1500H300V788L262 816Q312 897 405 948T604 1000Q741 1000 840 929T992 741T1046 490Q1046 347 987 232T828 48T604 -20ZM582 140Q668 140 731 187T828 314T862 490Q862
590 828 669T731 794T582 840Q505 840 439 802T331 686T290 490Q290 367 331 290T438 177T582 140Z" />
<glyph unicode="c" horiz-adv-x="908" d="M572 -20Q406 -20 294 47T124 229T66 484Q66 630 121 747T292 932T586 1000Q663 1000 731 985T854 942L826 784Q771 810 710 825T582 840Q420 840 335 748T250 492Q250 332 331 235T578 138Q646 138 708 154T828 198L852
54Q812 26 735 3T572 -20Z" />
<glyph unicode="d" horiz-adv-x="1110" d="M510 -20Q385 -20 284 48T124 231T64 488Q64 623 118 740T273 928T510 1000Q608 1000 699 958T848 816L810 790V1500H990V0H830L796 208L842 176Q799 79 707 30T510 -20ZM542 140Q610 140 676 175T786 286T830 488Q830
604 787 682T677 800T542 840Q450 840 384 794T283 669T248 488Q248 393 283 314T384 188T542 140Z" />
<glyph unicode="e" horiz-adv-x="1024" d="M592 -20Q419 -20 301 51T123 239T62 498Q62 635 118 749T282 931T542 1000Q664 1000 759 952T909 811T964 586Q964 565 963 541T956 490H246Q259 354 311 278T442 171T614 140Q682 140 756 154T896 198L920 56Q863 31
781 6T592 -20ZM262 614H778Q778 683 752 734T673 812T538 840Q418 840 354 781T262 614Z" />
<glyph unicode="f" horiz-adv-x="662" d="M190 0V840H20L44 980H190V1212Q190 1343 260 1421T466 1500Q516 1500 553 1493T622 1474L594 1322Q570 1331 547 1335T494 1340Q436 1340 403 1308T370 1200V980H634V840H370V0H190Z" />
<glyph unicode="g" horiz-adv-x="996" d="M518 -500Q384 -500 279 -467T113 -369T52 -208Q52 -128 97 -71T222 22Q175 45 151 76T126 146Q126 191 153 227T242 288Q160 339 116 425T72 618Q72 725 120 811T258 949T476 1000Q544 1000 604 980T716 924Q761 950
822 967T960 984Q965 984 968 984T976 984L954 864Q942 864 931 864T908 864Q898 864 862 861T796 850Q837 802 859 743T882 618Q882 506 834 418T694 278T476 226Q440 226 407 230T344 244Q298 229 298 192Q298 170 324 154T408 128L670 86Q829 61 915 -6T1002
-196Q1002 -298 943 -365T774 -466T518 -500ZM534 -340Q672 -340 746 -305T820 -200Q820 -146 774 -115T640 -68L361 -21Q306 -45 265 -85T224 -180Q224 -264 308 -302T534 -340ZM476 370Q590 370 650 438T710 616Q710 721 650 788T476 856Q362 856 303 789T244
616Q244 507 303 439T476 370Z" />
<glyph unicode="h" horiz-adv-x="1084" d="M120 0V1500H302V810L238 814Q307 901 386 950T590 1000Q717 1000 802 943T929 784T972 546V0H792V524Q792 686 733 763T550 840Q457 840 386 790T272 656L302 766V0H120Z" />
<glyph unicode="i" horiz-adv-x="424" d="M122 0V980H302V0H122ZM122 1200V1400H302V1200H122Z" />
<glyph unicode="j" horiz-adv-x="424" d="M-4 -484L-24 -346Q35 -340 66 -324T110 -266T122 -146V980H302V-214Q302 -308 262 -362T164 -441T56 -474L-4 -484ZM122 1200V1400H302V1200H122Z" />
<glyph unicode="k" horiz-adv-x="896" d="M120 0V1500H300V538L660 980H880L490 524L890 0H670L300 498V0H120Z" />
<glyph unicode="l" horiz-adv-x="472" d="M374 -20Q279 -20 224 14T144 103T120 216V1500H300V320Q300 236 311 194T355 138T458 124L432 -20H374Z" />
<glyph unicode="m" horiz-adv-x="1754" d="M122 0V980H262L298 792L230 824Q322 923 409 961T592 1000Q664 1000 730 977T850 895T936 732L886 754Q930 868 1021 934T1266 1000Q1389 1000 1473 955T1599 816T1642 578V0H1462V576Q1462 714 1408 777T1232 840Q1146
840 1094 814T1016 745T981 656T972 568V0H792V540Q792 660 763 725T682 815T562 840Q463 840 385 797T280 658L302 756V0H122Z" />
<glyph unicode="n" horiz-adv-x="1118" d="M122 0V980H262L298 792L228 822Q327 932 421 966T606 1000Q821 1000 913 876T1006 540V0H826V540Q826 696 768 768T570 840Q471 840 389 797T280 658L302 768V0H122Z" />
<glyph unicode="o" horiz-adv-x="1100" d="M550 -20Q396 -20 288 48T122 232T64 490Q64 632 121 747T287 931T550 1000Q703 1000 812 932T978 748T1036 490Q1036 348 979 233T812 49T550 -20ZM550 140Q696 140 774 232T852 490Q852 655 774 747T550 840Q405 840
327 748T248 490Q248 325 326 233T550 140Z" />
<glyph unicode="p" horiz-adv-x="1114" d="M122 -484V980H262L294 756L244 792Q306 888 397 944T620 1000Q754 1000 850 932T997 749T1048 490Q1048 347 1000 232T857 48T620 -20Q503 -20 409 28T272 174L302 210V-484H122ZM586 140Q717 140 790 232T864 490Q864
655 791 747T586 840Q505 840 439 802T332 686T292 490Q292 367 332 290T438 177T586 140Z" />
<glyph unicode="q" horiz-adv-x="1114" d="M812 -484V210L842 174Q802 77 712 29T504 -20Q359 -20 262 48T115 231T66 490Q66 624 118 740T267 928T502 1000Q640 1000 724 946T870 792L820 756L852 980H992V-484H812ZM528 140Q609 140 675 176T782 290T822 490Q822
667 736 753T528 840Q398 840 324 748T250 490Q250 325 324 233T528 140Z" />
<glyph unicode="r" horiz-adv-x="632" d="M122 0V980H270L292 818Q367 911 435 955T582 1000Q607 1000 628 994L610 796Q597 799 583 800T550 802Q472 802 407 768T314 692V0H122Z" />
<glyph unicode="s" horiz-adv-x="828" d="M400 -20Q270 -20 185 11T64 66L86 240Q118 212 199 176T392 140Q487 140 537 172T588 262Q588 313 556 344T478 394T392 424Q325 442 254 469T133 552T84 706Q84 781 120 848T237 958T452 1000Q550 1000 611 980T718
936L696 772Q653 808 596 833T456 858Q372 858 319 827T266 726Q266 657 322 628T494 564Q530 554 577 535T670 484T744 401T774 272Q774 207 743 140T631 26T400 -20Z" />
<glyph unicode="t" horiz-adv-x="674" d="M460 -20Q367 -20 311 14T230 101T204 214V840H36L52 980H204V1222L384 1240V980H642V840H384V324Q384 230 395 188T449 135T590 124H636L622 -20H460Z" />
<glyph unicode="u" horiz-adv-x="1048" d="M474 -20Q359 -20 278 26T155 168T112 410V980H292V460Q292 304 345 222T520 140Q603 140 674 180T772 308L746 210V980H926V0H766L730 192L778 160Q729 69 659 25T474 -20Z" />
<glyph unicode="v" horiz-adv-x="984" d="M392 0L18 980H218L492 198L764 980H966L594 0H392Z" />
<glyph unicode="w" horiz-adv-x="1450" d="M318 0L24 980H236L424 198L632 950H818L1028 198L1216 980H1428L1132 0H930L726 724L520 0H318Z" />
<glyph unicode="x" horiz-adv-x="948" d="M22 0L364 488L30 980H232L478 592L704 980H914L592 504L926 0H724L476 386L224 0H22Z" />
<glyph unicode="y" horiz-adv-x="1010" d="M196 -484L422 44L14 980H214L520 252L796 980H996L396 -484H196Z" />
<glyph unicode="z" horiz-adv-x="942" d="M44 0L650 912L672 822H76V980H892L286 68L264 158H882V0H44Z" />
<glyph unicode="{" horiz-adv-x="616" d="M538 -272Q351 -272 268 -188T184 28Q184 96 192 181T200 340Q200 448 166 501T40 554V674Q132 674 166 727T200 888Q200 962 192 1047T184 1200Q184 1332 267 1416T538 1500H612V1362H558Q449 1362 390 1313T330 1140Q330
1070 338 984T346 828Q346 726 296 678T162 606V622Q246 600 296 551T346 400Q346 331 338 245T330 88Q330 -35 389 -84T558 -134H612V-272H538Z" />
<glyph unicode="|" horiz-adv-x="458" d="M140 -418V1500H318V-418H140Z" />
<glyph unicode="}" horiz-adv-x="616" d="M4 -272V-134H58Q168 -134 227 -85T286 88Q286 159 278 245T270 400Q270 502 320 551T454 622V606Q370 629 320 677T270 828Q270 897 278 983T286 1140Q286 1263 227 1312T58 1362H4V1500H78Q266 1500 349 1416T432 1200Q432
1133 424 1048T416 888Q416 780 450 727T576 674V554Q485 554 451 501T416 340Q416 267 424 182T432 28Q432 -104 349 -188T78 -272H4Z" />
<glyph unicode="~" horiz-adv-x="924" d="M630 588Q561 588 512 611T419 658T320 682Q242 682 242 596H92Q97 718 148 782T294 846Q365 846 415 823T509 776T604 752Q682 752 682 838H832Q828 717 777 653T630 588Z" />
<glyph unicode="&#xa0;" horiz-adv-x="450" />
<glyph unicode="&#xa1;" horiz-adv-x="484" d="M158 656V604L118 -400H366L326 604V656H158ZM134 1000V788H350V1000H134Z" />
<glyph unicode="&#xa2;" horiz-adv-x="908" d="M572 -20Q406 -20 294 47T124 229T66 484Q66 630 121 747T292 932T586 1000Q663 1000 731 985T854 942L826 784Q771 810 710 825T582 840Q420 840 335 748T250 492Q250 332 331 235T578 138Q646 138 708 154T828
198L852 54Q812 26 735 3T572 -20ZM488 -288L508 68H624L644 -288H488ZM508 918L488 1260H644L624 918H508Z" />
<glyph unicode="&#xa3;" horiz-adv-x="1040" d="M100 0Q148 110 181 205T237 403T274 636L312 1000Q332 1198 426 1313T708 1428Q780 1428 843 1411T968 1358L948 1156Q891 1204 838 1230T722 1256Q622 1256 568 1191T502 1016L464 652Q450 522 432 430T384 260T310
98L266 180H978V0H100ZM120 632V780H852V632H120Z" />
<glyph unicode="&#xa4;" horiz-adv-x="1392" d="M696 1204Q847 1204 962 1136T1143 953T1208 696Q1208 550 1143 435T962 254T696 188Q544 188 429 255T249 437T184 696Q184 840 250 955T431 1137T696 1204ZM696 1040Q587 1040 513 994T402 870T364 696Q364 600
401 522T513 398T696 352Q805 352 879 398T990 522T1028 696Q1028 792 991 870T879 994T696 1040ZM176 1272L414 1034L354 982L120 1216L176 1272ZM362 418L418 362L176 120L120 176L362 418ZM1028 420L1272 176L1216 120L972 364L1028 420ZM1216 1272L1272 1216L1030
974L974 1030L1216 1272Z" />
<glyph unicode="&#xa5;" horiz-adv-x="1134" d="M472 0V606L-22 1400H194L610 720H522L938 1400H1154L662 606V0H472ZM168 294V442H966V294H168ZM168 574V722H966V574H168Z" />
<glyph unicode="&#xa6;" horiz-adv-x="464" d="M144 684V1500H320V684H144ZM144 -420V396H320V-420H144Z" />
<glyph unicode="&#xa7;" horiz-adv-x="912" d="M412 -168Q325 -168 245 -146T126 -90L152 36Q209 2 276 -22T414 -46Q504 -46 560 -6T620 120Q623 184 585 223T484 290T351 344T217 408T114 506T74 660Q74 765 129 840T292 958Q223 1006 194 1062T164 1196Q164
1282 201 1351T311 1460T494 1500Q589 1500 667 1475T788 1420L762 1294Q707 1329 639 1354T502 1380Q412 1380 360 1335T308 1224Q308 1163 346 1124T445 1055T573 996T701 925T799 821T838 662Q838 617 821 564T759 461T630 376Q692 339 720 279T748 138Q748
68 717 -2T613 -120T412 -168ZM534 438Q606 458 648 516T690 648Q690 707 649 753T544 834T412 896Q330 874 270 827T210 684Q210 614 250 571T364 497T534 438Z" />
<glyph unicode="&#xa8;" horiz-adv-x="956" d="M584 1182V1342H756V1182H584ZM200 1182V1342H372V1182H200Z" />
<glyph unicode="&#xa9;" horiz-adv-x="1440" d="M720 74Q540 74 400 155T179 384T98 730Q98 928 178 1075T399 1303T720 1384Q900 1384 1040 1303T1260 1075T1340 730Q1340 532 1260 385T1040 156T720 74ZM738 394Q646 394 575 435T463 550T422 726Q422 879 511
969T738 1060Q785 1060 833 1050T918 1022L904 902Q864 919 823 929T738 940Q647 940 602 880T556 726Q556 636 601 574T738 512Q782 512 823 523T904 552L918 434Q881 415 833 405T738 394ZM720 162Q893 162 1007 237T1179 441T1236 730Q1236 890 1179 1018T1008
1221T720 1296Q546 1296 431 1221T259 1018T202 730Q202 570 259 442T431 238T720 162Z" />
<glyph unicode="&#xaa;" horiz-adv-x="698" d="M240 868Q168 868 117 912T66 1038Q66 1098 102 1136T192 1197T304 1229T402 1240Q401 1282 377 1303T296 1324Q256 1324 217 1314T130 1284L118 1404Q172 1428 226 1439T336 1450Q437 1450 495 1400T554 1234V1074Q554
1011 564 1001T606 990H626L612 868H558Q509 868 475 885T424 930Q394 900 344 884T240 868ZM296 980Q322 980 350 988T404 1014V1140Q332 1134 278 1113T224 1042Q224 1011 243 996T296 980Z" />
<glyph unicode="&#xab;" horiz-adv-x="1164" d="M346 156L28 568L346 980H564L246 568L564 156H346ZM866 156L548 568L866 980H1084L766 568L1084 156H866Z" />
<glyph unicode="&#xac;" horiz-adv-x="1044" d="M792 302V660H92V812H952V302H792Z" />
<glyph unicode="&#xad;" horiz-adv-x="888" d="M134 536V708H754V536H134Z" />
<glyph unicode="&#xae;" horiz-adv-x="1440" d="M720 72Q539 72 398 153T177 383T96 730Q96 929 176 1076T398 1305T720 1386Q901 1386 1041 1305T1262 1077T1342 730Q1342 531 1262 383T1042 154T720 72ZM720 160Q893 160 1008 236T1180 441T1238 730Q1238 890
1181 1018T1008 1222T720 1298Q546 1298 431 1223T258 1019T200 730Q200 570 257 441T430 236T720 160ZM488 420V1062H724Q828 1062 886 1015T944 868Q944 805 916 761T836 688L978 420H846L728 654H612V420H488ZM612 766H712Q765 766 789 793T814 866Q814 911
789 937T712 964H612V766Z" />
<glyph unicode="&#xaf;" horiz-adv-x="1040" d="M200 1182V1324H840V1182H200Z" />
<glyph unicode="&#xb0;" horiz-adv-x="582" d="M290 964Q163 964 92 1043T20 1236Q20 1350 91 1430T290 1510Q419 1510 490 1430T562 1236Q562 1122 491 1043T290 964ZM290 1044Q379 1044 421 1103T464 1236Q464 1310 422 1370T290 1430Q205 1430 161 1370T116
1236Q116 1163 161 1104T290 1044Z" />
<glyph unicode="&#xb1;" horiz-adv-x="924" d="M392 352V624H112V768H392V1040H532V768H812V624H532V352H392ZM112 120V264H812V120H112Z" />
<glyph unicode="&#xb2;" horiz-adv-x="664" d="M74 772L296 1088Q350 1166 368 1207T386 1292Q386 1337 359 1368T278 1400Q220 1400 173 1374T86 1314L72 1468Q111 1497 173 1520T302 1544Q413 1544 481 1479T550 1312Q550 1268 541 1230T507 1144T432 1026L270
794L252 908H588V772H74Z" />
<glyph unicode="&#xb3;" horiz-adv-x="714" d="M330 744Q258 744 196 759T80 802L118 938Q165 910 210 892T312 874Q372 874 406 900T440 978Q440 1029 409 1059T306 1090H250V1220H308Q362 1220 394 1246T426 1320Q426 1361 397 1387T308 1414Q260 1414 219 1399T138
1358L124 1496Q169 1519 222 1531T340 1544Q453 1544 516 1490T580 1346Q580 1264 539 1218T438 1148V1172Q515 1154 559 1104T604 972Q604 866 526 805T330 744Z" />
<glyph unicode="&#xb4;" horiz-adv-x="934" d="M280 1152V1274L654 1494V1298L280 1152Z" />
<glyph unicode="&#xb5;" horiz-adv-x="1216" d="M160 -484V980H338V424Q338 289 393 214T572 138Q653 138 709 168T814 254V980H988V340Q988 272 995 224T1022 150T1082 124H1126L1094 -20H1042Q964 -20 911 15T828 126Q774 57 712 18T560 -22Q490 -22 433 -2T336
54V-484H160Z" />
<glyph unicode="&#xb6;" horiz-adv-x="1244" d="M630 0V486Q432 497 308 567T125 739T66 948Q66 1058 127 1162T316 1333T642 1400H1160V1266H1010V0H914V1266H712V0H630Z" />
<glyph unicode="&#xb7;" horiz-adv-x="476" d="M114 426V686H362V426H114Z" />
<glyph unicode="&#xb8;" horiz-adv-x="768" d="M362 -158L296 -128Q320 -119 343 -114T394 -108Q475 -108 521 -151T568 -270Q568 -358 507 -405T356 -452Q305 -452 266 -441T200 -414L230 -316Q260 -332 291 -341T356 -350Q400 -350 426 -331T452 -274Q452 -238
428 -216T352 -194Q330 -194 308 -197T260 -210L312 0H412L362 -158Z" />
<glyph unicode="&#xb9;" horiz-adv-x="474" d="M196 772V1330Q166 1303 137 1288T78 1264L64 1396Q112 1413 160 1446T236 1516H346V772H196Z" />
<glyph unicode="&#xba;" horiz-adv-x="740" d="M370 868Q274 868 206 908T102 1015T66 1160Q66 1238 102 1304T206 1410T370 1450Q466 1450 534 1410T638 1304T674 1160Q674 1082 638 1016T534 909T370 868ZM370 988Q442 988 481 1036T520 1160Q520 1235 481 1283T370
1332Q298 1332 259 1284T220 1160Q220 1085 259 1037T370 988Z" />
<glyph unicode="&#xbb;" horiz-adv-x="1166" d="M602 156L920 568L602 980H820L1138 568L820 156H602ZM82 156L400 568L82 980H300L618 568L300 156H82Z" />
<glyph unicode="&#xbc;" horiz-adv-x="1264" d="M448 656V1214Q418 1187 389 1172T330 1148L316 1280Q364 1297 412 1330T488 1400H598V656H448ZM120 0L926 1400H1094L290 0H120ZM958 0V158H560L978 744H1090V276H1188V158H1090V0H958ZM762 238L712 276H958V414V632L1006
590L902 438L762 238Z" />
<glyph unicode="&#xbd;" horiz-adv-x="1358" d="M448 656V1214Q418 1187 389 1172T330 1148L316 1280Q364 1297 412 1330T488 1400H598V656H448ZM100 0L906 1400H1074L270 0H100ZM784 0L1006 316Q1060 394 1078 435T1096 520Q1096 565 1069 596T988 628Q930 628
883 602T796 542L782 696Q821 725 883 748T1012 772Q1123 772 1191 707T1260 540Q1260 496 1251 458T1217 372T1142 254L980 22L962 136H1298V0H784Z" />
<glyph unicode="&#xbe;" horiz-adv-x="1408" d="M330 628Q258 628 196 643T80 686L118 822Q165 794 210 776T312 758Q372 758 406 784T440 862Q440 913 409 943T306 974H250V1104H308Q362 1104 394 1130T426 1204Q426 1245 397 1271T308 1298Q260 1298 219 1283T138
1242L124 1380Q169 1403 222 1415T340 1428Q453 1428 516 1374T580 1230Q580 1148 539 1102T438 1032V1056Q515 1038 559 988T604 856Q604 750 526 689T330 628ZM264 0L1070 1400H1238L434 0H264ZM1102 0V158H704L1122 744H1234V276H1332V158H1234V0H1102ZM906
238L856 276H1102V414V632L1150 590L1046 438L906 238Z" />
<glyph unicode="&#xbf;" horiz-adv-x="784" d="M584 656V606Q584 519 560 454T499 337T420 234Q354 153 316 94T278 -50Q278 -121 310 -166T393 -234T498 -256Q573 -256 636 -235T756 -180L774 -342Q714 -380 636 -404T452 -428Q327 -428 242 -379T114 -249T70
-74Q70 4 95 64T159 175T240 278Q300 351 348 423T396 594V656H584ZM598 1000V788H382V1000H598Z" />
<glyph unicode="&#xc0;" horiz-adv-x="1232" d="M916 378H316V550H916V378ZM588 1214H644L214 0H14L516 1400H716L1218 0H1018L588 1214ZM802 1528L428 1644V1834L802 1644V1528Z" />
<glyph unicode="&#xc1;" horiz-adv-x="1232" d="M916 378H316V550H916V378ZM588 1214H644L214 0H14L516 1400H716L1218 0H1018L588 1214ZM430 1528V1644L804 1834V1644L430 1528Z" />
<glyph unicode="&#xc2;" horiz-adv-x="1232" d="M916 378H316V550H916V378ZM588 1214H644L214 0H14L516 1400H716L1218 0H1018L588 1214ZM362 1506V1628L616 1808L870 1628V1506L616 1638L362 1506Z" />
<glyph unicode="&#xc3;" horiz-adv-x="1232" d="M916 378H316V550H916V378ZM588 1214H644L214 0H14L516 1400H716L1218 0H1018L588 1214ZM782 1576Q736 1576 686 1596T588 1637T502 1658Q434 1658 434 1586H304Q304 1684 342 1735T450 1786Q496 1786 546 1766T644
1725T730 1704Q798 1704 798 1776H928Q928 1679 890 1628T782 1576Z" />
<glyph unicode="&#xc4;" horiz-adv-x="1232" d="M916 378H316V550H916V378ZM588 1214H644L214 0H14L516 1400H716L1218 0H1018L588 1214ZM338 1588V1738H510V1588H338ZM722 1588V1738H894V1588H722Z" />
<glyph unicode="&#xc5;" horiz-adv-x="1232" d="M916 378H316V550H916V378ZM588 1214H644L214 0H14L516 1400H716L1218 0H1018L588 1214ZM616 1512Q513 1512 461 1572T408 1708Q408 1783 461 1843T616 1904Q720 1904 772 1844T824 1708Q824 1632 773 1572T616
1512ZM616 1600Q658 1600 691 1628T724 1708Q724 1756 692 1786T616 1816Q573 1816 541 1786T508 1708Q508 1657 541 1629T616 1600Z" />
<glyph unicode="&#xc6;" horiz-adv-x="1732" d="M-14 0L670 1400H1636V1226H1012V818H1494V646H1012V172H1656V0H784V1222L172 0H-14ZM310 360V544H816V360H310Z" />
<glyph unicode="&#xc7;" horiz-adv-x="1232" d="M784 -28Q580 -28 421 61T170 314T78 700Q78 922 170 1085T424 1338T792 1428Q899 1428 996 1405T1166 1346L1146 1170Q1071 1206 981 1231T790 1256Q625 1256 513 1182T344 981T286 700Q286 545 342 419T510 219T786
144Q890 144 978 166T1146 228L1166 52Q1091 18 997 -5T784 -28ZM772 -158L706 -128Q730 -119 753 -114T804 -108Q885 -108 931 -151T978 -270Q978 -358 917 -405T766 -452Q715 -452 676 -441T610 -414L640 -316Q670 -332 701 -341T766 -350Q810 -350 836 -331T862
-274Q862 -238 838 -216T762 -194Q740 -194 718 -197T670 -210L722 0H822L772 -158Z" />
<glyph unicode="&#xc8;" horiz-adv-x="1108" d="M160 0V1400H1014V1228H350V818H878V646H350V172H1032V0H160ZM794 1528L420 1644V1834L794 1644V1528Z" />
<glyph unicode="&#xc9;" horiz-adv-x="1108" d="M160 0V1400H1014V1228H350V818H878V646H350V172H1032V0H160ZM422 1528V1644L796 1834V1644L422 1528Z" />
<glyph unicode="&#xca;" horiz-adv-x="1108" d="M160 0V1400H1014V1228H350V818H878V646H350V172H1032V0H160ZM354 1506V1628L608 1808L862 1628V1506L608 1638L354 1506Z" />
<glyph unicode="&#xcb;" horiz-adv-x="1108" d="M160 0V1400H1014V1228H350V818H878V646H350V172H1032V0H160ZM330 1588V1738H502V1588H330ZM714 1588V1738H886V1588H714Z" />
<glyph unicode="&#xcc;" horiz-adv-x="510" d="M160 0V1400H350V0H160ZM442 1528L68 1644V1834L442 1644V1528Z" />
<glyph unicode="&#xcd;" horiz-adv-x="510" d="M160 0V1400H350V0H160ZM70 1528V1644L444 1834V1644L70 1528Z" />
<glyph unicode="&#xce;" horiz-adv-x="510" d="M160 0V1400H350V0H160ZM2 1506V1628L256 1808L510 1628V1506L256 1638L2 1506Z" />
<glyph unicode="&#xcf;" horiz-adv-x="510" d="M160 0V1400H350V0H160ZM-22 1588V1738H150V1588H-22ZM362 1588V1738H534V1588H362Z" />
<glyph unicode="&#xd0;" horiz-adv-x="1458" d="M176 0V626H36V794H176V1400H688Q889 1400 1044 1317T1289 1078T1378 700Q1378 479 1289 323T1045 83T688 0H176ZM356 174H688Q930 174 1052 318T1174 700Q1174 939 1052 1083T688 1228H356V794H622V626H356V174Z" />
<glyph unicode="&#xd1;" horiz-adv-x="1408" d="M160 0V1400H366L1056 352V1400H1248V0H1086L350 1106V0H160ZM878 1576Q832 1576 782 1596T684 1637T598 1658Q530 1658 530 1586H400Q400 1684 438 1735T546 1786Q592 1786 642 1766T740 1725T826 1704Q894 1704
894 1776H1024Q1024 1679 986 1628T878 1576Z" />
<glyph unicode="&#xd2;" horiz-adv-x="1540" d="M770 -28Q570 -28 414 61T169 314T80 700Q80 922 169 1085T414 1338T770 1428Q970 1428 1126 1339T1371 1086T1460 700Q1460 478 1371 315T1126 62T770 -28ZM770 156Q931 156 1039 228T1201 424T1256 700Q1256 852
1202 975T1039 1171T770 1244Q609 1244 501 1172T339 976T284 700Q284 548 338 425T501 229T770 156ZM956 1528L582 1644V1834L956 1644V1528Z" />
<glyph unicode="&#xd3;" horiz-adv-x="1540" d="M770 -28Q570 -28 414 61T169 314T80 700Q80 922 169 1085T414 1338T770 1428Q970 1428 1126 1339T1371 1086T1460 700Q1460 478 1371 315T1126 62T770 -28ZM770 156Q931 156 1039 228T1201 424T1256 700Q1256 852
1202 975T1039 1171T770 1244Q609 1244 501 1172T339 976T284 700Q284 548 338 425T501 229T770 156ZM584 1528V1644L958 1834V1644L584 1528Z" />
<glyph unicode="&#xd4;" horiz-adv-x="1540" d="M770 -28Q570 -28 414 61T169 314T80 700Q80 922 169 1085T414 1338T770 1428Q970 1428 1126 1339T1371 1086T1460 700Q1460 478 1371 315T1126 62T770 -28ZM770 156Q931 156 1039 228T1201 424T1256 700Q1256 852
1202 975T1039 1171T770 1244Q609 1244 501 1172T339 976T284 700Q284 548 338 425T501 229T770 156ZM516 1506V1628L770 1808L1024 1628V1506L770 1638L516 1506Z" />
<glyph unicode="&#xd5;" horiz-adv-x="1540" d="M770 -28Q570 -28 414 61T169 314T80 700Q80 922 169 1085T414 1338T770 1428Q970 1428 1126 1339T1371 1086T1460 700Q1460 478 1371 315T1126 62T770 -28ZM770 156Q931 156 1039 228T1201 424T1256 700Q1256 852
1202 975T1039 1171T770 1244Q609 1244 501 1172T339 976T284 700Q284 548 338 425T501 229T770 156ZM936 1576Q890 1576 840 1596T742 1637T656 1658Q588 1658 588 1586H458Q458 1684 496 1735T604 1786Q650 1786 700 1766T798 1725T884 1704Q952 1704 952 1776H1082Q1082
1679 1044 1628T936 1576Z" />
<glyph unicode="&#xd6;" horiz-adv-x="1540" d="M770 -28Q570 -28 414 61T169 314T80 700Q80 922 169 1085T414 1338T770 1428Q970 1428 1126 1339T1371 1086T1460 700Q1460 478 1371 315T1126 62T770 -28ZM770 156Q931 156 1039 228T1201 424T1256 700Q1256 852
1202 975T1039 1171T770 1244Q609 1244 501 1172T339 976T284 700Q284 548 338 425T501 229T770 156ZM492 1588V1738H664V1588H492ZM876 1588V1738H1048V1588H876Z" />
<glyph unicode="&#xd7;" horiz-adv-x="812" d="M172 214L68 318L640 910L744 806L172 214ZM640 214L68 806L172 910L744 318L640 214Z" />
<glyph unicode="&#xd8;" horiz-adv-x="1540" d="M140 -88L1218 1488H1400L322 -88H140ZM770 -28Q570 -28 414 61T169 314T80 700Q80 922 169 1085T414 1338T770 1428Q970 1428 1126 1339T1371 1086T1460 700Q1460 478 1371 315T1126 62T770 -28ZM770 156Q931 156
1039 228T1201 424T1256 700Q1256 852 1202 975T1039 1171T770 1244Q609 1244 501 1172T339 976T284 700Q284 548 338 425T501 229T770 156Z" />
<glyph unicode="&#xd9;" horiz-adv-x="1448" d="M724 -28Q527 -28 399 47T207 262T144 594V1400H334V646Q334 550 349 460T404 299T522 186T724 144Q849 144 926 186T1043 299T1099 461T1114 646V1400H1304V594Q1304 402 1241 263T1050 48T724 -28ZM910 1528L536
1644V1834L910 1644V1528Z" />
<glyph unicode="&#xda;" horiz-adv-x="1448" d="M724 -28Q527 -28 399 47T207 262T144 594V1400H334V646Q334 550 349 460T404 299T522 186T724 144Q849 144 926 186T1043 299T1099 461T1114 646V1400H1304V594Q1304 402 1241 263T1050 48T724 -28ZM538 1528V1644L912
1834V1644L538 1528Z" />
<glyph unicode="&#xdb;" horiz-adv-x="1448" d="M724 -28Q527 -28 399 47T207 262T144 594V1400H334V646Q334 550 349 460T404 299T522 186T724 144Q849 144 926 186T1043 299T1099 461T1114 646V1400H1304V594Q1304 402 1241 263T1050 48T724 -28ZM470 1506V1628L724
1808L978 1628V1506L724 1638L470 1506Z" />
<glyph unicode="&#xdc;" horiz-adv-x="1448" d="M724 -28Q527 -28 399 47T207 262T144 594V1400H334V646Q334 550 349 460T404 299T522 186T724 144Q849 144 926 186T1043 299T1099 461T1114 646V1400H1304V594Q1304 402 1241 263T1050 48T724 -28ZM446 1588V1738H618V1588H446ZM830
1588V1738H1002V1588H830Z" />
<glyph unicode="&#xdd;" horiz-adv-x="1134" d="M472 0V606L-22 1400H194L610 720H522L938 1400H1154L662 606V0H472ZM380 1528V1644L754 1834V1644L380 1528Z" />
<glyph unicode="&#xde;" horiz-adv-x="1148" d="M160 0V1400H360V1090H690Q905 1090 1002 993T1100 736Q1100 577 1002 480T690 382H360V0H160ZM360 552H676Q789 552 846 599T904 736Q904 826 847 873T676 920H360V552Z" />
<glyph unicode="&#xdf;" horiz-adv-x="1154" d="M692 -28Q637 -28 587 -22T484 0V140Q535 127 587 120T694 112Q799 112 860 159T922 288Q922 359 886 405T795 486T687 554T597 633T560 750Q560 822 596 876T710 1012Q758 1062 783 1099T808 1194Q808 1272 756
1320T604 1368Q481 1368 420 1298T358 1104V0H186V840H36L52 980H186V1100Q186 1316 303 1422T608 1528Q778 1528 880 1447T982 1226Q982 1163 967 1118T926 1037T872 970Q811 901 776 860T740 772Q740 723 776 689T867 622T975 548T1065 448T1102 298Q1102 187
1044 115T892 8T692 -28Z" />
<glyph unicode="&#xe0;" horiz-adv-x="960" d="M350 -20Q259 -20 191 17T86 118T48 264Q48 347 84 406T182 505T320 568T477 602T634 614Q634 754 579 797T420 840Q365 840 303 823T162 752L136 898Q195 943 283 971T468 1000Q592 1000 668 957T779 810T814 530V330Q814
260 820 215T850 147T926 124H944L916 -20H902Q815 -20 768 -3T695 46T650 124Q595 60 520 20T350 -20ZM384 124Q456 124 523 160T634 256V490Q491 485 403 462T273 393T232 274Q232 195 274 160T384 124ZM654 1152L280 1298V1494L654 1274V1152Z" />
<glyph unicode="&#xe1;" horiz-adv-x="960" d="M350 -20Q259 -20 191 17T86 118T48 264Q48 347 84 406T182 505T320 568T477 602T634 614Q634 754 579 797T420 840Q365 840 303 823T162 752L136 898Q195 943 283 971T468 1000Q592 1000 668 957T779 810T814 530V330Q814
260 820 215T850 147T926 124H944L916 -20H902Q815 -20 768 -3T695 46T650 124Q595 60 520 20T350 -20ZM384 124Q456 124 523 160T634 256V490Q491 485 403 462T273 393T232 274Q232 195 274 160T384 124ZM282 1152V1274L656 1494V1298L282 1152Z" />
<glyph unicode="&#xe2;" horiz-adv-x="960" d="M350 -20Q259 -20 191 17T86 118T48 264Q48 347 84 406T182 505T320 568T477 602T634 614Q634 754 579 797T420 840Q365 840 303 823T162 752L136 898Q195 943 283 971T468 1000Q592 1000 668 957T779 810T814 530V330Q814
260 820 215T850 147T926 124H944L916 -20H902Q815 -20 768 -3T695 46T650 124Q595 60 520 20T350 -20ZM384 124Q456 124 523 160T634 256V490Q491 485 403 462T273 393T232 274Q232 195 274 160T384 124ZM214 1128V1250L468 1470L722 1250V1128L468 1288L214 1128Z"
/>
<glyph unicode="&#xe3;" horiz-adv-x="960" d="M350 -20Q259 -20 191 17T86 118T48 264Q48 347 84 406T182 505T320 568T477 602T634 614Q634 754 579 797T420 840Q365 840 303 823T162 752L136 898Q195 943 283 971T468 1000Q592 1000 668 957T779 810T814 530V330Q814
260 820 215T850 147T926 124H944L916 -20H902Q815 -20 768 -3T695 46T650 124Q595 60 520 20T350 -20ZM384 124Q456 124 523 160T634 256V490Q491 485 403 462T273 393T232 274Q232 195 274 160T384 124ZM628 1160Q578 1160 531 1183T440 1230T354 1254Q286 1254
286 1176H136Q141 1284 184 1341T308 1398Q358 1398 405 1375T496 1328T582 1304Q650 1304 650 1382H800Q796 1274 753 1217T628 1160Z" />
<glyph unicode="&#xe4;" horiz-adv-x="960" d="M350 -20Q259 -20 191 17T86 118T48 264Q48 347 84 406T182 505T320 568T477 602T634 614Q634 754 579 797T420 840Q365 840 303 823T162 752L136 898Q195 943 283 971T468 1000Q592 1000 668 957T779 810T814 530V330Q814
260 820 215T850 147T926 124H944L916 -20H902Q815 -20 768 -3T695 46T650 124Q595 60 520 20T350 -20ZM384 124Q456 124 523 160T634 256V490Q491 485 403 462T273 393T232 274Q232 195 274 160T384 124ZM574 1182V1342H746V1182H574ZM190 1182V1342H362V1182H190Z"
/>
<glyph unicode="&#xe5;" horiz-adv-x="960" d="M350 -20Q259 -20 191 17T86 118T48 264Q48 347 84 406T182 505T320 568T477 602T634 614Q634 754 579 797T420 840Q365 840 303 823T162 752L136 898Q195 943 283 971T468 1000Q592 1000 668 957T779 810T814 530V330Q814
260 820 215T850 147T926 124H944L916 -20H902Q815 -20 768 -3T695 46T650 124Q595 60 520 20T350 -20ZM384 124Q456 124 523 160T634 256V490Q491 485 403 462T273 393T232 274Q232 195 274 160T384 124ZM468 1136Q365 1136 313 1197T260 1336Q260 1413 313 1474T468
1536Q572 1536 624 1475T676 1336Q676 1258 625 1197T468 1136ZM468 1224Q512 1224 546 1254T580 1336Q580 1386 547 1417T468 1448Q423 1448 390 1417T356 1336Q356 1284 390 1254T468 1224Z" />
<glyph unicode="&#xe6;" horiz-adv-x="1560" d="M370 -20Q273 -20 201 17T88 118T48 264Q48 375 109 444T268 550T478 600T690 614H1314Q1314 710 1261 775T1096 840Q976 840 902 758T828 516Q828 374 876 292T1002 175T1170 140Q1233 140 1297 155T1432 198L1456
56Q1399 25 1324 3T1148 -20Q982 -20 869 51T697 239T638 498V586Q638 711 592 775T420 840Q365 840 303 823T162 752L136 898Q195 943 283 971T468 1000Q611 1000 690 942T798 740L702 728Q753 848 860 924T1112 1000Q1235 1000 1322 946T1454 799T1500 586Q1500
565 1499 541T1492 490H656Q428 490 330 437T232 274Q232 195 280 160T404 124Q497 124 574 171T704 306L764 222Q709 119 602 50T370 -20Z" />
<glyph unicode="&#xe7;" horiz-adv-x="908" d="M572 -20Q406 -20 294 47T124 229T66 484Q66 630 121 747T292 932T586 1000Q663 1000 731 985T854 942L826 784Q771 810 710 825T582 840Q420 840 335 748T250 492Q250 332 331 235T578 138Q646 138 708 154T828
198L852 54Q812 26 735 3T572 -20ZM536 -158L470 -128Q494 -119 517 -114T568 -108Q649 -108 695 -151T742 -270Q742 -358 681 -405T530 -452Q479 -452 440 -441T374 -414L404 -316Q434 -332 465 -341T530 -350Q574 -350 600 -331T626 -274Q626 -238 602 -216T526
-194Q504 -194 482 -197T434 -210L486 0H586L536 -158Z" />
<glyph unicode="&#xe8;" horiz-adv-x="1024" d="M592 -20Q419 -20 301 51T123 239T62 498Q62 635 118 749T282 931T542 1000Q664 1000 759 952T909 811T964 586Q964 565 963 541T956 490H246Q259 354 311 278T442 171T614 140Q682 140 756 154T896 198L920 56Q863
31 781 6T592 -20ZM262 614H778Q778 683 752 734T673 812T538 840Q418 840 354 781T262 614ZM742 1152L368 1298V1494L742 1274V1152Z" />
<glyph unicode="&#xe9;" horiz-adv-x="1024" d="M592 -20Q419 -20 301 51T123 239T62 498Q62 635 118 749T282 931T542 1000Q664 1000 759 952T909 811T964 586Q964 565 963 541T956 490H246Q259 354 311 278T442 171T614 140Q682 140 756 154T896 198L920 56Q863
31 781 6T592 -20ZM262 614H778Q778 683 752 734T673 812T538 840Q418 840 354 781T262 614ZM370 1152V1274L744 1494V1298L370 1152Z" />
<glyph unicode="&#xea;" horiz-adv-x="1024" d="M592 -20Q419 -20 301 51T123 239T62 498Q62 635 118 749T282 931T542 1000Q664 1000 759 952T909 811T964 586Q964 565 963 541T956 490H246Q259 354 311 278T442 171T614 140Q682 140 756 154T896 198L920 56Q863
31 781 6T592 -20ZM262 614H778Q778 683 752 734T673 812T538 840Q418 840 354 781T262 614ZM302 1128V1250L556 1470L810 1250V1128L556 1288L302 1128Z" />
<glyph unicode="&#xeb;" horiz-adv-x="1024" d="M592 -20Q419 -20 301 51T123 239T62 498Q62 635 118 749T282 931T542 1000Q664 1000 759 952T909 811T964 586Q964 565 963 541T956 490H246Q259 354 311 278T442 171T614 140Q682 140 756 154T896 198L920 56Q863
31 781 6T592 -20ZM262 614H778Q778 683 752 734T673 812T538 840Q418 840 354 781T262 614ZM662 1182V1342H834V1182H662ZM278 1182V1342H450V1182H278Z" />
<glyph unicode="&#xec;" horiz-adv-x="424" d="M122 0V980H302V0H122ZM398 1152L24 1298V1494L398 1274V1152Z" />
<glyph unicode="&#xed;" horiz-adv-x="424" d="M122 0V980H302V0H122ZM26 1152V1274L400 1494V1298L26 1152Z" />
<glyph unicode="&#xee;" horiz-adv-x="424" d="M122 0V980H302V0H122ZM-42 1128V1250L212 1470L466 1250V1128L212 1288L-42 1128Z" />
<glyph unicode="&#xef;" horiz-adv-x="424" d="M122 0V980H302V0H122ZM318 1182V1342H490V1182H318ZM-66 1182V1342H106V1182H-66Z" />
<glyph unicode="&#xf0;" horiz-adv-x="1034" d="M498 -24Q359 -24 260 36T109 196T56 410Q56 529 111 629T263 791T486 852Q594 852 668 809T772 702L754 684Q744 825 688 955T531 1179T282 1308L312 1402Q459 1388 579 1307T787 1099T921 821T968 514Q968 389
933 290T834 120T685 13T498 -24ZM506 142Q623 142 694 220T766 416Q766 535 697 610T508 686Q424 686 364 649T272 550T240 420Q240 306 311 224T506 142ZM348 998L282 1106L790 1400L854 1292L348 998Z" />
<glyph unicode="&#xf1;" horiz-adv-x="1118" d="M122 0V980H262L298 792L228 822Q327 932 421 966T606 1000Q821 1000 913 876T1006 540V0H826V540Q826 696 768 768T570 840Q471 840 389 797T280 658L302 768V0H122ZM748 1160Q698 1160 651 1183T560 1230T474
1254Q406 1254 406 1176H256Q261 1284 304 1341T428 1398Q478 1398 525 1375T616 1328T702 1304Q770 1304 770 1382H920Q916 1274 873 1217T748 1160Z" />
<glyph unicode="&#xf2;" horiz-adv-x="1100" d="M550 -20Q396 -20 288 48T122 232T64 490Q64 632 121 747T287 931T550 1000Q703 1000 812 932T978 748T1036 490Q1036 348 979 233T812 49T550 -20ZM550 140Q696 140 774 232T852 490Q852 655 774 747T550 840Q405
840 327 748T248 490Q248 325 326 233T550 140ZM736 1152L362 1298V1494L736 1274V1152Z" />
<glyph unicode="&#xf3;" horiz-adv-x="1100" d="M550 -20Q396 -20 288 48T122 232T64 490Q64 632 121 747T287 931T550 1000Q703 1000 812 932T978 748T1036 490Q1036 348 979 233T812 49T550 -20ZM550 140Q696 140 774 232T852 490Q852 655 774 747T550 840Q405
840 327 748T248 490Q248 325 326 233T550 140ZM364 1152V1274L738 1494V1298L364 1152Z" />
<glyph unicode="&#xf4;" horiz-adv-x="1100" d="M550 -20Q396 -20 288 48T122 232T64 490Q64 632 121 747T287 931T550 1000Q703 1000 812 932T978 748T1036 490Q1036 348 979 233T812 49T550 -20ZM550 140Q696 140 774 232T852 490Q852 655 774 747T550 840Q405
840 327 748T248 490Q248 325 326 233T550 140ZM296 1128V1250L550 1470L804 1250V1128L550 1288L296 1128Z" />
<glyph unicode="&#xf5;" horiz-adv-x="1100" d="M550 -20Q396 -20 288 48T122 232T64 490Q64 632 121 747T287 931T550 1000Q703 1000 812 932T978 748T1036 490Q1036 348 979 233T812 49T550 -20ZM550 140Q696 140 774 232T852 490Q852 655 774 747T550 840Q405
840 327 748T248 490Q248 325 326 233T550 140ZM710 1160Q660 1160 613 1183T522 1230T436 1254Q368 1254 368 1176H218Q223 1284 266 1341T390 1398Q440 1398 487 1375T578 1328T664 1304Q732 1304 732 1382H882Q878 1274 835 1217T710 1160Z" />
<glyph unicode="&#xf6;" horiz-adv-x="1100" d="M550 -20Q396 -20 288 48T122 232T64 490Q64 632 121 747T287 931T550 1000Q703 1000 812 932T978 748T1036 490Q1036 348 979 233T812 49T550 -20ZM550 140Q696 140 774 232T852 490Q852 655 774 747T550 840Q405
840 327 748T248 490Q248 325 326 233T550 140ZM656 1182V1342H828V1182H656ZM272 1182V1342H444V1182H272Z" />
<glyph unicode="&#xf7;" horiz-adv-x="964" d="M92 486V638H872V486H92ZM382 118V318H582V118H382ZM382 806V1006H582V806H382Z" />
<glyph unicode="&#xf8;" horiz-adv-x="1100" d="M822 1060H984L278 -80H116L822 1060ZM550 -20Q396 -20 288 48T122 232T64 490Q64 632 121 747T287 931T550 1000Q703 1000 812 932T978 748T1036 490Q1036 348 979 233T812 49T550 -20ZM550 140Q696 140 774 232T852
490Q852 655 774 747T550 840Q405 840 327 748T248 490Q248 325 326 233T550 140Z" />
<glyph unicode="&#xf9;" horiz-adv-x="1048" d="M474 -20Q359 -20 278 26T155 168T112 410V980H292V460Q292 304 345 222T520 140Q603 140 674 180T772 308L746 210V980H926V0H766L730 192L778 160Q729 69 659 25T474 -20ZM710 1152L336 1298V1494L710 1274V1152Z" />
<glyph unicode="&#xfa;" horiz-adv-x="1048" d="M474 -20Q359 -20 278 26T155 168T112 410V980H292V460Q292 304 345 222T520 140Q603 140 674 180T772 308L746 210V980H926V0H766L730 192L778 160Q729 69 659 25T474 -20ZM338 1152V1274L712 1494V1298L338 1152Z" />
<glyph unicode="&#xfb;" horiz-adv-x="1048" d="M474 -20Q359 -20 278 26T155 168T112 410V980H292V460Q292 304 345 222T520 140Q603 140 674 180T772 308L746 210V980H926V0H766L730 192L778 160Q729 69 659 25T474 -20ZM270 1128V1250L524 1470L778 1250V1128L524
1288L270 1128Z" />
<glyph unicode="&#xfc;" horiz-adv-x="1048" d="M474 -20Q359 -20 278 26T155 168T112 410V980H292V460Q292 304 345 222T520 140Q603 140 674 180T772 308L746 210V980H926V0H766L730 192L778 160Q729 69 659 25T474 -20ZM630 1182V1342H802V1182H630ZM246 1182V1342H418V1182H246Z"
/>
<glyph unicode="&#xfd;" horiz-adv-x="1010" d="M196 -484L422 44L14 980H214L520 252L796 980H996L396 -484H196ZM320 1152V1274L694 1494V1298L320 1152Z" />
<glyph unicode="&#xfe;" horiz-adv-x="1162" d="M120 -482V1500H300V790L260 810Q334 909 428 954T636 1000Q781 1000 884 930T1041 744T1096 490Q1096 353 1043 237T888 51T636 -20Q507 -20 414 28T270 170L300 198V-482H120ZM606 124Q758 124 836 228T914 490Q914
646 836 743T606 840Q507 840 436 798T325 678T286 490Q286 380 325 298T435 170T606 124Z" />
<glyph unicode="&#xff;" horiz-adv-x="1010" d="M196 -484L422 44L14 980H214L520 252L796 980H996L396 -484H196ZM612 1182V1342H784V1182H612ZM228 1182V1342H400V1182H228Z" />
<glyph unicode="&#x2013;" horiz-adv-x="1088" d="M0 536V708H1088V536H0Z" />
<glyph unicode="&#x2014;" horiz-adv-x="1432" d="M0 536V708H1432V536H0Z" />
<glyph unicode="&#x2018;" horiz-adv-x="392" d="M218 1400H332L260 1186H330V974H114V1166L218 1400Z" />
<glyph unicode="&#x2019;" horiz-adv-x="378" d="M174 974H60L132 1188H62V1400H278V1208L174 974Z" />
<glyph unicode="&#x201a;" horiz-adv-x="378" d="M430 -214H316L388 0H318V212H534V20L430 -214Z" />
<glyph unicode="&#x201c;" horiz-adv-x="712" d="M218 1400H332L260 1186H330V974H114V1166L218 1400ZM538 1400H652L580 1186H650V974H434V1166L538 1400Z" />
<glyph unicode="&#x201d;" horiz-adv-x="698" d="M174 974H60L132 1188H62V1400H278V1208L174 974ZM494 974H380L452 1188H382V1400H598V1208L494 974Z" />
<glyph unicode="&#x201e;" horiz-adv-x="698" d="M430 -214H316L388 0H318V212H534V20L430 -214ZM494 -214H380L452 0H382V212H598V20L494 -214Z" />
<glyph unicode="&#x2022;" horiz-adv-x="612" d="M306 338Q216 338 152 402T88 556Q88 646 152 710T306 774Q396 774 460 710T524 556Q524 466 460 402T306 338Z" />
<glyph unicode="&#x2039;" horiz-adv-x="644" d="M346 156L28 568L346 980H564L246 568L564 156H346Z" />
<glyph unicode="&#x203a;" horiz-adv-x="646" d="M82 156L400 568L82 980H300L618 568L300 156H82Z" />
</font>
</defs>
</svg>
