<?xml version="1.0" standalone="no"?>
<!DOCTYPE svg PUBLIC "-//W3C//DTD SVG 1.1//EN" "http://www.w3.org/Graphics/SVG/1.1/DTD/svg11.dtd">
<svg xmlns="http://www.w3.org/2000/svg">
<defs >
<font id="Exo2" horiz-adv-x="559" ><font-face
    font-family="Exo 2 SemiBold"
    units-per-em="1000"
    panose-1="0 0 0 0 0 0 0 0 0 0"
    ascent="999"
    descent="-201"
    alphabetic="0" />
<glyph unicode=" " horiz-adv-x="219" />
<glyph unicode="!" horiz-adv-x="287" d="M260 695L220 410L181 216H86L100 410L140 695H260ZM133 137Q156 137 166 126T173 92L167 41Q164 20 153 10T120 0H92Q45 0 51 45L58 97Q64 137 106 137H133Z" />
<glyph unicode="&quot;" horiz-adv-x="363" d="M359 690L322 471H245L269 690H359ZM205 690L167 471H91L114 690H205Z" />
<glyph unicode="#" horiz-adv-x="700" d="M638 690L421 0H328L545 690H638ZM618 278L594 204H24L49 278H618ZM387 690L170 0H77L294 690H387ZM694 510L668 435H98L124 510H694Z" />
<glyph unicode="$" horiz-adv-x="569" d="M338 703Q390 702 446 697T553 678L540 593Q508 594 474 595T404 596T331 597Q303 597 281 596T244 587T219 562T205 515Q202 489 206 473T224 447T266 425L394 373Q447 352 474 325T509 261T510 173Q500 97 471 57T388
2T246 -13Q212 -13 152 -9T21 11L35 101Q93 99 132 98T198 96T243 96Q293 96 322 102T366 126T385 182Q390 210 386 225T368 251T328 271L195 325Q145 347 118 375T82 440T81 523Q88 581 108 616T160 670T236 696T338 703ZM271 356L316 354L211 -122H165L271 356ZM428
796L327 354L282 356L382 796H428Z" />
<glyph unicode="%" horiz-adv-x="901" d="M761 690L237 0H152L677 690H761ZM254 633Q221 633 203 621T174 578T156 494Q150 443 152 415T168 375T210 363Q244 363 263 375T292 418T309 502Q316 553 314 581T298 621T254 633ZM254 703Q317 703 352 682T399 616T399
494Q389 420 368 376T309 313T211 293Q149 293 114 314T68 381T67 502Q78 577 99 620T157 683T254 703ZM704 330Q671 330 653 317T624 274T606 189Q599 138 601 110T617 70T660 58Q694 58 713 70T742 114T759 199Q766 249 764 277T748 318T704 330ZM704 399Q766
399 801 379T848 312T848 189Q838 116 817 72T758 9T660 -11Q598 -11 563 10T517 77T517 199Q527 273 548 316T606 379T704 399Z" />
<glyph unicode="&amp;" horiz-adv-x="756" d="M378 701Q418 701 459 697T548 679L527 592Q496 599 458 602T381 606Q331 606 301 599T254 569T232 502Q226 461 233 439T265 408T331 399H737L724 314H320Q273 314 243 304T195 269T169 194Q164 163 167 143T183
111T215 95T265 90Q340 90 391 115T475 195Q512 251 523 331T534 515H639Q640 405 626 314T572 154Q543 100 498 64T390 8T246 -12Q164 -12 115 7T47 68T36 180Q43 233 63 271T117 331T204 356L205 361Q165 364 141 385T109 442T109 525Q122 601 157 638T247 688T378
701Z" />
<glyph unicode="&apos;" horiz-adv-x="209" d="M205 690L167 471H91L114 690H205Z" />
<glyph unicode="(" horiz-adv-x="361" d="M389 791L403 735Q304 691 247 585T165 309Q150 202 155 119T190 -21T278 -111L263 -163Q126 -113 74 5T48 318Q76 512 157 627T389 791Z" />
<glyph unicode=")" horiz-adv-x="361" d="M104 788Q241 740 294 623T319 306Q291 114 210 -1T-22 -166L-36 -110Q64 -63 121 45T202 317Q218 426 213 509T178 649T89 736L104 788Z" />
<glyph unicode="*" horiz-adv-x="451" d="M317 691L282 526L369 397L311 357L254 479L164 358L111 399L234 526L246 691H317ZM106 608L220 560L217 530L199 512L79 543L106 608ZM428 607L442 539L315 511L301 530L305 560L428 607Z" />
<glyph unicode="+" horiz-adv-x="539" d="M347 516L286 84H195L256 516H347ZM501 345L488 255H41L54 345H501Z" />
<glyph unicode="," horiz-adv-x="236" d="M111 137Q135 137 144 127T150 92L141 28Q137 0 128 -30T105 -89T75 -142L21 -122Q32 -91 40 -62T56 3Q37 2 29 11T23 40L31 96Q35 119 46 128T82 137H111Z" />
<glyph unicode="-" horiz-adv-x="428" d="M364 295L354 213H53L64 295H364Z" />
<glyph unicode="." horiz-adv-x="234" d="M109 137Q132 137 142 126T150 92L143 41Q140 20 129 10T96 0H64Q17 0 23 45L30 97Q36 137 78 137H109Z" />
<glyph unicode="/" horiz-adv-x="545" d="M575 690L76 -70H-25L475 690H575Z" />
<glyph unicode="0" horiz-adv-x="617" d="M276 -13Q204 -13 154 9T78 82T52 212Q53 283 60 353T86 487T139 598T225 675T355 703Q429 703 478 681T553 609T579 480Q579 408 573 337T548 203T495 91T408 15T276 -13ZM285 88Q333 88 364 111T415 175T443 265T455
368T458 470Q459 541 431 571T344 602Q298 602 268 579T218 515T190 425T178 322T173 219Q173 149 200 119T285 88Z" />
<glyph unicode="1" horiz-adv-x="416" d="M372 690L275 0H151L224 516Q226 534 229 551T238 585L66 536L59 619L249 690H372Z" />
<glyph unicode="2" horiz-adv-x="567" d="M324 702Q389 702 436 692T509 654T536 570Q536 518 517 474T465 389T388 308L174 106Q200 110 226 111T278 113H497L482 0H6L16 73Q19 88 23 101T37 124L251 325Q291 364 327 402T386 477T409 548Q409 569 398 579T366
592T314 595Q279 595 248 594T183 591T103 583L104 677Q154 688 193 693T264 700T324 702Z" />
<glyph unicode="3" horiz-adv-x="556" d="M312 703Q421 703 470 670T519 564Q519 517 505 473T462 400T390 366L389 362Q443 353 468 321T494 236Q494 155 462 101T367 17T217 -13Q172 -14 118 -9T8 5L20 97Q58 95 88 93T147 90T204 91Q285 95 328 133T371 243Q371
264 362 281T330 307T270 317L136 319L147 404H278Q343 405 371 439T400 540Q400 575 378 587T290 600Q248 600 198 599T111 594L109 685Q166 695 218 699T312 703Z" />
<glyph unicode="4" horiz-adv-x="622" d="M401 690L167 285Q156 269 160 261T180 252H582L571 173L485 161H101Q67 161 47 177T22 220T34 273L279 690H401ZM541 557L463 0H347L409 445L446 557H541Z" />
<glyph unicode="5" horiz-adv-x="541" d="M529 690L510 592H228L197 435L272 428Q344 422 391 401T462 344T485 253Q485 132 415 63T218 -12Q173 -14 120 -9T8 11L28 108Q74 99 116 95T194 93Q273 98 317 135T362 249Q362 281 346 298T296 323T204 334L126 342Q105
345 92 360T84 397L141 690H529Z" />
<glyph unicode="6" horiz-adv-x="579" d="M383 702Q399 702 424 702T480 698T540 685L520 602Q497 604 476 604T432 605T374 605Q331 605 300 594T247 554T210 469T182 326Q173 256 169 210T171 137T202 97T271 85Q324 85 354 111T398 181T412 281Q412 318 394
338T324 359Q277 359 233 334T131 250L130 312Q166 363 201 393T275 437T365 451Q450 451 490 414T530 310Q529 208 503 136T418 26T263 -12Q192 -12 147 5T79 61T52 167T62 331Q79 449 105 522T169 634T261 687T383 702Z" />
<glyph unicode="7" horiz-adv-x="521" d="M488 690Q527 690 539 670T536 616L236 0H112L370 530Q378 545 386 560T406 589L75 587L83 690H488Z" />
<glyph unicode="8" horiz-adv-x="614" d="M355 701Q449 701 498 681T562 619T569 514Q563 472 549 439T509 385T445 359L443 355Q488 351 510 326T538 260T536 168Q527 105 502 66T424 8T273 -11Q178 -11 124 9T51 70T41 176Q48 227 63 266T107 329T184 357L186
361Q133 369 115 412T106 522Q114 585 138 624T214 683T355 701ZM308 314Q270 314 244 310T202 293T177 256T161 192Q156 152 163 129T197 96T279 86Q330 86 359 96T402 132T422 202Q427 237 425 259T411 292T373 309T308 314ZM350 610Q301 610 274 601T235 567T216
499Q211 460 217 439T248 410T324 402Q360 402 384 407T421 423T443 455T455 508Q461 548 455 570T425 601T350 610Z" />
<glyph unicode="9" horiz-adv-x="579" d="M336 701Q409 701 453 683T520 625T544 516T531 347Q514 237 490 166T428 57T339 3T212 -13Q182 -13 136 -10T39 5L52 89Q77 87 101 87T151 86T205 85Q258 87 293 100T350 143T386 227T412 362Q424 434 427 481T423 555T392
593T326 604Q278 604 250 590T208 545T187 463Q181 414 186 384T211 342T270 329Q304 329 331 339T390 373T462 439L463 379Q427 325 392 294T320 251T239 238Q182 237 146 255T91 304T70 377T72 466Q80 529 97 574T146 647T225 688T336 701Z" />
<glyph unicode=":" horiz-adv-x="247" d="M153 446Q176 446 186 435T194 401L187 350Q184 329 173 319T140 309H108Q61 309 67 354L74 406Q80 446 122 446H153ZM110 137Q133 137 143 126T151 92L144 41Q141 20 130 10T97 0H65Q18 0 24 45L31 97Q37 137 79 137H110Z" />
<glyph unicode=";" horiz-adv-x="249" d="M158 446Q181 446 191 435T199 401L192 350Q189 329 178 319T145 309H113Q66 309 72 354L79 406Q85 446 127 446H158ZM119 137Q143 137 152 127T158 92L149 28Q145 0 136 -30T113 -89T83 -142L29 -122Q40 -91 48 -62T64
3Q45 2 37 11T31 40L39 96Q43 119 54 128T90 137H119Z" />
<glyph unicode="&lt;" horiz-adv-x="519" d="M489 515L476 416L148 299L441 178L429 84L38 252L51 347L489 515Z" />
<glyph unicode="=" horiz-adv-x="582" d="M537 445L524 356H75L88 445H537ZM508 234L495 144H45L59 234H508Z" />
<glyph unicode="&gt;" horiz-adv-x="518" d="M93 516L483 347L469 252L33 85L46 184L373 304L80 425L93 516Z" />
<glyph unicode="?" horiz-adv-x="511" d="M316 712Q421 712 471 673T510 553Q504 508 483 477T431 419T371 365T316 301T281 214L182 215Q188 268 208 307T254 376T307 432T353 483T378 536Q387 581 366 597T289 613Q237 613 205 612T146 610T85 606L84 689Q112
695 135 698T182 705T239 710T316 712ZM232 137Q255 137 266 126T274 92L266 41Q264 20 253 10T220 0H192Q145 0 150 45L158 96Q164 137 205 137H232Z" />
<glyph unicode="@" horiz-adv-x="786" d="M429 646Q535 647 600 636T698 591T735 491T725 316Q713 220 698 157T657 58T591 6T490 -10Q447 -10 420 2T379 37T360 87T361 146L406 428H519L472 126Q469 101 476 91T503 80Q530 80 547 92T577 130T598 204T617 323Q627
391 629 434T623 502T591 538T528 552T427 555H101L109 637Q160 640 214 641T323 644T429 646ZM289 452Q346 452 400 446T519 428L468 362Q405 365 371 365T315 366Q275 366 249 361T207 342T180 299T161 223Q152 168 153 138T169 95T211 83Q259 83 300 118T394
224L415 179Q388 130 356 87T280 16T178 -12Q136 -12 107 2T61 46T42 122T49 230Q61 302 81 346T131 413T200 444T289 452Z" />
<glyph unicode="A" horiz-adv-x="636" d="M434 690Q450 690 462 680T476 654L593 0H468L387 532Q385 548 384 564T381 596H351Q346 582 340 565T327 532L96 0H-35L266 659Q272 675 284 682T312 690H434ZM496 295L484 195H130L143 295H496Z" />
<glyph unicode="B" horiz-adv-x="629" d="M371 698Q456 698 507 682T578 626T588 514Q578 441 547 404T449 360L448 355Q526 348 551 299T564 168Q554 97 527 59T449 7T317 -8Q252 -8 205 -8T118 -5T35 0L59 92Q83 91 147 90T296 89Q346 89 375 98T420 131T440
200Q447 246 440 270T407 304T334 315H93L105 400H338Q381 401 407 409T448 441T468 506Q473 546 466 566T434 593T366 601Q312 601 270 601T196 601T138 599L132 690Q169 694 204 695T279 697T371 698ZM255 690L158 0H35L132 690H255Z" />
<glyph unicode="C" horiz-adv-x="577" d="M385 702Q432 702 466 700T528 693T585 679L567 587Q536 589 509 590T452 593T381 594Q337 594 306 583T253 545T216 468T191 341Q178 246 183 193T217 119T303 96Q371 96 416 99T507 106L512 13Q465 -1 417 -6T299 -12Q195
-12 137 24T60 141T60 349Q74 449 98 517T159 625T252 684T385 702Z" />
<glyph unicode="D" horiz-adv-x="673" d="M374 699Q482 699 544 666T626 555T627 341Q611 231 586 162T522 56T426 5T288 -9Q224 -9 159 -7T35 0L98 96Q137 94 190 93T286 91Q335 91 370 101T429 138T469 217T496 349Q507 427 507 476T492 552T449 589T371 600Q343
600 309 600T240 599T179 598L132 690Q168 693 210 695T294 698T374 699ZM257 690L160 0H35L132 690H257Z" />
<glyph unicode="E" horiz-adv-x="566" d="M263 692Q316 692 370 692T477 690T575 684L560 591H295Q263 591 249 577T229 531L178 157Q174 127 185 113T228 99H489L487 6Q441 2 391 1T290 -1T191 -2Q112 -2 77 39T50 151L108 564Q117 624 156 658T263 692ZM105
406H495L483 316H91L105 406Z" />
<glyph unicode="F" horiz-adv-x="546" d="M266 692Q344 692 423 691T570 683L554 591H305Q270 591 254 578T233 531L159 0H33L111 561Q121 623 161 657T266 692ZM106 394H489L476 305L92 304L106 394Z" />
<glyph unicode="G" horiz-adv-x="637" d="M402 703Q439 703 474 701T543 694T610 679L594 588Q561 590 529 591T466 593T406 594Q354 594 318 583T257 545T217 468T191 341Q181 248 185 195T213 119T283 96Q319 96 347 107T400 139T452 185L469 118Q449 93 425
70T372 27T309 -2T234 -13Q163 -13 119 23T60 140T60 349Q75 457 102 526T170 634T269 688T402 703ZM595 399L538 0H447L445 108L437 133L474 399H595Z" />
<glyph unicode="H" horiz-adv-x="677" d="M258 690L161 0H35L132 690H258ZM504 417L491 318H198L212 417H504ZM657 690L560 0H435L532 690H657Z" />
<glyph unicode="I" horiz-adv-x="279" d="M258 690L161 0H35L132 690H258Z" />
<glyph unicode="J" horiz-adv-x="355" d="M337 690L259 137Q249 65 208 28T100 -10Q82 -10 61 -8T19 -2T-13 7L9 90H53Q90 90 111 107T137 156L212 690H337Z" />
<glyph unicode="K" horiz-adv-x="615" d="M649 690L423 403Q411 388 398 376T368 355V351Q378 342 389 327T407 295L563 0H424L246 359L503 690H649ZM258 690L228 481Q224 448 216 418T194 357Q198 328 198 298T194 241L161 0H35L132 690H258ZM304 405L292 314H165L177
405H304Z" />
<glyph unicode="L" horiz-adv-x="521" d="M255 690L180 160Q177 132 187 117T230 102H473L471 6Q405 1 331 0T185 -2Q141 -2 109 15T62 66T54 146L129 690H255Z" />
<glyph unicode="M" horiz-adv-x="897" d="M810 690Q834 690 845 677T855 639L792 0H673L734 591H716L522 126Q515 106 503 97T468 87H380Q359 87 347 98T332 130L264 591H245L141 0H23L139 645Q144 667 155 678T190 690H312Q332 690 344 679T357 647L413 269Q418
245 419 221T422 172H438Q447 198 455 221T473 268L631 651Q638 672 651 680T685 689L810 690Z" />
<glyph unicode="N" horiz-adv-x="711" d="M691 690L599 44Q597 21 586 11T552 0H474Q453 0 444 11T426 41L269 457Q261 477 253 503T240 553H226Q225 528 224 503T218 451L155 0H35L126 646Q129 669 141 679T175 690H251Q272 690 281 679T299 649L452 246Q461
223 470 196T487 140H502Q503 169 504 194T510 246L571 690H691Z" />
<glyph unicode="O" horiz-adv-x="676" d="M388 703Q488 703 548 669T629 556T630 341Q617 239 592 171T529 62T436 4T304 -13Q202 -13 142 20T62 133T60 349Q74 449 98 517T160 626T254 685T388 703ZM383 601Q323 601 286 578T228 499T191 341Q178 243 183 189T219
112T307 89Q367 89 403 112T462 192T500 349Q514 449 509 503T473 579T383 601Z" />
<glyph unicode="P" horiz-adv-x="602" d="M379 699Q466 699 517 678T587 608T592 473Q580 385 552 338T473 274T340 257Q298 257 258 260T183 269T123 279T89 290L95 355Q152 355 213 355T332 355Q379 355 405 365T447 403T469 483Q476 530 469 555T440 591T375
601Q287 601 224 600T138 596L132 690Q172 694 207 696T282 698T379 699ZM257 690L160 0H35L132 690H257Z" />
<glyph unicode="Q" horiz-adv-x="676" d="M388 703Q488 703 548 669T629 556T630 341Q617 239 592 171T529 62T436 4T304 -13Q202 -13 142 20T62 133T60 349Q74 449 98 517T160 626T254 685T388 703ZM242 -39Q302 -67 370 -85T517 -115L469 -228Q385 -207 319
-176T200 -106L242 -39ZM383 601Q323 601 286 578T228 499T191 341Q178 243 183 189T219 112T307 89Q367 89 403 112T462 192T500 349Q514 449 509 503T473 579T383 601Z" />
<glyph unicode="R" horiz-adv-x="633" d="M379 699Q458 699 510 681T586 617T599 492Q593 444 576 408T527 351T445 323L444 318Q462 313 478 301T505 268T522 214L561 0H432L397 215Q392 252 377 265T330 278Q263 279 218 279T142 280T88 281L101 376H337Q382
377 409 387T451 422T473 495Q480 536 473 559T443 591T377 601Q286 601 223 600T138 598L132 690Q172 694 208 696T284 698T379 699ZM255 690L158 0H35L132 690H255Z" />
<glyph unicode="S" horiz-adv-x="572" d="M339 703Q391 702 447 697T555 678L543 593Q510 594 476 595T406 596T333 597Q304 597 282 596T244 587T218 562T204 515Q201 489 205 473T223 447T266 425L395 373Q449 352 476 326T511 262T513 173Q503 97 474 57T389
2T247 -13Q212 -13 152 -9T20 11L33 101Q92 99 132 98T199 96T244 96Q294 96 323 102T368 126T388 182Q392 210 388 225T370 251T330 271L196 325Q145 347 118 375T82 440T79 523Q87 581 107 616T159 670T236 696T339 703Z" />
<glyph unicode="T" horiz-adv-x="586" d="M411 690L314 0H189L286 690H411ZM624 690L610 588H59L73 690H624Z" />
<glyph unicode="U" horiz-adv-x="674" d="M660 690L600 268Q586 165 552 103T459 14T305 -13Q212 -13 155 15T76 107T68 273L126 690H252L193 268Q183 201 190 162T224 106T305 89Q359 89 393 106T446 164T476 273L534 690H660Z" />
<glyph unicode="V" horiz-adv-x="622" d="M668 690L376 32Q364 0 330 0H213Q196 0 185 11T172 37L65 690H191L260 173Q262 153 264 133T267 93H293Q299 113 306 133T322 174L536 690H668Z" />
<glyph unicode="W" horiz-adv-x="958" d="M987 690L769 33Q764 17 752 9T722 0H599Q582 0 570 11T557 39L533 514Q533 537 532 557T530 599H510Q504 578 498 556T485 512L329 33Q324 17 312 9T282 0H159Q141 0 129 11T115 38L80 690H206L221 183Q222 162 222 139T221
89H243Q250 115 257 140T271 188L425 653Q435 690 473 690H584Q602 690 613 678T625 648L654 182Q655 160 655 136T656 89H679Q684 112 691 138T704 186L860 690H987Z" />
<glyph unicode="X" horiz-adv-x="627" d="M211 690L333 344L113 0H-26L212 356L86 690H211ZM394 398L382 315H247L259 398H394ZM656 690L434 356L570 0H445L314 369L523 690H656Z" />
<glyph unicode="Y" horiz-adv-x="589" d="M640 690L342 226H226L59 690H185L274 418Q281 396 285 375T291 333H301Q306 353 316 376T339 419L505 690H640ZM356 305L314 0H188L232 305H356Z" />
<glyph unicode="Z" horiz-adv-x="572" d="M426 594L567 593L155 96L14 97L426 594ZM505 97L491 0H1L14 97H505ZM581 690L567 593H91L105 690H581Z" />
<glyph unicode="[" horiz-adv-x="336" d="M368 768L357 691H272Q262 691 256 686T248 671L144 -72Q141 -88 156 -88H248L237 -165H88Q59 -165 41 -149T27 -96L139 703Q143 733 163 750T213 768H368Z" />
<glyph unicode="\" horiz-adv-x="529" d="M169 690L458 -70H366L76 690H169Z" />
<glyph unicode="]" horiz-adv-x="336" d="M250 768Q280 768 298 748T312 699L199 -100Q196 -129 176 -147T126 -165H-29L-19 -88H66Q76 -88 82 -83T90 -68L195 675Q197 691 182 691H91L102 768H250Z" />
<glyph unicode="^" horiz-adv-x="447" d="M318 616L438 396L388 369L272 538H264L97 369L51 397L230 616H318Z" />
<glyph unicode="_" horiz-adv-x="442" d="M407 0L395 -81H-46L-34 0H407Z" />
<glyph unicode="`" horiz-adv-x="337" d="M137 730L326 582L285 530L81 650L137 730Z" />
<glyph unicode="a" horiz-adv-x="585" d="M311 503Q337 503 368 501T432 496T493 488T544 478L470 409Q424 411 387 412T322 413Q282 413 256 408T212 386T185 337T166 250Q157 183 157 148T171 100T214 87Q245 88 277 104T342 150T408 220L430 175Q408 122 370
80T283 14T176 -12Q114 -13 81 13T39 99T43 253Q56 337 78 387T133 462T210 495T311 503ZM424 483L544 478L477 0H383L387 113L373 124L424 483Z" />
<glyph unicode="b" horiz-adv-x="585" d="M397 503Q455 503 489 479T533 398T530 241Q519 168 500 119T452 41T380 0T279 -13Q251 -13 218 -11T150 -3T84 9T28 25L107 88Q135 85 163 83T216 80T254 79Q295 79 321 85T363 110T389 162T406 249Q416 313 414 346T398
392T356 404Q319 404 271 376T166 296L146 343Q166 371 194 399T255 451T325 489T397 503ZM243 700L220 521Q215 486 208 456T189 392L200 381L148 19L28 25L123 700H243Z" />
<glyph unicode="c" horiz-adv-x="499" d="M307 503Q348 503 397 497T484 475L466 400Q427 402 388 403T324 404Q273 404 241 391T192 343T165 244Q157 179 164 145T197 99T273 87Q290 87 315 88T369 91T425 96L434 17Q393 1 345 -5T251 -12Q166 -12 114 14T44
98T39 250Q52 343 82 398T166 478T307 503Z" />
<glyph unicode="d" horiz-adv-x="585" d="M271 503Q332 503 395 495T503 473L482 414Q432 415 393 416T320 417Q279 417 252 411T209 388T183 338T165 250Q157 190 157 155T171 106T213 91Q260 91 304 119T404 201L427 147Q410 125 385 98T326 45T253 4T170 -12Q117
-12 85 14T41 99T42 253Q54 333 74 382T122 458T188 493T271 503ZM576 700L477 0H382L385 117L374 125L420 468L429 484Q429 510 431 534T437 587L454 700H576Z" />
<glyph unicode="e" horiz-adv-x="552" d="M317 503Q402 503 448 485T511 430T518 339Q510 292 488 265T426 225T325 206L79 185L90 259L308 280Q338 283 356 289T385 310T400 350Q405 379 396 393T366 410T310 414Q276 414 252 408T212 384T186 337T167 256Q156
184 164 148T200 99T274 86Q299 86 332 87T398 91T460 97L468 20Q441 8 404 1T329 -9T258 -12Q166 -12 115 17T46 105T40 255Q50 329 70 377T124 453T205 492T317 503Z" />
<glyph unicode="f" horiz-adv-x="390" d="M315 719Q333 719 361 718T417 715T466 710L448 629H355Q312 629 293 614T265 553L179 -52Q170 -120 131 -159T15 -198Q-10 -198 -41 -196T-113 -189L-94 -107H-26Q17 -107 36 -92T62 -32L147 573Q158 642 197 680T315
719ZM401 491L389 407H38L48 486L139 491H401Z" />
<glyph unicode="g" horiz-adv-x="587" d="M428 483L548 478L484 32Q476 -31 454 -76T395 -151T308 -194T195 -209Q180 -209 148 -208T78 -202T12 -187L21 -114Q41 -115 60 -115T106 -116T170 -115Q241 -114 293 -90T362 -3Q372 29 379 59T402 117L376 127L428
483ZM290 503Q336 503 383 500T473 491T547 478L473 409Q426 411 388 412T322 413Q280 413 254 407T211 384T185 335T167 250Q157 184 158 149T173 100T215 87Q247 88 279 104T343 149T410 220L433 176Q410 124 372 83T284 17T175 -9Q117 -10 83 16T40 100T44 253Q57
338 78 388T129 462T200 495T290 503Z" />
<glyph unicode="h" horiz-adv-x="590" d="M415 503Q480 503 513 468T536 366L484 0H363L411 334Q416 373 407 387T368 401Q327 401 285 377T182 304L172 374Q240 439 300 471T415 503ZM246 700L220 516Q215 472 204 429T184 361L195 349L147 0H26L124 700H246Z" />
<glyph unicode="i" horiz-adv-x="263" d="M219 491L151 0H30L99 491H219ZM212 704Q232 704 240 694T247 665L240 610Q235 576 200 576H148Q109 576 114 615L121 670Q125 704 160 704H212Z" />
<glyph unicode="j" horiz-adv-x="263" d="M220 491L151 6Q146 -37 128 -76T81 -147T16 -201L-50 -145Q-14 -108 5 -72T32 11L100 491H220ZM212 704Q232 704 240 694T246 665L239 610Q235 576 199 576H148Q109 576 113 615L121 670Q125 704 161 704H212Z" />
<glyph unicode="k" horiz-adv-x="546" d="M246 700L203 381Q198 348 189 319T166 256Q168 239 171 219T174 182L147 0H26L124 700H246ZM528 491Q505 415 464 362T370 273T260 211T150 164L140 251Q200 275 254 310T349 392T404 491H528ZM343 283Q362 267 375 247T398
207L493 0H366L256 250L343 283Z" />
<glyph unicode="l" horiz-adv-x="312" d="M246 700L168 145Q163 116 174 104T218 91H265L270 5Q259 0 239 -3T199 -8T166 -10Q102 -10 69 24T44 121L125 700H246Z" />
<glyph unicode="m" horiz-adv-x="875" d="M188 491L186 372L196 358L147 0H26L95 491H188ZM390 503Q456 503 487 467T508 366L457 0H341L387 334Q392 370 382 385T340 401Q318 401 296 392T245 362T177 305L166 374Q228 441 281 472T390 503ZM703 503Q770 503
801 466T822 366L771 0H651L698 334Q703 373 691 387T650 401Q630 401 609 392T559 363T492 306L481 374Q543 442 595 472T703 503Z" />
<glyph unicode="n" horiz-adv-x="590" d="M417 503Q458 503 487 488T529 443T537 366L485 0H363L411 331Q416 371 406 386T365 401Q326 401 284 377T182 305L172 374Q236 437 297 470T417 503ZM191 491L187 362L195 348L147 0H26L95 491H191Z" />
<glyph unicode="o" horiz-adv-x="579" d="M313 503Q400 503 452 477T522 394T527 240Q514 147 483 92T397 12T255 -13Q168 -13 116 13T45 96T39 249Q52 342 82 398T169 478T313 503ZM312 411Q265 411 237 397T192 346T165 240Q157 177 161 142T189 94T257 80Q303
80 331 94T376 146T402 249Q411 314 406 348T379 397T312 411Z" />
<glyph unicode="p" horiz-adv-x="587" d="M400 503Q457 503 490 477T533 394T530 237Q518 157 498 107T449 32T381 -3T293 -13Q269 -13 240 -11T179 -6T120 4T69 18L91 77Q141 75 181 74T251 73Q293 73 320 79T364 102T389 153T406 240Q416 307 415 342T401 390T359
404Q336 404 305 390T238 351T170 289L147 341Q164 366 191 393T253 446T326 487T400 503ZM191 491L186 376L198 366L153 26L144 9Q143 -17 142 -41T136 -93L120 -196H-2L95 491H191Z" />
<glyph unicode="q" horiz-adv-x="584" d="M288 503Q318 503 352 501T421 494T487 483T543 467L465 403Q437 407 409 409T356 412T315 413Q276 413 250 407T208 383T182 333T165 247Q157 187 158 153T173 105T217 91Q249 91 276 103T334 140T405 200L427 148Q400
109 361 73T275 13T175 -12Q121 -12 87 12T40 94T42 250Q53 325 71 374T118 452T189 491T288 503ZM422 472L543 467L449 -196H328L352 -30Q357 8 365 41T386 109L372 117L422 472Z" />
<glyph unicode="r" horiz-adv-x="414" d="M189 491L186 366L196 352L147 0H26L95 491H189ZM431 503L403 391H372Q333 391 290 370T182 309L176 382Q237 441 294 472T402 503H431Z" />
<glyph unicode="s" horiz-adv-x="518" d="M268 503Q304 503 344 501T421 495T487 486L474 408Q427 409 380 410T282 411Q242 411 219 409T184 399T170 373Q166 349 180 338T226 315L354 263Q393 249 417 231T451 186T456 120Q449 62 420 35T340 -2T220 -11Q178
-11 147 -9T86 -4T14 5L26 84Q47 83 74 83T130 82T186 81Q245 82 276 85T322 98T339 126Q341 142 335 151T315 166T278 182L151 233Q114 249 90 269T57 317T53 382Q59 429 83 455T153 493T268 503Z" />
<glyph unicode="t" horiz-adv-x="395" d="M277 631L208 145Q204 115 214 103T255 91H326L332 6Q314 0 290 -3T243 -8T206 -10Q139 -10 107 26T84 126L157 631H277ZM402 491L390 407H37L47 486L143 491H402Z" />
<glyph unicode="u" horiz-adv-x="580" d="M213 491L165 157Q160 120 172 105T213 90Q254 90 292 114T387 189L403 120Q338 53 281 20T163 -13Q93 -13 62 23T41 125L92 491H213ZM541 491L473 0H379L383 134L373 147L421 491H541Z" />
<glyph unicode="v" horiz-adv-x="553" d="M545 491Q536 444 523 397T495 306T464 228Q443 174 420 132T382 66Q366 41 349 27T311 6T257 0H161Q147 0 137 9T124 32L41 491H171L223 84H237Q256 84 267 91T292 123Q304 143 320 178T355 262Q379 323 392 377T416 491H545Z" />
<glyph unicode="w" horiz-adv-x="872" d="M168 491L215 85H226Q239 85 249 94T271 129Q282 151 293 182T316 253Q325 283 332 312T345 377T359 461Q361 473 370 482T394 491H510Q524 491 532 483T542 461L578 85H589Q603 85 612 98T629 130Q645 161 657 189T685
263Q703 316 715 372T737 491H860Q851 447 840 402T816 314T787 230Q769 182 749 140T712 71Q698 47 682 31T644 8T587 0H525Q510 0 500 9T489 33L457 415H444Q441 393 436 362T423 296T406 228Q398 202 389 176T371 126T351 86Q336 49 316 31T271 6T216 0H149Q134
0 124 9T112 33L44 491H168Z" />
<glyph unicode="x" horiz-adv-x="549" d="M173 491L284 242L103 0H-27L167 253L56 491H173ZM342 295L330 214H197L209 295H342ZM551 491L371 252L492 0H374L254 262L425 491H551Z" />
<glyph unicode="y" horiz-adv-x="563" d="M554 491Q545 444 533 398T505 305T472 216T437 134T398 60Q347 -32 295 -88T184 -171T55 -206L40 -130Q78 -120 111 -106T175 -66T237 -1T298 101Q328 161 351 219T393 344T426 491H554ZM170 491L227 102Q230 84 248
84H304L265 0H183Q160 0 145 13T125 47L40 491H170Z" />
<glyph unicode="z" horiz-adv-x="514" d="M342 403L484 402L155 87L12 88L342 403ZM443 88L431 0H1L13 88H443ZM495 491L483 402H63L74 491H495Z" />
<glyph unicode="{" horiz-adv-x="332" d="M356 768L349 693Q304 693 283 677T256 619L233 455Q228 414 217 388T184 348T119 327Q155 315 175 299T200 259T201 200L171 -18Q165 -57 179 -73T240 -90L236 -165Q166 -172 124 -157T64 -108T54 -26L89 220Q93 245
88 256T71 274T37 288L48 370Q71 377 84 383T105 402T117 445L143 634Q149 682 172 715T241 762T356 768Z" />
<glyph unicode="|" horiz-adv-x="254" d="M239 781L105 -169H18L152 781H239Z" />
<glyph unicode="}" horiz-adv-x="332" d="M102 768Q174 776 216 760T274 710T284 629L257 440Q253 411 256 398T270 380T304 368L294 286Q272 278 257 272T234 253T221 215L187 -31Q181 -79 158 -111T90 -158T-26 -165L-20 -90Q27 -90 47 -74T73 -17L105 205Q111
240 121 263T156 301T223 329Q187 336 168 350T143 392T144 460L168 624Q173 662 159 677T97 693L102 768Z" />
<glyph unicode="~" horiz-adv-x="516" d="M148 356Q172 355 199 348T253 330T304 312T347 301Q375 298 386 311T402 353L457 349Q457 281 432 249T367 218Q339 220 312 227T258 244T208 262T167 273Q139 277 128 263T113 219L57 225Q57 272 69 300T103 343T148 356Z" />
<glyph unicode="&#xa0;" horiz-adv-x="219" />
<glyph unicode="&#xa1;" horiz-adv-x="271" d="M183 285L167 91L128 -190H8L47 91L88 285H183ZM176 501Q199 501 209 490T216 455L210 404Q207 384 196 374T162 363H135Q88 363 94 409L101 460Q107 501 148 501H176Z" />
<glyph unicode="&#xa2;" horiz-adv-x="515" d="M320 605Q361 605 410 599T496 577L478 502Q439 504 401 505T336 507Q286 507 255 494T207 446T180 346Q172 281 179 247T212 201T286 189Q303 189 328 190T382 193T438 199L446 119Q405 103 357 97T264 90Q179 90
128 116T59 200T54 352Q67 445 96 500T180 580T320 605ZM282 145L247 0H201L236 145H282ZM377 538L285 144H239L331 538H377ZM414 690L376 536H331L368 690H414Z" />
<glyph unicode="&#xa3;" horiz-adv-x="576" d="M367 702Q401 702 454 700T563 692L551 598Q533 598 518 598T486 599T442 600T374 601Q322 601 298 582T270 511L254 273Q251 228 239 196T207 140T156 95Q173 99 191 100T226 102H506L492 0H13L26 103Q81 129 104
174T131 277L149 520Q155 579 171 615T214 669T279 695T367 702ZM456 397L444 331H58L66 397H456Z" />
<glyph unicode="&#xa4;" horiz-adv-x="588" d="M321 552Q382 552 425 525T488 452T501 348Q494 290 464 246T387 177T282 152Q223 152 180 178T116 251T102 356Q110 415 139 459T216 527T321 552ZM144 267L192 211L93 121L43 177L144 267ZM441 248L521 159L467
109L388 198L441 248ZM318 484Q257 484 219 448T172 351Q166 292 197 257T283 221Q324 221 355 237T406 283T431 355Q435 394 423 423T384 468T318 484ZM140 598L217 510L162 460L85 548L140 598ZM511 587L560 531L468 449L418 503L511 587Z" />
<glyph unicode="&#xa5;" horiz-adv-x="641" d="M665 690L369 231L252 232L85 690H210L300 424Q306 402 310 381T316 339H327Q333 358 343 382T366 425L530 690H665ZM383 311L339 0H214L257 311H383ZM538 215L528 150H70L78 215H538ZM554 333L545 267H87L94 333H554Z" />
<glyph unicode="&#xa6;" horiz-adv-x="255" d="M239 781L183 381H96L153 781H239ZM162 231L106 -169H19L75 231H162Z" />
<glyph unicode="&#xa7;" horiz-adv-x="543" d="M82 371L168 369Q161 328 161 301T173 256T215 218L364 125Q382 114 398 101T427 69T444 26T444 -36Q435 -95 407 -124T332 -163T223 -172Q195 -171 157 -170T78 -167T1 -160L16 -71Q59 -74 99 -75T187 -77Q224 -77
251 -74T294 -60T315 -23Q319 6 307 22T273 52L139 132Q91 160 71 194T55 271T82 371ZM312 703Q340 703 379 702T460 698T535 691L521 603Q496 605 475 606T423 607T343 607Q305 608 279 605T238 591T220 555Q217 529 229 512T266 479L398 399Q446 371 465 337T481
259T454 158L368 160Q376 201 376 229T363 277T320 315L172 410Q145 427 125 447T96 497T92 568Q100 626 129 655T204 693T312 703Z" />
<glyph unicode="&#xa8;" horiz-adv-x="418" d="M207 702Q223 702 228 695T231 675L222 614Q221 600 214 594T193 588H149Q123 588 126 613L135 674Q137 688 144 695T166 702H207ZM381 702Q397 702 402 695T406 675L397 614Q395 600 389 594T368 588H324Q297 588
301 613L310 675Q312 689 319 695T340 702H381Z" />
<glyph unicode="&#xa9;" horiz-adv-x="820" d="M454 703Q561 703 638 658T753 531T778 341Q765 237 713 158T576 33T380 -13Q299 -13 235 13T128 87T67 202T58 349Q71 453 123 532T260 657T454 703ZM455 560Q494 560 523 557T583 545L572 480Q540 481 513 482T455
483Q411 483 384 473T343 433T321 345Q314 293 319 264T344 224T401 211Q428 211 452 211T497 213T539 216L544 150Q512 142 479 138T408 134Q330 134 288 154T232 223T229 352Q240 431 265 476T336 541T455 560ZM457 645Q365 645 293 607T175 500T120 341Q110
251 139 185T229 82T378 45Q470 45 542 83T660 190T716 349Q726 437 698 503T608 607T457 645Z" />
<glyph unicode="&#xaa;" horiz-adv-x="447" d="M257 610Q300 610 346 605T422 592L367 543Q336 545 310 545T267 545Q233 545 213 539T181 511T163 441Q157 398 158 376T169 347T198 339Q225 340 257 362T322 419L339 388Q326 356 302 328T245 284T171 266Q128
265 103 282T70 339T71 443Q79 501 95 534T135 584T189 605T257 610ZM334 595L422 592L377 274H306L307 343L300 351L334 595Z" />
<glyph unicode="&#xab;" horiz-adv-x="499" d="M409 462L466 419L332 250L428 76L365 35L228 241L229 267L409 462ZM213 462L270 419L136 250L232 76L169 35L32 241L33 267L213 462Z" />
<glyph unicode="&#xac;" horiz-adv-x="582" d="M520 346L507 256H57L70 346H520ZM520 346L490 134H396L426 338L520 346Z" />
<glyph unicode="&#xad;" horiz-adv-x="429" d="M619 295L609 213H308L319 295H619Z" />
<glyph unicode="&#xae;" horiz-adv-x="537" d="M317 703Q380 703 427 676T500 598T516 475Q508 410 476 361T393 285T274 258Q207 258 159 287T88 367T73 486Q81 553 113 601T197 676T317 703ZM264 605L230 361H177L212 605H264ZM315 668Q225 668 172 615T110
479Q104 420 123 378T182 314T275 292Q334 292 377 316T447 383T479 485Q485 544 466 584T407 646T315 668ZM314 608Q346 608 369 603T405 581T412 533Q409 509 397 495T354 474V472Q365 469 371 461T381 434L398 361H343L329 435Q326 449 320 453T301 457Q268
457 249 457T220 458T200 459L202 493H301Q329 494 342 500T359 533Q362 555 353 561T316 568Q293 568 273 568T238 568T218 568L212 605Q238 607 259 607T314 608Z" />
<glyph unicode="&#xaf;" horiz-adv-x="400" d="M407 684L396 604H105L116 684H407Z" />
<glyph unicode="&#xb0;" horiz-adv-x="354" d="M224 702Q264 702 293 684T338 636T349 567Q344 510 304 476T206 441Q165 441 136 459T93 509T83 577Q89 632 127 667T224 702ZM221 640Q191 640 172 622T148 573Q145 541 162 522T210 503Q240 503 260 521T283 571Q286
600 270 620T221 640Z" />
<glyph unicode="&#xb1;" horiz-adv-x="576" d="M369 538L320 196H230L278 538H369ZM491 145L478 55H31L44 145H491ZM529 412L516 322H69L82 412H529Z" />
<glyph unicode="&#xb2;" horiz-adv-x="419" d="M275 775Q346 775 383 760T420 694Q420 664 407 638T371 588T323 543L197 436Q214 439 228 439T259 440L400 438L388 359H67L74 408Q76 419 80 428T94 446L219 552Q243 572 265 593T301 634T315 671Q315 688 300
692T257 697Q225 697 195 696T123 691L129 761Q177 771 214 773T275 775Z" />
<glyph unicode="&#xb3;" horiz-adv-x="408" d="M270 777Q343 777 376 761T410 705Q410 654 389 619T320 577V575Q359 570 375 552T392 502Q392 446 373 413T316 365T222 351Q181 351 141 354T66 363L80 431Q106 430 126 429T165 427T206 427Q252 427 274 442T297
500Q297 517 285 527T233 539L147 540L156 602L242 604Q281 605 297 620T314 669Q314 689 300 695T247 701Q214 701 182 700T125 698L130 764Q168 770 202 773T270 777Z" />
<glyph unicode="&#xb4;" horiz-adv-x="337" d="M306 732L354 643L130 530L98 583L306 732Z" />
<glyph unicode="&#xb5;" horiz-adv-x="600" d="M226 491L179 159Q175 126 187 111T231 95Q258 95 292 112T355 172T398 286L376 101Q355 66 325 40T261 1T188 -13Q140 -13 109 7T64 61T55 136L105 491H226ZM548 491L496 124Q492 99 495 86T517 73H558L555 7Q532
0 504 -5T451 -11Q410 -11 389 10T372 78L374 98V113L426 491H548ZM167 72L146 -73L113 -192H9L63 191L167 72Z" />
<glyph unicode="&#xb6;" horiz-adv-x="591" d="M390 702Q427 702 474 698T558 685L545 616Q522 621 491 623T430 626T379 627L259 200Q176 207 127 238T61 324T54 458Q68 550 105 603T212 679T390 702ZM396 685L270 -210H188L314 685H396ZM558 685L462 0H378L475
685H558Z" />
<glyph unicode="&#xb7;" horiz-adv-x="241" d="M139 326Q162 326 172 315T180 281L173 230Q170 209 159 199T126 189H94Q47 189 53 234L60 286Q66 326 108 326H139Z" />
<glyph unicode="&#xb8;" horiz-adv-x="242" d="M41 -40Q84 -35 114 -39T157 -59T165 -110Q158 -155 130 -185T58 -227T-36 -233L-19 -179Q20 -180 49 -163T84 -114Q87 -99 77 -95T29 -89L41 -40Z" />
<glyph unicode="&#xb9;" horiz-adv-x="303" d="M303 769L245 359H151L192 646Q194 657 196 668T202 691L94 666L91 728L209 769H303Z" />
<glyph unicode="&#xba;" horiz-adv-x="439" d="M256 612Q351 612 387 572T409 433Q401 371 380 334T320 281T222 265Q129 265 93 305T69 443Q82 536 124 574T256 612ZM255 544Q224 544 206 535T177 501T161 433Q153 377 165 355T223 333Q268 333 287 356T317 443Q326
505 313 524T255 544Z" />
<glyph unicode="&#xbb;" horiz-adv-x="500" d="M78 34L21 77L155 246L59 420L122 461L259 256L258 229L78 34ZM274 34L217 77L351 246L256 420L318 461L456 256L454 229L274 34Z" />
<glyph unicode="&#xbc;" horiz-adv-x="887" d="M711 690L185 0H102L629 690H711ZM292 690L234 276H140L181 569Q183 581 185 592T191 614L83 587L81 648L198 690H292ZM709 414L567 176Q562 168 564 163T577 158H834L826 99L768 91H503Q485 91 473 101T458 127T467
162L621 414H709ZM809 334L762 0H677L713 266L738 334H809Z" />
<glyph unicode="&#xbd;" horiz-adv-x="897" d="M706 690L180 0H97L624 690H706ZM292 690L233 276H139L181 569Q183 581 185 592T191 614L83 587L81 648L198 690H292ZM693 421Q746 421 782 413T835 383T845 315Q841 285 820 255T754 187L616 78Q634 81 649 81T682
81L827 80L816 0H492L499 52Q501 64 504 73T515 91L643 197Q686 232 711 259T743 310Q749 332 734 338T690 344Q666 344 646 344T604 343T551 339L550 407Q600 417 636 419T693 421Z" />
<glyph unicode="&#xbe;" horiz-adv-x="968" d="M804 690L278 0H195L722 690H804ZM246 696Q334 696 365 674T389 595Q387 571 378 550T351 514T301 496L297 493Q346 486 361 458T372 384Q368 346 351 320T298 280T203 266Q165 266 125 270T49 278L55 346Q83 344
104 344T144 343T184 342Q232 342 253 357T280 407Q282 422 279 433T263 451T220 458L129 459L138 521H226Q254 521 269 530T290 552T297 580Q301 604 289 613T235 622Q205 622 173 621T110 619L108 686Q145 691 180 693T246 696ZM791 415L648 176Q644 168 646
163T658 158H915L907 100L850 92H585Q567 92 555 101T540 127T549 162L703 415H791ZM889 334L842 1H757L794 266L818 334H889Z" />
<glyph unicode="&#xbf;" horiz-adv-x="506" d="M313 288Q307 234 288 194T242 124T189 70T143 21T116 -31Q108 -70 129 -89T206 -108Q258 -108 292 -107T352 -105T411 -101V-185Q383 -189 360 -193T313 -201T257 -206T179 -208Q71 -208 23 -165T-15 -47Q-9 -4
13 27T64 85T125 139T180 202T215 288H313ZM305 504Q327 504 338 493T346 459L339 408Q336 387 325 377T292 367H265Q218 367 224 413L231 464Q236 504 278 504H305Z" />
<glyph unicode="&#xc0;" horiz-adv-x="636" d="M434 690Q450 690 462 680T476 654L593 0H468L387 532Q385 548 384 564T381 596H351Q346 582 340 565T327 532L96 0H-35L266 659Q272 675 284 682T312 690H434ZM496 295L484 195H130L143 295H496ZM262 925L451 777L410
725L206 845L262 925Z" />
<glyph unicode="&#xc1;" horiz-adv-x="636" d="M434 690Q450 690 462 680T476 654L593 0H468L387 532Q385 548 384 564T381 596H351Q346 582 340 565T327 532L96 0H-35L266 659Q272 675 284 682T312 690H434ZM496 295L484 195H130L143 295H496ZM519 927L567 838L343
725L311 778L519 927Z" />
<glyph unicode="&#xc2;" horiz-adv-x="636" d="M434 690Q450 690 462 680T476 654L593 0H468L387 532Q385 548 384 564T381 596H351Q346 582 340 565T327 532L96 0H-35L266 659Q272 675 284 682T312 690H434ZM496 295L484 195H130L143 295H496ZM440 905L566 770L527
727L400 826H392L239 728L207 776L356 905H440Z" />
<glyph unicode="&#xc3;" horiz-adv-x="636" d="M434 690Q450 690 462 680T476 654L593 0H468L387 532Q385 548 384 564T381 596H351Q346 582 340 565T327 532L96 0H-35L266 659Q272 675 284 682T312 690H434ZM496 295L484 195H130L143 295H496ZM309 891Q332 890
351 883T387 867T420 850T455 839Q484 835 496 848T512 889L565 884Q565 819 539 788T474 758Q450 759 430 766T392 783T358 801T326 811Q298 815 286 801T270 759L217 764Q218 831 244 862T309 891Z" />
<glyph unicode="&#xc4;" horiz-adv-x="636" d="M434 690Q450 690 462 680T476 654L593 0H468L387 532Q385 548 384 564T381 596H351Q346 582 340 565T327 532L96 0H-35L266 659Q272 675 284 682T312 690H434ZM496 295L484 195H130L143 295H496ZM334 880Q350 880
355 873T358 853L349 792Q348 778 341 772T320 766H276Q250 766 253 791L262 852Q264 866 271 873T293 880H334ZM508 880Q524 880 529 873T533 853L524 792Q522 778 516 772T495 766H451Q424 766 428 791L437 853Q439 867 446 873T467 880H508Z" />
<glyph unicode="&#xc5;" horiz-adv-x="636" d="M434 690Q450 690 462 680T476 654L593 0H468L387 532Q385 548 384 564T381 596H351Q346 582 340 565T327 532L96 0H-35L266 659Q272 675 284 682T312 690H434ZM496 295L484 195H130L143 295H496ZM401 935Q448 935
478 908T508 834Q508 783 475 750T388 716Q342 716 312 743T281 816Q281 868 315 901T401 935ZM399 882Q371 882 355 865T339 821Q339 799 352 784T391 769Q418 769 434 786T450 830Q450 853 437 867T399 882Z" />
<glyph unicode="&#xc6;" horiz-adv-x="925" d="M620 691Q717 691 789 690T934 684L918 591H670Q641 591 623 578T601 531L549 156Q545 127 556 113T598 99H849L845 6Q774 0 701 -1T556 -2Q490 -2 455 37T430 143L486 543Q488 562 498 581T520 611H514Q502 603
488 587T458 550L85 0H-47L346 570Q369 606 394 629T449 666T521 685T620 691ZM483 303L469 204H153L172 305L483 303ZM479 405L854 404L843 317H465L479 405Z" />
<glyph unicode="&#xc7;" horiz-adv-x="577" d="M385 702Q432 702 466 700T528 693T585 679L567 587Q536 589 509 590T452 593T381 594Q337 594 306 583T253 545T216 468T191 341Q178 246 183 193T217 119T303 96Q371 96 416 99T507 106L512 13Q465 -1 417 -6T299
-12Q195 -12 137 24T60 141T60 349Q74 449 98 517T159 625T252 684T385 702ZM220 -55Q263 -50 293 -54T336 -74T344 -125Q337 -170 309 -200T237 -242T143 -248L160 -194Q199 -195 228 -178T263 -129Q266 -114 256 -110T208 -104L220 -55Z" />
<glyph unicode="&#xc8;" horiz-adv-x="566" d="M263 692Q316 692 370 692T477 690T575 684L560 591H295Q263 591 249 577T229 531L178 157Q174 127 185 113T228 99H489L487 6Q441 2 391 1T290 -1T191 -2Q112 -2 77 39T50 151L108 564Q117 624 156 658T263 692ZM105
406H495L483 316H91L105 406ZM255 940L444 792L403 740L199 860L255 940Z" />
<glyph unicode="&#xc9;" horiz-adv-x="566" d="M263 692Q316 692 370 692T477 690T575 684L560 591H295Q263 591 249 577T229 531L178 157Q174 127 185 113T228 99H489L487 6Q441 2 391 1T290 -1T191 -2Q112 -2 77 39T50 151L108 564Q117 624 156 658T263 692ZM105
406H495L483 316H91L105 406ZM512 942L560 853L336 740L304 793L512 942Z" />
<glyph unicode="&#xca;" horiz-adv-x="566" d="M263 692Q316 692 370 692T477 690T575 684L560 591H295Q263 591 249 577T229 531L178 157Q174 127 185 113T228 99H489L487 6Q441 2 391 1T290 -1T191 -2Q112 -2 77 39T50 151L108 564Q117 624 156 658T263 692ZM105
406H495L483 316H91L105 406ZM434 920L560 785L521 742L394 841H386L233 743L201 791L350 920H434Z" />
<glyph unicode="&#xcb;" horiz-adv-x="566" d="M263 692Q316 692 370 692T477 690T575 684L560 591H295Q263 591 249 577T229 531L178 157Q174 127 185 113T228 99H489L487 6Q441 2 391 1T290 -1T191 -2Q112 -2 77 39T50 151L108 564Q117 624 156 658T263 692ZM105
406H495L483 316H91L105 406ZM327 895Q343 895 348 888T351 868L342 807Q341 793 334 787T313 781H269Q243 781 246 806L255 867Q257 881 264 888T286 895H327ZM501 895Q517 895 522 888T526 868L517 807Q515 793 509 787T488 781H444Q417 781 421 806L430 868Q432
882 439 888T460 895H501Z" />
<glyph unicode="&#xcc;" horiz-adv-x="279" d="M258 690L161 0H35L132 690H258ZM82 925L271 777L230 725L26 845L82 925Z" />
<glyph unicode="&#xcd;" horiz-adv-x="279" d="M258 690L161 0H35L132 690H258ZM340 927L388 838L164 725L132 778L340 927Z" />
<glyph unicode="&#xce;" horiz-adv-x="279" d="M258 690L161 0H35L132 690H258ZM261 905L387 770L348 727L221 826H213L60 728L28 776L177 905H261Z" />
<glyph unicode="&#xcf;" horiz-adv-x="279" d="M258 690L161 0H35L132 690H258ZM155 880Q171 880 176 873T179 853L170 792Q169 778 162 772T141 766H97Q71 766 74 791L83 852Q85 866 92 873T114 880H155ZM329 880Q345 880 350 873T354 853L345 792Q343 778 337
772T316 766H272Q245 766 249 791L258 853Q260 867 267 873T288 880H329Z" />
<glyph unicode="&#xd0;" horiz-adv-x="673" d="M351 397L343 334H22L31 397H351ZM374 699Q482 699 544 666T626 555T627 341Q611 231 586 162T522 56T426 5T288 -9Q224 -9 159 -7T35 0L98 96Q137 94 190 93T286 91Q335 91 370 101T429 138T469 217T496 349Q507
427 507 476T492 552T449 589T371 600Q343 600 309 600T240 599T179 598L132 690Q168 693 210 695T294 698T374 699ZM257 690L160 0H35L132 690H257Z" />
<glyph unicode="&#xd1;" horiz-adv-x="711" d="M691 690L599 44Q597 21 586 11T552 0H474Q453 0 444 11T426 41L269 457Q261 477 253 503T240 553H226Q225 528 224 503T218 451L155 0H35L126 646Q129 669 141 679T175 690H251Q272 690 281 679T299 649L452 246Q461
223 470 196T487 140H502Q503 169 504 194T510 246L571 690H691ZM350 891Q373 890 392 883T428 867T461 850T496 839Q525 835 537 848T553 889L606 884Q606 819 580 788T515 758Q491 759 471 766T433 783T399 801T367 811Q339 815 327 801T311 759L258 764Q259
831 285 862T350 891Z" />
<glyph unicode="&#xd2;" horiz-adv-x="676" d="M388 703Q488 703 548 669T629 556T630 341Q617 239 592 171T529 62T436 4T304 -13Q202 -13 142 20T62 133T60 349Q74 449 98 517T160 626T254 685T388 703ZM383 601Q323 601 286 578T228 499T191 341Q178 243 183
189T219 112T307 89Q367 89 403 112T462 192T500 349Q514 449 509 503T473 579T383 601ZM277 925L466 777L425 725L221 845L277 925Z" />
<glyph unicode="&#xd3;" horiz-adv-x="676" d="M388 703Q488 703 548 669T629 556T630 341Q617 239 592 171T529 62T436 4T304 -13Q202 -13 142 20T62 133T60 349Q74 449 98 517T160 626T254 685T388 703ZM383 601Q323 601 286 578T228 499T191 341Q178 243 183
189T219 112T307 89Q367 89 403 112T462 192T500 349Q514 449 509 503T473 579T383 601ZM535 927L583 838L359 725L327 778L535 927Z" />
<glyph unicode="&#xd4;" horiz-adv-x="676" d="M388 703Q488 703 548 669T629 556T630 341Q617 239 592 171T529 62T436 4T304 -13Q202 -13 142 20T62 133T60 349Q74 449 98 517T160 626T254 685T388 703ZM383 601Q323 601 286 578T228 499T191 341Q178 243 183
189T219 112T307 89Q367 89 403 112T462 192T500 349Q514 449 509 503T473 579T383 601ZM456 905L582 770L543 727L416 826H408L255 728L223 776L372 905H456Z" />
<glyph unicode="&#xd5;" horiz-adv-x="676" d="M388 703Q488 703 548 669T629 556T630 341Q617 239 592 171T529 62T436 4T304 -13Q202 -13 142 20T62 133T60 349Q74 449 98 517T160 626T254 685T388 703ZM383 601Q323 601 286 578T228 499T191 341Q178 243 183
189T219 112T307 89Q367 89 403 112T462 192T500 349Q514 449 509 503T473 579T383 601ZM325 891Q348 890 367 883T403 867T436 850T471 839Q500 835 512 848T528 889L581 884Q581 819 555 788T490 758Q466 759 446 766T408 783T374 801T342 811Q314 815 302 801T286
759L233 764Q234 831 260 862T325 891Z" />
<glyph unicode="&#xd6;" horiz-adv-x="676" d="M388 703Q488 703 548 669T629 556T630 341Q617 239 592 171T529 62T436 4T304 -13Q202 -13 142 20T62 133T60 349Q74 449 98 517T160 626T254 685T388 703ZM383 601Q323 601 286 578T228 499T191 341Q178 243 183
189T219 112T307 89Q367 89 403 112T462 192T500 349Q514 449 509 503T473 579T383 601ZM350 880Q366 880 371 873T374 853L365 792Q364 778 357 772T336 766H292Q266 766 269 791L278 852Q280 866 287 873T309 880H350ZM524 880Q540 880 545 873T549 853L540 792Q538
778 532 772T511 766H467Q440 766 444 791L453 853Q455 867 462 873T483 880H524Z" />
<glyph unicode="&#xd7;" horiz-adv-x="525" d="M442 491L492 416L83 91L33 167L442 491ZM136 483L452 162L388 92L71 417L136 483Z" />
<glyph unicode="&#xd8;" horiz-adv-x="676" d="M563 754L610 729L129 -63L83 -38L563 754ZM388 703Q488 703 548 669T629 556T630 341Q617 239 592 171T529 62T436 4T304 -13Q202 -13 142 20T62 133T60 349Q74 449 98 517T160 626T254 685T388 703ZM383 601Q323
601 286 578T228 499T191 341Q178 243 183 189T219 112T307 89Q367 89 403 112T462 192T500 349Q514 449 509 503T473 579T383 601Z" />
<glyph unicode="&#xd9;" horiz-adv-x="674" d="M660 690L600 268Q586 165 552 103T459 14T305 -13Q212 -13 155 15T76 107T68 273L126 690H252L193 268Q183 201 190 162T224 106T305 89Q359 89 393 106T446 164T476 273L534 690H660ZM277 925L466 777L425 725L221
845L277 925Z" />
<glyph unicode="&#xda;" horiz-adv-x="674" d="M660 690L600 268Q586 165 552 103T459 14T305 -13Q212 -13 155 15T76 107T68 273L126 690H252L193 268Q183 201 190 162T224 106T305 89Q359 89 393 106T446 164T476 273L534 690H660ZM535 927L583 838L359 725L327
778L535 927Z" />
<glyph unicode="&#xdb;" horiz-adv-x="674" d="M660 690L600 268Q586 165 552 103T459 14T305 -13Q212 -13 155 15T76 107T68 273L126 690H252L193 268Q183 201 190 162T224 106T305 89Q359 89 393 106T446 164T476 273L534 690H660ZM456 905L582 770L543 727L416
826H408L255 728L223 776L372 905H456Z" />
<glyph unicode="&#xdc;" horiz-adv-x="674" d="M660 690L600 268Q586 165 552 103T459 14T305 -13Q212 -13 155 15T76 107T68 273L126 690H252L193 268Q183 201 190 162T224 106T305 89Q359 89 393 106T446 164T476 273L534 690H660ZM350 880Q366 880 371 873T374
853L365 792Q364 778 357 772T336 766H292Q266 766 269 791L278 852Q280 866 287 873T309 880H350ZM524 880Q540 880 545 873T549 853L540 792Q538 778 532 772T511 766H467Q440 766 444 791L453 853Q455 867 462 873T483 880H524Z" />
<glyph unicode="&#xdd;" horiz-adv-x="589" d="M640 690L342 226H226L59 690H185L274 418Q281 396 285 375T291 333H301Q306 353 316 376T339 419L505 690H640ZM356 305L314 0H188L232 305H356ZM485 927L533 838L309 725L277 778L485 927Z" />
<glyph unicode="&#xde;" horiz-adv-x="603" d="M361 570Q445 570 496 550T567 481T573 343Q561 257 534 210T456 144T327 125Q267 125 213 130T121 143T71 157L77 223Q134 223 195 223T314 223Q358 224 385 234T427 272T449 352Q456 400 450 426T422 462T358 473Q269
473 206 472T120 468L116 562Q157 566 191 567T264 569T361 570ZM258 690L161 0H35L132 690H258Z" />
<glyph unicode="&#xdf;" horiz-adv-x="689" d="M399 727Q492 727 544 713T614 667T625 581Q622 558 614 538T586 497T535 455Q512 441 491 429T457 403T439 370Q436 350 449 337T488 306L571 252Q612 222 629 192T639 114Q632 64 609 37T543 0T438 -11Q405 -11
365 -9T275 0L287 83Q322 82 354 81T414 80Q448 80 470 84T504 99T518 132Q521 148 516 159T498 182T466 207L387 256Q353 279 336 307T324 372Q327 401 342 420T383 457T440 496Q463 513 478 525T502 552T512 583Q514 601 507 613T478 631T408 637Q357 637 328
628T284 597T263 533L180 -52Q173 -99 154 -131T99 -181T11 -198Q-7 -198 -39 -196T-111 -189L-93 -107H-25Q17 -107 36 -92T63 -32L145 552Q152 608 171 642T223 695T299 720T399 727ZM197 491L184 407H37L48 485L139 491H197Z" />
<glyph unicode="&#xe0;" horiz-adv-x="585" d="M311 503Q337 503 368 501T432 496T493 488T544 478L470 409Q424 411 387 412T322 413Q282 413 256 408T212 386T185 337T166 250Q157 183 157 148T171 100T214 87Q245 88 277 104T342 150T408 220L430 175Q408 122
370 80T283 14T176 -12Q114 -13 81 13T39 99T43 253Q56 337 78 387T133 462T210 495T311 503ZM424 483L544 478L477 0H383L387 113L373 124L424 483ZM213 744L402 596L361 544L157 664L213 744Z" />
<glyph unicode="&#xe1;" horiz-adv-x="585" d="M311 503Q337 503 368 501T432 496T493 488T544 478L470 409Q424 411 387 412T322 413Q282 413 256 408T212 386T185 337T166 250Q157 183 157 148T171 100T214 87Q245 88 277 104T342 150T408 220L430 175Q408 122
370 80T283 14T176 -12Q114 -13 81 13T39 99T43 253Q56 337 78 387T133 462T210 495T311 503ZM424 483L544 478L477 0H383L387 113L373 124L424 483ZM470 746L518 657L294 544L262 597L470 746Z" />
<glyph unicode="&#xe2;" horiz-adv-x="585" d="M311 503Q337 503 368 501T432 496T493 488T544 478L470 409Q424 411 387 412T322 413Q282 413 256 408T212 386T185 337T166 250Q157 183 157 148T171 100T214 87Q245 88 277 104T342 150T408 220L430 175Q408 122
370 80T283 14T176 -12Q114 -13 81 13T39 99T43 253Q56 337 78 387T133 462T210 495T311 503ZM424 483L544 478L477 0H383L387 113L373 124L424 483ZM392 722L518 587L479 544L352 643H344L191 545L159 593L308 722H392Z" />
<glyph unicode="&#xe3;" horiz-adv-x="585" d="M311 503Q337 503 368 501T432 496T493 488T544 478L470 409Q424 411 387 412T322 413Q282 413 256 408T212 386T185 337T166 250Q157 183 157 148T171 100T214 87Q245 88 277 104T342 150T408 220L430 175Q408 122
370 80T283 14T176 -12Q114 -13 81 13T39 99T43 253Q56 337 78 387T133 462T210 495T311 503ZM424 483L544 478L477 0H383L387 113L373 124L424 483ZM261 709Q284 708 303 701T339 685T372 668T407 657Q436 653 448 666T464 707L517 702Q517 637 491 606T426 576Q402
577 382 584T344 601T310 619T278 629Q250 633 238 619T222 577L169 582Q170 649 196 680T261 709Z" />
<glyph unicode="&#xe4;" horiz-adv-x="585" d="M311 503Q337 503 368 501T432 496T493 488T544 478L470 409Q424 411 387 412T322 413Q282 413 256 408T212 386T185 337T166 250Q157 183 157 148T171 100T214 87Q245 88 277 104T342 150T408 220L430 175Q408 122
370 80T283 14T176 -12Q114 -13 81 13T39 99T43 253Q56 337 78 387T133 462T210 495T311 503ZM424 483L544 478L477 0H383L387 113L373 124L424 483ZM286 954Q302 954 307 947T310 927L301 866Q300 852 293 846T272 840H228Q202 840 205 865L214 926Q216 940 223
947T245 954H286ZM460 954Q476 954 481 947T485 927L476 866Q474 852 468 846T447 840H403Q376 840 380 865L389 927Q391 941 398 947T419 954H460Z" />
<glyph unicode="&#xe5;" horiz-adv-x="585" d="M311 503Q337 503 368 501T432 496T493 488T544 478L470 409Q424 411 387 412T322 413Q282 413 256 408T212 386T185 337T166 250Q157 183 157 148T171 100T214 87Q245 88 277 104T342 150T408 220L430 175Q408 122
370 80T283 14T176 -12Q114 -13 81 13T39 99T43 253Q56 337 78 387T133 462T210 495T311 503ZM424 483L544 478L477 0H383L387 113L373 124L424 483ZM352 753Q399 753 429 726T459 652Q459 601 426 568T339 534Q293 534 263 561T232 634Q232 686 266 719T352 753ZM350
700Q322 700 306 683T290 639Q290 617 303 602T342 587Q369 587 385 604T401 648Q401 671 388 685T350 700Z" />
<glyph unicode="&#xe6;" horiz-adv-x="885" d="M296 503Q341 504 387 500T475 490T549 476L473 408Q441 410 414 411T363 412T320 413Q280 413 254 407T211 385T185 336T167 250Q158 184 158 149T171 100T212 87Q243 88 274 104T338 150T402 220L424 176Q403 122
367 80T282 14T173 -12Q112 -13 79 14T38 101T43 253Q55 337 76 387T128 462T201 495T296 503ZM652 503Q736 503 782 485T844 430T852 339Q844 292 822 265T760 225T659 206L415 185L426 259L643 280Q671 283 689 289T719 310T733 350Q738 379 730 393T700 410T645
414Q610 414 586 408T545 384T519 337T500 256Q490 184 498 148T534 99T609 86Q633 86 665 87T731 91T791 97L799 20Q772 8 736 1T662 -9T592 -12Q501 -12 450 17T382 105T376 255Q385 329 405 377T458 453T540 492T652 503Z" />
<glyph unicode="&#xe7;" horiz-adv-x="499" d="M307 503Q348 503 397 497T484 475L466 400Q427 402 388 403T324 404Q273 404 241 391T192 343T165 244Q157 179 164 145T197 99T273 87Q290 87 315 88T369 91T425 96L434 17Q393 1 345 -5T251 -12Q166 -12 114 14T44
98T39 250Q52 343 82 398T166 478T307 503ZM175 -52Q218 -47 248 -51T291 -71T299 -122Q292 -167 264 -197T192 -239T98 -245L115 -191Q154 -192 183 -175T218 -126Q221 -111 211 -107T163 -101L175 -52Z" />
<glyph unicode="&#xe8;" horiz-adv-x="552" d="M317 503Q402 503 448 485T511 430T518 339Q510 292 488 265T426 225T325 206L79 185L90 259L308 280Q338 283 356 289T385 310T400 350Q405 379 396 393T366 410T310 414Q276 414 252 408T212 384T186 337T167 256Q156
184 164 148T200 99T274 86Q299 86 332 87T398 91T460 97L468 20Q441 8 404 1T329 -9T258 -12Q166 -12 115 17T46 105T40 255Q50 329 70 377T124 453T205 492T317 503ZM206 744L395 596L354 544L150 664L206 744Z" />
<glyph unicode="&#xe9;" horiz-adv-x="552" d="M317 503Q402 503 448 485T511 430T518 339Q510 292 488 265T426 225T325 206L79 185L90 259L308 280Q338 283 356 289T385 310T400 350Q405 379 396 393T366 410T310 414Q276 414 252 408T212 384T186 337T167 256Q156
184 164 148T200 99T274 86Q299 86 332 87T398 91T460 97L468 20Q441 8 404 1T329 -9T258 -12Q166 -12 115 17T46 105T40 255Q50 329 70 377T124 453T205 492T317 503ZM464 746L512 657L288 544L256 597L464 746Z" />
<glyph unicode="&#xea;" horiz-adv-x="552" d="M317 503Q402 503 448 485T511 430T518 339Q510 292 488 265T426 225T325 206L79 185L90 259L308 280Q338 283 356 289T385 310T400 350Q405 379 396 393T366 410T310 414Q276 414 252 408T212 384T186 337T167 256Q156
184 164 148T200 99T274 86Q299 86 332 87T398 91T460 97L468 20Q441 8 404 1T329 -9T258 -12Q166 -12 115 17T46 105T40 255Q50 329 70 377T124 453T205 492T317 503ZM385 722L511 587L472 544L345 643H337L184 545L152 593L301 722H385Z" />
<glyph unicode="&#xeb;" horiz-adv-x="552" d="M317 503Q402 503 448 485T511 430T518 339Q510 292 488 265T426 225T325 206L79 185L90 259L308 280Q338 283 356 289T385 310T400 350Q405 379 396 393T366 410T310 414Q276 414 252 408T212 384T186 337T167 256Q156
184 164 148T200 99T274 86Q299 86 332 87T398 91T460 97L468 20Q441 8 404 1T329 -9T258 -12Q166 -12 115 17T46 105T40 255Q50 329 70 377T124 453T205 492T317 503ZM279 954Q295 954 300 947T303 927L294 866Q293 852 286 846T265 840H221Q195 840 198 865L207
926Q209 940 216 947T238 954H279ZM453 954Q469 954 474 947T478 927L469 866Q467 852 461 846T440 840H396Q369 840 373 865L382 927Q384 941 391 947T412 954H453Z" />
<glyph unicode="&#xec;" horiz-adv-x="263" d="M220 491L151 0H30L99 491H220ZM305 744L494 596L453 544L249 664L305 744Z" />
<glyph unicode="&#xed;" horiz-adv-x="263" d="M220 491L151 0H30L99 491H220ZM307 746L355 657L131 544L99 597L307 746Z" />
<glyph unicode="&#xee;" horiz-adv-x="263" d="M220 491L151 0H30L99 491H220ZM484 722L610 587L571 544L444 643H436L283 545L251 593L400 722H484Z" />
<glyph unicode="&#xef;" horiz-adv-x="263" d="M220 491L151 0H30L99 491H220ZM378 954Q394 954 399 947T402 927L393 866Q392 852 385 846T364 840H320Q294 840 297 865L306 926Q308 940 315 947T337 954H378ZM552 954Q568 954 573 947T577 927L568 866Q566 852
560 846T539 840H495Q468 840 472 865L481 927Q483 941 490 947T511 954H552Z" />
<glyph unicode="&#xf0;" horiz-adv-x="569" d="M186 698Q252 701 308 690T408 650T480 572T518 451T515 280Q505 208 487 154T436 62T356 6T239 -13Q162 -13 113 12T45 89T36 222Q51 333 105 391T266 449Q289 449 314 445T363 430T408 396T445 337L437 290Q417
316 395 331T347 354T295 361Q251 361 225 345T184 296T163 217Q151 140 170 110T246 80Q293 80 321 102T365 171T391 293Q402 376 398 434T375 529T328 585T259 612T170 616L186 698ZM474 717L505 674L268 502L238 544L474 717Z" />
<glyph unicode="&#xf1;" horiz-adv-x="590" d="M417 503Q458 503 487 488T529 443T537 366L485 0H363L411 331Q416 371 406 386T365 401Q326 401 284 377T182 305L172 374Q236 437 297 470T417 503ZM191 491L187 362L195 348L147 0H26L95 491H191ZM262 709Q285
708 304 701T340 685T373 668T408 657Q437 653 449 666T465 707L518 702Q518 637 492 606T427 576Q403 577 383 584T345 601T311 619T279 629Q251 633 239 619T223 577L170 582Q171 649 197 680T262 709Z" />
<glyph unicode="&#xf2;" horiz-adv-x="579" d="M313 503Q400 503 452 477T522 394T527 240Q514 147 483 92T397 12T255 -13Q168 -13 116 13T45 96T39 249Q52 342 82 398T169 478T313 503ZM312 411Q265 411 237 397T192 346T165 240Q157 177 161 142T189 94T257
80Q303 80 331 94T376 146T402 249Q411 314 406 348T379 397T312 411ZM206 744L395 596L354 544L150 664L206 744Z" />
<glyph unicode="&#xf3;" horiz-adv-x="579" d="M313 503Q400 503 452 477T522 394T527 240Q514 147 483 92T397 12T255 -13Q168 -13 116 13T45 96T39 249Q52 342 82 398T169 478T313 503ZM312 411Q265 411 237 397T192 346T165 240Q157 177 161 142T189 94T257
80Q303 80 331 94T376 146T402 249Q411 314 406 348T379 397T312 411ZM464 746L512 657L288 544L256 597L464 746Z" />
<glyph unicode="&#xf4;" horiz-adv-x="579" d="M313 503Q400 503 452 477T522 394T527 240Q514 147 483 92T397 12T255 -13Q168 -13 116 13T45 96T39 249Q52 342 82 398T169 478T313 503ZM312 411Q265 411 237 397T192 346T165 240Q157 177 161 142T189 94T257
80Q303 80 331 94T376 146T402 249Q411 314 406 348T379 397T312 411ZM385 722L511 587L472 544L345 643H337L184 545L152 593L301 722H385Z" />
<glyph unicode="&#xf5;" horiz-adv-x="579" d="M313 503Q400 503 452 477T522 394T527 240Q514 147 483 92T397 12T255 -13Q168 -13 116 13T45 96T39 249Q52 342 82 398T169 478T313 503ZM312 411Q265 411 237 397T192 346T165 240Q157 177 161 142T189 94T257
80Q303 80 331 94T376 146T402 249Q411 314 406 348T379 397T312 411ZM254 709Q277 708 296 701T332 685T365 668T400 657Q429 653 441 666T457 707L510 702Q510 637 484 606T419 576Q395 577 375 584T337 601T303 619T271 629Q243 633 231 619T215 577L162 582Q163
649 189 680T254 709Z" />
<glyph unicode="&#xf6;" horiz-adv-x="579" d="M313 503Q400 503 452 477T522 394T527 240Q514 147 483 92T397 12T255 -13Q168 -13 116 13T45 96T39 249Q52 342 82 398T169 478T313 503ZM312 411Q265 411 237 397T192 346T165 240Q157 177 161 142T189 94T257
80Q303 80 331 94T376 146T402 249Q411 314 406 348T379 397T312 411ZM279 954Q295 954 300 947T303 927L294 866Q293 852 286 846T265 840H221Q195 840 198 865L207 926Q209 940 216 947T238 954H279ZM453 954Q469 954 474 947T478 927L469 866Q467 852 461 846T440
840H396Q369 840 373 865L382 927Q384 941 391 947T412 954H453Z" />
<glyph unicode="&#xf7;" horiz-adv-x="556" d="M510 339L496 249H47L60 339H510ZM272 176Q297 176 308 165T315 128L309 89Q306 64 295 55T259 45H229Q203 45 194 56T187 93L193 131Q196 156 208 166T244 176H272ZM324 541Q350 541 360 530T366 494L362 455Q358
430 347 420T311 410H282Q256 410 246 421T238 458L244 496Q247 522 259 531T297 541H324Z" />
<glyph unicode="&#xf8;" horiz-adv-x="579" d="M460 573L500 551L118 -80L78 -58L460 573ZM313 503Q400 503 452 477T522 394T527 240Q514 147 483 92T397 12T255 -13Q168 -13 116 13T45 96T39 249Q52 342 82 398T169 478T313 503ZM312 411Q265 411 237 397T192
346T165 240Q157 177 161 142T189 94T257 80Q303 80 331 94T376 146T402 249Q411 314 406 348T379 397T312 411Z" />
<glyph unicode="&#xf9;" horiz-adv-x="580" d="M213 491L165 157Q160 120 172 105T213 90Q254 90 292 114T387 189L403 120Q338 53 281 20T163 -13Q93 -13 62 23T41 125L92 491H213ZM541 491L473 0H379L383 134L373 147L421 491H541ZM209 749L398 601L357 549L153
669L209 749Z" />
<glyph unicode="&#xfa;" horiz-adv-x="580" d="M213 491L165 157Q160 120 172 105T213 90Q254 90 292 114T387 189L403 120Q338 53 281 20T163 -13Q93 -13 62 23T41 125L92 491H213ZM541 491L473 0H379L383 134L373 147L421 491H541ZM466 751L514 662L290 549L258
602L466 751Z" />
<glyph unicode="&#xfb;" horiz-adv-x="580" d="M213 491L165 157Q160 120 172 105T213 90Q254 90 292 114T387 189L403 120Q338 53 281 20T163 -13Q93 -13 62 23T41 125L92 491H213ZM541 491L473 0H379L383 134L373 147L421 491H541ZM387 728L513 593L474 550L347
649H339L186 551L154 599L303 728H387Z" />
<glyph unicode="&#xfc;" horiz-adv-x="580" d="M213 491L165 157Q160 120 172 105T213 90Q254 90 292 114T387 189L403 120Q338 53 281 20T163 -13Q93 -13 62 23T41 125L92 491H213ZM541 491L473 0H379L383 134L373 147L421 491H541ZM281 704Q297 704 302 697T305
677L296 616Q295 602 288 596T267 590H223Q197 590 200 615L209 676Q211 690 218 697T240 704H281ZM455 704Q471 704 476 697T480 677L471 616Q469 602 463 596T442 590H398Q371 590 375 615L384 677Q386 691 393 697T414 704H455Z" />
<glyph unicode="&#xfd;" horiz-adv-x="563" d="M554 491Q545 444 533 398T505 305T472 216T437 134T398 60Q347 -32 295 -88T184 -171T55 -206L40 -130Q78 -120 111 -106T175 -66T237 -1T298 101Q328 161 351 219T393 344T426 491H554ZM170 491L227 102Q230 84
248 84H304L265 0H183Q160 0 145 13T125 47L40 491H170ZM442 746L490 657L266 544L234 597L442 746Z" />
<glyph unicode="&#xfe;" horiz-adv-x="585" d="M397 503Q454 503 488 477T532 394T530 237Q519 159 499 110T451 34T384 -3T299 -13Q241 -13 178 -5T71 18L93 77Q142 77 181 76T251 75Q293 75 319 80T362 103T388 153T405 240Q414 304 414 339T401 389T358 404Q325
404 294 388T232 343T168 275L147 328Q168 373 205 413T291 478T397 503ZM246 700L223 537Q219 507 214 478T201 418L203 409L156 57L149 42Q148 13 145 -16T137 -76L120 -195H-1L124 700H246Z" />
<glyph unicode="&#xff;" horiz-adv-x="563" d="M554 491Q545 444 533 398T505 305T472 216T437 134T398 60Q347 -32 295 -88T184 -171T55 -206L40 -130Q78 -120 111 -106T175 -66T237 -1T298 101Q328 161 351 219T393 344T426 491H554ZM170 491L227 102Q230 84
248 84H304L265 0H183Q160 0 145 13T125 47L40 491H170ZM257 954Q273 954 278 947T281 927L272 866Q271 852 264 846T243 840H199Q173 840 176 865L185 926Q187 940 194 947T216 954H257ZM431 954Q447 954 452 947T456 927L447 866Q445 852 439 846T418 840H374Q347
840 351 865L360 927Q362 941 369 947T390 954H431Z" />
<glyph unicode="&#x2013;" horiz-adv-x="574" d="M510 295L499 213H53L64 295H510Z" />
<glyph unicode="&#x2014;" horiz-adv-x="874" d="M810 295L799 213H53L64 295H810Z" />
<glyph unicode="&#x2018;" horiz-adv-x="218" d="M121 463Q99 463 90 472T85 505L93 564Q97 590 106 618T127 672T156 722L206 703Q196 674 188 648T173 587Q191 589 198 580T203 553L196 502Q192 480 182 472T148 463H121Z" />
<glyph unicode="&#x2019;" horiz-adv-x="217" d="M180 711Q202 711 210 702T216 669L207 611Q204 584 195 557T173 502T145 453L94 471Q104 500 112 527T128 587Q110 585 103 595T97 622L105 673Q108 695 118 703T152 711H180Z" />
<glyph unicode="&#x201a;" horiz-adv-x="229" d="M105 122Q127 122 136 113T141 80L132 21Q129 -5 120 -33T98 -87T70 -137L19 -118Q30 -89 38 -63T53 -2Q35 -3 28 6T22 32L29 83Q33 106 43 114T78 122H105Z" />
<glyph unicode="&#x201c;" horiz-adv-x="384" d="M121 463Q99 463 90 472T85 505L93 564Q97 590 106 618T127 672T156 722L206 703Q196 674 188 648T173 587Q191 589 198 580T203 553L196 502Q192 480 182 472T148 463H121ZM286 463Q264 463 256 472T250 505L259
564Q262 590 271 618T293 672T321 722L372 703Q362 674 354 648T338 587Q357 589 364 580T369 553L362 502Q358 480 348 472T314 463H286Z" />
<glyph unicode="&#x201d;" horiz-adv-x="383" d="M345 711Q367 711 376 702T381 669L373 611Q369 584 360 557T339 502T310 453L260 471Q270 500 278 527T294 587Q275 585 268 595T263 622L270 673Q274 695 284 703T318 711H345ZM180 711Q202 711 210 702T216
669L207 611Q204 584 195 557T173 502T145 453L94 471Q104 500 112 527T128 587Q110 585 103 595T97 622L105 673Q108 695 118 703T152 711H180Z" />
<glyph unicode="&#x201e;" horiz-adv-x="395" d="M271 122Q293 122 301 113T307 80L298 21Q295 -5 286 -33T264 -87T236 -137L185 -118Q195 -89 203 -63T219 -2Q200 -4 193 5T188 32L195 83Q199 105 209 113T243 122H271ZM105 122Q127 122 135 113T141 80L132
21Q129 -5 120 -33T98 -87T70 -137L19 -118Q30 -89 38 -63T53 -2Q35 -4 28 5T22 32L30 83Q33 105 43 113T78 122H105Z" />
<glyph unicode="&#x2022;" horiz-adv-x="366" d="M201 371Q253 371 272 349T284 274L282 260Q277 222 266 202T234 173T177 164H161Q107 164 88 186T76 266L78 280Q83 316 94 335T127 363T186 371H201Z" />
<glyph unicode="&#x2039;" horiz-adv-x="303" d="M213 462L270 419L136 250L232 76L169 35L32 241L33 267L213 462Z" />
<glyph unicode="&#x203a;" horiz-adv-x="303" d="M121 462L259 258L258 231L78 35L20 78L154 248L60 422L121 462Z" />
</font>
</defs>
</svg>
