<?xml version="1.0" standalone="no"?>
<!DOCTYPE svg PUBLIC "-//W3C//DTD SVG 1.1//EN" "http://www.w3.org/Graphics/SVG/1.1/DTD/svg11.dtd">
<svg xmlns="http://www.w3.org/2000/svg">
<defs >
<font id="Exo" horiz-adv-x="531" ><font-face
    font-family="Exo Medium"
    units-per-em="1000"
    panose-1="0 0 0 0 0 0 0 0 0 0"
    ascent="1002"
    descent="-327"
    alphabetic="0" />
<glyph unicode=" " horiz-adv-x="241" />
<glyph unicode="!" horiz-adv-x="268" d="M127 201L199 736H300L200 201H127ZM103 -1Q88 -1 88 13Q88 14 88 14T88 16L103 103Q105 121 123 121H180Q195 121 195 108Q195 107 195 106T195 103L181 16Q179 7 174 3T160 -1H103Z" />
<glyph unicode="&quot;" horiz-adv-x="320" d="M127 504L146 682L156 749H254L244 682L208 504H127ZM270 504L289 682L299 749H397L387 682L351 504H270Z" />
<glyph unicode="#" horiz-adv-x="697" d="M143 0L217 223H55L76 289H240L289 441H124L145 507H313L387 732H453L379 507H521L594 732H660L587 507H760L739 441H565L516 289H690L670 223H491L418 0H352L425 223H283L210 0H143ZM306 289H450L499 441H355L306 289Z" />
<glyph unicode="$" horiz-adv-x="609" d="M394 726L392 774L448 824L450 776L394 726ZM255 -89L270 7H328L314 -89H255ZM302 -6Q258 -6 214 -3T133 4T69 14L81 92Q124 88 184 86T303 84Q349 84 383 92T437 122T464 184L471 225Q472 233 472 239T473 252Q473 288
450 304T375 321H295Q218 321 177 356T135 458Q135 477 138 498L148 560Q159 632 191 671T275 727T392 743Q413 743 441 742T499 737T559 730T612 721L600 643Q566 646 526 647T448 650T382 651Q342 651 313 643T267 613T242 550L236 509Q235 501 234 495T233 481Q233
445 254 431T318 416H400Q486 416 528 379T571 275Q571 257 568 235L558 167Q548 103 517 65T432 11T302 -6Z" />
<glyph unicode="%" horiz-adv-x="960" d="M219 0L781 732H848L290 0H219ZM229 349Q167 349 141 372T115 441Q115 459 118 479L138 602Q148 666 182 699T292 732H393Q455 732 481 709T507 640Q507 632 507 623T504 602L484 479Q474 415 440 382T330 349H229ZM251
414H329Q373 414 393 431T421 492L436 589Q438 597 438 603T438 616Q438 644 423 655T371 667H292Q253 667 231 653T201 589L185 492Q184 485 184 479T183 466Q183 437 199 426T251 414ZM684 3Q623 3 597 26T571 95Q571 112 574 133L594 256Q604 320 637 353T747
386H849Q911 386 937 363T963 294Q963 286 963 277T960 256L940 133Q930 69 896 36T786 3H684ZM707 68H785Q828 68 849 85T877 146L892 243Q894 251 894 257T895 270Q895 298 879 309T827 321H749Q709 321 687 307T657 243L641 146Q640 139 640 133T639 120Q639
91 655 80T707 68Z" />
<glyph unicode="&amp;" horiz-adv-x="681" d="M226 -6Q151 -6 105 39T59 159Q59 213 73 254T118 329T198 392L269 433L255 458Q237 492 231 521T224 576Q224 624 246 659T314 715T426 735Q461 735 489 733T541 726T582 719L570 646H430Q380 646 352 628T323 567Q323
547 331 523T356 468L498 222L668 359L697 315L617 214L542 150L630 0H525L465 99L425 69Q372 26 325 10T226 -6ZM256 87Q286 87 318 97T387 139L422 167L306 364L260 338Q221 316 200 293T170 243T162 182Q162 139 187 113T256 87Z" />
<glyph unicode="&apos;" horiz-adv-x="177" d="M127 504L146 682L156 749H254L244 682L208 504H127Z" />
<glyph unicode="(" horiz-adv-x="359" d="M214 -210Q183 -158 161 -99T126 28T114 173Q114 246 126 321T163 472T220 617T295 748T383 860H475Q417 792 370 711T288 541T234 360T215 182Q215 75 238 -21T306 -210H214Z" />
<glyph unicode=")" horiz-adv-x="359" d="M-13 -210Q46 -137 94 -54T176 117T228 296T247 474Q247 578 225 670T156 860H248Q280 805 302 747T337 623T349 481Q349 408 336 333T300 185T243 41T169 -92T79 -210H-13Z" />
<glyph unicode="*" horiz-adv-x="453" d="M365 517L335 561L464 643L482 610L365 517ZM386 410L274 479L311 527L414 441L386 410ZM204 401L169 413L219 549L273 536L204 401ZM129 580L135 620L278 630L272 575L129 580ZM314 589L286 723L325 735L369 610L314 589Z" />
<glyph unicode="+" horiz-adv-x="609" d="M284 132L354 580H437L367 132H284ZM130 315L143 397H591L578 315H130Z" />
<glyph unicode="," horiz-adv-x="210" d="M82 -82Q69 -82 60 -80T51 -77L56 -46Q68 -46 74 -42T81 -28L87 6H78Q63 6 63 21Q63 23 63 26T65 33L76 101Q78 121 97 121H152Q167 121 167 107Q167 105 167 101T165 93L146 -25Q142 -49 132 -61T108 -78T82 -82Z" />
<glyph unicode="-" horiz-adv-x="341" d="M62 249L75 331H372L359 249H62Z" />
<glyph unicode="." horiz-adv-x="210" d="M77 -1Q62 -1 62 13Q62 14 62 14T62 16L76 103Q78 121 96 121H153Q168 121 168 108Q168 107 168 106T168 103L154 16Q153 7 148 3T134 -1H77Z" />
<glyph unicode="/" horiz-adv-x="421" d="M9 -72L423 770H523L109 -72H9Z" />
<glyph unicode="0" horiz-adv-x="653" d="M255 -3Q207 -3 171 12T114 58T94 136Q94 145 95 155T98 177L158 558Q168 619 198 660T273 722T374 743H521Q601 743 638 705T675 603Q675 592 674 581T671 558L611 177Q597 86 541 42T402 -3H255ZM291 88H392Q447 88
476 115T513 191L569 549Q571 557 571 563T571 576Q571 615 549 634T485 653H377Q329 653 297 626T257 549L201 191Q200 185 199 179T198 167Q198 127 222 108T291 88Z" />
<glyph unicode="1" horiz-adv-x="365" d="M185 0L287 644L136 606L146 670L312 737H403L286 0H185Z" />
<glyph unicode="2" horiz-adv-x="591" d="M52 0L64 81L359 338Q435 404 469 460T503 562Q503 588 492 607T455 637T383 648H177L190 726Q235 732 290 737T407 743Q480 743 523 723T584 669T603 589Q603 520 564 446T434 292L206 92H562L547 0H52Z" />
<glyph unicode="3" horiz-adv-x="583" d="M313 -6Q233 -6 164 -2T43 9L55 84H292Q334 84 366 92T420 123T448 186Q453 211 455 225T457 245Q457 274 441 292T398 319T341 329L166 336L178 407L362 415Q413 417 447 438T489 504Q493 530 494 542T496 559T497 567Q497
611 465 632T375 653H167L179 727Q227 734 288 738T421 743Q481 743 520 728T580 682T601 603Q601 598 601 590T598 562T589 507Q584 474 571 451T539 411T502 385T465 371Q480 368 496 359T526 336T548 300T557 251Q557 241 555 222T547 170Q533 84 472 39T313
-6Z" />
<glyph unicode="4" horiz-adv-x="602" d="M386 1L415 178H75L61 230L408 737H511L185 264H428L456 445L489 518H568L528 264H621L610 195L515 178L487 1H386Z" />
<glyph unicode="5" horiz-adv-x="623" d="M329 -5Q268 -5 206 -2T93 7L106 86H347Q389 86 420 99T471 138T496 195L507 267Q509 274 509 281T510 293Q510 330 487 350T415 371H343Q301 371 275 353T237 296H141L231 737H657L642 647H312L264 411Q279 430 308 443T376
457H462Q538 457 575 419T613 321Q613 312 613 303T611 284L593 175Q584 114 549 74T458 15T329 -5Z" />
<glyph unicode="6" horiz-adv-x="618" d="M273 -3Q222 -3 185 15T128 78T108 207Q108 294 120 374T157 521T222 637T319 715T449 743Q494 743 543 740T632 731L619 653H440Q388 653 346 626T274 546T231 412Q259 417 293 420T361 424T425 425Q485 425 525 413T585
374T606 304Q606 295 605 286T602 266L585 162Q576 101 548 65T477 13T385 -3H273ZM306 87H379Q406 87 428 95T467 123T488 179L499 248Q501 255 501 261T502 273Q502 300 488 314T449 333T386 339H219Q214 302 211 272T208 217Q208 167 219 139T252 99T306 87Z"
/>
<glyph unicode="7" horiz-adv-x="547" d="M138 0L489 636H136L152 737H604L626 689L256 0H138Z" />
<glyph unicode="8" horiz-adv-x="638" d="M253 -3Q194 -3 159 12T109 53T94 111Q94 120 95 128T97 145L114 252Q120 286 137 311T177 353T224 374Q192 390 179 414T165 466Q165 475 166 484T169 504L182 589Q191 648 218 681T286 728T372 742H517Q581 742 614
717T647 632Q647 622 646 612T643 589L630 504Q627 488 621 470T603 434T575 403T539 385Q576 377 592 350T608 289Q608 280 607 273T605 257L588 148Q579 91 553 59T486 12T397 -3H253ZM287 83H385Q435 83 459 103T490 164L503 248Q504 255 504 260T505 271Q505
303 486 318T421 333H326Q311 333 293 329T259 314T231 288T214 248L201 164Q200 159 200 155T199 146Q199 112 223 98T287 83ZM340 419H434Q467 419 487 431T518 463T532 503L541 566Q543 574 543 581T544 595Q544 630 527 643T476 656H378Q332 656 309 636T276
566L267 503Q266 498 266 493T265 482Q265 453 283 436T340 419Z" />
<glyph unicode="9" horiz-adv-x="618" d="M461 741Q513 741 549 723T606 660T626 531Q626 444 614 364T577 217T512 101T416 23T285 -5Q241 -5 191 -2T103 7L115 86H295Q347 86 389 112T461 192T504 326Q475 321 441 318T373 314T310 313Q250 313 210 325T150
364T129 434Q129 443 130 452T133 472L149 577Q159 637 187 673T258 725T349 741H461ZM429 651H356Q329 651 306 643T268 615T246 559L235 490Q234 483 234 477T233 465Q233 438 247 424T286 405T349 399H515Q521 436 524 466T527 521Q527 571 516 599T482 639T429
651Z" />
<glyph unicode=":" horiz-adv-x="210" d="M77 -1Q62 -1 62 13Q62 14 62 14T62 16L76 103Q78 121 96 121H153Q168 121 168 108Q168 107 168 106T168 103L154 16Q153 7 148 3T134 -1H77ZM143 414Q128 414 128 428Q128 429 128 429T128 431L142 518Q144 536 162 536H219Q234
536 234 523Q234 522 234 521T234 518L220 431Q219 422 214 418T200 414H143Z" />
<glyph unicode=";" horiz-adv-x="210" d="M143 414Q128 414 128 428Q128 429 128 429T128 431L142 518Q144 536 162 536H219Q234 536 234 523Q234 522 234 521T234 518L220 431Q219 422 214 418T200 414H143ZM82 -82Q69 -82 60 -80T51 -77L56 -46Q68 -46 74 -42T81
-28L87 6H78Q63 6 63 21Q63 23 63 26T65 33L76 101Q78 121 97 121H152Q167 121 167 107Q167 105 167 101T165 93L146 -25Q142 -49 132 -61T108 -78T82 -82Z" />
<glyph unicode="&lt;" horiz-adv-x="609" d="M527 168L134 304L148 394L584 528L570 440L237 350L541 256L527 168Z" />
<glyph unicode="=" horiz-adv-x="609" d="M367 451L381 533H829L815 451H367ZM149 435L163 517H611L597 435H149Z" />
<glyph unicode="&gt;" horiz-adv-x="609" d="M131 168L145 256L478 351L174 440L188 528L582 394L568 304L131 168Z" />
<glyph unicode="?" horiz-adv-x="530" d="M195 200L222 370H278Q326 370 358 379T408 411T433 474L441 525Q443 536 443 545T444 562Q444 609 416 629T331 649Q283 649 238 640T141 612L153 684Q206 711 261 725T377 739Q466 739 507 699T548 591Q548 567 544
539L533 472Q519 382 460 337T286 292L272 200H195ZM176 -1Q161 -1 161 13Q161 14 161 14T161 16L175 103Q178 121 196 121H253Q267 121 267 108Q267 107 267 106T267 103L253 16Q252 7 247 3T233 -1H176Z" />
<glyph unicode="@" horiz-adv-x="919" d="M238 -188Q173 -188 132 -165T72 -103T53 -16Q53 -4 54 7T57 32L136 521Q144 572 162 608T211 669T284 705T381 717H758Q816 717 853 697T910 639T929 553Q929 525 924 494L877 181Q873 150 859 118T820 59T758 16T669
0H601L587 58Q577 47 558 35T514 14T462 0T409 -6Q368 -6 333 12T277 71T256 182Q256 297 293 377T393 499T528 541Q590 541 641 524T727 475L666 69Q684 69 704 72T744 88T778 124T799 190L846 503Q848 515 849 525T850 546Q850 600 818 621T737 643H367Q313 643
281 623T234 571T213 503L136 23Q133 6 133 -10Q133 -58 162 -86T246 -114H631L622 -170Q597 -174 553 -178T452 -185T331 -188H238ZM433 73Q472 73 515 83T595 124L642 438Q608 453 580 458T523 464Q470 464 428 432T360 339T335 193Q335 148 348 122T383 85T433
73Z" />
<glyph unicode="A" horiz-adv-x="682" d="M31 0L398 737H526L652 0H548L515 193H231L135 0H31ZM270 283H504L447 648L270 283Z" />
<glyph unicode="B" horiz-adv-x="620" d="M70 0L186 737H452Q519 737 559 719T616 669T633 592Q633 579 632 567T629 541Q619 478 582 438T493 385Q520 378 544 360T584 312T600 236Q600 226 600 212T594 177Q578 87 517 44T345 0H70ZM184 90H359Q405 90 433 104T478
145T502 210Q504 220 504 229T505 245Q505 291 477 316T398 341H224L184 90ZM236 420H409Q461 420 489 448T528 523Q531 536 532 546T534 567Q534 610 508 628T431 647H272L236 420Z" />
<glyph unicode="C" horiz-adv-x="590" d="M323 -6Q208 -6 155 56T101 232Q101 268 105 308T116 386Q134 502 170 581T267 702T419 743Q499 743 555 732T648 709L635 631Q589 640 539 646T434 653Q388 653 353 639T292 591T248 503T215 366Q210 331 206 295T202
231Q202 154 235 119T349 84Q421 84 464 87T550 97L537 19Q488 5 432 0T323 -6Z" />
<glyph unicode="D" horiz-adv-x="678" d="M69 0L186 737H455Q546 737 597 707T669 619T690 480Q690 449 687 416T679 350Q666 267 640 202T572 92T473 24T339 0H69ZM184 90H348Q401 90 440 110T506 168T551 256T579 369Q584 402 587 430T590 478Q590 535 576 572T527
628T431 647H271L184 90Z" />
<glyph unicode="E" horiz-adv-x="583" d="M232 -6Q205 -6 178 -1T128 21T95 69T92 148L161 584Q170 643 196 676T260 724T339 737Q414 736 488 734T639 727L626 644H351Q312 644 289 625T258 559L235 413L543 405L530 327L220 322L196 170Q192 138 200 120T226
95T270 88H539L526 5Q455 2 382 -1T232 -6Z" />
<glyph unicode="F" horiz-adv-x="557" d="M69 0L161 582Q171 646 198 679T262 725T338 737Q419 736 492 734T638 726L625 644H349Q308 644 287 624T258 560L232 399L541 392L528 314L219 308L169 0H69Z" />
<glyph unicode="G" horiz-adv-x="650" d="M291 -6Q187 -6 144 49T100 223Q100 263 104 305T116 392Q134 503 172 582T273 702T429 744Q515 744 571 735T672 711L660 634Q622 642 567 648T438 654Q367 654 323 623T255 528T215 368Q202 283 202 227Q202 156 230
122T325 87Q347 87 373 90T426 99T473 110T507 120L538 316H374L387 395Q413 398 455 400T555 402Q569 402 586 402T620 401T649 400L585 0H511L504 51Q490 44 466 34T411 15T349 0T291 -6Z" />
<glyph unicode="H" horiz-adv-x="674" d="M69 0L186 737H286L234 406H573L626 737H727L610 0H509L559 316H219L169 0H69Z" />
<glyph unicode="I" horiz-adv-x="238" d="M69 0L186 737H286L169 0H69Z" />
<glyph unicode="J" horiz-adv-x="363" d="M142 -6Q110 -6 81 1T32 17L45 96Q65 90 86 88T127 86Q176 86 204 112T241 195L327 737H428L339 176Q323 79 276 37T142 -6Z" />
<glyph unicode="K" horiz-adv-x="611" d="M69 0L186 737H286L235 415H355L589 737H693L429 368L591 0H490L346 324H220L169 0H69Z" />
<glyph unicode="L" horiz-adv-x="526" d="M225 0Q164 0 128 26T91 118Q91 128 92 138T94 159L186 737H286L196 171Q195 164 195 159T194 146Q194 113 213 102T264 90H518L503 0H225Z" />
<glyph unicode="M" horiz-adv-x="831" d="M53 0L256 737H350L446 127L736 737H829L799 0H701L726 555L473 0H379L301 551L153 0H53Z" />
<glyph unicode="N" horiz-adv-x="676" d="M69 0L186 737H267L538 171L628 737H729L612 0H530L259 567L169 0H69Z" />
<glyph unicode="O" horiz-adv-x="690" d="M342 -6Q287 -6 242 3T165 36T116 104T99 217Q99 252 103 293T114 382Q132 490 159 560T229 670T328 726T463 743Q517 743 561 734T638 698T688 627T706 510Q706 477 702 435T690 346Q673 236 645 167T575 60T476 8T342
-6ZM359 85Q411 85 449 97T513 140T558 224T590 361Q597 406 601 444T605 509Q605 570 587 600T534 642T448 653Q398 653 360 641T295 598T248 511T215 366Q208 323 204 286T199 222Q199 166 216 136T268 96T359 85Z" />
<glyph unicode="P" horiz-adv-x="603" d="M69 0L186 737H470Q519 737 559 721T622 667T646 559Q646 545 644 524T638 486Q628 419 605 375T550 306T482 269T409 258Q360 258 306 262T212 272L169 0H69ZM224 349H397Q431 349 460 363T509 410T538 496Q540 510 542
526T544 550Q544 603 520 625T450 647H271L224 349Z" />
<glyph unicode="Q" horiz-adv-x="690" d="M490 -178Q445 -178 409 -164T352 -119T329 -37H398Q405 -75 427 -90T490 -106Q509 -106 528 -103T565 -95L553 -171Q525 -178 490 -178ZM342 -6Q287 -6 242 3T165 36T116 104T99 217Q99 252 103 293T114 382Q132 490
159 560T229 670T328 726T463 743Q517 743 561 734T638 698T688 627T706 510Q706 477 702 435T690 346Q673 236 645 167T575 60T476 8T342 -6ZM359 85Q411 85 449 97T513 140T558 224T590 361Q597 406 601 444T605 509Q605 570 587 600T534 642T448 653Q398 653
360 641T295 598T248 511T215 366Q208 323 204 286T199 222Q199 166 216 136T268 96T359 85Z" />
<glyph unicode="R" horiz-adv-x="622" d="M69 0L186 737H458Q495 737 528 729T587 701T628 648T643 563Q643 549 642 534T637 502Q628 446 610 410T568 354T520 324T477 309L575 0H473L384 294Q369 294 348 294T302 295T256 296T216 297L169 0H69ZM229 375H398Q434
375 461 386T508 425T536 509Q538 521 538 531T539 550Q539 589 525 609T488 638T438 647H271L229 375Z" />
<glyph unicode="S" horiz-adv-x="570" d="M302 -6Q258 -6 214 -3T133 4T69 14L81 92Q124 88 184 86T303 84Q349 84 383 92T437 122T464 184L471 225Q472 233 472 239T473 252Q473 288 450 304T375 321H295Q218 321 177 356T135 458Q135 477 138 498L148 560Q159
632 191 671T275 727T392 743Q413 743 441 742T499 737T559 730T612 721L600 643Q566 646 526 647T448 650T382 651Q342 651 313 643T267 613T242 550L236 509Q235 501 234 495T233 481Q233 445 254 431T318 416H400Q486 416 528 379T571 275Q571 257 568 235L558
167Q548 103 517 65T432 11T302 -6Z" />
<glyph unicode="T" horiz-adv-x="607" d="M248 0L350 647H128L142 737H688L673 647H451L349 0H248Z" />
<glyph unicode="U" horiz-adv-x="680" d="M341 -6Q227 -6 168 42T109 205Q109 231 112 265T122 334L186 737H286L220 320Q216 290 213 262T209 212Q209 142 244 113T352 84Q395 84 428 93T487 126T531 197T562 320L628 737H728L660 306Q644 206 616 144T548 50T457
6T341 -6Z" />
<glyph unicode="V" horiz-adv-x="683" d="M274 0L148 737H252L355 109L665 737H768L402 0H274Z" />
<glyph unicode="W" horiz-adv-x="1012" d="M236 0L148 737H253L323 145L565 737H662L710 145L975 737H1079L752 0H646L591 590L342 0H236Z" />
<glyph unicode="X" horiz-adv-x="628" d="M491 0L336 332L143 737H254L411 398L601 0H491ZM30 0L332 394L372 305L143 0H30ZM411 337L372 423L609 737H723L411 337Z" />
<glyph unicode="Y" horiz-adv-x="622" d="M252 0L289 233L138 737H248L356 344L603 737H717L390 233L353 0H252Z" />
<glyph unicode="Z" horiz-adv-x="562" d="M38 0L52 86L501 647H140L155 737H631L617 651L168 90H538L524 0H38Z" />
<glyph unicode="[" horiz-adv-x="335" d="M215 -210Q159 -210 130 -189T89 -136T78 -70Q78 -56 79 -42T82 -15L189 656Q194 692 207 724T242 784T298 826T381 842H449L436 761H395Q356 761 327 734T287 643L183 -11Q182 -20 181 -29T180 -47Q180 -85 198 -107T254
-129H295L283 -210H215Z" />
<glyph unicode="\" horiz-adv-x="421" d="M290 -72L142 770H242L390 -72H290Z" />
<glyph unicode="]" horiz-adv-x="335" d="M-13 -210L-1 -129H40Q72 -129 94 -115T129 -73T148 -11L252 643Q254 654 254 663T255 680Q255 723 235 742T181 761H140L153 842H221Q273 842 303 824T346 776T359 708Q359 695 358 682T355 656L248 -15Q244 -44 233
-78T200 -142T144 -191T55 -210H-13Z" />
<glyph unicode="^" horiz-adv-x="394" d="M134 531L273 666H343L429 531H369L298 617L194 531H134Z" />
<glyph unicode="_" horiz-adv-x="609" d="M-27 -173L-14 -90H595L582 -173H-27Z" />
<glyph unicode="`" horiz-adv-x="220" d="M242 631L142 769H225L301 631H242Z" />
<glyph unicode="a" horiz-adv-x="566" d="M234 -6Q191 -6 156 12T101 71T80 176Q80 203 83 232T91 282Q104 370 137 427T226 513T368 541Q407 541 447 534T521 514T579 480L503 0H416L412 56Q398 45 369 31T304 5T234 -6ZM278 76Q321 76 355 90T422 121L471 434Q458
442 430 450T363 459Q307 459 273 439T219 377T189 272Q185 247 183 227T180 193Q180 136 206 106T278 76Z" />
<glyph unicode="b" horiz-adv-x="574" d="M345 -6Q313 -6 281 2T222 23T173 53L151 0H64L185 763H285L242 491Q284 515 331 528T412 541Q486 541 531 495T577 359Q577 336 574 305T565 240Q553 164 524 109T450 24T345 -6ZM317 76Q381 76 417 123T469 266Q472
289 474 308T476 344Q476 407 449 433T381 459Q345 459 306 448T231 420L184 117Q209 101 241 89T317 76Z" />
<glyph unicode="c" horiz-adv-x="479" d="M273 -6Q216 -6 173 11T106 71T82 191Q82 209 85 233T92 285Q106 378 140 434T225 515T340 541Q380 541 428 535T517 521L507 462H360Q314 462 281 444T224 382T189 266Q186 244 184 228T182 199Q182 150 196 122T237
83T304 71H456L447 14Q414 5 372 0T273 -6Z" />
<glyph unicode="d" horiz-adv-x="569" d="M236 -6Q165 -6 124 40T82 174Q82 230 93 285Q108 364 134 421T214 509T360 541Q396 541 427 536T486 517L525 763H626L505 0H418L413 56Q392 40 364 26T303 3T236 -6ZM276 76Q319 76 355 89T423 121L473 434Q451 446
425 452T364 459Q311 459 277 441T223 380T190 267Q186 246 184 228T182 192Q182 149 195 124T229 87T276 76Z" />
<glyph unicode="e" horiz-adv-x="548" d="M298 -6Q221 -6 174 16T105 81T83 185Q83 215 86 242T93 295Q106 378 139 433T229 515T367 543Q409 543 444 536T506 511T547 465T563 392Q563 338 543 303T489 249T410 223T319 215Q275 215 240 219T185 229Q183 216
183 202T182 175Q182 120 217 95T335 70H500L491 10Q457 4 406 -1T298 -6ZM288 275Q345 275 385 284T446 317T468 382Q468 426 442 445T360 465Q306 465 272 444T219 382T192 283Q211 280 236 278T288 275Z" />
<glyph unicode="f" horiz-adv-x="378" d="M102 0L173 452H94L104 517L186 535L200 616Q205 647 215 674T245 723T296 757T373 769Q405 769 437 767T492 761L481 688H389Q356 688 338 677T310 645T296 591L287 535H439L426 452H274L203 0H102Z" />
<glyph unicode="g" horiz-adv-x="569" d="M188 -235L46 -227L57 -158H222Q265 -158 302 -148T364 -113T396 -47L413 56Q386 37 354 23T288 2T226 -6Q182 -6 150 16T99 79T81 173Q81 199 85 231T93 292Q104 359 126 406T183 483T265 526T371 541Q442 541 498 533T586
515L494 -62Q485 -116 459 -151T391 -206T298 -232T188 -235ZM273 76Q313 76 348 87T423 121L475 452Q448 455 421 456T366 459Q315 461 280 443T224 384T191 280Q187 250 185 230T182 189Q182 131 208 104T273 76Z" />
<glyph unicode="h" horiz-adv-x="580" d="M64 0L185 763H285L240 477Q278 504 330 523T444 542Q509 542 543 510T578 411Q578 387 574 356L517 0H417L471 343Q472 352 472 359T473 375Q473 418 451 435T389 452Q342 452 305 439T228 399L164 0H64Z" />
<glyph unicode="i" horiz-adv-x="227" d="M176 625Q169 625 165 630T162 642L175 726Q178 744 195 744H270Q278 744 281 739T283 726L270 642Q267 625 251 625H176ZM64 0L148 535H249L164 0H64Z" />
<glyph unicode="j" horiz-adv-x="227" d="M176 625Q169 625 165 630T162 642L175 726Q178 744 195 744H270Q278 744 281 739T283 726L270 642Q267 625 251 625H176ZM26 -237L148 535H249L163 -4Q154 -64 137 -124T99 -237H26Z" />
<glyph unicode="k" horiz-adv-x="538" d="M64 0L185 763H285L216 328Q272 333 318 355T398 421T452 535H552Q532 462 503 415T440 338T372 293L524 0H419L287 262Q267 257 244 254T204 251L164 0H64Z" />
<glyph unicode="l" horiz-adv-x="302" d="M222 0Q156 0 121 30T86 111Q86 131 88 149T93 184L185 763H285L198 215Q197 206 195 193T192 165T190 138Q190 106 205 94T247 78L295 72L283 0H222Z" />
<glyph unicode="m" horiz-adv-x="933" d="M64 0L148 535H230L240 477Q281 504 331 523T442 542Q497 542 527 522T574 462Q621 501 678 521T789 542Q861 542 896 510T931 413Q931 397 930 380T925 348L870 0H769L824 346Q826 352 826 359T827 374Q827 452 740 452Q693
452 654 436T574 393Q575 383 575 370T571 339L517 0H417L471 340Q472 351 473 358T474 375Q474 411 454 431T388 452Q339 452 303 437T228 399L164 0H64Z" />
<glyph unicode="n" horiz-adv-x="580" d="M64 0L148 535H230L240 477Q280 505 331 523T441 542Q489 542 519 526T564 482T578 418Q578 404 577 385T568 319L517 0H417L467 316Q471 344 472 355T474 375Q474 409 455 430T388 452Q341 452 305 438T228 399L164 0H64Z" />
<glyph unicode="o" horiz-adv-x="569" d="M284 -6Q221 -6 176 13T106 72T82 177Q82 203 84 227T90 276Q103 356 125 407T180 488T259 529T370 541Q447 541 491 520T552 457T570 351Q570 327 568 300T561 244Q546 146 513 92T424 16T284 -6ZM295 76Q332 76 359
83T405 110T437 166T461 260Q465 288 467 311T470 355Q470 413 444 437T355 461Q317 461 290 452T244 422T212 361T189 260Q185 237 184 218T182 181Q182 138 196 116T235 85T295 76Z" />
<glyph unicode="p" horiz-adv-x="567" d="M26 -237L146 521Q201 530 262 535T397 541Q486 541 528 495T570 355Q570 330 568 303T560 251Q547 168 516 111T433 24T311 -6Q270 -6 235 0T168 22L126 -237H26ZM301 80Q351 80 383 101T434 164T464 271Q466 286 468
304T471 339Q471 399 448 429T371 459L236 458L179 101Q203 94 221 89T257 82T301 80Z" />
<glyph unicode="q" horiz-adv-x="566" d="M365 -237L411 56Q370 26 319 10T226 -6Q156 -6 119 42T81 172Q81 198 84 225T91 282Q102 351 124 400T181 480T262 526T372 541Q431 541 490 534T585 515L465 -237H365ZM272 76Q312 76 348 89T422 121L474 452Q449 455
425 456T375 459Q315 461 278 441T221 379T190 273Q186 248 184 227T181 189Q181 134 206 105T272 76Z" />
<glyph unicode="r" horiz-adv-x="403" d="M64 0L149 535H236L239 468Q270 497 309 519T397 541Q416 541 431 540T459 534L444 433Q429 436 412 437T377 438Q330 438 293 423T226 389L165 0H64Z" />
<glyph unicode="s" horiz-adv-x="508" d="M271 -6Q244 -6 214 -5T154 -2T99 4T58 11L67 71H293Q334 71 359 85T390 132L396 165Q397 170 397 172T397 178Q397 225 336 225H243Q199 225 167 235T118 266T101 321Q101 331 102 342T105 365L112 406Q119 446 140 476T202
524T312 541Q341 541 378 539T452 532T514 523L503 463H293Q249 463 229 448T202 400L197 373Q195 363 195 357T194 344Q194 325 209 317T262 308H360Q419 308 455 281T491 204Q491 196 491 187T489 169L481 121Q470 51 415 23T271 -6Z" />
<glyph unicode="t" horiz-adv-x="392" d="M272 0Q201 0 165 29T129 116Q129 136 131 158T138 205L181 453H97L107 518L196 535L235 685H314L290 535H435L422 453H277L237 204Q235 191 233 174T230 141Q230 112 245 98T293 80L356 74L344 0H272Z" />
<glyph unicode="u" horiz-adv-x="580" d="M222 -6Q152 -6 119 27T86 119Q86 137 87 151T91 178L147 535H248L193 187Q192 180 192 173T191 158Q191 121 212 103T276 84Q323 84 360 98T437 135L500 535H601L516 0H429L425 57Q395 38 365 24T301 2T222 -6Z" />
<glyph unicode="v" horiz-adv-x="542" d="M202 0L91 535H194L275 97L437 405Q454 439 464 471T479 543H569Q568 497 552 451T512 361L316 0H202Z" />
<glyph unicode="w" horiz-adv-x="830" d="M187 0L91 535H194L263 98L444 535H514L591 97L729 421Q735 434 741 455T754 499T762 543H857Q857 517 851 488T835 432T815 382L632 0H525L457 374L294 0H187Z" />
<glyph unicode="x" horiz-adv-x="537" d="M412 0L276 233L102 535H204L350 285L515 0H412ZM22 0L274 295L302 203L127 0H22ZM345 233L309 317L485 535H595L345 233Z" />
<glyph unicode="y" horiz-adv-x="563" d="M97 -237V-164Q149 -152 197 -116T284 0Q247 4 221 16T179 56T156 131L96 535H199L246 152Q250 125 260 111T286 91T317 84L468 427Q478 452 487 482T499 543H590Q590 501 580 457T546 361L376 5Q336 -80 293 -130T202
-205T97 -237Z" />
<glyph unicode="z" horiz-adv-x="499" d="M50 1L61 74L403 453H108L121 535H531L520 460L178 82H471Q471 82 470 74T467 53T463 29T460 9T458 1H50Z" />
<glyph unicode="{" horiz-adv-x="312" d="M278 -210Q212 -210 174 -195T120 -153T104 -88Q104 -72 108 -38T120 38T135 121T147 192T152 231Q152 261 137 273T84 286L99 381Q116 383 134 388T167 407T185 445L219 656Q229 722 254 763T325 823T445 842L431 761Q398
761 376 752T339 716T316 637L284 429Q277 384 248 362T177 334Q216 328 236 307T256 254Q256 246 253 223T244 167T232 99T221 30T212 -26T208 -60Q208 -100 228 -116T290 -133L278 -210Z" />
<glyph unicode="|" horiz-adv-x="252" d="M74 -72L207 770H289L156 -72H74Z" />
<glyph unicode="}" horiz-adv-x="312" d="M-12 -210L0 -133Q36 -133 58 -122T94 -86T114 -23L153 222Q159 259 186 283T258 314Q223 318 202 336T180 390Q180 402 184 432T194 501T207 578T217 645T221 684Q221 727 201 744T142 761L155 842Q217 842 254 825T308
777T325 705Q325 700 322 679T315 627T305 562T295 496T287 442T284 414Q284 394 294 383T320 368T351 361L336 266Q305 266 281 252T250 202L212 -38Q206 -78 193 -110T154 -164T89 -198T-12 -210Z" />
<glyph unicode="~" horiz-adv-x="442" d="M369 536Q353 536 339 545T311 564T283 583T256 592Q228 592 204 580T151 549L143 584Q169 609 200 629T266 649Q281 649 295 641T324 621T352 602T377 593Q397 593 415 600T450 619T479 640L488 603Q463 578 434 557T369 536Z" />
<glyph unicode="&#xa0;" horiz-adv-x="241" />
<glyph unicode="&#xa1;" horiz-adv-x="268" d="M226 336L153 -200H53L152 336H226ZM249 537Q264 537 264 523Q264 522 264 522T264 520L250 434Q248 416 230 416H173Q158 416 158 429Q158 430 158 431T158 434L172 520Q173 530 179 533T192 537H249Z" />
<glyph unicode="&#xa2;" horiz-adv-x="487" d="M220 -88L233 -5Q188 -2 152 13T94 68T73 180Q73 256 91 321T143 433T222 508T321 536L335 625H393L379 535Q412 532 449 525T520 505L511 446Q488 451 447 455T350 459Q308 459 276 437T221 377T186 288T174 182Q174
137 187 114T225 81T285 72Q327 72 359 74T416 80T460 88L451 28Q407 11 370 5T292 -5L279 -88H220Z" />
<glyph unicode="&#xa3;" horiz-adv-x="609" d="M62 0L74 76L180 90L218 328L115 336L123 387L230 401L247 511Q261 599 294 648T380 719T504 740Q548 740 588 737T655 729L642 650H494Q453 650 424 640T376 602T349 521L330 401L533 392L524 336L318 328L280 90H563L549
0H62Z" />
<glyph unicode="&#xa4;" horiz-adv-x="609" d="M339 187Q297 187 264 207T211 260T191 334Q191 387 216 430T285 499T383 525Q426 525 459 505T512 451T532 378Q532 326 506 283T437 213T339 187ZM138 125L101 170L226 278L266 233L138 125ZM511 125L422 231L473
276L562 170L511 125ZM343 243Q380 243 410 258T458 303T476 373Q476 414 449 441T379 469Q343 469 314 453T266 408T248 339Q248 299 275 271T343 243ZM247 438L160 542L211 587L299 483L247 438ZM498 436L461 481L584 587L621 542L498 436Z" />
<glyph unicode="&#xa5;" horiz-adv-x="609" d="M101 260L110 316H561L553 260H101ZM81 130L90 186H541L532 130H81ZM236 0L273 233L121 737H231L339 344L586 737H701L373 233L336 0H236Z" />
<glyph unicode="&#xa6;" horiz-adv-x="252" d="M153 429L207 770H289L235 429H153ZM74 -72L126 256H208L156 -72H74Z" />
<glyph unicode="&#xa7;" horiz-adv-x="547" d="M315 -6Q292 -6 262 -6T200 -4T140 0T93 5L104 75H309Q349 75 370 83T401 104T414 136Q419 166 421 181T423 201Q423 218 410 224T357 230H239Q172 230 137 249T101 314Q101 320 102 328T104 347L111 388Q119 434
139 454T195 485Q170 496 161 515T151 559Q151 567 151 575T153 595L162 650Q170 695 192 724T253 769T351 784Q372 784 403 784T469 782T532 778T578 772L567 703H352Q325 703 305 698T273 678T256 636Q252 609 250 597T248 580Q248 558 264 551T312 544H440Q509
544 539 525T570 462Q570 448 567 431L559 383Q553 344 535 321T478 289Q504 281 514 264T524 223Q524 216 524 207T520 181L511 133Q504 80 478 50T411 7T315 -6ZM274 307H369Q405 307 422 310T448 325T460 363L468 410Q469 415 469 419T469 428Q469 450 455 458T406
466H299Q254 466 235 454T211 408L203 362Q202 359 202 356T202 349Q202 329 218 318T274 307Z" />
<glyph unicode="&#xa8;" horiz-adv-x="409" d="M375 648Q361 648 361 662Q361 663 361 667T365 689T375 749Q377 767 395 767H441Q456 767 456 753Q456 753 456 749T452 727T442 665Q440 648 422 648H375ZM172 648Q158 648 158 662Q158 663 158 667T162 689T172
749Q174 767 192 767H238Q253 767 253 753Q253 753 253 749T249 727T239 665Q237 648 219 648H172Z" />
<glyph unicode="&#xa9;" horiz-adv-x="832" d="M325 0Q268 0 227 22T158 81T117 168T104 270Q104 335 117 401T158 527T225 633T315 705T428 732H645Q716 732 761 701T827 618T848 499Q848 402 824 313T758 153T661 41T543 0H325ZM406 147Q373 147 345 159T299
202T282 290Q282 348 297 401T339 495T401 559T476 583Q496 583 525 581T588 575T647 563L639 516Q610 521 581 523T526 527T485 528Q453 528 427 509T382 458T353 386T343 302Q343 251 364 227T432 202Q480 202 522 206T597 218L591 171Q545 155 500 151T406 147ZM320
55H546Q595 55 638 89T717 182T772 321T792 490Q792 544 778 586T733 652T650 677H419Q368 677 321 646T238 559T181 431T160 278Q160 232 168 192T196 121T246 73T320 55Z" />
<glyph unicode="&#xaa;" horiz-adv-x="409" d="M82 261L90 311H429L421 261H82ZM216 356Q169 356 136 387T102 490Q102 509 105 531T110 568Q125 664 173 710T317 756Q363 756 407 745T479 711L423 360H349L345 400Q335 392 314 382T267 364T216 356ZM254 426Q283
426 307 435T353 457L388 671Q378 675 359 680T313 686Q274 686 250 672T214 631T193 561Q186 526 186 503Q186 466 203 446T254 426Z" />
<glyph unicode="&#xab;" horiz-adv-x="614" d="M269 64L84 281L333 493L377 441L188 280L328 116L269 64ZM519 64L334 281L583 493L627 441L438 280L578 116L519 64Z" />
<glyph unicode="&#xac;" horiz-adv-x="609" d="M477 195L522 479H604L559 195H477ZM149 435L163 517H611L597 435H149Z" />
<glyph unicode="&#xad;" horiz-adv-x="341" d="M62 249L75 331H372L359 249H62Z" />
<glyph unicode="&#xae;" horiz-adv-x="832" d="M325 0Q268 0 227 22T158 81T117 168T104 270Q104 335 117 401T158 527T225 633T315 705T428 732H645Q716 732 761 701T827 618T848 499Q848 402 824 313T758 153T661 41T543 0H325ZM287 153L355 580H537Q566 580
591 573T632 544T647 484Q647 447 633 414T594 359T536 330L606 153H548L481 331L375 334L346 153H287ZM320 55H546Q595 55 638 89T717 182T772 321T792 490Q792 544 778 586T733 652T650 677H419Q368 677 321 646T238 559T181 431T160 278Q160 232 168 192T196
121T246 73T320 55ZM382 377H506Q529 377 547 390T577 426T588 472Q588 502 572 513T530 525H406L382 377Z" />
<glyph unicode="&#xaf;" horiz-adv-x="369" d="M155 664L165 724H435L425 664H155Z" />
<glyph unicode="&#xb0;" horiz-adv-x="326" d="M242 492Q190 492 158 524T125 607Q125 651 144 686T198 743T285 764Q338 764 368 732T399 649Q399 605 381 569T328 513T242 492ZM249 539Q294 539 323 568T352 645Q352 677 332 697T277 717Q232 717 203 687T173
611Q173 579 194 559T249 539Z" />
<glyph unicode="&#xb1;" horiz-adv-x="609" d="M98 115L112 197H560L546 115H98ZM308 282L378 730H461L391 282H308ZM154 465L167 547H615L602 465H154Z" />
<glyph unicode="&#xb2;" horiz-adv-x="418" d="M102 355L112 419L306 585Q353 625 372 659T392 721Q392 744 376 757T315 771H182L192 833Q223 838 262 842T345 846Q418 846 448 820T478 749Q478 699 453 650T363 544L224 427H446L434 355H102Z" />
<glyph unicode="&#xb3;" horiz-adv-x="418" d="M282 351Q229 351 182 354T98 363L108 426H265Q293 426 313 431T345 448T361 482L365 507Q366 511 366 513T366 518Q366 535 357 545T333 560T301 565L177 570L187 631L309 636Q342 638 362 649T387 686L392 713Q392
716 392 718T392 724Q392 747 374 759T315 771H175L185 833Q224 839 267 842T359 846Q417 846 446 822T477 752Q477 747 477 741T475 728L469 690Q465 662 452 644T423 616T388 600Q403 596 416 587T439 561T448 521Q448 516 448 510T445 497L440 467Q431 410 390
381T282 351Z" />
<glyph unicode="&#xb4;" horiz-adv-x="220" d="M120 631L234 769H322L183 631H120Z" />
<glyph unicode="&#xb5;" horiz-adv-x="590" d="M259 -6Q225 -6 195 4T143 33T108 81T95 144Q95 155 96 164T98 184L153 535H254L199 185Q198 178 197 171T196 157Q196 114 221 99T287 83Q331 83 367 95T442 130L506 535H607L522 0H442L436 57Q399 29 355 12T259
-6ZM26 -269L106 235H207L127 -269H26Z" />
<glyph unicode="&#xb6;" horiz-adv-x="573" d="M223 -270L317 322Q309 317 288 313T238 309Q169 309 137 344T104 429Q104 437 105 445T108 467L129 597Q137 645 163 676T229 722T312 737H679L668 666H597L491 0H422L528 668H441L292 -270H223ZM260 378H326L372
668H306Q256 668 229 645T195 581L179 476Q177 466 176 459T175 447Q175 417 188 403T220 383T260 378Z" />
<glyph unicode="&#xb7;" horiz-adv-x="270" d="M136 337Q129 337 125 342T121 354L131 414Q133 432 151 432H208Q226 432 223 414L213 354Q212 345 207 341T193 337H136Z" />
<glyph unicode="&#xb8;" horiz-adv-x="254" d="M20 -192L26 -151L48 -148Q68 -146 81 -138T100 -119T106 -99Q106 -86 95 -77T52 -65L96 -53Q131 -53 150 -66T169 -109Q169 -127 157 -146T121 -179T57 -192H20ZM52 -65L116 15H163L98 -65H52Z" />
<glyph unicode="&#xb9;" horiz-adv-x="418" d="M232 355L298 774L187 752L196 804L318 847H391L313 355H232ZM117 355L129 427H439L427 355H117Z" />
<glyph unicode="&#xba;" horiz-adv-x="430" d="M82 261L90 311H429L421 261H82ZM256 356Q208 356 174 370T122 414T104 491Q104 510 105 528T110 564Q123 642 147 683T214 740T319 756Q379 756 411 741T458 694T472 615Q472 598 470 578T465 537Q454 466 429 427T362
372T256 356ZM266 426Q300 426 322 435T358 472T381 550Q384 571 385 587T386 617Q386 655 368 671T307 687Q272 687 250 677T215 638T193 556Q190 535 189 522T188 495Q189 468 198 453T224 432T266 426Z" />
<glyph unicode="&#xbb;" horiz-adv-x="614" d="M103 64L61 117L251 279L111 443L171 493L354 278L103 64ZM353 64L311 117L501 279L361 443L421 493L604 278L353 64Z" />
<glyph unicode="&#xbc;" horiz-adv-x="1150" d="M321 0L820 770H889L390 0H321ZM969 -33L987 77H763L753 117L978 453H1062L855 146H997L1015 255L1039 306H1104L1079 146H1137L1128 91L1069 77L1050 -33H969ZM237 355L303 774L192 752L201 804L323 847H396L318
355H237ZM122 355L134 427H444L432 355H122Z" />
<glyph unicode="&#xbd;" horiz-adv-x="1150" d="M321 0L820 770H889L390 0H321ZM756 -34L766 30L960 196Q1007 236 1026 270T1046 332Q1046 355 1030 368T969 382H836L846 444Q877 449 916 453T999 457Q1072 457 1102 431T1132 360Q1132 310 1107 261T1017 155L878
38H1100L1088 -34H756ZM237 355L303 774L192 752L201 804L323 847H396L318 355H237ZM122 355L134 427H444L432 355H122Z" />
<glyph unicode="&#xbe;" horiz-adv-x="1150" d="M321 0L820 770H889L390 0H321ZM969 -28L987 82H763L753 122L978 458H1062L855 151H997L1015 260L1039 311H1104L1079 151H1137L1128 96L1069 82L1050 -28H969ZM292 351Q239 351 192 354T108 363L118 426H275Q303
426 323 431T355 448T371 482L375 507Q376 511 376 513T376 518Q376 535 367 545T343 560T311 565L187 570L197 631L319 636Q352 638 372 649T397 686L402 713Q402 716 402 718T402 724Q402 747 384 759T325 771H185L195 833Q234 839 277 842T369 846Q427 846 456
822T487 752Q487 747 487 741T485 728L479 690Q475 662 462 644T433 616T398 600Q413 596 426 587T449 561T458 521Q458 516 458 510T455 497L450 467Q441 410 400 381T292 351Z" />
<glyph unicode="&#xbf;" horiz-adv-x="530" d="M410 336L383 166H327Q279 166 247 157T197 126T173 63L164 11Q163 1 162 -8T161 -26Q161 -72 189 -92T274 -112Q322 -112 367 -103T464 -76L452 -148Q400 -175 344 -189T229 -203Q139 -203 98 -163T57 -54Q57 -30
61 -3L73 64Q87 154 145 199T319 244L333 336H410ZM429 537Q444 537 444 523Q444 522 444 522T444 520L430 434Q428 416 410 416H353Q338 416 338 429Q338 430 338 431T338 434L352 520Q353 530 359 533T372 537H429Z" />
<glyph unicode="&#xc0;" horiz-adv-x="682" d="M31 0L398 737H526L652 0H548L515 193H231L135 0H31ZM270 283H504L447 648L270 283ZM455 791L355 929H438L514 791H455Z" />
<glyph unicode="&#xc1;" horiz-adv-x="682" d="M31 0L398 737H526L652 0H548L515 193H231L135 0H31ZM270 283H504L447 648L270 283ZM424 791L538 929H626L487 791H424Z" />
<glyph unicode="&#xc2;" horiz-adv-x="682" d="M31 0L398 737H526L652 0H548L515 193H231L135 0H31ZM270 283H504L447 648L270 283ZM307 791L446 928H516L602 791H542L472 882L367 791H307Z" />
<glyph unicode="&#xc3;" horiz-adv-x="682" d="M31 0L398 737H526L652 0H548L515 193H231L135 0H31ZM270 283H504L447 648L270 283ZM299 805Q313 867 345 891T415 915Q438 915 457 907T494 889T528 870T562 862Q586 862 602 877T623 919H674Q662 862 634 834T560
806Q538 806 519 814T482 832T447 851T412 859Q389 859 372 845T350 805H299Z" />
<glyph unicode="&#xc4;" horiz-adv-x="682" d="M31 0L398 737H526L652 0H548L515 193H231L135 0H31ZM270 283H504L447 648L270 283ZM532 808Q518 808 518 822Q518 823 518 827T522 849T532 909Q534 927 552 927H598Q613 927 613 913Q613 913 613 909T609 887T599
825Q597 808 579 808H532ZM329 808Q315 808 315 822Q315 823 315 827T319 849T329 909Q331 927 349 927H395Q410 927 410 913Q410 913 410 909T406 887T396 825Q394 808 376 808H329Z" />
<glyph unicode="&#xc5;" horiz-adv-x="682" d="M31 0L398 737H526L652 0H548L515 193H231L135 0H31ZM270 283H504L447 648L270 283ZM465 771Q420 771 391 791T362 863Q362 897 377 925T422 972T495 990Q540 990 568 969T596 898Q596 846 563 809T465 771ZM469
811Q510 811 528 836T547 896Q547 927 530 938T491 950Q449 950 430 924T410 864Q410 834 427 823T469 811Z" />
<glyph unicode="&#xc6;" horiz-adv-x="948" d="M637 -4Q604 -5 576 -1T527 16T497 52T491 113L502 192H269L121 0H19L444 573Q490 637 536 672T632 723T745 737Q805 736 877 734T1025 726L1011 644H748Q716 644 698 638T670 621T658 591T650 549L628 412L930 406L917
328L614 321L590 170Q584 133 596 116T629 95T671 90H924L911 8Q883 6 851 4T788 1T727 -1T674 -3T637 -4ZM329 278H516L567 601L329 278Z" />
<glyph unicode="&#xc7;" horiz-adv-x="590" d="M323 -6Q208 -6 155 56T101 232Q101 268 105 308T116 386Q134 502 170 581T267 702T419 743Q499 743 555 732T648 709L635 631Q589 640 539 646T434 653Q388 653 353 639T292 591T248 503T215 366Q210 331 206 295T202
231Q202 154 235 119T349 84Q421 84 464 87T550 97L537 19Q488 5 432 0T323 -6ZM210 -197L216 -156L238 -153Q258 -151 271 -143T290 -124T296 -104Q296 -91 285 -82T242 -70L286 -58Q321 -58 340 -71T359 -114Q359 -132 347 -151T311 -184T247 -197H210ZM242 -70L306
10H353L288 -70H242Z" />
<glyph unicode="&#xc8;" horiz-adv-x="583" d="M232 -6Q205 -6 178 -1T128 21T95 69T92 148L161 584Q170 643 196 676T260 724T339 737Q414 736 488 734T639 727L626 644H351Q312 644 289 625T258 559L235 413L543 405L530 327L220 322L196 170Q192 138 200 120T226
95T270 88H539L526 5Q455 2 382 -1T232 -6ZM416 791L316 929H399L475 791H416Z" />
<glyph unicode="&#xc9;" horiz-adv-x="583" d="M232 -6Q205 -6 178 -1T128 21T95 69T92 148L161 584Q170 643 196 676T260 724T339 737Q414 736 488 734T639 727L626 644H351Q312 644 289 625T258 559L235 413L543 405L530 327L220 322L196 170Q192 138 200 120T226
95T270 88H539L526 5Q455 2 382 -1T232 -6ZM385 791L499 929H587L448 791H385Z" />
<glyph unicode="&#xca;" horiz-adv-x="583" d="M232 -6Q205 -6 178 -1T128 21T95 69T92 148L161 584Q170 643 196 676T260 724T339 737Q414 736 488 734T639 727L626 644H351Q312 644 289 625T258 559L235 413L543 405L530 327L220 322L196 170Q192 138 200 120T226
95T270 88H539L526 5Q455 2 382 -1T232 -6ZM268 791L407 928H477L563 791H503L433 882L328 791H268Z" />
<glyph unicode="&#xcb;" horiz-adv-x="583" d="M232 -6Q205 -6 178 -1T128 21T95 69T92 148L161 584Q170 643 196 676T260 724T339 737Q414 736 488 734T639 727L626 644H351Q312 644 289 625T258 559L235 413L543 405L530 327L220 322L196 170Q192 138 200 120T226
95T270 88H539L526 5Q455 2 382 -1T232 -6ZM493 808Q479 808 479 822Q479 823 479 827T483 849T493 909Q495 927 513 927H559Q574 927 574 913Q574 913 574 909T570 887T560 825Q558 808 540 808H493ZM290 808Q276 808 276 822Q276 823 276 827T280 849T290 909Q292
927 310 927H356Q371 927 371 913Q371 913 371 909T367 887T357 825Q355 808 337 808H290Z" />
<glyph unicode="&#xcc;" horiz-adv-x="238" d="M69 0L186 737H286L169 0H69ZM234 791L134 929H217L293 791H234Z" />
<glyph unicode="&#xcd;" horiz-adv-x="238" d="M69 0L186 737H286L169 0H69ZM203 791L317 929H405L266 791H203Z" />
<glyph unicode="&#xce;" horiz-adv-x="238" d="M69 0L186 737H286L169 0H69ZM86 791L225 928H295L381 791H321L251 882L146 791H86Z" />
<glyph unicode="&#xcf;" horiz-adv-x="238" d="M69 0L186 737H286L169 0H69ZM311 808Q297 808 297 822Q297 823 297 827T301 849T311 909Q313 927 331 927H377Q392 927 392 913Q392 913 392 909T388 887T378 825Q376 808 358 808H311ZM108 808Q94 808 94 822Q94
823 94 827T98 849T108 909Q110 927 128 927H174Q189 927 189 913Q189 913 189 909T185 887T175 825Q173 808 155 808H108Z" />
<glyph unicode="&#xd0;" horiz-adv-x="678" d="M58 339L70 407H394L382 339H58ZM69 0L186 737H455Q546 737 597 707T669 619T690 480Q690 449 687 416T679 350Q666 267 640 202T572 92T473 24T339 0H69ZM184 90H348Q401 90 440 110T506 168T551 256T579 369Q584
402 587 430T590 478Q590 535 576 572T527 628T431 647H271L184 90Z" />
<glyph unicode="&#xd1;" horiz-adv-x="676" d="M69 0L186 737H267L538 171L628 737H729L612 0H530L259 567L169 0H69ZM286 805Q300 867 332 891T402 915Q425 915 444 907T481 889T515 870T549 862Q573 862 589 877T610 919H661Q649 862 621 834T547 806Q525 806
506 814T469 832T434 851T399 859Q376 859 359 845T337 805H286Z" />
<glyph unicode="&#xd2;" horiz-adv-x="690" d="M342 -6Q287 -6 242 3T165 36T116 104T99 217Q99 252 103 293T114 382Q132 490 159 560T229 670T328 726T463 743Q517 743 561 734T638 698T688 627T706 510Q706 477 702 435T690 346Q673 236 645 167T575 60T476
8T342 -6ZM359 85Q411 85 449 97T513 140T558 224T590 361Q597 406 601 444T605 509Q605 570 587 600T534 642T448 653Q398 653 360 641T295 598T248 511T215 366Q208 323 204 286T199 222Q199 166 216 136T268 96T359 85ZM462 791L362 929H445L521 791H462Z" />
<glyph unicode="&#xd3;" horiz-adv-x="690" d="M342 -6Q287 -6 242 3T165 36T116 104T99 217Q99 252 103 293T114 382Q132 490 159 560T229 670T328 726T463 743Q517 743 561 734T638 698T688 627T706 510Q706 477 702 435T690 346Q673 236 645 167T575 60T476
8T342 -6ZM359 85Q411 85 449 97T513 140T558 224T590 361Q597 406 601 444T605 509Q605 570 587 600T534 642T448 653Q398 653 360 641T295 598T248 511T215 366Q208 323 204 286T199 222Q199 166 216 136T268 96T359 85ZM431 791L545 929H633L494 791H431Z" />
<glyph unicode="&#xd4;" horiz-adv-x="690" d="M342 -6Q287 -6 242 3T165 36T116 104T99 217Q99 252 103 293T114 382Q132 490 159 560T229 670T328 726T463 743Q517 743 561 734T638 698T688 627T706 510Q706 477 702 435T690 346Q673 236 645 167T575 60T476
8T342 -6ZM359 85Q411 85 449 97T513 140T558 224T590 361Q597 406 601 444T605 509Q605 570 587 600T534 642T448 653Q398 653 360 641T295 598T248 511T215 366Q208 323 204 286T199 222Q199 166 216 136T268 96T359 85ZM314 791L453 928H523L609 791H549L479
882L374 791H314Z" />
<glyph unicode="&#xd5;" horiz-adv-x="690" d="M342 -6Q287 -6 242 3T165 36T116 104T99 217Q99 252 103 293T114 382Q132 490 159 560T229 670T328 726T463 743Q517 743 561 734T638 698T688 627T706 510Q706 477 702 435T690 346Q673 236 645 167T575 60T476
8T342 -6ZM359 85Q411 85 449 97T513 140T558 224T590 361Q597 406 601 444T605 509Q605 570 587 600T534 642T448 653Q398 653 360 641T295 598T248 511T215 366Q208 323 204 286T199 222Q199 166 216 136T268 96T359 85ZM307 805Q321 867 353 891T423 915Q446
915 465 907T502 889T536 870T570 862Q594 862 610 877T631 919H682Q670 862 642 834T568 806Q546 806 527 814T490 832T455 851T420 859Q397 859 380 845T358 805H307Z" />
<glyph unicode="&#xd6;" horiz-adv-x="690" d="M342 -6Q287 -6 242 3T165 36T116 104T99 217Q99 252 103 293T114 382Q132 490 159 560T229 670T328 726T463 743Q517 743 561 734T638 698T688 627T706 510Q706 477 702 435T690 346Q673 236 645 167T575 60T476
8T342 -6ZM359 85Q411 85 449 97T513 140T558 224T590 361Q597 406 601 444T605 509Q605 570 587 600T534 642T448 653Q398 653 360 641T295 598T248 511T215 366Q208 323 204 286T199 222Q199 166 216 136T268 96T359 85ZM539 808Q525 808 525 822Q525 823 525
827T529 849T539 909Q541 927 559 927H605Q620 927 620 913Q620 913 620 909T616 887T606 825Q604 808 586 808H539ZM336 808Q322 808 322 822Q322 823 322 827T326 849T336 909Q338 927 356 927H402Q417 927 417 913Q417 913 417 909T413 887T403 825Q401 808
383 808H336Z" />
<glyph unicode="&#xd7;" horiz-adv-x="609" d="M203 168L154 227L521 544L570 485L203 168ZM462 168L195 485L263 544L530 227L462 168Z" />
<glyph unicode="&#xd8;" horiz-adv-x="692" d="M51 0L695 737H756L113 0H51ZM342 -6Q287 -6 242 3T165 36T116 104T99 217Q99 252 103 293T114 382Q132 490 159 560T229 670T328 726T463 743Q517 743 561 734T638 698T688 627T706 510Q706 477 702 435T690 346Q673
236 645 167T575 60T476 8T342 -6ZM359 85Q411 85 449 97T513 140T558 224T590 361Q597 406 601 444T605 509Q605 570 587 600T534 642T448 653Q398 653 360 641T295 598T248 511T215 366Q208 323 204 286T199 222Q199 166 216 136T268 96T359 85Z" />
<glyph unicode="&#xd9;" horiz-adv-x="680" d="M341 -6Q227 -6 168 42T109 205Q109 231 112 265T122 334L186 737H286L220 320Q216 290 213 262T209 212Q209 142 244 113T352 84Q395 84 428 93T487 126T531 197T562 320L628 737H728L660 306Q644 206 616 144T548
50T457 6T341 -6ZM446 791L346 929H429L505 791H446Z" />
<glyph unicode="&#xda;" horiz-adv-x="680" d="M341 -6Q227 -6 168 42T109 205Q109 231 112 265T122 334L186 737H286L220 320Q216 290 213 262T209 212Q209 142 244 113T352 84Q395 84 428 93T487 126T531 197T562 320L628 737H728L660 306Q644 206 616 144T548
50T457 6T341 -6ZM415 791L529 929H617L478 791H415Z" />
<glyph unicode="&#xdb;" horiz-adv-x="680" d="M341 -6Q227 -6 168 42T109 205Q109 231 112 265T122 334L186 737H286L220 320Q216 290 213 262T209 212Q209 142 244 113T352 84Q395 84 428 93T487 126T531 197T562 320L628 737H728L660 306Q644 206 616 144T548
50T457 6T341 -6ZM298 791L437 928H507L593 791H533L463 882L358 791H298Z" />
<glyph unicode="&#xdc;" horiz-adv-x="680" d="M341 -6Q227 -6 168 42T109 205Q109 231 112 265T122 334L186 737H286L220 320Q216 290 213 262T209 212Q209 142 244 113T352 84Q395 84 428 93T487 126T531 197T562 320L628 737H728L660 306Q644 206 616 144T548
50T457 6T341 -6ZM523 808Q509 808 509 822Q509 823 509 827T513 849T523 909Q525 927 543 927H589Q604 927 604 913Q604 913 604 909T600 887T590 825Q588 808 570 808H523ZM320 808Q306 808 306 822Q306 823 306 827T310 849T320 909Q322 927 340 927H386Q401
927 401 913Q401 913 401 909T397 887T387 825Q385 808 367 808H320Z" />
<glyph unicode="&#xdd;" horiz-adv-x="622" d="M252 0L289 233L138 737H248L356 344L603 737H717L390 233L353 0H252ZM386 791L500 929H588L449 791H386Z" />
<glyph unicode="&#xde;" horiz-adv-x="556" d="M69 0L186 737H285L169 0H69ZM342 156Q299 156 256 161T173 171L185 247H331Q365 247 394 258T444 296T472 369Q474 383 475 398T477 422Q477 472 450 492T374 512H221L234 602H393Q446 602 488 587T555 535T580
432Q580 418 577 397T572 359Q562 299 539 260T484 198T415 166T342 156Z" />
<glyph unicode="&#xdf;" horiz-adv-x="590" d="M395 -6Q347 -6 305 -2T238 8L249 75Q278 74 312 73T384 71Q422 71 442 82T472 108T484 137Q486 149 487 157T488 171Q488 192 474 205T439 229T397 253T361 286T347 337Q347 367 362 394T400 445T445 493T482 542T498
595Q498 635 470 657T394 680Q330 680 294 644T243 519L160 0H60L148 559Q159 624 190 671T274 743T403 769Q470 769 511 747T572 688T591 610Q591 575 577 546T541 492T498 447T462 406T447 364Q447 343 461 330T496 304T537 279T572 245T586 192Q586 186 586
175T579 131Q572 92 554 66T511 23T455 1T395 -6Z" />
<glyph unicode="&#xe0;" horiz-adv-x="566" d="M234 -6Q191 -6 156 12T101 71T80 176Q80 203 83 232T91 282Q104 370 137 427T226 513T368 541Q407 541 447 534T521 514T579 480L503 0H416L412 56Q398 45 369 31T304 5T234 -6ZM278 76Q321 76 355 90T422 121L471
434Q458 442 430 450T363 459Q307 459 273 439T219 377T189 272Q185 247 183 227T180 193Q180 136 206 106T278 76ZM374 631L274 769H357L433 631H374Z" />
<glyph unicode="&#xe1;" horiz-adv-x="566" d="M234 -6Q191 -6 156 12T101 71T80 176Q80 203 83 232T91 282Q104 370 137 427T226 513T368 541Q407 541 447 534T521 514T579 480L503 0H416L412 56Q398 45 369 31T304 5T234 -6ZM278 76Q321 76 355 90T422 121L471
434Q458 442 430 450T363 459Q307 459 273 439T219 377T189 272Q185 247 183 227T180 193Q180 136 206 106T278 76ZM347 631L461 769H549L410 631H347Z" />
<glyph unicode="&#xe2;" horiz-adv-x="566" d="M234 -6Q191 -6 156 12T101 71T80 176Q80 203 83 232T91 282Q104 370 137 427T226 513T368 541Q407 541 447 534T521 514T579 480L503 0H416L412 56Q398 45 369 31T304 5T234 -6ZM278 76Q321 76 355 90T422 121L471
434Q458 442 430 450T363 459Q307 459 273 439T219 377T189 272Q185 247 183 227T180 193Q180 136 206 106T278 76ZM235 631L374 768H444L530 631H470L400 722L295 631H235Z" />
<glyph unicode="&#xe3;" horiz-adv-x="566" d="M234 -6Q191 -6 156 12T101 71T80 176Q80 203 83 232T91 282Q104 370 137 427T226 513T368 541Q407 541 447 534T521 514T579 480L503 0H416L412 56Q398 45 369 31T304 5T234 -6ZM278 76Q321 76 355 90T422 121L471
434Q458 442 430 450T363 459Q307 459 273 439T219 377T189 272Q185 247 183 227T180 193Q180 136 206 106T278 76ZM213 645Q227 707 259 731T329 755Q352 755 371 747T408 729T442 710T476 702Q500 702 516 717T537 759H588Q576 702 548 674T474 646Q452 646 433
654T396 672T361 691T326 699Q303 699 286 685T264 645H213Z" />
<glyph unicode="&#xe4;" horiz-adv-x="566" d="M234 -6Q191 -6 156 12T101 71T80 176Q80 203 83 232T91 282Q104 370 137 427T226 513T368 541Q407 541 447 534T521 514T579 480L503 0H416L412 56Q398 45 369 31T304 5T234 -6ZM278 76Q321 76 355 90T422 121L471
434Q458 442 430 450T363 459Q307 459 273 439T219 377T189 272Q185 247 183 227T180 193Q180 136 206 106T278 76ZM455 648Q441 648 441 662Q441 663 441 667T445 689T455 749Q457 767 475 767H521Q536 767 536 753Q536 753 536 749T532 727T522 665Q520 648 502
648H455ZM252 648Q238 648 238 662Q238 663 238 667T242 689T252 749Q254 767 272 767H318Q333 767 333 753Q333 753 333 749T329 727T319 665Q317 648 299 648H252Z" />
<glyph unicode="&#xe5;" horiz-adv-x="566" d="M234 -6Q191 -6 156 12T101 71T80 176Q80 203 83 232T91 282Q104 370 137 427T226 513T368 541Q407 541 447 534T521 514T579 480L503 0H416L412 56Q398 45 369 31T304 5T234 -6ZM278 76Q321 76 355 90T422 121L471
434Q458 442 430 450T363 459Q307 459 273 439T219 377T189 272Q185 247 183 227T180 193Q180 136 206 106T278 76ZM389 591Q344 591 315 611T286 683Q286 717 301 745T346 792T419 810Q464 810 492 789T520 718Q520 666 487 629T389 591ZM393 631Q434 631 452
656T471 716Q471 747 454 758T415 770Q373 770 354 744T334 684Q334 654 351 643T393 631Z" />
<glyph unicode="&#xe6;" horiz-adv-x="891" d="M233 -6Q190 -6 156 12T102 70T82 175Q82 261 100 328T154 443T242 516T364 541Q391 541 423 536T486 522T540 496Q554 508 574 517T617 531T662 540T703 543Q803 543 853 504T904 385Q904 333 878 295T800 236T672
215Q641 215 611 217T557 223T526 229Q523 212 523 202T522 178Q522 143 532 119T570 83T645 70H842L832 10Q802 5 765 2T688 -4T609 -6Q568 -6 535 4T479 34T446 79Q418 58 384 39T312 7T233 -6ZM270 77Q301 77 331 87T386 114T427 147Q426 156 425 167T424 189Q424
228 430 271T449 355T483 431Q467 439 437 449T372 459Q316 459 280 437T222 376T191 290T182 193Q182 139 203 108T270 77ZM645 275Q725 275 767 300T809 374Q809 417 783 441T708 465Q662 465 631 453T581 418T552 360T533 283Q535 282 551 280T592 277T645 275Z"
/>
<glyph unicode="&#xe7;" horiz-adv-x="479" d="M273 -6Q216 -6 173 11T106 71T82 191Q82 209 85 233T92 285Q106 378 140 434T225 515T340 541Q380 541 428 535T517 521L507 462H360Q314 462 281 444T224 382T189 266Q186 244 184 228T182 199Q182 150 196 122T237
83T304 71H456L447 14Q414 5 372 0T273 -6ZM140 59L146 100L168 103Q188 105 201 113T220 132T226 152Q226 165 215 174T172 186L216 198Q251 198 270 185T289 142Q289 124 277 105T241 72T177 59H140ZM172 186L236 266H283L218 186H172Z" />
<glyph unicode="&#xe8;" horiz-adv-x="548" d="M298 -6Q221 -6 174 16T105 81T83 185Q83 215 86 242T93 295Q106 378 139 433T229 515T367 543Q409 543 444 536T506 511T547 465T563 392Q563 338 543 303T489 249T410 223T319 215Q275 215 240 219T185 229Q183
216 183 202T182 175Q182 120 217 95T335 70H500L491 10Q457 4 406 -1T298 -6ZM288 275Q345 275 385 284T446 317T468 382Q468 426 442 445T360 465Q306 465 272 444T219 382T192 283Q211 280 236 278T288 275ZM372 631L272 769H355L431 631H372Z" />
<glyph unicode="&#xe9;" horiz-adv-x="548" d="M298 -6Q221 -6 174 16T105 81T83 185Q83 215 86 242T93 295Q106 378 139 433T229 515T367 543Q409 543 444 536T506 511T547 465T563 392Q563 338 543 303T489 249T410 223T319 215Q275 215 240 219T185 229Q183
216 183 202T182 175Q182 120 217 95T335 70H500L491 10Q457 4 406 -1T298 -6ZM288 275Q345 275 385 284T446 317T468 382Q468 426 442 445T360 465Q306 465 272 444T219 382T192 283Q211 280 236 278T288 275ZM346 631L460 769H548L409 631H346Z" />
<glyph unicode="&#xea;" horiz-adv-x="548" d="M298 -6Q221 -6 174 16T105 81T83 185Q83 215 86 242T93 295Q106 378 139 433T229 515T367 543Q409 543 444 536T506 511T547 465T563 392Q563 338 543 303T489 249T410 223T319 215Q275 215 240 219T185 229Q183
216 183 202T182 175Q182 120 217 95T335 70H500L491 10Q457 4 406 -1T298 -6ZM288 275Q345 275 385 284T446 317T468 382Q468 426 442 445T360 465Q306 465 272 444T219 382T192 283Q211 280 236 278T288 275ZM234 631L373 768H443L529 631H469L399 722L294 631H234Z"
/>
<glyph unicode="&#xeb;" horiz-adv-x="548" d="M298 -6Q221 -6 174 16T105 81T83 185Q83 215 86 242T93 295Q106 378 139 433T229 515T367 543Q409 543 444 536T506 511T547 465T563 392Q563 338 543 303T489 249T410 223T319 215Q275 215 240 219T185 229Q183
216 183 202T182 175Q182 120 217 95T335 70H500L491 10Q457 4 406 -1T298 -6ZM288 275Q345 275 385 284T446 317T468 382Q468 426 442 445T360 465Q306 465 272 444T219 382T192 283Q211 280 236 278T288 275ZM453 648Q439 648 439 662Q439 663 439 667T443 689T453
749Q455 767 473 767H519Q534 767 534 753Q534 753 534 749T530 727T520 665Q518 648 500 648H453ZM250 648Q236 648 236 662Q236 663 236 667T240 689T250 749Q252 767 270 767H316Q331 767 331 753Q331 753 331 749T327 727T317 665Q315 648 297 648H250Z" />
<glyph unicode="&#xec;" horiz-adv-x="228" d="M64 0L149 535H249L165 0H64ZM465 631L365 769H448L524 631H465Z" />
<glyph unicode="&#xed;" horiz-adv-x="228" d="M64 0L149 535H249L165 0H64ZM182 631L296 769H384L245 631H182Z" />
<glyph unicode="&#xee;" horiz-adv-x="228" d="M64 0L149 535H249L165 0H64ZM326 631L465 768H535L621 631H561L491 722L386 631H326Z" />
<glyph unicode="&#xef;" horiz-adv-x="228" d="M64 0L149 535H249L165 0H64ZM290 648Q276 648 276 662Q276 663 276 667T280 689T290 749Q292 767 310 767H356Q371 767 371 753Q371 753 371 749T367 727T357 665Q355 648 337 648H290ZM87 648Q73 648 73 662Q73
663 73 667T77 689T87 749Q89 767 107 767H153Q168 767 168 753Q168 753 168 749T164 727T154 665Q152 648 134 648H87Z" />
<glyph unicode="&#xf0;" horiz-adv-x="569" d="M89 267Q102 347 122 398T174 479T247 520T347 532Q403 532 444 512T507 454T529 364Q537 336 546 307T562 252Q547 150 514 94T424 16T284 -6Q221 -6 176 13T106 72T82 177Q82 200 83 222T89 267ZM188 251Q185 231
184 214T182 181Q182 138 196 116T235 85T295 76Q332 76 359 83T405 110T438 167T461 263Q465 288 467 309T469 349Q469 405 442 428T354 452Q316 452 289 443T242 413T211 352T188 251ZM238 763Q348 762 424 730T539 629T579 445Q579 403 575 355T562 252L485
300Q491 342 494 379T497 448Q497 541 466 594T374 671T227 695L238 763ZM611 758L620 724L263 585L253 619L611 758Z" />
<glyph unicode="&#xf1;" horiz-adv-x="580" d="M64 0L148 535H230L240 477Q280 505 331 523T441 542Q489 542 519 526T564 482T578 418Q578 404 577 385T568 319L517 0H417L467 316Q471 344 472 355T474 375Q474 409 455 430T388 452Q341 452 305 438T228 399L164
0H64ZM219 645Q233 707 265 731T335 755Q358 755 377 747T414 729T448 710T482 702Q506 702 522 717T543 759H594Q582 702 554 674T480 646Q458 646 439 654T402 672T367 691T332 699Q309 699 292 685T270 645H219Z" />
<glyph unicode="&#xf2;" horiz-adv-x="569" d="M284 -6Q221 -6 176 13T106 72T82 177Q82 203 84 227T90 276Q103 356 125 407T180 488T259 529T370 541Q447 541 491 520T552 457T570 351Q570 327 568 300T561 244Q546 146 513 92T424 16T284 -6ZM295 76Q332 76
359 83T405 110T437 166T461 260Q465 288 467 311T470 355Q470 413 444 437T355 461Q317 461 290 452T244 422T212 361T189 260Q185 237 184 218T182 181Q182 138 196 116T235 85T295 76ZM370 631L270 769H353L429 631H370Z" />
<glyph unicode="&#xf3;" horiz-adv-x="569" d="M284 -6Q221 -6 176 13T106 72T82 177Q82 203 84 227T90 276Q103 356 125 407T180 488T259 529T370 541Q447 541 491 520T552 457T570 351Q570 327 568 300T561 244Q546 146 513 92T424 16T284 -6ZM295 76Q332 76
359 83T405 110T437 166T461 260Q465 288 467 311T470 355Q470 413 444 437T355 461Q317 461 290 452T244 422T212 361T189 260Q185 237 184 218T182 181Q182 138 196 116T235 85T295 76ZM343 631L457 769H545L406 631H343Z" />
<glyph unicode="&#xf4;" horiz-adv-x="569" d="M284 -6Q221 -6 176 13T106 72T82 177Q82 203 84 227T90 276Q103 356 125 407T180 488T259 529T370 541Q447 541 491 520T552 457T570 351Q570 327 568 300T561 244Q546 146 513 92T424 16T284 -6ZM295 76Q332 76
359 83T405 110T437 166T461 260Q465 288 467 311T470 355Q470 413 444 437T355 461Q317 461 290 452T244 422T212 361T189 260Q185 237 184 218T182 181Q182 138 196 116T235 85T295 76ZM232 631L371 768H441L527 631H467L397 722L292 631H232Z" />
<glyph unicode="&#xf5;" horiz-adv-x="569" d="M284 -6Q221 -6 176 13T106 72T82 177Q82 203 84 227T90 276Q103 356 125 407T180 488T259 529T370 541Q447 541 491 520T552 457T570 351Q570 327 568 300T561 244Q546 146 513 92T424 16T284 -6ZM295 76Q332 76
359 83T405 110T437 166T461 260Q465 288 467 311T470 355Q470 413 444 437T355 461Q317 461 290 452T244 422T212 361T189 260Q185 237 184 218T182 181Q182 138 196 116T235 85T295 76ZM209 645Q223 707 255 731T325 755Q348 755 367 747T404 729T438 710T472
702Q496 702 512 717T533 759H584Q572 702 544 674T470 646Q448 646 429 654T392 672T357 691T322 699Q299 699 282 685T260 645H209Z" />
<glyph unicode="&#xf6;" horiz-adv-x="569" d="M284 -6Q221 -6 176 13T106 72T82 177Q82 203 84 227T90 276Q103 356 125 407T180 488T259 529T370 541Q447 541 491 520T552 457T570 351Q570 327 568 300T561 244Q546 146 513 92T424 16T284 -6ZM295 76Q332 76
359 83T405 110T437 166T461 260Q465 288 467 311T470 355Q470 413 444 437T355 461Q317 461 290 452T244 422T212 361T189 260Q185 237 184 218T182 181Q182 138 196 116T235 85T295 76ZM451 648Q437 648 437 662Q437 663 437 667T441 689T451 749Q453 767 471
767H517Q532 767 532 753Q532 753 532 749T528 727T518 665Q516 648 498 648H451ZM248 648Q234 648 234 662Q234 663 234 667T238 689T248 749Q250 767 268 767H314Q329 767 329 753Q329 753 329 749T325 727T315 665Q313 648 295 648H248Z" />
<glyph unicode="&#xf7;" horiz-adv-x="609" d="M293 101Q270 101 273 124L282 183Q287 208 310 208H367Q393 208 388 183L379 124Q377 111 369 106T350 101H293ZM357 504Q347 504 341 510T336 527L346 586Q349 611 374 611H431Q455 611 452 586L443 527Q441 514
433 509T414 504H357ZM130 315L144 397H592L578 315H130Z" />
<glyph unicode="&#xf8;" horiz-adv-x="566" d="M45 0L555 535H606L96 0H45ZM284 -6Q221 -6 176 13T106 72T82 177Q82 203 84 227T90 276Q103 356 125 407T180 488T259 529T370 541Q447 541 491 520T552 457T570 351Q570 327 568 300T561 244Q546 146 513 92T424
16T284 -6ZM295 76Q332 76 359 83T405 110T437 166T461 260Q465 288 467 311T470 355Q470 413 444 437T355 461Q317 461 290 452T244 422T212 361T189 260Q185 237 184 218T182 181Q182 138 196 116T235 85T295 76Z" />
<glyph unicode="&#xf9;" horiz-adv-x="580" d="M222 -6Q152 -6 119 27T86 119Q86 137 87 151T91 178L147 535H248L193 187Q192 180 192 173T191 158Q191 121 212 103T276 84Q323 84 360 98T437 135L500 535H601L516 0H429L425 57Q395 38 365 24T301 2T222 -6ZM384
631L284 769H367L443 631H384Z" />
<glyph unicode="&#xfa;" horiz-adv-x="580" d="M222 -6Q152 -6 119 27T86 119Q86 137 87 151T91 178L147 535H248L193 187Q192 180 192 173T191 158Q191 121 212 103T276 84Q323 84 360 98T437 135L500 535H601L516 0H429L425 57Q395 38 365 24T301 2T222 -6ZM357
631L471 769H559L420 631H357Z" />
<glyph unicode="&#xfb;" horiz-adv-x="580" d="M222 -6Q152 -6 119 27T86 119Q86 137 87 151T91 178L147 535H248L193 187Q192 180 192 173T191 158Q191 121 212 103T276 84Q323 84 360 98T437 135L500 535H601L516 0H429L425 57Q395 38 365 24T301 2T222 -6ZM246
631L385 768H455L541 631H481L411 722L306 631H246Z" />
<glyph unicode="&#xfc;" horiz-adv-x="580" d="M222 -6Q152 -6 119 27T86 119Q86 137 87 151T91 178L147 535H248L193 187Q192 180 192 173T191 158Q191 121 212 103T276 84Q323 84 360 98T437 135L500 535H601L516 0H429L425 57Q395 38 365 24T301 2T222 -6ZM465
648Q451 648 451 662Q451 663 451 667T455 689T465 749Q467 767 485 767H531Q546 767 546 753Q546 753 546 749T542 727T532 665Q530 648 512 648H465ZM262 648Q248 648 248 662Q248 663 248 667T252 689T262 749Q264 767 282 767H328Q343 767 343 753Q343 753
343 749T339 727T329 665Q327 648 309 648H262Z" />
<glyph unicode="&#xfd;" horiz-adv-x="563" d="M97 -237V-164Q149 -152 197 -116T284 0Q247 4 221 16T179 56T156 131L96 535H199L246 152Q250 125 260 111T286 91T317 84L468 427Q478 452 487 482T499 543H590Q590 501 580 457T546 361L376 5Q336 -80 293 -130T202
-205T97 -237ZM327 631L441 769H529L390 631H327Z" />
<glyph unicode="&#xfe;" horiz-adv-x="569" d="M25 -237L184 763H285L249 536Q278 538 315 539T398 541Q486 541 528 495T570 355Q570 330 568 303T560 251Q547 168 516 111T434 24T311 -6Q270 -6 234 0T168 22L126 -237H25ZM300 80Q350 80 382 101T434 164T464
271Q466 286 468 304T471 339Q471 398 447 428T371 459L236 458L180 101Q203 94 221 89T257 82T300 80Z" />
<glyph unicode="&#xff;" horiz-adv-x="563" d="M97 -237V-164Q149 -152 197 -116T284 0Q247 4 221 16T179 56T156 131L96 535H199L246 152Q250 125 260 111T286 91T317 84L468 427Q478 452 487 482T499 543H590Q590 501 580 457T546 361L376 5Q336 -80 293 -130T202
-205T97 -237ZM434 648Q420 648 420 662Q420 663 420 667T424 689T434 749Q436 767 454 767H500Q515 767 515 753Q515 753 515 749T511 727T501 665Q499 648 481 648H434ZM231 648Q217 648 217 662Q217 663 217 667T221 689T231 749Q233 767 251 767H297Q312 767
312 753Q312 753 312 749T308 727T298 665Q296 648 278 648H231Z" />
<glyph unicode="&#x2013;" horiz-adv-x="521" d="M63 248L76 331H549L536 248H63Z" />
<glyph unicode="&#x2014;" horiz-adv-x="744" d="M63 248L76 331H772L759 248H63Z" />
<glyph unicode="&#x2018;" horiz-adv-x="198" d="M147 515Q133 515 133 530Q133 532 133 533T134 536L157 682Q162 711 175 725T206 744T236 749Q245 749 250 749T260 747L254 710Q239 710 234 703T226 686L219 642H228Q244 642 244 627Q244 626 244 625T244 622L230
536Q227 515 208 515H147Z" />
<glyph unicode="&#x2019;" horiz-adv-x="198" d="M157 515Q149 515 144 515T134 518L140 554Q156 554 161 562T168 578L175 622H166Q150 622 150 638Q150 639 150 640T151 642L164 728Q167 749 186 749H247Q260 749 260 735Q260 734 260 732T260 728L237 582Q232
554 219 540T188 520T157 515Z" />
<glyph unicode="&#x201a;" horiz-adv-x="198" d="M58 -113Q49 -113 43 -112T34 -110L40 -74Q56 -74 62 -66T69 -50L75 -6H67Q51 -6 51 10Q51 11 51 12T51 14L65 100Q68 121 87 121H148Q161 121 161 106Q161 105 161 104T161 100L137 -46Q133 -74 119 -88T89 -108T58
-113Z" />
<glyph unicode="&#x201c;" horiz-adv-x="332" d="M147 515Q133 515 133 530Q133 532 133 533T134 536L157 682Q162 711 175 725T206 744T236 749Q245 749 250 749T260 747L254 710Q239 710 234 703T226 686L219 642H228Q244 642 244 627Q244 626 244 625T244 622L230
536Q227 515 208 515H147ZM281 515Q267 515 267 530Q267 532 267 533T268 536L291 682Q296 711 309 725T340 744T370 749Q379 749 384 749T394 747L388 710Q373 710 368 703T360 686L353 642H362Q378 642 378 627Q378 626 378 625T378 622L364 536Q361 515 342
515H281Z" />
<glyph unicode="&#x201d;" horiz-adv-x="332" d="M157 515Q149 515 144 515T134 518L140 554Q156 554 161 562T168 578L175 622H166Q150 622 150 638Q150 639 150 640T151 642L164 728Q167 749 186 749H247Q260 749 260 735Q260 734 260 732T260 728L237 582Q232
554 219 540T188 520T157 515ZM291 515Q283 515 278 515T268 518L274 554Q290 554 295 562T302 578L309 622H300Q284 622 284 638Q284 639 284 640T285 642L298 728Q301 749 320 749H381Q394 749 394 735Q394 734 394 732T394 728L371 582Q366 554 353 540T322
520T291 515Z" />
<glyph unicode="&#x201e;" horiz-adv-x="332" d="M58 -113Q49 -113 43 -112T34 -110L40 -74Q56 -74 62 -66T69 -50L75 -6H67Q51 -6 51 10Q51 11 51 12T51 14L65 100Q68 121 87 121H148Q161 121 161 106Q161 105 161 104T161 100L137 -46Q133 -74 119 -88T89 -108T58
-113ZM192 -113Q183 -113 177 -112T168 -110L174 -74Q190 -74 196 -66T203 -50L209 -6H201Q185 -6 185 10Q185 11 185 12T185 14L199 100Q202 121 221 121H282Q295 121 295 106Q295 105 295 104T295 100L271 -46Q267 -74 253 -88T223 -108T192 -113Z" />
<glyph unicode="&#x2022;" horiz-adv-x="323" d="M147 307Q115 307 120 339L133 423Q135 439 145 448T172 458H250Q285 458 279 423L266 339Q263 321 252 314T225 307H147Z" />
<glyph unicode="&#x2039;" horiz-adv-x="364" d="M269 64L84 281L333 493L377 441L188 280L328 116L269 64Z" />
<glyph unicode="&#x203a;" horiz-adv-x="364" d="M103 64L61 117L251 279L111 443L171 493L354 278L103 64Z" />
</font>
</defs>
</svg>
