<?xml version="1.0" standalone="no"?>
<!DOCTYPE svg PUBLIC "-//W3C//DTD SVG 1.1//EN" "http://www.w3.org/Graphics/SVG/1.1/DTD/svg11.dtd">
<svg xmlns="http://www.w3.org/2000/svg">
<defs >
<font id="Exo" horiz-adv-x="531" ><font-face
    font-family="Exo ExtraBold"
    units-per-em="1000"
    panose-1="0 0 0 0 0 0 0 0 0 0"
    ascent="1002"
    descent="-327"
    alphabetic="0" />
<glyph unicode=" " horiz-adv-x="248" />
<glyph unicode="!" horiz-adv-x="275" d="M104 205L168 741H341L232 205H104ZM87 -2Q67 -2 67 16Q67 17 67 18T67 20L85 130Q88 153 111 153H212Q231 153 231 137Q231 136 231 134T231 130L213 20Q212 8 205 3T187 -2H87Z" />
<glyph unicode="&quot;" horiz-adv-x="441" d="M122 494L142 690L152 757H317L307 690L267 494H122ZM325 494L345 690L355 757H520L510 690L470 494H325Z" />
<glyph unicode="#" horiz-adv-x="737" d="M122 0L191 198H44L81 315H232L266 416H113L151 533H308L376 732H493L425 533H525L593 732H710L642 533H810L775 416H605L571 315H740L706 198H526L457 0H340L409 198H308L239 0H122ZM349 315H454L488 416H383L349 315Z" />
<glyph unicode="$" horiz-adv-x="609" d="M369 720L381 813L477 824L465 731L369 720ZM238 -90L254 11H351L335 -90H238ZM308 -6Q251 -6 205 -2T122 8T59 21L80 158Q126 154 186 152T304 149Q344 149 369 154T406 173T423 209L426 227Q427 231 427 235T427 243Q427
266 409 276T351 286H302Q214 286 166 332T117 453Q117 473 120 495L129 553Q141 625 176 667T270 729T404 748Q429 748 457 747T514 742T574 733T633 720L612 584Q576 587 535 588T454 591T382 592Q357 592 338 587T307 569T291 533L288 515Q287 510 287 505T286
496Q286 472 300 461T344 449H397Q495 449 545 403T596 285Q596 267 593 246L582 176Q573 115 544 75T458 15T308 -6Z" />
<glyph unicode="%" horiz-adv-x="966" d="M198 0L766 732H877L316 0H198ZM219 349Q157 349 130 374T102 447Q102 464 105 483L123 598Q133 662 169 697T282 732H383Q446 732 473 707T501 634Q501 626 501 617T498 598L479 483Q469 419 433 384T320 349H219ZM259
460H316Q346 460 357 473T372 509L382 572Q383 577 383 581T383 589Q383 608 374 614T343 621H286Q265 621 250 612T230 572L220 509Q220 504 220 500T219 492Q219 477 227 469T259 460ZM700 3Q638 3 611 28T583 101Q583 118 586 137L605 252Q615 316 651 351T763
386H864Q927 386 954 361T982 288Q982 280 982 271T979 252L961 137Q951 73 914 38T801 3H700ZM740 114H797Q827 114 838 127T854 163L864 226Q865 231 865 235T865 243Q865 262 855 268T824 275H768Q746 275 732 266T712 226L702 163Q701 158 701 154T700 146Q700
131 708 123T740 114Z" />
<glyph unicode="&amp;" horiz-adv-x="707" d="M234 -6Q154 -6 106 41T58 166Q58 220 72 261T113 333T183 389L255 430L246 448Q229 482 224 509T219 557Q219 606 242 647T314 713T442 738Q477 738 510 734T573 724T620 712L600 586H451Q418 586 404 573T390 538Q390
524 398 505T423 457L514 295L675 420L725 342L648 226L588 174L690 0H514L457 88L413 55Q370 22 328 8T234 -6ZM287 152Q305 152 322 158T359 180L385 203L318 312L288 296Q267 284 255 271T238 242T233 209Q233 184 247 168T287 152Z" />
<glyph unicode="&apos;" horiz-adv-x="238" d="M122 494L142 690L152 757H317L307 690L267 494H122Z" />
<glyph unicode="(" horiz-adv-x="401" d="M202 -210Q171 -167 145 -113T104 9T88 163Q88 241 104 322T148 481T212 630T288 760T371 860H524Q474 798 427 717T342 544T283 357T261 172Q261 64 286 -27T355 -210H202Z" />
<glyph unicode=")" horiz-adv-x="401" d="M-20 -210Q31 -146 78 -65T162 108T221 294T243 480Q243 587 218 677T149 860H302Q333 817 359 763T400 642T416 488Q416 410 400 330T357 171T293 21T216 -109T133 -210H-20Z" />
<glyph unicode="*" horiz-adv-x="425" d="M367 502L324 569L455 650L484 599L367 502ZM367 397L254 464L312 536L412 447L367 397ZM205 398L148 417L195 554L275 533L205 398ZM120 569L130 632L272 649L263 564L120 569ZM295 585L274 722L337 742L379 616L295 585Z" />
<glyph unicode="+" horiz-adv-x="609" d="M256 132L326 580H464L394 132H256ZM125 287L147 425H595L573 287H125Z" />
<glyph unicode="," horiz-adv-x="246" d="M96 -93Q74 -93 58 -89T42 -85L51 -30Q66 -30 73 -27T83 -10L86 12H76Q56 12 56 31Q56 34 57 39T59 52L71 128Q74 153 99 153H197Q216 153 216 135Q216 132 216 126T213 112L192 -14Q187 -47 172 -64T136 -87T96 -93Z" />
<glyph unicode="-" horiz-adv-x="350" d="M56 221L77 359H388L366 221H56Z" />
<glyph unicode="." horiz-adv-x="246" d="M73 -2Q54 -2 54 16Q54 17 54 18T54 20L71 130Q74 153 98 153H198Q218 153 218 137Q218 136 218 134T218 130L200 20Q198 8 191 3T173 -2H73Z" />
<glyph unicode="/" horiz-adv-x="484" d="M2 -72L416 770H593L179 -72H2Z" />
<glyph unicode="0" horiz-adv-x="644" d="M245 -5Q188 -5 150 12T93 63T73 145Q73 156 74 167T77 192L133 542Q143 609 174 654T254 724T366 748H524Q605 748 646 708T687 593Q687 581 686 568T683 542L627 192Q612 98 554 47T404 -5H245ZM312 150H381Q415 150
434 166T459 218L507 524Q508 530 508 535T509 544Q509 572 495 582T458 593H376Q344 593 326 576T303 524L254 219Q253 214 253 210T252 199Q252 173 267 162T312 150Z" />
<glyph unicode="1" horiz-adv-x="376" d="M150 0L243 586L117 570L134 680L287 742H441L323 0H150Z" />
<glyph unicode="2" horiz-adv-x="584" d="M43 0L64 138L339 378Q386 420 408 458T431 529Q431 547 425 559T404 577T367 584H149L172 721Q217 730 274 739T402 748Q477 748 521 726T584 667T604 580Q604 505 574 436T471 302L305 155H577L552 0H43Z" />
<glyph unicode="3" horiz-adv-x="577" d="M324 -6Q244 -6 171 0T38 18L59 148H281Q321 148 345 153T382 172T399 209Q402 227 403 234T404 243Q404 262 392 275T358 295T305 304L148 311L168 435L342 445Q385 447 408 462T437 505Q439 516 439 521T440 530T441
535Q441 569 415 581T347 593H142L163 722Q222 732 289 740T426 748Q488 748 531 735T597 690T620 602Q620 596 620 588T617 561T609 509Q605 483 596 461T573 422T540 392T499 373Q516 367 530 357T554 331T570 296T576 253Q576 243 574 227T567 179Q553 89 489
42T324 -6Z" />
<glyph unicode="4" horiz-adv-x="628" d="M369 0L393 146H77L57 225L366 742H543L274 293H416L435 419L483 510H622L588 293H656L636 173L565 146L542 0H369Z" />
<glyph unicode="5" horiz-adv-x="599" d="M304 -6Q247 -6 182 0T56 13L78 149H337Q371 149 389 160T414 189T423 221L430 261Q431 266 431 271T432 281Q432 302 420 313T380 325H329Q301 325 287 315T266 281H101L195 742H649L624 587H335L307 446Q324 459 345
465T388 472H466Q541 472 576 433T611 333Q611 323 611 313T608 293L590 184Q580 117 545 75T450 14T304 -6Z" />
<glyph unicode="6" horiz-adv-x="602" d="M271 -5Q211 -5 170 13T108 79T86 210Q86 305 98 387T137 535T206 649T309 722T448 748Q499 748 548 744T635 729L614 593H442Q396 593 364 575T313 523T285 438Q307 446 330 450T380 455T443 457Q507 457 543 441T596
396T613 328Q613 318 612 306T608 281L591 174Q582 110 552 71T477 13T376 -5H271ZM331 150H360Q380 150 393 156T413 176T425 210L430 247Q431 254 431 259T432 270Q432 286 426 294T406 306T370 310H265Q262 287 260 268T257 233Q257 201 265 183T289 157T331
150Z" />
<glyph unicode="7" horiz-adv-x="558" d="M101 0L406 569H111L139 742H613L645 671L302 0H101Z" />
<glyph unicode="8" horiz-adv-x="623" d="M241 -5Q170 -5 133 12T83 57T70 114Q70 125 71 135T74 156L91 261Q95 288 107 312T139 354T187 379Q160 394 150 414T140 458Q140 470 141 483T145 509L158 595Q168 656 198 689T270 735T360 748H514Q583 748 619 722T656
634Q656 625 655 615T652 593L639 509Q637 497 632 479T617 442T593 409T558 392Q594 383 606 356T618 300Q618 289 617 280T615 263L599 161Q588 92 558 57T485 8T393 -5H241ZM303 141H366Q403 141 415 155T431 195L441 250Q441 253 441 256T442 263Q442 283 430
294T393 306H329Q317 306 306 303T285 292T270 274T262 250L253 195Q252 191 252 187T252 178Q252 158 264 150T303 141ZM352 452H414Q435 452 446 459T463 480T472 512L477 551Q478 556 478 560T479 567Q479 590 468 595T439 601H377Q352 601 339 593T319 551L314
512Q313 505 312 499T311 487Q311 467 321 460T352 452Z" />
<glyph unicode="9" horiz-adv-x="602" d="M447 747Q507 747 548 729T610 663T632 532Q632 437 620 355T581 207T512 93T409 20T270 -6Q219 -6 170 -1T83 13L104 149H276Q323 149 354 167T405 220T433 304Q411 297 388 293T338 287T275 285Q212 285 175 301T122
346T105 414Q105 424 106 436T110 461L127 568Q137 632 166 671T241 729T342 747H447ZM387 592H358Q339 592 326 586T305 566T293 532L288 495Q287 489 287 483T286 472Q286 457 292 448T313 436T348 432H453Q456 455 458 474T461 509Q461 542 453 560T429 585T387
592Z" />
<glyph unicode=":" horiz-adv-x="246" d="M73 -2Q54 -2 54 16Q54 17 54 18T54 20L71 130Q74 153 98 153H198Q218 153 218 137Q218 136 218 134T218 130L200 20Q198 8 191 3T173 -2H73ZM134 384Q115 384 115 402Q115 403 115 404T115 406L132 516Q135 539 159 539H259Q279
539 279 523Q279 522 279 520T279 516L261 406Q259 394 252 389T234 384H134Z" />
<glyph unicode=";" horiz-adv-x="246" d="M134 384Q115 384 115 402Q115 403 115 404T115 406L132 516Q135 539 159 539H259Q279 539 279 523Q279 522 279 520T279 516L261 406Q259 394 252 389T234 384H134ZM96 -93Q74 -93 58 -89T42 -85L51 -30Q66 -30 73 -27T83
-10L86 12H76Q56 12 56 31Q56 34 57 39T59 52L71 128Q74 153 99 153H197Q216 153 216 135Q216 132 216 126T213 112L192 -14Q187 -47 172 -64T136 -87T96 -93Z" />
<glyph unicode="&lt;" horiz-adv-x="609" d="M526 139L133 275L157 427L593 557L569 406L314 352L550 290L526 139Z" />
<glyph unicode="=" horiz-adv-x="609" d="M362 423L385 561H833L810 423H362ZM144 407L167 545H615L592 407H144Z" />
<glyph unicode="&gt;" horiz-adv-x="609" d="M117 139L141 290L398 353L160 406L184 557L578 427L554 275L117 139Z" />
<glyph unicode="?" horiz-adv-x="529" d="M173 205L207 416H283Q310 416 330 422T364 443T381 484L385 507Q386 512 386 516T386 524Q386 556 362 570T293 584Q252 584 212 576T130 553L150 680Q191 704 247 721T372 739Q468 739 517 693T566 575Q566 555 563
535L553 481Q538 386 479 337T315 287L302 205H173ZM158 -2Q138 -2 138 16Q138 17 138 18T138 20L156 130Q159 153 182 153H282Q302 153 302 137Q302 136 302 134T302 130L284 20Q282 8 275 3T258 -2H158Z" />
<glyph unicode="@" horiz-adv-x="937" d="M263 -196Q180 -196 133 -170T66 -100T46 -7Q46 8 47 23T51 53L126 521Q136 587 160 628T221 693T305 725T410 734H770Q837 734 880 710T945 642T967 543Q967 507 961 469L920 194Q913 146 896 110T849 49T779 12T689
0H586L556 54Q549 45 536 35T505 15T464 0T415 -6Q376 -6 343 13T289 75T268 187Q268 300 307 378T411 496T550 537Q616 537 664 518T749 469L693 114Q711 114 726 117T755 130T777 159T791 211L831 486Q833 498 834 508T835 529Q835 573 806 593T731 613H382Q334
613 308 594T270 546T253 486L182 35Q179 20 179 6Q179 -29 199 -52T273 -76H659L644 -172Q619 -176 575 -182T473 -192T352 -196H263ZM462 125Q492 125 522 136T570 167L606 399Q586 404 569 406T539 409Q496 409 465 384T417 314T399 207Q399 183 405 164T425
135T462 125Z" />
<glyph unicode="A" horiz-adv-x="703" d="M19 0L363 742H579L687 0H508L492 135H255L196 0H19ZM320 290H476L446 594L320 290Z" />
<glyph unicode="B" horiz-adv-x="643" d="M60 0L176 742H473Q551 742 593 722T652 667T669 587Q669 574 668 561T665 534Q656 480 621 440T529 386Q564 376 588 359T624 312T637 239Q637 229 637 215T631 176Q615 78 546 39T357 0H60ZM257 155H379Q410 155 429
163T458 188T473 233Q475 239 475 245T475 257Q475 285 458 299T401 313H281L257 155ZM302 444H421Q456 444 471 461T493 503Q495 514 496 523T498 539Q498 565 483 576T436 587H325L302 444Z" />
<glyph unicode="C" horiz-adv-x="592" d="M342 -6Q213 -6 152 63T90 252Q90 285 93 321T102 396Q120 513 157 591T259 708T420 748Q510 748 570 733T664 702L641 565Q600 577 549 585T451 593Q416 593 388 586T339 555T301 487T273 366Q268 332 265 303T261 250Q261
197 289 173T388 149Q453 149 494 152T577 160L556 25Q505 6 449 0T342 -6Z" />
<glyph unicode="D" horiz-adv-x="692" d="M58 0L176 742H462Q563 742 618 710T696 619T718 482Q718 451 716 416T707 345Q692 252 663 186T588 79T481 19T340 0H58ZM256 155H358Q396 155 425 168T476 209T511 277T534 374Q539 408 542 434T545 475Q545 517 533
541T493 576T419 587H324L256 155Z" />
<glyph unicode="E" horiz-adv-x="599" d="M247 -6Q219 -6 188 0T130 25T90 78T84 167L147 562Q158 631 187 669T260 725T355 742Q430 742 505 738T658 728L635 582H381Q348 582 333 567T313 519L302 449L562 440L541 303L277 294L265 215Q262 195 266 182T284
162T317 156H568L545 11Q475 4 402 -1T247 -6Z" />
<glyph unicode="F" horiz-adv-x="569" d="M58 0L148 567Q160 638 192 675T267 727T353 742Q441 742 513 738T657 727L634 581H381Q348 581 333 566T313 520L298 422L560 414L537 277L274 268L231 0H58Z" />
<glyph unicode="G" horiz-adv-x="662" d="M279 -6Q173 -6 130 51T86 229Q86 273 91 318T104 406Q123 522 164 597T272 710T431 748Q527 748 586 738T691 713L670 578Q641 583 588 588T453 594Q393 594 358 573T305 503T273 368Q261 290 261 245Q261 202 279 178T340
153Q357 153 376 155T415 159T449 163T474 169L493 288H376L398 424Q424 427 466 430T564 434Q581 434 604 434T648 433T681 432L613 0H483L468 50Q453 41 430 31T380 13T327 0T279 -6Z" />
<glyph unicode="H" horiz-adv-x="700" d="M58 0L176 742H349L301 446H548L596 742H769L651 0H478L524 291H277L231 0H58Z" />
<glyph unicode="I" horiz-adv-x="289" d="M58 0L176 742H349L231 0H58Z" />
<glyph unicode="J" horiz-adv-x="405" d="M154 -6Q122 -6 89 0T34 16L56 153Q73 152 90 152T124 151Q168 151 187 170T213 224L295 742H468L380 186Q363 81 311 38T154 -6Z" />
<glyph unicode="K" horiz-adv-x="657" d="M58 0L176 742H349L302 450H388L576 742H752L515 369L653 0H482L373 295H277L231 0H58Z" />
<glyph unicode="L" horiz-adv-x="535" d="M239 0Q169 0 127 34T85 143Q85 154 86 166T89 191L176 742H349L265 214Q264 209 264 206T264 198Q264 176 277 166T316 155H539L514 0H239Z" />
<glyph unicode="M" horiz-adv-x="889" d="M35 0L244 742H406L482 200L731 742H891L862 0H695L713 435L530 0H368L323 428L206 0H35Z" />
<glyph unicode="N" horiz-adv-x="702" d="M58 0L176 742H313L526 293L597 742H770L652 0H515L302 449L231 0H58Z" />
<glyph unicode="O" horiz-adv-x="701" d="M348 -6Q291 -6 243 4T160 40T106 113T87 234Q87 268 91 310T102 394Q118 497 146 565T219 673T324 730T468 748Q525 748 572 738T655 701T710 625T730 496Q730 465 726 423T715 338Q699 232 671 165T599 60T493 9T348
-6ZM375 150Q416 150 444 162T491 199T522 265T543 361Q549 401 553 436T557 494Q557 535 545 556T509 585T444 593Q406 593 378 583T331 549T298 481T274 372Q268 334 264 299T259 243Q259 207 271 187T308 158T375 150Z" />
<glyph unicode="P" horiz-adv-x="613" d="M58 0L176 742H477Q534 742 579 724T652 660T679 533Q679 517 676 494T670 453Q660 386 636 341T580 268T509 229T433 216Q386 216 340 222T269 236L231 0H58ZM290 371H409Q433 371 451 383T482 419T498 472Q500 485 501
498T503 516Q503 555 488 571T443 587H324L290 371Z" />
<glyph unicode="Q" horiz-adv-x="701" d="M498 -204Q444 -204 401 -188T333 -135T307 -40H426Q429 -64 445 -74T497 -84Q518 -84 540 -81T580 -74L561 -199Q536 -204 498 -204ZM348 -6Q291 -6 243 4T160 40T106 113T87 234Q87 268 91 310T102 394Q118 497 146
565T219 673T324 730T468 748Q525 748 572 738T655 701T710 625T730 496Q730 465 726 423T715 338Q699 232 671 165T599 60T493 9T348 -6ZM375 150Q416 150 444 162T491 199T522 265T543 361Q549 401 553 436T557 494Q557 535 545 556T509 585T444 593Q406 593
378 583T331 549T298 481T274 372Q268 334 264 299T259 243Q259 207 271 187T308 158T375 150Z" />
<glyph unicode="R" horiz-adv-x="639" d="M58 0L176 742H463Q513 742 552 731T617 698T658 639T672 552Q672 538 671 522T666 487Q659 436 642 402T605 346T563 313T527 293L613 0H437L369 265Q358 265 346 265T322 265T297 265T273 265L231 0H58ZM295 402H396Q429
402 448 412T477 442T493 498Q495 506 495 513T495 528Q495 548 488 561T466 580T429 587H324L295 402Z" />
<glyph unicode="S" horiz-adv-x="575" d="M308 -6Q251 -6 205 -2T122 8T59 21L80 158Q126 154 186 152T304 149Q344 149 369 154T406 173T423 209L426 227Q427 231 427 235T427 243Q427 266 409 276T351 286H302Q214 286 166 332T117 453Q117 473 120 495L129
553Q141 625 176 667T270 729T404 748Q429 748 457 747T514 742T574 733T633 720L612 584Q576 587 535 588T454 591T382 592Q357 592 338 587T307 569T291 533L288 515Q287 510 287 505T286 496Q286 472 300 461T344 449H397Q495 449 545 403T596 285Q596 267 593
246L582 176Q573 115 544 75T458 15T308 -6Z" />
<glyph unicode="T" horiz-adv-x="611" d="M214 0L307 587H114L139 742H697L672 587H480L387 0H214Z" />
<glyph unicode="U" horiz-adv-x="692" d="M348 -6Q225 -6 163 48T100 223Q100 249 104 281T113 346L176 742H349L282 320Q279 297 276 276T272 238Q272 193 295 171T372 149Q402 149 424 156T464 182T492 234T513 320L579 742H752L681 294Q666 198 638 139T569
49T472 6T348 -6Z" />
<glyph unicode="V" horiz-adv-x="704" d="M243 0L136 742H315L381 188L626 742H804L459 0H243Z" />
<glyph unicode="W" horiz-adv-x="1041" d="M197 0L137 742H316L347 258L543 742H700L740 258L927 742H1106L809 0H635L581 485L371 0H197Z" />
<glyph unicode="X" horiz-adv-x="668" d="M475 0L332 311L127 742H315L463 421L662 0H475ZM13 0L328 412L395 266L204 0H13ZM461 321L395 465L594 742H785L461 321Z" />
<glyph unicode="Y" horiz-adv-x="651" d="M233 0L266 208L130 742H318L381 394L561 742H757L439 208L406 0H233Z" />
<glyph unicode="Z" horiz-adv-x="571" d="M32 0L55 146L424 587H125L150 742H646L623 595L255 155H564L539 0H32Z" />
<glyph unicode="[" horiz-adv-x="342" d="M212 -210Q148 -210 113 -188T65 -130T52 -55Q52 -40 54 -25T57 6L158 644Q166 690 182 726T224 789T288 828T378 842H463L442 705H409Q378 705 357 686T327 618L231 15Q230 7 230 0T229 -14Q229 -45 244 -58T286 -72H318L297
-210H212Z" />
<glyph unicode="\" horiz-adv-x="484" d="M283 -72L135 770H312L460 -72H283Z" />
<glyph unicode="]" horiz-adv-x="342" d="M-20 -210L1 -72H34Q56 -72 72 -64T100 -36T116 15L212 618Q213 626 213 633T214 646Q214 678 199 691T157 705H125L146 842H231Q289 842 324 825T376 776T393 699Q393 686 392 672T388 644L288 6Q282 -29 269 -67T232
-137T167 -190T65 -210H-20Z" />
<glyph unicode="^" horiz-adv-x="382" d="M117 531L243 670H360L433 531H333L286 590L217 531H117Z" />
<glyph unicode="_" horiz-adv-x="609" d="M-32 -202L-10 -64H599L577 -202H-32Z" />
<glyph unicode="`" horiz-adv-x="239" d="M224 631L136 773H274L326 631H224Z" />
<glyph unicode="a" horiz-adv-x="573" d="M210 -6Q172 -6 140 13T88 74T68 181Q68 211 72 243T80 295Q93 379 127 434T221 516T367 544Q416 544 461 536T542 513T602 479L526 0H372L362 53Q348 40 324 27T270 4T210 -6ZM297 132Q324 132 344 143T379 165L415 395Q409
398 394 402T359 406Q326 406 304 391T269 349T249 284Q245 262 243 243T241 212Q241 180 253 156T297 132Z" />
<glyph unicode="b" horiz-adv-x="586" d="M386 -6Q356 -6 327 1T274 20T230 50L203 0H49L170 763H342L302 510Q334 526 369 535T431 544Q510 544 555 494T601 353Q601 331 597 298T587 227Q576 152 548 100T479 21T386 -6ZM331 132Q366 132 389 162T423 272Q426
287 427 301T428 325Q428 372 412 389T372 406Q351 406 327 401T283 385L247 159Q262 146 281 139T331 132Z" />
<glyph unicode="c" horiz-adv-x="473" d="M271 -6Q210 -6 165 13T96 77T72 201Q72 218 74 243T81 297Q95 388 130 442T216 520T332 544Q377 544 425 535T519 512L502 413H372Q333 413 309 396T272 347T249 269Q246 249 245 237T244 218Q244 185 253 165T281 134T327
124H465L449 26Q415 12 373 3T271 -6Z" />
<glyph unicode="d" horiz-adv-x="578" d="M220 -6Q145 -6 108 44T71 183Q71 239 83 299Q98 376 125 430T207 514T353 544Q377 544 399 542T441 536L476 763H649L528 0H374L364 53Q345 36 322 23T273 2T220 -6ZM298 132Q326 132 346 142T381 165L418 395Q409 399
395 402T362 406Q337 406 315 396T276 358T249 270Q246 255 245 241T243 211Q243 181 250 164T270 140T298 132Z" />
<glyph unicode="e" horiz-adv-x="548" d="M283 -6Q205 -6 159 18T92 89T71 199Q71 226 74 250T81 298Q95 388 132 442T228 520T365 545Q404 545 441 538T508 513T556 463T575 380Q575 323 557 287T508 231T436 204T348 196Q315 196 288 198T243 205Q242 199 242
192T241 177Q241 148 267 134T352 120H528L512 19Q469 10 410 2T283 -6ZM306 290Q347 290 370 298T404 322T414 361Q414 387 399 400T353 413Q324 413 304 400T272 361T254 295Q266 294 279 292T306 290Z" />
<glyph unicode="f" horiz-adv-x="396" d="M85 0L148 400H75L93 511L170 538L183 616Q190 658 205 687T246 734T307 761T388 769Q424 769 456 766T511 759L490 632H421Q397 632 381 626T357 606T346 567L343 538H462L440 400H321L258 0H85Z" />
<glyph unicode="g" horiz-adv-x="579" d="M159 -233L31 -222L49 -103H221Q257 -103 284 -97T328 -75T350 -29L363 53Q347 38 321 25T265 3T208 -6Q160 -6 129 20T84 89T70 181Q70 207 74 242T83 308Q94 378 120 424T185 496T270 533T366 544Q444 544 507 532T608
507L518 -56Q509 -110 484 -147T414 -206T307 -234T159 -233ZM298 132Q322 132 342 142T380 165L417 399Q403 402 388 404T358 406Q333 406 312 395T275 358T251 289Q247 258 245 243T242 211Q242 171 257 152T298 132Z" />
<glyph unicode="h" horiz-adv-x="596" d="M49 0L170 763H342L298 485Q327 508 372 526T476 544Q540 544 574 513T609 409Q609 381 603 344L549 0H376L427 324Q428 329 428 333T428 343Q428 370 414 379T378 389Q347 389 323 379T277 349L221 0H49Z" />
<glyph unicode="i" horiz-adv-x="268" d="M165 611Q156 611 151 617T147 633L163 738Q167 761 189 761H323Q334 761 338 755T340 738L324 633Q320 611 300 611H165ZM49 0L133 538H306L221 0H49Z" />
<glyph unicode="j" horiz-adv-x="268" d="M165 611Q156 611 151 617T147 633L163 738Q167 761 189 761H323Q334 761 338 755T340 738L324 633Q320 611 300 611H165ZM11 -237L133 538H306L220 -4Q210 -66 187 -127T139 -237H11Z" />
<glyph unicode="k" horiz-adv-x="576" d="M49 0L170 763H342L278 357Q320 367 353 389T409 449T445 538H618Q598 464 570 415T511 336T451 289L587 0H410L307 236Q296 233 282 231T257 229L221 0H49Z" />
<glyph unicode="l" horiz-adv-x="333" d="M248 0Q162 0 119 35T75 125Q75 143 75 158T78 188L170 763H342L261 248Q260 242 258 228T255 201T253 178Q253 152 265 143T301 131L334 125L315 0H248Z" />
<glyph unicode="m" horiz-adv-x="924" d="M49 0L133 538H277L298 485Q332 510 374 527T477 544Q522 544 553 527T605 466Q649 509 700 526T793 544Q873 544 904 509T936 416Q936 393 934 371T928 328L876 0H703L755 324Q756 328 756 332T756 341Q756 389 701 389Q675
389 651 379T603 348Q602 342 602 335T600 321L549 0H376L427 322Q428 329 428 333T428 342Q428 368 414 378T374 389Q341 389 319 377T277 349L221 0H49Z" />
<glyph unicode="n" horiz-adv-x="596" d="M49 0L133 538H277L298 485Q330 510 374 527T474 544Q518 544 548 529T593 487T609 425Q609 407 608 384T597 308L549 0H376L424 302Q426 319 427 328T428 343Q428 365 416 377T374 389Q347 389 322 378T277 349L221 0H49Z" />
<glyph unicode="o" horiz-adv-x="577" d="M288 -6Q216 -6 168 15T95 79T71 183Q71 213 73 238T79 286Q92 367 115 417T173 495T258 533T374 544Q463 544 509 523T572 457T589 346Q589 322 587 294T580 237Q565 139 530 86T435 14T288 -6ZM306 132Q330 132 347
138T375 157T394 196T408 262Q413 290 415 312T417 353Q417 385 402 397T351 409Q326 409 310 403T282 381T263 336T249 262Q245 241 244 224T242 191Q242 168 249 155T270 137T306 132Z" />
<glyph unicode="p" horiz-adv-x="574" d="M11 -237L130 513Q203 527 269 535T409 544Q509 544 549 495T589 350Q589 325 587 298T579 241Q565 155 529 101T442 20T328 -6Q297 -6 269 -2T223 12L183 -237H11ZM307 140Q336 140 357 153T392 195T414 273Q416 285
417 296T419 319Q419 364 406 385T360 406L285 405L244 151Q252 147 261 145T282 142T307 140Z" />
<glyph unicode="q" horiz-adv-x="571" d="M315 -237L361 53Q336 29 295 12T210 -6Q137 -6 104 41T70 177Q70 203 73 230T80 288Q91 363 117 413T180 491T261 532T357 544Q432 544 500 534T606 507L488 -237H315ZM295 132Q320 132 341 142T379 165L416 399Q400
402 387 404T360 406Q324 406 302 392T268 348T248 276Q244 255 243 239T241 212Q241 172 255 152T295 132Z" />
<glyph unicode="r" horiz-adv-x="428" d="M49 0L134 538H289L296 467Q323 499 357 521T437 544Q452 544 464 543T487 539L461 366Q447 366 432 366T401 367Q358 367 326 355T274 328L222 0H49Z" />
<glyph unicode="s" horiz-adv-x="514" d="M264 -6Q228 -6 198 -4T141 1T92 10T49 22L65 123H303Q322 123 334 130T348 151L351 167Q352 172 352 174T352 177Q352 200 319 200H245Q201 200 166 211T109 248T88 314Q88 325 88 336T91 361L97 398Q105 440 128 473T200
525T328 544Q362 544 400 541T473 531T535 515L519 414H295Q274 414 264 408T250 385L248 376Q247 371 247 367T246 359Q246 349 253 343T281 337H366Q432 337 472 308T512 229Q512 218 512 206T509 181L502 134Q490 57 428 26T264 -6Z" />
<glyph unicode="t" horiz-adv-x="417" d="M285 0Q200 0 157 30T114 125Q114 142 116 166T123 220L157 401H74L92 511L185 538L231 689H368L344 538H461L440 401H323L294 220Q292 212 290 198T288 174Q288 153 299 145T332 134L392 128L372 0H285Z" />
<glyph unicode="u" horiz-adv-x="596" d="M202 -6Q133 -6 102 28T71 121Q71 143 72 158T76 188L132 538H304L253 211Q252 206 252 203T252 193Q252 167 267 158T304 149Q335 149 359 160T404 189L459 538H632L547 0H393L383 53Q355 34 329 21T274 1T202 -6Z" />
<glyph unicode="v" horiz-adv-x="554" d="M166 0L79 538H257L294 160L392 384Q409 424 420 461T435 546H595Q594 483 571 424T521 312L365 0H166Z" />
<glyph unicode="w" horiz-adv-x="860" d="M160 0L79 538H257L291 161L441 538H552L618 160L697 401Q702 416 709 441T722 494T731 546H901Q901 512 893 473T871 399T847 339L689 0H506L456 257L343 0H160Z" />
<glyph unicode="x" horiz-adv-x="566" d="M389 0L265 214L76 538H252L393 299L566 0H389ZM0 0L263 315L310 159L177 0H0ZM382 209L320 349L456 538H641L382 209Z" />
<glyph unicode="y" horiz-adv-x="582" d="M96 -237V-115Q161 -102 205 -77T276 0Q222 5 191 23T146 73T127 150L88 538H266L279 187Q280 169 287 159T306 145T328 140L429 402Q441 434 451 471T462 546H625Q625 486 609 421T558 281L429 9Q388 -79 339 -131T230
-207T96 -237Z" />
<glyph unicode="z" horiz-adv-x="501" d="M35 0L55 124L330 401H87L109 538H551L532 415L256 138H490Q490 138 489 124T484 89T477 49T471 14T469 0H35Z" />
<glyph unicode="{" horiz-adv-x="320" d="M288 -210Q214 -210 168 -197T102 -155T81 -82Q81 -64 85 -32T96 38T109 113T119 176T123 210Q123 234 111 244T68 254L93 413Q110 415 125 420T151 436T165 468L195 656Q207 729 237 769T321 826T455 842L433 705Q409
705 396 697T375 671T362 619L333 438Q326 385 295 362T215 334Q256 326 279 305T302 249Q302 241 299 219T291 168T281 107T272 46T264 -4T261 -34Q261 -57 271 -69T309 -81L288 -210Z" />
<glyph unicode="|" horiz-adv-x="251" d="M45 -72L178 770H316L183 -72H45Z" />
<glyph unicode="}" horiz-adv-x="320" d="M-20 -210L0 -81Q26 -81 39 -71T59 -45T69 -8L105 214Q112 255 142 280T222 314Q181 317 158 335T135 393Q135 404 138 431T147 494T158 565T167 625T171 658Q171 685 160 695T124 705L146 842Q216 842 261 825T328 776T350
697Q350 693 348 674T341 628T331 570T322 511T316 463T313 438Q313 422 320 413T341 399T369 393L344 234Q315 234 297 222T273 179L238 -38Q230 -89 213 -122T165 -175T90 -202T-20 -210Z" />
<glyph unicode="~" horiz-adv-x="413" d="M353 532Q337 532 323 538T296 552T270 566T242 572Q213 572 191 563T142 535L128 595Q151 621 185 644T259 667Q274 667 288 661T316 647T342 633T367 627Q386 627 403 633T435 648T462 669L476 603Q454 578 422 555T353 532Z" />
<glyph unicode="&#xa0;" horiz-adv-x="248" />
<glyph unicode="&#xa1;" horiz-adv-x="275" d="M257 337L193 -199H20L129 337H257ZM274 543Q293 543 293 525Q293 524 293 524T293 522L276 412Q273 388 249 388H149Q129 388 129 405Q129 407 129 409T129 412L147 522Q149 535 156 539T174 543H274Z" />
<glyph unicode="&#xa2;" horiz-adv-x="485" d="M202 -93L216 -5Q172 0 136 17T80 76T60 195Q60 275 79 338T132 444T210 510T306 536L320 632H417L402 534Q433 531 466 523T532 501L516 400Q511 401 470 404T364 407Q331 407 307 392T266 348T242 282T234 199Q234
169 243 153T270 130T318 124Q363 124 398 126T454 130T479 134L463 32Q427 13 390 5T313 -6L299 -93H202Z" />
<glyph unicode="&#xa3;" horiz-adv-x="609" d="M56 0L77 132L168 155L192 310L107 321L120 406L211 430L220 489Q235 581 270 637T365 720T513 747Q567 747 609 742T679 732L657 593H496Q465 593 445 586T414 560T396 508L384 430L552 415L537 321L364 310L340
155H589L564 0H56Z" />
<glyph unicode="&#xa4;" horiz-adv-x="609" d="M338 175Q293 175 257 196T200 254T179 333Q179 387 206 433T279 508T384 537Q429 537 465 515T522 458T544 379Q544 326 517 279T444 204T338 175ZM149 113L90 182L215 290L279 221L149 113ZM496 113L407 219L488
288L577 182L496 113ZM346 260Q377 260 402 273T443 311T458 371Q458 405 435 428T376 452Q345 452 321 439T281 401T266 341Q266 308 288 284T346 260ZM232 426L145 530L226 599L314 495L232 426ZM509 424L450 493L573 599L632 530L509 424Z" />
<glyph unicode="&#xa5;" horiz-adv-x="609" d="M112 261L126 346H579L565 261H112ZM90 118L103 203H557L543 118H90ZM211 0L244 208L109 742H297L359 394L540 742H735L417 208L384 0H211Z" />
<glyph unicode="&#xa6;" horiz-adv-x="251" d="M124 429L178 770H316L262 429H124ZM45 -72L97 256H235L183 -72H45Z" />
<glyph unicode="&#xa7;" horiz-adv-x="535" d="M313 -6Q285 -6 254 -6T192 -3T130 2T75 10L94 132H298Q319 132 330 135T346 144T353 160Q356 173 356 181T357 191Q357 200 350 203T323 207H234Q167 207 127 227T86 301Q86 307 86 314T88 329L93 363Q100 406 120
428T183 465Q156 479 146 501T136 551Q136 561 136 571T138 591L147 641Q154 682 177 714T244 765T354 784Q379 784 410 783T473 780T535 775T584 766L566 647H359Q342 647 331 644T314 632T306 613Q305 602 304 597T303 589Q303 578 310 573T337 568H425Q500 568
537 547T575 474Q575 461 572 446L567 410Q562 379 541 352T480 309Q506 300 518 281T531 231Q531 224 531 216T528 198L520 154Q511 92 483 57T411 8T313 -6ZM298 336H343Q361 336 371 338T388 348T397 372L402 405Q403 407 403 409T403 413Q403 426 393 432T362
438H315Q290 438 279 430T264 403L259 371Q259 369 259 367T258 364Q258 350 268 343T298 336Z" />
<glyph unicode="&#xa8;" horiz-adv-x="394" d="M353 632Q334 632 334 650Q334 651 335 655T340 683T352 758Q355 782 377 782H457Q476 782 476 763Q476 763 476 758T471 730T459 654Q456 632 433 632H353ZM155 632Q136 632 136 650Q136 651 137 655T141 683T154
758Q157 782 179 782H259Q277 782 277 763Q277 763 277 758T273 730T260 654Q258 632 235 632H155Z" />
<glyph unicode="&#xa9;" horiz-adv-x="801" d="M335 0Q276 0 230 19T151 73T102 155T85 261Q85 323 95 389T130 516T193 626T290 703T425 732H606Q683 732 734 704T811 624T837 503Q837 406 813 316T746 154T644 42T516 0H335ZM396 147Q361 147 331 159T283 203T264
294Q264 347 279 398T321 491T385 558T466 583Q485 583 514 581T575 574T632 560L619 478Q592 482 568 484T523 488T487 490Q456 490 434 476T397 436T375 381T368 317Q368 275 386 258T444 240Q487 240 523 245T589 256L577 174Q535 155 489 151T396 147ZM323
93H521Q564 93 603 121T674 202T724 327T743 489Q743 531 731 565T691 619T617 639H410Q356 639 314 610T241 531T195 415T179 276Q179 235 188 202T215 144T260 106T323 93Z" />
<glyph unicode="&#xaa;" horiz-adv-x="411" d="M65 251L78 330H442L430 251H65ZM195 356Q154 356 123 388T92 493Q92 515 95 539T101 578Q115 666 166 711T315 756Q372 756 419 742T494 708L439 360H311L302 398Q292 388 275 379T237 363T195 356ZM268 474Q284
474 296 480T316 493L339 635Q335 636 326 637T308 638Q288 638 275 629T255 605T243 570Q235 539 235 517Q235 502 241 488T268 474Z" />
<glyph unicode="&#xab;" horiz-adv-x="623" d="M261 58L69 283L327 504L400 419L241 283L359 145L261 58ZM511 58L319 283L577 504L650 419L491 283L609 145L511 58Z" />
<glyph unicode="&#xac;" horiz-adv-x="609" d="M417 167L465 470H603L554 167H417ZM144 407L167 545H615L592 407H144Z" />
<glyph unicode="&#xad;" horiz-adv-x="350" d="M56 221L77 359H388L366 221H56Z" />
<glyph unicode="&#xae;" horiz-adv-x="801" d="M335 0Q276 0 230 19T151 73T102 155T85 261Q85 323 95 389T130 516T193 626T290 703T425 732H606Q683 732 734 704T811 624T837 503Q837 406 813 316T746 154T644 42T516 0H335ZM267 153L335 580H521Q550 580 576
572T618 541T635 479Q635 443 624 409T592 350T541 315L603 153H502L447 319H395L369 153H267ZM323 93H521Q564 93 603 121T674 202T724 327T743 489Q743 531 731 565T691 619T617 639H410Q356 639 314 610T241 531T195 415T179 276Q179 235 188 202T215 144T260
106T323 93ZM407 394H488Q501 394 510 403T526 428T532 458Q532 475 524 481T503 487H421L407 394Z" />
<glyph unicode="&#xaf;" horiz-adv-x="353" d="M134 639L150 740H437L421 639H134Z" />
<glyph unicode="&#xb0;" horiz-adv-x="314" d="M233 475Q176 475 141 510T106 605Q106 648 125 686T183 748T280 773Q339 773 372 738T406 644Q406 600 388 561T332 499T233 475ZM245 553Q282 553 304 576T327 638Q327 664 312 679T268 695Q231 695 208 671T185
610Q185 584 201 569T245 553Z" />
<glyph unicode="&#xb1;" horiz-adv-x="609" d="M93 87L116 225H564L541 87H93ZM280 282L350 730H488L418 282H280ZM149 437L171 575H619L597 437H149Z" />
<glyph unicode="&#xb2;" horiz-adv-x="415" d="M97 355L114 462L279 614Q305 640 319 661T334 694Q334 708 326 713T297 718H161L178 825Q211 833 251 839T344 846Q419 846 449 821T480 746Q480 694 457 649T374 546L297 476H454L434 355H97Z" />
<glyph unicode="&#xb3;" horiz-adv-x="415" d="M292 351Q238 351 189 356T96 370L114 479H258Q284 479 297 481T317 488T323 500L325 510Q325 513 325 514T325 517Q325 525 321 530T306 539T283 542L165 547L182 652L294 659Q320 661 332 666T347 682L349 693Q349
694 349 695T349 698Q349 709 337 713T293 718H157L174 826Q225 835 273 840T370 846Q426 846 458 823T492 748Q492 742 492 736T490 721L484 689Q481 668 474 651T452 620T415 599Q432 594 442 583T457 556T462 521Q462 514 462 507T459 492L456 471Q446 412 403
382T292 351Z" />
<glyph unicode="&#xb4;" horiz-adv-x="239" d="M113 631L202 773H348L223 631H113Z" />
<glyph unicode="&#xb5;" horiz-adv-x="598" d="M264 -6Q233 -6 200 4T139 35T93 87T76 158Q76 167 76 174T78 190L133 538H306L254 210Q254 205 254 201T253 192Q253 165 268 156T309 146Q337 146 361 156T404 181L461 538H633L548 0H405L393 53Q367 25 336 10T264
-6ZM5 -270L88 251H260L178 -270H5Z" />
<glyph unicode="&#xb6;" horiz-adv-x="574" d="M197 -270L291 320Q282 315 263 310T218 304Q152 304 123 337T93 418Q93 426 94 435T99 466L121 602Q129 650 153 681T216 727T300 742H697L679 628H624L524 0H413L513 630H451L308 -270H197ZM256 415H305L340 630H291Q258
630 245 617T227 572L212 481Q210 468 209 461T208 449Q208 435 214 428T232 418T256 415Z" />
<glyph unicode="&#xb7;" horiz-adv-x="259" d="M124 312Q114 312 109 318T104 334L121 438Q124 461 147 461H248Q272 461 267 438L250 334Q248 322 241 317T224 312H124Z" />
<glyph unicode="&#xb8;" horiz-adv-x="242" d="M1 -200L12 -130L29 -127Q45 -124 54 -119T66 -106T70 -91Q70 -82 63 -74T37 -63L108 -48Q136 -48 158 -62T180 -112Q180 -135 167 -155T127 -187T56 -200H1ZM37 -63L101 19H178L114 -63H37Z" />
<glyph unicode="&#xb9;" horiz-adv-x="415" d="M203 355L263 726L172 721L185 807L296 846H419L341 355H203ZM106 355L126 476H457L437 355H106Z" />
<glyph unicode="&#xba;" horiz-adv-x="425" d="M65 251L78 330H442L430 251H65ZM258 356Q203 356 167 372T113 420T94 495Q94 518 96 536T100 571Q113 650 139 689T210 742T321 756Q389 756 424 740T471 692T484 609Q484 592 483 572T477 530Q466 459 440 421T369
370T258 356ZM274 474Q294 474 305 480T323 503T335 550Q339 571 340 585T341 612Q340 628 331 634T302 641Q281 641 270 634T253 610T242 561Q238 539 238 528T238 504Q238 494 241 487T253 477T274 474Z" />
<glyph unicode="&#xbb;" horiz-adv-x="623" d="M125 58L56 146L215 283L99 419L199 504L388 283L125 58ZM375 58L306 146L465 283L349 419L449 504L638 283L375 58Z" />
<glyph unicode="&#xbc;" horiz-adv-x="1156" d="M297 0L787 770H904L414 0H297ZM934 -66L948 20H744L730 80L924 421H1064L903 134H966L976 201L1013 265H1124L1104 134H1142L1126 41L1086 20L1072 -66H934ZM204 355L264 726L173 721L186 807L297 846H420L342
355H204ZM107 355L127 476H458L438 355H107Z" />
<glyph unicode="&#xbd;" horiz-adv-x="1156" d="M297 0L787 770H904L414 0H297ZM760 -66L777 41L942 193Q968 219 982 240T997 273Q997 287 989 292T960 297H824L841 404Q874 412 914 418T1007 425Q1082 425 1112 400T1143 325Q1143 273 1120 228T1037 125L960
55H1117L1097 -66H760ZM204 355L264 726L173 721L186 807L297 846H420L342 355H204ZM107 355L127 476H458L438 355H107Z" />
<glyph unicode="&#xbe;" horiz-adv-x="1155" d="M297 0L787 770H904L414 0H297ZM934 -57L948 29H744L730 89L924 430H1064L903 143H966L976 210L1013 274H1124L1104 143H1142L1126 50L1086 29L1072 -57H934ZM302 351Q248 351 199 356T106 370L124 479H268Q294
479 307 481T327 488T333 500L335 510Q335 513 335 514T335 517Q335 525 331 530T316 539T293 542L175 547L192 652L304 659Q330 661 342 666T357 682L359 693Q359 694 359 695T359 698Q359 709 347 713T303 718H167L184 826Q235 835 283 840T380 846Q436 846 468
823T502 748Q502 742 502 736T500 721L494 689Q491 668 484 651T462 620T425 599Q442 594 452 583T467 556T472 521Q472 514 472 507T469 492L466 471Q456 412 413 382T302 351Z" />
<glyph unicode="&#xbf;" horiz-adv-x="529" d="M439 337L406 125H329Q302 125 282 119T249 99T231 58L227 34Q226 30 226 26T226 17Q226 -15 250 -28T319 -42Q360 -42 400 -34T483 -11L462 -139Q421 -163 365 -180T241 -197Q145 -197 96 -152T46 -33Q46 -14 50
6L59 61Q74 156 133 205T297 254L310 337H439ZM455 543Q474 543 474 525Q474 524 474 524T474 522L456 412Q454 388 430 388H330Q310 388 310 405Q310 407 310 409T310 412L328 522Q330 535 337 539T354 543H455Z" />
<glyph unicode="&#xc0;" horiz-adv-x="703" d="M19 0L363 742H579L687 0H508L492 135H255L196 0H19ZM320 290H476L446 594L320 290ZM442 791L354 933H492L544 791H442Z" />
<glyph unicode="&#xc1;" horiz-adv-x="703" d="M19 0L363 742H579L687 0H508L492 135H255L196 0H19ZM320 290H476L446 594L320 290ZM413 791L502 933H648L523 791H413Z" />
<glyph unicode="&#xc2;" horiz-adv-x="703" d="M19 0L363 742H579L687 0H508L492 135H255L196 0H19ZM320 290H476L446 594L320 290ZM306 791L433 935H550L622 791H522L477 859L406 791H306Z" />
<glyph unicode="&#xc3;" horiz-adv-x="703" d="M19 0L363 742H579L687 0H508L492 135H255L196 0H19ZM320 290H476L446 594L320 290ZM285 790Q303 864 337 892T414 921Q437 921 456 916T492 904T524 892T553 886Q570 886 580 897T594 927H680Q662 854 632 823T553
791Q532 791 512 796T473 808T440 820T413 826Q395 826 385 815T371 790H285Z" />
<glyph unicode="&#xc4;" horiz-adv-x="703" d="M19 0L363 742H579L687 0H508L492 135H255L196 0H19ZM320 290H476L446 594L320 290ZM528 792Q509 792 509 810Q509 811 510 815T515 843T527 918Q530 942 552 942H632Q651 942 651 923Q651 923 651 918T646 890T634
814Q631 792 608 792H528ZM330 792Q311 792 311 810Q311 811 312 815T316 843T329 918Q332 942 354 942H434Q452 942 452 923Q452 923 452 918T448 890T435 814Q433 792 410 792H330Z" />
<glyph unicode="&#xc5;" horiz-adv-x="703" d="M19 0L363 742H579L687 0H508L492 135H255L196 0H19ZM320 290H476L446 594L320 290ZM474 763Q419 763 389 785T358 863Q358 899 375 928T424 976T504 994Q559 994 589 971T619 893Q619 838 583 801T474 763ZM482
825Q512 825 525 844T539 891Q539 913 527 922T497 931Q465 931 452 911T438 866Q438 843 450 834T482 825Z" />
<glyph unicode="&#xc6;" horiz-adv-x="997" d="M651 -6Q609 -6 578 -1T526 18T495 52T485 105L487 135H278L178 0H9L391 557Q445 635 506 674T634 728T768 742Q823 742 901 738T1061 727L1038 582H778Q756 582 742 578T721 566T709 543T701 508L691 448L967 438L946
302L667 293L655 215Q651 186 661 174T688 159T722 156H971L948 13Q918 9 880 6T803 1T731 -2T676 -4T651 -6ZM378 281H511L552 544L378 281Z" />
<glyph unicode="&#xc7;" horiz-adv-x="592" d="M342 -6Q213 -6 152 63T90 252Q90 285 93 321T102 396Q120 513 157 591T259 708T420 748Q510 748 570 733T664 702L641 565Q600 577 549 585T451 593Q416 593 388 586T339 555T301 487T273 366Q268 332 265 303T261
250Q261 197 289 173T388 149Q453 149 494 152T577 160L556 25Q505 6 449 0T342 -6ZM198 -201L209 -131L226 -128Q242 -125 251 -120T263 -107T267 -92Q267 -83 260 -75T234 -64L305 -49Q333 -49 355 -63T377 -113Q377 -136 364 -156T324 -188T253 -201H198ZM234
-64L298 18H375L311 -64H234Z" />
<glyph unicode="&#xc8;" horiz-adv-x="599" d="M247 -6Q219 -6 188 0T130 25T90 78T84 167L147 562Q158 631 187 669T260 725T355 742Q430 742 505 738T658 728L635 582H381Q348 582 333 567T313 519L302 449L562 440L541 303L277 294L265 215Q262 195 266 182T284
162T317 156H568L545 11Q475 4 402 -1T247 -6ZM394 791L306 933H444L496 791H394Z" />
<glyph unicode="&#xc9;" horiz-adv-x="599" d="M247 -6Q219 -6 188 0T130 25T90 78T84 167L147 562Q158 631 187 669T260 725T355 742Q430 742 505 738T658 728L635 582H381Q348 582 333 567T313 519L302 449L562 440L541 303L277 294L265 215Q262 195 266 182T284
162T317 156H568L545 11Q475 4 402 -1T247 -6ZM366 791L455 933H601L476 791H366Z" />
<glyph unicode="&#xca;" horiz-adv-x="599" d="M247 -6Q219 -6 188 0T130 25T90 78T84 167L147 562Q158 631 187 669T260 725T355 742Q430 742 505 738T658 728L635 582H381Q348 582 333 567T313 519L302 449L562 440L541 303L277 294L265 215Q262 195 266 182T284
162T317 156H568L545 11Q475 4 402 -1T247 -6ZM258 791L385 935H502L574 791H474L429 859L358 791H258Z" />
<glyph unicode="&#xcb;" horiz-adv-x="599" d="M247 -6Q219 -6 188 0T130 25T90 78T84 167L147 562Q158 631 187 669T260 725T355 742Q430 742 505 738T658 728L635 582H381Q348 582 333 567T313 519L302 449L562 440L541 303L277 294L265 215Q262 195 266 182T284
162T317 156H568L545 11Q475 4 402 -1T247 -6ZM481 792Q462 792 462 810Q462 811 463 815T468 843T480 918Q483 942 505 942H585Q604 942 604 923Q604 923 604 918T599 890T587 814Q584 792 561 792H481ZM283 792Q264 792 264 810Q264 811 265 815T269 843T282
918Q285 942 307 942H387Q405 942 405 923Q405 923 405 918T401 890T388 814Q386 792 363 792H283Z" />
<glyph unicode="&#xcc;" horiz-adv-x="289" d="M58 0L176 742H349L231 0H58ZM237 791L149 933H287L339 791H237Z" />
<glyph unicode="&#xcd;" horiz-adv-x="289" d="M58 0L176 742H349L231 0H58ZM208 791L297 933H443L318 791H208Z" />
<glyph unicode="&#xce;" horiz-adv-x="289" d="M58 0L176 742H349L231 0H58ZM101 791L228 935H345L417 791H317L272 859L201 791H101Z" />
<glyph unicode="&#xcf;" horiz-adv-x="289" d="M58 0L176 742H349L231 0H58ZM323 792Q304 792 304 810Q304 811 305 815T310 843T322 918Q325 942 347 942H427Q446 942 446 923Q446 923 446 918T441 890T429 814Q426 792 403 792H323ZM125 792Q106 792 106 810Q106
811 107 815T111 843T124 918Q127 942 149 942H229Q247 942 247 923Q247 923 247 918T243 890T230 814Q228 792 205 792H125Z" />
<glyph unicode="&#xd0;" horiz-adv-x="692" d="M55 317L73 429H397L379 317H55ZM58 0L176 742H462Q563 742 618 710T696 619T718 482Q718 451 716 416T707 345Q692 252 663 186T588 79T481 19T340 0H58ZM256 155H358Q396 155 425 168T476 209T511 277T534 374Q539
408 542 434T545 475Q545 517 533 541T493 576T419 587H324L256 155Z" />
<glyph unicode="&#xd1;" horiz-adv-x="702" d="M58 0L176 742H313L526 293L597 742H770L652 0H515L302 449L231 0H58ZM268 790Q286 864 320 892T397 921Q420 921 439 916T475 904T507 892T536 886Q553 886 563 897T577 927H663Q645 854 615 823T536 791Q515 791
495 796T456 808T423 820T396 826Q378 826 368 815T354 790H268Z" />
<glyph unicode="&#xd2;" horiz-adv-x="701" d="M348 -6Q291 -6 243 4T160 40T106 113T87 234Q87 268 91 310T102 394Q118 497 146 565T219 673T324 730T468 748Q525 748 572 738T655 701T710 625T730 496Q730 465 726 423T715 338Q699 232 671 165T599 60T493
9T348 -6ZM375 150Q416 150 444 162T491 199T522 265T543 361Q549 401 553 436T557 494Q557 535 545 556T509 585T444 593Q406 593 378 583T331 549T298 481T274 372Q268 334 264 299T259 243Q259 207 271 187T308 158T375 150ZM444 791L356 933H494L546 791H444Z"
/>
<glyph unicode="&#xd3;" horiz-adv-x="701" d="M348 -6Q291 -6 243 4T160 40T106 113T87 234Q87 268 91 310T102 394Q118 497 146 565T219 673T324 730T468 748Q525 748 572 738T655 701T710 625T730 496Q730 465 726 423T715 338Q699 232 671 165T599 60T493
9T348 -6ZM375 150Q416 150 444 162T491 199T522 265T543 361Q549 401 553 436T557 494Q557 535 545 556T509 585T444 593Q406 593 378 583T331 549T298 481T274 372Q268 334 264 299T259 243Q259 207 271 187T308 158T375 150ZM416 791L505 933H651L526 791H416Z"
/>
<glyph unicode="&#xd4;" horiz-adv-x="701" d="M348 -6Q291 -6 243 4T160 40T106 113T87 234Q87 268 91 310T102 394Q118 497 146 565T219 673T324 730T468 748Q525 748 572 738T655 701T710 625T730 496Q730 465 726 423T715 338Q699 232 671 165T599 60T493
9T348 -6ZM375 150Q416 150 444 162T491 199T522 265T543 361Q549 401 553 436T557 494Q557 535 545 556T509 585T444 593Q406 593 378 583T331 549T298 481T274 372Q268 334 264 299T259 243Q259 207 271 187T308 158T375 150ZM308 791L435 935H552L624 791H524L479
859L408 791H308Z" />
<glyph unicode="&#xd5;" horiz-adv-x="701" d="M348 -6Q291 -6 243 4T160 40T106 113T87 234Q87 268 91 310T102 394Q118 497 146 565T219 673T324 730T468 748Q525 748 572 738T655 701T710 625T730 496Q730 465 726 423T715 338Q699 232 671 165T599 60T493
9T348 -6ZM375 150Q416 150 444 162T491 199T522 265T543 361Q549 401 553 436T557 494Q557 535 545 556T509 585T444 593Q406 593 378 583T331 549T298 481T274 372Q268 334 264 299T259 243Q259 207 271 187T308 158T375 150ZM288 790Q306 864 340 892T417 921Q440
921 459 916T495 904T527 892T556 886Q573 886 583 897T597 927H683Q665 854 635 823T556 791Q535 791 515 796T476 808T443 820T416 826Q398 826 388 815T374 790H288Z" />
<glyph unicode="&#xd6;" horiz-adv-x="701" d="M348 -6Q291 -6 243 4T160 40T106 113T87 234Q87 268 91 310T102 394Q118 497 146 565T219 673T324 730T468 748Q525 748 572 738T655 701T710 625T730 496Q730 465 726 423T715 338Q699 232 671 165T599 60T493
9T348 -6ZM375 150Q416 150 444 162T491 199T522 265T543 361Q549 401 553 436T557 494Q557 535 545 556T509 585T444 593Q406 593 378 583T331 549T298 481T274 372Q268 334 264 299T259 243Q259 207 271 187T308 158T375 150ZM531 792Q512 792 512 810Q512 811
513 815T518 843T530 918Q533 942 555 942H635Q654 942 654 923Q654 923 654 918T649 890T637 814Q634 792 611 792H531ZM333 792Q314 792 314 810Q314 811 315 815T319 843T332 918Q335 942 357 942H437Q455 942 455 923Q455 923 455 918T451 890T438 814Q436
792 413 792H333Z" />
<glyph unicode="&#xd7;" horiz-adv-x="609" d="M221 149L139 246L506 563L588 466L221 149ZM440 149L173 466L287 563L554 246L440 149Z" />
<glyph unicode="&#xd8;" horiz-adv-x="704" d="M39 0L687 742H782L134 0H39ZM348 -6Q291 -6 243 4T160 40T106 113T87 234Q87 268 91 310T102 394Q118 497 146 565T219 673T324 730T468 748Q525 748 572 738T655 701T710 625T730 496Q730 465 726 423T715 338Q699
232 671 165T599 60T493 9T348 -6ZM375 150Q416 150 444 162T491 199T522 265T543 361Q549 401 553 436T557 494Q557 535 545 556T509 585T444 593Q406 593 378 583T331 549T298 481T274 372Q268 334 264 299T259 243Q259 207 271 187T308 158T375 150Z" />
<glyph unicode="&#xd9;" horiz-adv-x="692" d="M348 -6Q225 -6 163 48T100 223Q100 249 104 281T113 346L176 742H349L282 320Q279 297 276 276T272 238Q272 193 295 171T372 149Q402 149 424 156T464 182T492 234T513 320L579 742H752L681 294Q666 198 638 139T569
49T472 6T348 -6ZM433 791L345 933H483L535 791H433Z" />
<glyph unicode="&#xda;" horiz-adv-x="692" d="M348 -6Q225 -6 163 48T100 223Q100 249 104 281T113 346L176 742H349L282 320Q279 297 276 276T272 238Q272 193 295 171T372 149Q402 149 424 156T464 182T492 234T513 320L579 742H752L681 294Q666 198 638 139T569
49T472 6T348 -6ZM405 791L494 933H640L515 791H405Z" />
<glyph unicode="&#xdb;" horiz-adv-x="692" d="M348 -6Q225 -6 163 48T100 223Q100 249 104 281T113 346L176 742H349L282 320Q279 297 276 276T272 238Q272 193 295 171T372 149Q402 149 424 156T464 182T492 234T513 320L579 742H752L681 294Q666 198 638 139T569
49T472 6T348 -6ZM297 791L424 935H541L613 791H513L468 859L397 791H297Z" />
<glyph unicode="&#xdc;" horiz-adv-x="692" d="M348 -6Q225 -6 163 48T100 223Q100 249 104 281T113 346L176 742H349L282 320Q279 297 276 276T272 238Q272 193 295 171T372 149Q402 149 424 156T464 182T492 234T513 320L579 742H752L681 294Q666 198 638 139T569
49T472 6T348 -6ZM520 792Q501 792 501 810Q501 811 502 815T507 843T519 918Q522 942 544 942H624Q643 942 643 923Q643 923 643 918T638 890T626 814Q623 792 600 792H520ZM322 792Q303 792 303 810Q303 811 304 815T308 843T321 918Q324 942 346 942H426Q444
942 444 923Q444 923 444 918T440 890T427 814Q425 792 402 792H322Z" />
<glyph unicode="&#xdd;" horiz-adv-x="651" d="M233 0L266 208L130 742H318L381 394L561 742H757L439 208L406 0H233ZM389 791L478 933H624L499 791H389Z" />
<glyph unicode="&#xde;" horiz-adv-x="576" d="M58 0L176 742H348L231 0H58ZM379 131Q335 131 293 139T218 156L238 286H355Q380 286 398 296T429 324T444 366Q446 379 447 392T449 410Q449 441 432 453T379 466H257L282 621H413Q473 621 521 604T597 545T626
427Q626 411 623 388T616 347Q606 286 583 245T526 178T456 142T379 131Z" />
<glyph unicode="&#xdf;" horiz-adv-x="613" d="M407 -6Q363 -6 325 -2T264 10L282 126Q313 124 336 124T382 123Q407 123 420 127T439 137T446 152Q447 158 447 162T448 168Q448 181 438 191T414 213T386 238T362 272T352 321Q352 351 364 378T393 429T428 475T458
519T470 560Q470 587 450 602T392 617Q348 617 324 585T288 474L213 0H40L127 553Q137 612 171 661T263 739T407 769Q487 769 536 743T606 676T628 589Q628 556 618 529T592 481T561 441T535 406T524 373Q524 361 533 349T556 324T583 294T606 257T616 208Q616
201 615 189T608 140Q601 93 579 64T527 20T465 0T407 -6Z" />
<glyph unicode="&#xe0;" horiz-adv-x="573" d="M210 -6Q172 -6 140 13T88 74T68 181Q68 211 72 243T80 295Q93 379 127 434T221 516T367 544Q416 544 461 536T542 513T602 479L526 0H372L362 53Q348 40 324 27T270 4T210 -6ZM297 132Q324 132 344 143T379 165L415
395Q409 398 394 402T359 406Q326 406 304 391T269 349T249 284Q245 262 243 243T241 212Q241 180 253 156T297 132ZM346 631L258 773H396L448 631H346Z" />
<glyph unicode="&#xe1;" horiz-adv-x="573" d="M210 -6Q172 -6 140 13T88 74T68 181Q68 211 72 243T80 295Q93 379 127 434T221 516T367 544Q416 544 461 536T542 513T602 479L526 0H372L362 53Q348 40 324 27T270 4T210 -6ZM297 132Q324 132 344 143T379 165L415
395Q409 398 394 402T359 406Q326 406 304 391T269 349T249 284Q245 262 243 243T241 212Q241 180 253 156T297 132ZM326 631L415 773H561L436 631H326Z" />
<glyph unicode="&#xe2;" horiz-adv-x="573" d="M210 -6Q172 -6 140 13T88 74T68 181Q68 211 72 243T80 295Q93 379 127 434T221 516T367 544Q416 544 461 536T542 513T602 479L526 0H372L362 53Q348 40 324 27T270 4T210 -6ZM297 132Q324 132 344 143T379 165L415
395Q409 398 394 402T359 406Q326 406 304 391T269 349T249 284Q245 262 243 243T241 212Q241 180 253 156T297 132ZM219 631L346 775H463L535 631H435L390 699L319 631H219Z" />
<glyph unicode="&#xe3;" horiz-adv-x="573" d="M210 -6Q172 -6 140 13T88 74T68 181Q68 211 72 243T80 295Q93 379 127 434T221 516T367 544Q416 544 461 536T542 513T602 479L526 0H372L362 53Q348 40 324 27T270 4T210 -6ZM297 132Q324 132 344 143T379 165L415
395Q409 398 394 402T359 406Q326 406 304 391T269 349T249 284Q245 262 243 243T241 212Q241 180 253 156T297 132ZM188 630Q206 704 240 732T317 761Q340 761 359 756T395 744T427 732T456 726Q473 726 483 737T497 767H583Q565 694 535 663T456 631Q435 631
415 636T376 648T343 660T316 666Q298 666 288 655T274 630H188Z" />
<glyph unicode="&#xe4;" horiz-adv-x="573" d="M210 -6Q172 -6 140 13T88 74T68 181Q68 211 72 243T80 295Q93 379 127 434T221 516T367 544Q416 544 461 536T542 513T602 479L526 0H372L362 53Q348 40 324 27T270 4T210 -6ZM297 132Q324 132 344 143T379 165L415
395Q409 398 394 402T359 406Q326 406 304 391T269 349T249 284Q245 262 243 243T241 212Q241 180 253 156T297 132ZM439 632Q420 632 420 650Q420 651 421 655T426 683T438 758Q441 782 463 782H543Q562 782 562 763Q562 763 562 758T557 730T545 654Q542 632
519 632H439ZM241 632Q222 632 222 650Q222 651 223 655T227 683T240 758Q243 782 265 782H345Q363 782 363 763Q363 763 363 758T359 730T346 654Q344 632 321 632H241Z" />
<glyph unicode="&#xe5;" horiz-adv-x="573" d="M210 -6Q172 -6 140 13T88 74T68 181Q68 211 72 243T80 295Q93 379 127 434T221 516T367 544Q416 544 461 536T542 513T602 479L526 0H372L362 53Q348 40 324 27T270 4T210 -6ZM297 132Q324 132 344 143T379 165L415
395Q409 398 394 402T359 406Q326 406 304 391T269 349T249 284Q245 262 243 243T241 212Q241 180 253 156T297 132ZM387 583Q332 583 302 605T271 683Q271 719 288 748T337 796T417 814Q472 814 502 791T532 713Q532 658 496 621T387 583ZM395 645Q425 645 438
664T452 711Q452 733 440 742T410 751Q378 751 365 731T351 686Q351 663 363 654T395 645Z" />
<glyph unicode="&#xe6;" horiz-adv-x="868" d="M215 -6Q176 -6 143 12T91 70T71 178Q71 284 94 354T157 467T249 526T357 544Q383 544 411 541T469 531T525 510Q536 519 557 525T601 536T643 542T670 545Q781 545 836 504T892 375Q892 318 869 278T798 217T671
196Q650 196 627 197T585 200T559 205Q558 198 558 192T557 179Q557 161 566 148T598 128T661 120H844L828 19Q799 12 759 6T674 -3T588 -6Q552 -6 518 2T459 27T421 67Q386 43 353 27T286 3T215 -6ZM295 134Q313 134 332 141T366 159T389 180Q389 187 389 195T389
210Q389 243 393 275T405 338T426 395Q418 399 403 402T374 406Q339 406 314 392T273 352T250 291T242 211Q242 177 254 156T295 134ZM633 290Q690 290 710 309T731 356Q731 385 716 399T673 413Q648 413 631 406T602 383T584 345T571 295Q575 294 584 293T606
291T633 290Z" />
<glyph unicode="&#xe7;" horiz-adv-x="473" d="M271 -6Q210 -6 165 13T96 77T72 201Q72 218 74 243T81 297Q95 388 130 442T216 520T332 544Q377 544 425 535T519 512L502 413H372Q333 413 309 396T272 347T249 269Q246 249 245 237T244 218Q244 185 253 165T281
134T327 124H465L449 26Q415 12 373 3T271 -6ZM126 55L137 125L154 128Q170 131 179 136T191 149T195 164Q195 173 188 181T162 192L233 207Q261 207 283 193T305 143Q305 120 292 100T252 68T181 55H126ZM162 192L226 274H303L239 192H162Z" />
<glyph unicode="&#xe8;" horiz-adv-x="548" d="M283 -6Q205 -6 159 18T92 89T71 199Q71 226 74 250T81 298Q95 388 132 442T228 520T365 545Q404 545 441 538T508 513T556 463T575 380Q575 323 557 287T508 231T436 204T348 196Q315 196 288 198T243 205Q242 199
242 192T241 177Q241 148 267 134T352 120H528L512 19Q469 10 410 2T283 -6ZM306 290Q347 290 370 298T404 322T414 361Q414 387 399 400T353 413Q324 413 304 400T272 361T254 295Q266 294 279 292T306 290ZM345 631L257 773H395L447 631H345Z" />
<glyph unicode="&#xe9;" horiz-adv-x="548" d="M283 -6Q205 -6 159 18T92 89T71 199Q71 226 74 250T81 298Q95 388 132 442T228 520T365 545Q404 545 441 538T508 513T556 463T575 380Q575 323 557 287T508 231T436 204T348 196Q315 196 288 198T243 205Q242 199
242 192T241 177Q241 148 267 134T352 120H528L512 19Q469 10 410 2T283 -6ZM306 290Q347 290 370 298T404 322T414 361Q414 387 399 400T353 413Q324 413 304 400T272 361T254 295Q266 294 279 292T306 290ZM325 631L414 773H560L435 631H325Z" />
<glyph unicode="&#xea;" horiz-adv-x="548" d="M283 -6Q205 -6 159 18T92 89T71 199Q71 226 74 250T81 298Q95 388 132 442T228 520T365 545Q404 545 441 538T508 513T556 463T575 380Q575 323 557 287T508 231T436 204T348 196Q315 196 288 198T243 205Q242 199
242 192T241 177Q241 148 267 134T352 120H528L512 19Q469 10 410 2T283 -6ZM306 290Q347 290 370 298T404 322T414 361Q414 387 399 400T353 413Q324 413 304 400T272 361T254 295Q266 294 279 292T306 290ZM218 631L345 775H462L534 631H434L389 699L318 631H218Z"
/>
<glyph unicode="&#xeb;" horiz-adv-x="548" d="M283 -6Q205 -6 159 18T92 89T71 199Q71 226 74 250T81 298Q95 388 132 442T228 520T365 545Q404 545 441 538T508 513T556 463T575 380Q575 323 557 287T508 231T436 204T348 196Q315 196 288 198T243 205Q242 199
242 192T241 177Q241 148 267 134T352 120H528L512 19Q469 10 410 2T283 -6ZM306 290Q347 290 370 298T404 322T414 361Q414 387 399 400T353 413Q324 413 304 400T272 361T254 295Q266 294 279 292T306 290ZM438 632Q419 632 419 650Q419 651 420 655T425 683T437
758Q440 782 462 782H542Q561 782 561 763Q561 763 561 758T556 730T544 654Q541 632 518 632H438ZM240 632Q221 632 221 650Q221 651 222 655T226 683T239 758Q242 782 264 782H344Q362 782 362 763Q362 763 362 758T358 730T345 654Q343 632 320 632H240Z" />
<glyph unicode="&#xec;" horiz-adv-x="269" d="M49 0L134 538H307L222 0H49ZM459 631L371 773H509L561 631H459Z" />
<glyph unicode="&#xed;" horiz-adv-x="269" d="M49 0L134 538H307L222 0H49ZM183 631L272 773H418L293 631H183Z" />
<glyph unicode="&#xee;" horiz-adv-x="269" d="M49 0L134 538H307L222 0H49ZM332 631L459 775H576L648 631H548L503 699L432 631H332Z" />
<glyph unicode="&#xef;" horiz-adv-x="269" d="M49 0L134 538H307L222 0H49ZM296 632Q277 632 277 650Q277 651 278 655T283 683T295 758Q298 782 320 782H400Q419 782 419 763Q419 763 419 758T414 730T402 654Q399 632 376 632H296ZM98 632Q79 632 79 650Q79
651 80 655T84 683T97 758Q100 782 122 782H202Q220 782 220 763Q220 763 220 758T216 730T203 654Q201 632 178 632H98Z" />
<glyph unicode="&#xf0;" horiz-adv-x="577" d="M77 269Q90 349 111 400T162 478T234 516T329 527Q381 527 424 507T492 452T518 372Q534 339 549 306T581 239Q566 140 531 87T436 14T288 -6Q216 -6 168 15T95 79T71 183Q71 208 72 228T77 269ZM246 244Q244 229
243 216T242 191Q242 168 249 155T270 137T306 132Q330 132 347 138T375 157T394 197T409 262Q412 287 414 306T417 343Q417 370 401 381T349 392Q324 392 307 386T279 363T261 319T246 244ZM218 763Q350 763 434 732T560 633T601 451Q601 405 596 352T581 239L449
335Q455 371 458 402T461 460Q461 536 434 577T349 635T200 652L218 763ZM604 761L618 708L232 552L217 605L604 761Z" />
<glyph unicode="&#xf1;" horiz-adv-x="596" d="M49 0L133 538H277L298 485Q330 510 374 527T474 544Q518 544 548 529T593 487T609 425Q609 407 608 384T597 308L549 0H376L424 302Q426 319 427 328T428 343Q428 365 416 377T374 389Q347 389 322 378T277 349L221
0H49ZM199 630Q217 704 251 732T328 761Q351 761 370 756T406 744T438 732T467 726Q484 726 494 737T508 767H594Q576 694 546 663T467 631Q446 631 426 636T387 648T354 660T327 666Q309 666 299 655T285 630H199Z" />
<glyph unicode="&#xf2;" horiz-adv-x="577" d="M288 -6Q216 -6 168 15T95 79T71 183Q71 213 73 238T79 286Q92 367 115 417T173 495T258 533T374 544Q463 544 509 523T572 457T589 346Q589 322 587 294T580 237Q565 139 530 86T435 14T288 -6ZM306 132Q330 132
347 138T375 157T394 196T408 262Q413 290 415 312T417 353Q417 385 402 397T351 409Q326 409 310 403T282 381T263 336T249 262Q245 241 244 224T242 191Q242 168 249 155T270 137T306 132ZM344 631L256 773H394L446 631H344Z" />
<glyph unicode="&#xf3;" horiz-adv-x="577" d="M288 -6Q216 -6 168 15T95 79T71 183Q71 213 73 238T79 286Q92 367 115 417T173 495T258 533T374 544Q463 544 509 523T572 457T589 346Q589 322 587 294T580 237Q565 139 530 86T435 14T288 -6ZM306 132Q330 132
347 138T375 157T394 196T408 262Q413 290 415 312T417 353Q417 385 402 397T351 409Q326 409 310 403T282 381T263 336T249 262Q245 241 244 224T242 191Q242 168 249 155T270 137T306 132ZM325 631L414 773H560L435 631H325Z" />
<glyph unicode="&#xf4;" horiz-adv-x="577" d="M288 -6Q216 -6 168 15T95 79T71 183Q71 213 73 238T79 286Q92 367 115 417T173 495T258 533T374 544Q463 544 509 523T572 457T589 346Q589 322 587 294T580 237Q565 139 530 86T435 14T288 -6ZM306 132Q330 132
347 138T375 157T394 196T408 262Q413 290 415 312T417 353Q417 385 402 397T351 409Q326 409 310 403T282 381T263 336T249 262Q245 241 244 224T242 191Q242 168 249 155T270 137T306 132ZM217 631L344 775H461L533 631H433L388 699L317 631H217Z" />
<glyph unicode="&#xf5;" horiz-adv-x="577" d="M288 -6Q216 -6 168 15T95 79T71 183Q71 213 73 238T79 286Q92 367 115 417T173 495T258 533T374 544Q463 544 509 523T572 457T589 346Q589 322 587 294T580 237Q565 139 530 86T435 14T288 -6ZM306 132Q330 132
347 138T375 157T394 196T408 262Q413 290 415 312T417 353Q417 385 402 397T351 409Q326 409 310 403T282 381T263 336T249 262Q245 241 244 224T242 191Q242 168 249 155T270 137T306 132ZM187 630Q205 704 239 732T316 761Q339 761 358 756T394 744T426 732T455
726Q472 726 482 737T496 767H582Q564 694 534 663T455 631Q434 631 414 636T375 648T342 660T315 666Q297 666 287 655T273 630H187Z" />
<glyph unicode="&#xf6;" horiz-adv-x="577" d="M288 -6Q216 -6 168 15T95 79T71 183Q71 213 73 238T79 286Q92 367 115 417T173 495T258 533T374 544Q463 544 509 523T572 457T589 346Q589 322 587 294T580 237Q565 139 530 86T435 14T288 -6ZM306 132Q330 132
347 138T375 157T394 196T408 262Q413 290 415 312T417 353Q417 385 402 397T351 409Q326 409 310 403T282 381T263 336T249 262Q245 241 244 224T242 191Q242 168 249 155T270 137T306 132ZM438 632Q419 632 419 650Q419 651 420 655T425 683T437 758Q440 782
462 782H542Q561 782 561 763Q561 763 561 758T556 730T544 654Q541 632 518 632H438ZM240 632Q221 632 221 650Q221 651 222 655T226 683T239 758Q242 782 264 782H344Q362 782 362 763Q362 763 362 758T358 730T345 654Q343 632 320 632H240Z" />
<glyph unicode="&#xf7;" horiz-adv-x="609" d="M270 80Q247 80 250 103L263 192Q268 217 291 217H391Q417 217 412 192L398 103Q396 90 388 85T369 80H270ZM336 496Q326 496 320 502T315 519L330 607Q333 632 358 632H457Q481 632 478 607L464 519Q462 506 455
501T436 496H336ZM125 287L148 425H596L573 287H125Z" />
<glyph unicode="&#xf8;" horiz-adv-x="572" d="M22 0L557 538H635L100 0H22ZM288 -6Q216 -6 168 15T95 79T71 183Q71 213 73 238T79 286Q92 367 115 417T173 495T258 533T374 544Q463 544 509 523T572 457T589 346Q589 322 587 294T580 237Q565 139 530 86T435
14T288 -6ZM306 132Q330 132 347 138T375 157T394 196T408 262Q413 290 415 312T417 353Q417 385 402 397T351 409Q326 409 310 403T282 381T263 336T249 262Q245 241 244 224T242 191Q242 168 249 155T270 137T306 132Z" />
<glyph unicode="&#xf9;" horiz-adv-x="596" d="M202 -6Q133 -6 102 28T71 121Q71 143 72 158T76 188L132 538H304L253 211Q252 206 252 203T252 193Q252 167 267 158T304 149Q335 149 359 160T404 189L459 538H632L547 0H393L383 53Q355 34 329 21T274 1T202 -6ZM366
631L278 773H416L468 631H366Z" />
<glyph unicode="&#xfa;" horiz-adv-x="596" d="M202 -6Q133 -6 102 28T71 121Q71 143 72 158T76 188L132 538H304L253 211Q252 206 252 203T252 193Q252 167 267 158T304 149Q335 149 359 160T404 189L459 538H632L547 0H393L383 53Q355 34 329 21T274 1T202 -6ZM346
631L435 773H581L456 631H346Z" />
<glyph unicode="&#xfb;" horiz-adv-x="596" d="M202 -6Q133 -6 102 28T71 121Q71 143 72 158T76 188L132 538H304L253 211Q252 206 252 203T252 193Q252 167 267 158T304 149Q335 149 359 160T404 189L459 538H632L547 0H393L383 53Q355 34 329 21T274 1T202 -6ZM239
631L366 775H483L555 631H455L410 699L339 631H239Z" />
<glyph unicode="&#xfc;" horiz-adv-x="596" d="M202 -6Q133 -6 102 28T71 121Q71 143 72 158T76 188L132 538H304L253 211Q252 206 252 203T252 193Q252 167 267 158T304 149Q335 149 359 160T404 189L459 538H632L547 0H393L383 53Q355 34 329 21T274 1T202 -6ZM460
632Q441 632 441 650Q441 651 442 655T447 683T459 758Q462 782 484 782H564Q583 782 583 763Q583 763 583 758T578 730T566 654Q563 632 540 632H460ZM262 632Q243 632 243 650Q243 651 244 655T248 683T261 758Q264 782 286 782H366Q384 782 384 763Q384 763
384 758T380 730T367 654Q365 632 342 632H262Z" />
<glyph unicode="&#xfd;" horiz-adv-x="582" d="M96 -237V-115Q161 -102 205 -77T276 0Q222 5 191 23T146 73T127 150L88 538H266L279 187Q280 169 287 159T306 145T328 140L429 402Q441 434 451 471T462 546H625Q625 486 609 421T558 281L429 9Q388 -79 339 -131T230
-207T96 -237ZM324 631L413 773H559L434 631H324Z" />
<glyph unicode="&#xfe;" horiz-adv-x="578" d="M10 -237L169 763H342L307 540Q330 542 355 543T410 544Q509 544 549 495T589 350Q589 325 587 298T579 241Q565 155 529 101T442 20T329 -6Q297 -6 269 -2T223 12L183 -237H10ZM306 140Q335 140 356 153T391 195T414
273Q416 285 417 296T419 319Q419 363 405 384T359 406L285 405L244 151Q252 147 261 145T282 142T306 140Z" />
<glyph unicode="&#xff;" horiz-adv-x="582" d="M96 -237V-115Q161 -102 205 -77T276 0Q222 5 191 23T146 73T127 150L88 538H266L279 187Q280 169 287 159T306 145T328 140L429 402Q441 434 451 471T462 546H625Q625 486 609 421T558 281L429 9Q388 -79 339 -131T230
-207T96 -237ZM437 632Q418 632 418 650Q418 651 419 655T424 683T436 758Q439 782 461 782H541Q560 782 560 763Q560 763 560 758T555 730T543 654Q540 632 517 632H437ZM239 632Q220 632 220 650Q220 651 221 655T225 683T238 758Q241 782 263 782H343Q361 782
361 763Q361 763 361 758T357 730T344 654Q342 632 319 632H239Z" />
<glyph unicode="&#x2013;" horiz-adv-x="515" d="M56 220L78 359H551L529 220H56Z" />
<glyph unicode="&#x2014;" horiz-adv-x="738" d="M56 220L78 359H774L752 220H56Z" />
<glyph unicode="&#x2018;" horiz-adv-x="238" d="M138 482Q118 482 118 501Q118 503 118 504T119 508L144 664Q150 704 171 724T219 751T269 758Q285 758 293 757T307 754L297 690Q276 690 270 680T262 661L259 639H270Q290 639 290 620Q290 619 290 618T290 615L273
508Q269 482 245 482H138Z" />
<glyph unicode="&#x2019;" horiz-adv-x="238" d="M158 482Q142 482 135 483T119 486L130 549Q151 549 157 560T164 579L167 600H157Q137 600 137 619Q137 621 137 622T137 624L154 732Q159 758 181 758H289Q308 758 308 739Q308 738 308 736T307 732L283 575Q276
535 255 516T207 489T158 482Z" />
<glyph unicode="&#x201a;" horiz-adv-x="238" d="M62 -124Q46 -124 35 -123T23 -121L34 -57Q55 -57 61 -46T68 -27L71 -6H61Q41 -6 41 13Q41 14 41 15T41 18L58 126Q63 151 85 151H193Q212 151 212 132Q212 131 212 130T211 126L187 -31Q180 -71 159 -91T111 -117T62
-124Z" />
<glyph unicode="&#x201c;" horiz-adv-x="423" d="M138 482Q118 482 118 501Q118 503 118 504T119 508L144 664Q150 704 171 724T219 751T269 758Q285 758 293 757T307 754L297 690Q276 690 270 680T262 661L259 639H270Q290 639 290 620Q290 619 290 618T290 615L273
508Q269 482 245 482H138ZM323 482Q303 482 303 501Q303 503 303 504T304 508L329 664Q335 704 356 724T404 751T454 758Q470 758 478 757T492 754L482 690Q461 690 455 680T447 661L444 639H455Q475 639 475 620Q475 619 475 618T475 615L458 508Q454 482 430
482H323Z" />
<glyph unicode="&#x201d;" horiz-adv-x="423" d="M158 482Q142 482 135 483T119 486L130 549Q151 549 157 560T164 579L167 600H157Q137 600 137 619Q137 621 137 622T137 624L154 732Q159 758 181 758H289Q308 758 308 739Q308 738 308 736T307 732L283 575Q276
535 255 516T207 489T158 482ZM343 482Q327 482 320 483T304 486L315 549Q336 549 342 560T349 579L352 600H342Q322 600 322 619Q322 621 322 622T322 624L339 732Q344 758 366 758H474Q493 758 493 739Q493 738 493 736T492 732L468 575Q461 535 440 516T392
489T343 482Z" />
<glyph unicode="&#x201e;" horiz-adv-x="423" d="M62 -124Q46 -124 35 -123T23 -121L34 -57Q55 -57 61 -46T68 -27L71 -6H61Q41 -6 41 13Q41 14 41 15T41 18L58 126Q63 151 85 151H193Q212 151 212 132Q212 131 212 130T211 126L187 -31Q180 -71 159 -91T111 -117T62
-124ZM247 -124Q231 -124 220 -123T208 -121L219 -57Q240 -57 246 -46T253 -27L256 -6H246Q226 -6 226 13Q226 14 226 15T226 18L243 126Q248 151 270 151H378Q397 151 397 132Q397 131 397 130T396 126L372 -31Q365 -71 344 -91T296 -117T247 -124Z" />
<glyph unicode="&#x2022;" horiz-adv-x="310" d="M128 282Q96 282 101 314L123 449Q125 465 135 474T162 484H291Q326 484 320 449L298 314Q295 296 284 289T257 282H128Z" />
<glyph unicode="&#x2039;" horiz-adv-x="373" d="M261 58L69 283L327 504L400 419L241 283L359 145L261 58Z" />
<glyph unicode="&#x203a;" horiz-adv-x="373" d="M125 58L56 146L215 283L99 419L199 504L388 283L125 58Z" />
</font>
</defs>
</svg>
