<?xml version="1.0" standalone="no"?>
<!DOCTYPE svg PUBLIC "-//W3C//DTD SVG 1.1//EN" "http://www.w3.org/Graphics/SVG/1.1/DTD/svg11.dtd">
<svg xmlns="http://www.w3.org/2000/svg">
<defs >
<font id="Exo" horiz-adv-x="533" ><font-face
    font-family="Exo"
    units-per-em="1000"
    panose-1="0 0 0 0 0 0 0 0 0 0"
    ascent="1002"
    descent="-327"
    alphabetic="0" />
<glyph unicode=" " horiz-adv-x="270" />
<glyph unicode="!" horiz-adv-x="266" d="M102 199L92 735H171L159 199H102ZM108 -1Q92 -1 92 15V95Q92 111 108 111H153Q169 111 169 95V15Q169 7 164 3T153 -1H108Z" />
<glyph unicode="&quot;" horiz-adv-x="285" d="M48 507L40 679V746H117V679L109 507H48ZM174 507L166 679V746H243V679L235 507H174Z" />
<glyph unicode="#" horiz-adv-x="685" d="M150 0L188 230H22L30 281H198L225 448H56L65 499H235L275 732H326L286 499H440L479 732H530L491 499H665L658 448H482L456 281H630L623 230H445L406 0H355L394 230H239L201 0H150ZM249 281H405L431 448H276L249 281Z" />
<glyph unicode="$" horiz-adv-x="609" d="M279 727L267 763L302 824L314 790L279 727ZM267 -89V6L314 5V-89H267ZM286 -6Q264 -6 234 -5T171 -1T111 5T63 12V73Q88 71 124 69T201 66T283 65Q328 65 364 74T421 107T443 176V226Q443 277 417 303T333 330H254Q163
330 112 370T60 508V550Q60 654 116 698T274 742Q306 742 346 739T423 731T486 721V660Q442 664 387 667T282 670Q237 670 204 660T154 623T136 547V513Q136 452 168 429T257 406H342Q403 406 442 384T500 324T519 235V178Q519 104 488 64T404 9T286 -6Z" />
<glyph unicode="%" horiz-adv-x="959" d="M226 0L669 732H723L283 0H226ZM177 349Q104 349 75 381T46 477V604Q46 668 74 700T179 732H280Q354 732 382 700T410 604V477Q410 413 382 381T278 349H177ZM185 400H269Q317 400 337 418T358 487V594Q358 642 340 661T271
681H187Q142 681 120 665T98 594V487Q98 439 117 420T185 400ZM680 3Q607 3 579 35T550 131V258Q550 322 578 354T682 386H783Q857 386 885 354T913 258V131Q913 67 885 35T781 3H680ZM688 54H773Q820 54 841 72T862 141V248Q862 296 844 315T775 335H690Q645 335
623 319T601 248V141Q601 93 621 74T688 54Z" />
<glyph unicode="&amp;" horiz-adv-x="673" d="M235 -6Q179 -6 135 18T66 86T40 189Q40 241 63 289T135 378L201 434L183 461Q152 505 142 539T132 601Q132 650 155 679T217 721T303 734Q342 734 373 732T428 728T474 721V664H316Q270 664 241 647T211 587Q211
562 222 536T261 473L460 202L609 341L638 307L569 214L501 149L612 0H526L449 103L415 73Q368 30 326 12T235 -6ZM247 68Q278 68 308 80T373 127L405 157L240 379L188 334Q147 300 132 266T116 197Q116 138 151 103T247 68Z" />
<glyph unicode="&apos;" horiz-adv-x="159" d="M48 507L40 679V746H117V679L109 507H48Z" />
<glyph unicode="(" horiz-adv-x="347" d="M251 -210Q202 -134 164 -53T104 122T82 326Q82 434 104 527T165 702T251 860H324Q279 781 242 697T183 521T161 326Q161 223 181 133T239 -40T325 -210H251Z" />
<glyph unicode=")" horiz-adv-x="346" d="M22 -210Q72 -126 108 -42T165 132T185 325Q185 428 166 516T111 688T22 860H96Q147 782 185 701T243 528T264 325Q264 217 244 125T185 -49T96 -210H22Z" />
<glyph unicode="*" horiz-adv-x="452" d="M297 522L266 558L380 641L399 614L297 522ZM155 402L125 412L155 547L202 537L155 402ZM198 578L55 584V616L196 625L198 578ZM341 414L219 483L243 525L360 440L341 414ZM241 590L190 723L221 733L286 609L241 590Z" />
<glyph unicode="+" horiz-adv-x="609" d="M271 132V580H337V132H271ZM80 323V389H528V323H80Z" />
<glyph unicode="," horiz-adv-x="200" d="M90 -78Q80 -78 73 -77T65 -75V-50Q76 -50 81 -47T86 -33V5H78Q72 5 67 9T62 21V93Q62 111 78 111H121Q131 111 134 106T137 93V-29Q137 -49 130 -60T112 -74T90 -78Z" />
<glyph unicode="-" horiz-adv-x="343" d="M25 257V323H318V257H25Z" />
<glyph unicode="." horiz-adv-x="200" d="M78 -1Q62 -1 62 15V95Q62 111 78 111H122Q138 111 138 95V15Q138 7 134 3T122 -1H78Z" />
<glyph unicode="/" horiz-adv-x="402" d="M22 -72L303 770H380L99 -72H22Z" />
<glyph unicode="0" horiz-adv-x="655" d="M259 -2Q206 -2 165 16T100 73T76 173V563Q76 622 99 661T164 721T259 742H402Q464 742 503 720T560 657T579 563V173Q579 82 531 40T402 -2H259ZM274 69H384Q445 69 472 99T499 183V557Q499 614 471 642T387 670H272Q218
670 187 641T156 557V183Q156 126 187 98T274 69Z" />
<glyph unicode="1" horiz-adv-x="362" d="M195 0V665L44 624V675L202 743H275V0H195Z" />
<glyph unicode="2" horiz-adv-x="593" d="M54 0V65L326 326Q368 365 392 399T428 467T439 543Q439 579 426 607T378 651T280 667H80V728Q126 733 181 737T297 742Q381 742 429 718T498 652T518 552Q518 501 505 458T462 374T387 289L162 73H545V0H54Z" />
<glyph unicode="3" horiz-adv-x="585" d="M310 -6Q231 -6 163 -3T43 7V68H284Q327 68 361 77T414 110T434 180V229Q434 268 415 291T366 324T306 335L117 342V400L303 408Q357 410 390 431T424 504V553Q424 608 388 637T278 667H68V728Q114 734 173 738T307 742Q373
741 416 720T481 660T502 569V506Q502 472 492 448T465 407T430 383T396 371Q413 367 433 357T471 328T502 283T514 219V168Q514 83 461 39T310 -6Z" />
<glyph unicode="4" horiz-adv-x="595" d="M391 1V188H44L26 231L303 736H385L118 256H391V452L408 520H470V256H571V201L470 188V1H391Z" />
<glyph unicode="5" horiz-adv-x="630" d="M338 -5Q270 -5 203 -2T83 6V67H339Q384 67 417 81T468 123T487 188V268Q487 320 457 349T365 379H286Q241 379 214 359T179 295H104L125 736H542V664H194L181 394Q193 414 223 430T301 447H389Q447 447 486 426T546 367T567
282V173Q567 113 538 74T458 15T338 -5Z" />
<glyph unicode="6" horiz-adv-x="623" d="M274 -3Q228 -3 190 13T126 71T86 184T71 368Q71 467 88 538T140 654T222 720T332 742Q374 742 425 739T515 731V670H333Q248 670 200 605T151 405Q181 409 217 411T290 414T354 415Q420 415 466 400T535 351T559 261V158Q559
99 536 64T474 13T388 -3H274ZM287 69H373Q403 69 427 77T465 107T480 170V248Q480 290 463 311T414 339T336 347H151Q151 264 160 210T186 125T229 82T287 69Z" />
<glyph unicode="7" horiz-adv-x="543" d="M146 0L403 656H33V736H478L504 695L235 0H146Z" />
<glyph unicode="8" horiz-adv-x="643" d="M261 -2Q221 -2 189 6T132 31T95 76T82 144V250Q82 286 96 311T133 352T176 373Q145 387 128 407T103 452T96 503V587Q96 643 117 676T176 725T258 741H396Q442 741 476 726T529 677T548 587V503Q548 486 544 467T530
431T506 401T473 383Q505 377 524 357T552 311T562 256V144Q562 91 541 59T483 13T396 -2H261ZM272 66H380Q433 66 458 88T483 155V248Q483 298 459 319T376 341H272Q256 341 237 336T201 321T172 292T161 248V155Q161 106 192 86T272 66ZM272 409H375Q411 409
431 423T461 458T470 501V570Q470 628 448 650T381 673H272Q220 673 197 649T174 570V501Q174 460 197 435T272 409Z" />
<glyph unicode="9" horiz-adv-x="623" d="M293 -5Q251 -5 200 -2T110 6V67H292Q378 67 426 132T474 332Q444 328 408 326T335 323T271 322Q204 322 159 337T90 386T66 476V579Q66 638 89 673T150 724T236 740H350Q397 740 434 724T498 666T539 553T553 369Q553
270 536 199T485 83T403 17T293 -5ZM289 390H474Q474 473 465 527T439 612T396 655T337 668H251Q222 668 198 660T159 630T144 567V489Q144 447 161 426T211 398T289 390Z" />
<glyph unicode=":" horiz-adv-x="200" d="M78 -1Q62 -1 62 15V95Q62 111 78 111H122Q138 111 138 95V15Q138 7 134 3T122 -1H78ZM78 422Q62 422 62 438V518Q62 534 78 534H122Q138 534 138 518V438Q138 430 134 426T122 422H78Z" />
<glyph unicode=";" horiz-adv-x="200" d="M78 422Q62 422 62 438V518Q62 534 78 534H122Q138 534 138 518V438Q138 430 134 426T122 422H78ZM90 -78Q80 -78 73 -77T65 -75V-50Q76 -50 81 -47T86 -33V5H78Q72 5 67 9T62 21V93Q62 111 78 111H121Q131 111 134 106T137
93V-29Q137 -49 130 -60T112 -74T90 -78Z" />
<glyph unicode="&lt;" horiz-adv-x="609" d="M511 177L96 313V385L511 519V450L171 350L511 246V177Z" />
<glyph unicode="=" horiz-adv-x="609" d="M80 459V525H528V459H80ZM80 443V509H528V443H80Z" />
<glyph unicode="&gt;" horiz-adv-x="609" d="M98 177V246L438 349L98 450V519L513 385V313L98 177Z" />
<glyph unicode="?" horiz-adv-x="531" d="M170 199V356H220Q301 356 337 380T373 471V530Q373 606 341 637T237 668Q186 668 141 659T45 629V686Q91 713 144 725T257 739Q329 740 371 716T433 647T453 541V470Q453 381 401 337T231 293V199H170ZM178 -1Q162 -1
162 15V95Q162 111 178 111H222Q238 111 238 95V15Q238 7 234 3T222 -1H178Z" />
<glyph unicode="@" horiz-adv-x="873" d="M262 -164Q222 -164 187 -153T126 -117T86 -56T71 33V355Q71 375 75 399T89 447T121 492T177 526T262 539H453Q483 539 512 533T566 511T604 466T619 389V27H570L558 87Q557 87 539 77T493 53T431 29T362 18Q321 18 293
35T249 82T234 145V191Q234 249 270 281T372 314H556V384Q556 434 529 455T453 476H262Q225 476 197 465T151 427T134 352V40Q134 -15 154 -45T203 -88T262 -100H581Q653 -100 685 -64T718 40V519Q718 586 684 627T581 669H187V716Q211 721 257 724T363 730T485
732H581Q622 732 658 720T722 682T765 616T781 519V40Q781 -24 761 -69T698 -139T584 -164H262ZM386 81Q411 81 443 89T506 110T556 134V271L386 262Q368 261 348 257T314 237T300 192V157Q300 122 322 102T386 81Z" />
<glyph unicode="A" horiz-adv-x="674" d="M34 0L286 736H388L640 0H558L484 210H188L116 0H34ZM208 282H464L337 666L208 282Z" />
<glyph unicode="B" horiz-adv-x="603" d="M77 0V736H343Q438 736 485 689T533 547Q533 501 519 467T482 412T429 382Q449 377 471 366T514 333T546 280T559 204Q559 126 534 82T463 19T353 0H77ZM157 71H351Q391 71 420 83T466 127T483 217Q483 258 466 287T418
331T351 347H157V71ZM157 410H348Q395 410 425 444T457 536Q459 607 427 635T343 664H157V410Z" />
<glyph unicode="C" horiz-adv-x="581" d="M318 -6Q252 -6 203 9T122 63T75 177T59 370Q59 482 75 554T123 668T206 725T324 742Q355 742 393 738T468 729T535 715V656Q518 659 487 662T417 667T336 670Q283 670 245 658T184 614T149 522T138 369Q138 274 148 214T182
121T242 77T334 65Q409 65 457 69T535 78V18Q505 11 469 6T394 -3T318 -6Z" />
<glyph unicode="D" horiz-adv-x="669" d="M77 0V736H368Q435 736 481 712T555 640T597 525T610 368Q610 252 583 170T502 44T368 0H77ZM157 71H362Q421 71 458 107T513 210T531 368Q531 450 521 506T491 598T438 648T362 664H157V71Z" />
<glyph unicode="E" horiz-adv-x="587" d="M233 -4Q209 -4 182 0T131 19T92 61T77 139V588Q77 631 89 659T123 704T170 728T222 736Q284 735 337 734T437 731T530 727V663H242Q203 663 180 642T157 575V401L486 396V335L157 330V157Q157 120 169 101T203 76T246
70H530V6Q484 3 434 1T333 -2T233 -4Z" />
<glyph unicode="F" horiz-adv-x="567" d="M77 0V588Q77 631 89 659T123 704T170 728T222 736Q266 735 317 734T423 732T530 726V663H241Q201 663 179 641T157 576V385L486 380V319L157 314V0H77Z" />
<glyph unicode="G" horiz-adv-x="653" d="M295 -5Q225 -6 179 16T107 85T70 202T59 370Q59 463 70 533T110 649T186 719T308 742Q347 742 389 739T471 730T545 716V656Q525 659 489 662T409 668T320 670Q248 670 209 641T154 545T138 369Q138 281 146 223T175
131T229 83T317 68Q364 68 414 80T499 106V323H321V382Q340 385 367 387T424 390T486 392Q512 392 535 392T575 388V0H517L505 52Q469 34 414 15T295 -5Z" />
<glyph unicode="H" horiz-adv-x="682" d="M77 0V736H157V395H525V736H604V0H525V323H157V0H77Z" />
<glyph unicode="I" horiz-adv-x="234" d="M77 0V736H157V0H77Z" />
<glyph unicode="J" horiz-adv-x="385" d="M140 -6Q112 -6 80 1T27 17V78Q48 74 75 70T125 65Q157 65 180 74T215 106T228 171V736H307V161Q307 101 289 64T234 11T140 -6Z" />
<glyph unicode="K" horiz-adv-x="605" d="M77 0V736H157V403H286L488 736H572L349 368L575 0H490L286 331H157V0H77Z" />
<glyph unicode="L" horiz-adv-x="532" d="M225 0Q182 0 149 13T96 59T77 148V736H157V159Q157 123 169 105T201 80T242 73H506V0H225Z" />
<glyph unicode="M" horiz-adv-x="835" d="M57 0L141 736H222L418 100L610 736H692L778 0H701L627 645L640 643L454 0H381L190 642L205 644L134 0H57Z" />
<glyph unicode="N" horiz-adv-x="683" d="M91 0V736H156L540 137V736H619V0H554L170 599V0H91Z" />
<glyph unicode="O" horiz-adv-x="686" d="M343 -6Q272 -6 219 7T130 59T77 171T59 365Q59 485 77 559T131 673T220 727T343 742Q415 742 468 728T557 674T610 560T627 365Q627 245 610 171T557 59T468 8T343 -6ZM343 65Q399 65 438 76T501 118T537 209T548 365Q548
466 537 527T501 619T438 660T343 670Q291 670 253 660T189 619T151 527T138 365Q138 268 148 209T183 119T246 76T343 65Z" />
<glyph unicode="P" horiz-adv-x="604" d="M77 0V736H370Q402 736 435 728T498 695T544 624T562 501Q562 423 544 376T496 303T432 268T366 259Q351 259 322 260T261 262T200 266T157 269V0H77ZM157 330H356Q391 330 420 345T465 397T482 500Q482 565 466 600T422
650T363 664H157V330Z" />
<glyph unicode="Q" horiz-adv-x="686" d="M506 -170Q469 -170 435 -155T376 -110T346 -35H400Q412 -74 442 -91T505 -109Q519 -109 532 -107T557 -100V-162Q545 -165 533 -167T506 -170ZM343 -6Q272 -6 219 7T130 59T77 171T59 365Q59 485 77 559T131 673T220
727T343 742Q415 742 468 728T557 674T610 560T627 365Q627 245 610 171T557 59T468 8T343 -6ZM343 65Q399 65 438 76T501 118T537 209T548 365Q548 466 537 527T501 619T438 660T343 670Q291 670 253 660T189 619T151 527T138 365Q138 268 148 209T183 119T246
76T343 65Z" />
<glyph unicode="R" horiz-adv-x="608" d="M77 0V736H367Q403 736 437 728T498 696T542 631T558 519Q558 459 545 421T511 360T466 327T418 312L569 0H488L345 301Q329 301 305 302T254 303T202 304T157 305V0H77ZM157 366H355Q381 366 403 372T442 394T469 441T479
519Q479 565 469 593T442 637T402 658T355 664H157V366Z" />
<glyph unicode="S" horiz-adv-x="578" d="M286 -6Q264 -6 234 -5T171 -1T111 5T63 12V73Q88 71 124 69T201 66T283 65Q328 65 364 74T421 107T443 176V226Q443 277 417 303T333 330H254Q163 330 112 370T60 508V550Q60 654 116 698T274 742Q306 742 346 739T423
731T486 721V660Q442 664 387 667T282 670Q237 670 204 660T154 623T136 547V513Q136 452 168 429T257 406H342Q403 406 442 384T500 324T519 235V178Q519 104 488 64T404 9T286 -6Z" />
<glyph unicode="T" horiz-adv-x="566" d="M243 0V664H16V736H550V664H323V0H243Z" />
<glyph unicode="U" horiz-adv-x="676" d="M338 -6Q276 -6 226 5T141 42T86 114T67 228V736H147V228Q147 165 169 130T235 81T338 66Q398 66 441 80T506 130T529 228V736H609V228Q609 160 590 115T536 43T450 5T338 -6Z" />
<glyph unicode="V" horiz-adv-x="674" d="M286 0L34 736H116L338 83L559 736H640L388 0H286Z" />
<glyph unicode="W" horiz-adv-x="991" d="M223 0L34 736H116L274 109L456 736H536L717 109L875 736H957L768 0H682L496 625L309 0H223Z" />
<glyph unicode="X" horiz-adv-x="623" d="M499 0L35 736H122L586 0H499ZM38 0L278 385L318 317L125 0H38ZM345 341L307 413L501 736H588L345 341Z" />
<glyph unicode="Y" horiz-adv-x="618" d="M269 0V244L35 736H118L310 324L502 736H582L349 244V0H269Z" />
<glyph unicode="Z" horiz-adv-x="560" d="M43 0V65L426 664H43V736H522V671L139 71H522V0H43Z" />
<glyph unicode="[" horiz-adv-x="333" d="M249 -210Q198 -210 167 -191T120 -143T99 -82T93 -22V660Q93 692 99 724T123 782T170 825T249 842H312V777H268Q226 777 199 748T172 650V-18Q172 -56 182 -84T213 -129T268 -145H312V-210H249Z" />
<glyph unicode="\" horiz-adv-x="402" d="M303 -72L22 770H99L380 -72H303Z" />
<glyph unicode="]" horiz-adv-x="333" d="M22 -210V-145H65Q100 -145 121 -129T151 -85T161 -18V650Q161 719 135 748T65 777H22V842H85Q132 842 163 826T210 783T233 724T240 660V-22Q240 -49 235 -81T214 -143T167 -191T85 -210H22Z" />
<glyph unicode="^" horiz-adv-x="398" d="M55 531L177 664H233L343 531H295L203 625L104 531H55Z" />
<glyph unicode="_" horiz-adv-x="609" d="M0 -164V-97H609V-164H0Z" />
<glyph unicode="`" horiz-adv-x="215" d="M147 631L22 767H89L193 631H147Z" />
<glyph unicode="a" horiz-adv-x="545" d="M180 -6Q121 -6 83 29T45 128V166Q45 229 86 268T212 307H393V373Q393 406 382 429T341 466T255 479H89V526Q124 532 170 537T280 542Q345 543 388 526T451 473T472 377V0H411L396 61Q392 57 372 47T320 25T252 3T180
-6ZM213 53Q231 52 254 57T301 68T345 82T379 94T393 99V267L230 260Q173 258 149 232T124 165V141Q124 109 137 90T171 62T213 53Z" />
<glyph unicode="b" horiz-adv-x="578" d="M333 -6Q295 -6 263 3T203 26T155 54L140 0H76V763H155V485Q193 507 241 524T330 541Q394 541 436 514T499 426T521 263Q521 180 502 120T442 27T333 -6ZM308 60Q352 60 381 82T426 151T442 266Q442 354 425 398T377 459T308
475Q263 475 228 463T155 430V103Q186 88 223 74T308 60Z" />
<glyph unicode="c" horiz-adv-x="490" d="M270 -6Q225 -6 186 6T118 48T73 131T57 266Q57 349 72 402T115 486T183 528T272 540Q312 540 359 537T449 526V479H293Q242 479 207 462T154 399T136 264Q136 179 155 134T209 73T294 56H457V10Q434 6 404 2T339 -4T270 -6Z" />
<glyph unicode="d" horiz-adv-x="575" d="M249 -6Q183 -6 141 22T78 110T57 263Q57 362 77 423T141 513T259 541Q304 541 347 531T423 509V763H502V0H438L423 54Q408 41 379 27T315 4T249 -6ZM272 59Q318 59 355 73T423 104V453Q387 464 354 471T280 479Q229 479
197 460T151 395T136 266Q136 192 149 146T193 80T272 59Z" />
<glyph unicode="e" horiz-adv-x="541" d="M280 -6Q196 -6 148 19T78 104T57 268Q57 374 78 433T149 517T281 541Q352 541 396 525T462 471T484 364Q484 317 466 289T413 248T331 235H136Q137 170 150 131T197 74T299 56H471V8Q425 2 381 -2T280 -6ZM135 287H325Q370
287 391 303T413 363Q413 409 400 434T358 470T281 481Q225 481 193 465T148 406T135 287Z" />
<glyph unicode="f" horiz-adv-x="368" d="M105 0V469H23V520L105 534V595Q105 652 119 690T166 749T258 769Q293 769 317 766T361 759V703H272Q236 703 217 692T191 657T184 599V534H350V469H184V0H105Z" />
<glyph unicode="g" horiz-adv-x="576" d="M207 -245Q155 -245 116 -231T54 -187T31 -113V-89Q31 -43 56 -12T121 34T201 50L221 18Q191 18 165 9T123 -22T106 -76V-98Q106 -146 138 -166T225 -187H349Q409 -187 443 -164T478 -92V-72Q478 -44 467 -24T431 7T359
18H198Q136 18 102 44T67 113Q67 153 90 176T157 208Q120 223 99 248T70 303T62 363Q62 425 87 463T158 518T268 535H553V490L433 480Q446 471 462 457T489 416T501 343Q501 302 484 265T425 205T312 181H227Q185 181 161 169T136 124Q136 100 154 90T192 80H369Q431
80 471 64T532 16T553 -67V-89Q553 -162 504 -203T356 -245H207ZM244 242H304Q355 242 381 257T418 298T428 352Q428 397 414 423T373 461T313 473H256Q199 473 167 448T134 359Q134 297 163 270T244 242Z" />
<glyph unicode="h" horiz-adv-x="588" d="M76 0V763H155V475Q192 502 243 522T351 543Q407 543 443 519T497 454T515 363V0H436V355Q436 389 423 415T384 456T324 471Q291 471 263 465T209 447T155 419V0H76Z" />
<glyph unicode="i" horiz-adv-x="231" d="M88 629Q72 629 72 645V723Q72 739 88 739H144Q152 739 155 735T159 723V645Q159 629 144 629H88ZM76 0V534H155V0H76Z" />
<glyph unicode="j" horiz-adv-x="231" d="M87 629Q71 629 71 645V723Q71 739 87 739H144Q152 739 155 735T159 723V645Q159 629 144 629H87ZM76 -237V534H155V17Q155 -55 149 -123T135 -237H76Z" />
<glyph unicode="k" horiz-adv-x="506" d="M76 0V763H155V321H231L394 534H478L290 285L490 0H406L228 250H155V0H76Z" />
<glyph unicode="l" horiz-adv-x="294" d="M216 -1Q170 -1 139 15T92 69T76 171V763H155V181Q155 133 164 109T190 75T230 62L284 56V-1H216Z" />
<glyph unicode="m" horiz-adv-x="948" d="M76 0V534H138L155 475Q195 503 244 523T355 543Q405 543 440 521T494 464Q519 482 554 500T630 530T709 543Q767 543 804 519T858 453T876 360V0H797V354Q797 388 784 414T745 456T684 471Q639 471 592 454T505 413Q510
398 512 384T515 353V0H436V354Q436 388 423 414T385 456T324 471Q291 471 263 465T209 447T155 419V0H76Z" />
<glyph unicode="n" horiz-adv-x="588" d="M76 0V534H138L155 475Q193 502 244 522T350 543Q409 543 445 518T498 452T515 363V0H436V354Q436 388 423 414T385 456T324 471Q291 471 263 465T209 447T155 419V0H76Z" />
<glyph unicode="o" horiz-adv-x="577" d="M288 -6Q230 -6 187 6T114 48T71 131T57 268Q57 352 71 405T114 488T186 529T288 541Q346 541 389 529T462 488T505 405T520 268Q520 184 506 131T463 48T390 6T288 -6ZM288 59Q325 59 353 66T401 94T430 157T440 268Q440
338 430 379T401 441T354 469T288 476Q250 476 222 469T175 441T146 379T136 268Q136 199 146 157T175 94T222 66T288 59Z" />
<glyph unicode="p" horiz-adv-x="578" d="M76 -237V534H140L155 479Q173 492 201 506T263 531T330 541Q382 541 418 519T478 458T511 371T521 268Q521 178 501 117T438 24T330 -7Q285 -7 240 7T155 44V-237H76ZM308 60Q346 60 376 79T424 143T442 268Q442 343
423 388T374 454T308 475Q262 475 224 461T155 430V103Q190 84 229 72T308 60Z" />
<glyph unicode="q" horiz-adv-x="575" d="M423 -237V54Q385 28 338 11T247 -6Q177 -6 135 24T75 116T57 268Q57 360 78 421T143 511T257 541Q305 541 350 539T434 534T502 527V-237H423ZM266 59Q307 59 346 71T423 104V479H275Q222 479 192 453T149 380T136 270Q136
195 149 149T191 81T266 59Z" />
<glyph unicode="r" horiz-adv-x="412" d="M76 0V534H136L155 441Q191 484 235 512T338 540Q352 540 364 539T388 535V454Q375 456 360 457T330 459Q293 459 264 450T209 423T155 379V0H76Z" />
<glyph unicode="s" horiz-adv-x="500" d="M260 -6Q240 -6 211 -5T151 -2T94 2T54 8V56H273Q306 56 330 61T367 83T381 134V158Q381 193 358 212T284 232H209Q162 232 126 244T69 285T49 365V393Q49 443 68 475T129 523T237 539Q265 539 301 537T373 532T430 524V476H224Q173
476 146 459T118 393V371Q118 340 131 325T167 304T222 299H298Q371 299 411 265T451 167V130Q451 76 427 47T360 6T260 -6Z" />
<glyph unicode="t" horiz-adv-x="367" d="M253 0Q201 0 167 17T117 72T102 173L105 469H20V520L106 534L119 683H180V534H334V469H180V173Q180 138 187 117T207 85T234 70T261 64L326 58V0H253Z" />
<glyph unicode="u" horiz-adv-x="588" d="M235 -6Q158 -6 117 34T75 158V534H154V178Q154 111 184 88T270 64Q317 64 356 77T436 115V534H515V0H453L436 59Q395 33 344 14T235 -6Z" />
<glyph unicode="v" horiz-adv-x="536" d="M220 0L19 534H100L266 74L437 534H517L310 0H220Z" />
<glyph unicode="w" horiz-adv-x="797" d="M181 0L19 534H100L231 74L366 534H435L570 74L697 534H778L617 0H530L399 428L267 0H181Z" />
<glyph unicode="x" horiz-adv-x="507" d="M404 0L22 534H103L486 0H404ZM22 0L223 289L253 218L102 0H22ZM284 243L249 306L404 533L486 534L284 243Z" />
<glyph unicode="y" horiz-adv-x="541" d="M219 -237L287 0Q262 1 235 12T185 50T147 125L19 534H102L221 142Q232 111 244 96T270 75T292 69T304 68L441 534H522L327 -138L281 -237H219Z" />
<glyph unicode="z" horiz-adv-x="494" d="M51 0V60L359 469H43V534H451V474L142 65H451V0H51Z" />
<glyph unicode="{" horiz-adv-x="310" d="M288 -210Q229 -210 192 -197T136 -159T109 -104T101 -38V229Q101 251 90 266T60 290T22 296V371Q39 373 57 379T89 398T102 438V656Q102 708 119 750T176 817T288 842V777Q252 777 228 764T193 719T181 630V427Q181 384
156 362T93 334Q131 328 155 304T180 244V-15Q180 -90 205 -119T288 -148V-210Z" />
<glyph unicode="|" horiz-adv-x="253" d="M93 -72V770H159V-72H93Z" />
<glyph unicode="}" horiz-adv-x="310" d="M22 -210V-148Q79 -148 104 -119T130 -15V244Q130 280 154 304T217 334Q179 339 154 361T129 427V630Q129 687 118 718T82 763T22 777V842Q94 842 134 817T191 750T208 656V438Q208 412 221 399T253 379T288 371V296Q268
298 250 290T221 267T209 229V-38Q209 -73 202 -104T175 -159T118 -196T22 -210Z" />
<glyph unicode="~" horiz-adv-x="451" d="M288 538Q272 538 255 547T221 568T189 589T162 598Q136 598 114 586T66 553L55 580Q79 605 106 624T167 644Q183 644 199 635T232 613T263 592T289 583Q316 583 341 600T384 632L396 603Q374 578 348 558T288 538Z" />
<glyph unicode="&#xa0;" horiz-adv-x="270" />
<glyph unicode="&#xa1;" horiz-adv-x="266" d="M164 334L174 -201H95L106 334H164ZM157 534Q173 534 173 519V439Q173 423 157 423H113Q97 423 97 439V519Q97 527 101 530T113 534H157Z" />
<glyph unicode="&#xa2;" horiz-adv-x="487" d="M239 -86V-5Q198 -5 163 6T101 46T59 128T44 266Q44 351 58 404T99 486T161 525T240 536V623H288V535Q322 532 361 525T436 507V460Q408 466 365 470T261 474Q228 474 202 467T159 437T132 373T123 263Q123 198 132
158T160 95T204 65T266 57Q307 57 338 59T394 66T443 75V27Q399 10 364 4T286 -5V-86H239Z" />
<glyph unicode="&#xa3;" horiz-adv-x="609" d="M63 0V59L172 71V334L63 340V382L172 392V518Q172 604 197 652T270 719T384 738Q426 738 466 735T532 728V666H388Q343 666 313 656T267 615T252 525V392L466 385V340L252 334V71H544V0H63Z" />
<glyph unicode="&#xa4;" horiz-adv-x="609" d="M304 191Q259 191 222 213T163 273T140 356Q140 402 162 439T222 498T304 521Q350 521 387 499T446 439T469 356Q469 311 447 274T387 214T304 191ZM114 129L77 166L185 274L222 237L114 129ZM181 442L77 546L114
583L218 479L181 442ZM494 129L388 235L425 272L531 166L494 129ZM304 238Q336 238 363 254T406 297T422 356Q422 388 406 415T363 458T304 474Q273 474 246 458T204 415T188 356Q188 324 203 297T246 254T304 238ZM425 440L388 477L494 583L531 546L425 440Z"
/>
<glyph unicode="&#xa5;" horiz-adv-x="609" d="M79 260V307H530V260H79ZM79 134V181H530V134H79ZM254 0V244L20 736H103L295 324L487 736H568L334 244V0H254Z" />
<glyph unicode="&#xa6;" horiz-adv-x="253" d="M93 429V770H159V429H93ZM93 -72V256H159V-72H93Z" />
<glyph unicode="&#xa7;" horiz-adv-x="550" d="M316 -6Q295 -6 266 -6T204 -4T143 -1T97 4V59H302Q348 59 371 68T403 92T412 129V182Q412 204 407 215T384 232T330 237H203Q152 237 119 247T70 280T54 343V395Q54 443 71 462T122 491Q88 501 76 529T63 590V653Q63
699 82 728T137 770T226 784Q246 784 277 784T343 782T408 779T454 773V719H236Q206 719 184 714T151 691T139 642V593Q139 559 159 548T220 537H346Q405 537 438 526T484 491T498 427V375Q498 334 484 313T433 283Q457 277 469 263T485 230T489 190V126Q489 76
469 47T409 6T316 -6ZM219 299H330Q370 299 389 302T415 319T422 361V412Q422 437 415 450T387 469T330 475H219Q168 475 149 462T130 410V360Q130 340 137 327T164 306T219 299Z" />
<glyph unicode="&#xa8;" horiz-adv-x="413" d="M286 653Q270 653 270 669V747Q270 763 286 763H323Q330 763 334 759T338 747V669Q338 653 323 653H286ZM91 653Q75 653 75 669V747Q75 763 91 763H128Q135 763 139 759T143 747V669Q143 653 128 653H91Z" />
<glyph unicode="&#xa9;" horiz-adv-x="841" d="M313 0Q257 0 215 22T144 83T96 168T69 268T60 368Q60 433 71 497T109 615T186 700T313 732H551Q610 732 651 710T717 649T757 563T776 465T781 368Q781 288 766 221T722 104T651 27T551 0H313ZM387 147Q348 147
314 164T258 229T237 365Q237 446 256 493T310 562T388 583Q408 583 438 581T502 575T563 564V528Q533 532 502 534T444 538T401 540Q363 540 337 523T298 467T284 362Q284 277 310 234T400 190Q450 190 493 194T569 206V170Q524 155 481 151T387 147ZM313 43H547Q600
43 642 78T709 185T734 368Q734 431 726 488T697 591T641 662T551 689H313Q274 689 237 674T172 623T125 525T107 368Q106 309 118 251T155 146T220 71T313 43Z" />
<glyph unicode="&#xaa;" horiz-adv-x="408" d="M33 264V306H365V264H33ZM96 465Q96 442 106 429T130 411T160 404Q176 404 197 408T239 419T273 431T287 436V553L170 547Q130 546 113 528T96 482V465ZM32 484Q32 530 63 556T154 582H287V631Q287 665 268 684T187
703H64V744Q90 750 126 753T210 758Q259 759 291 747T340 707T357 635V360H303L290 404Q286 401 271 394T233 377T184 362T133 356Q89 356 61 381T32 451V484Z" />
<glyph unicode="&#xab;" horiz-adv-x="611" d="M272 65L55 280L267 489L310 448L139 280L314 109L272 65ZM522 65L305 280L517 489L560 448L389 280L564 109L522 65Z" />
<glyph unicode="&#xac;" horiz-adv-x="609" d="M462 203V467H528V203H462ZM80 443V509H528V443H80Z" />
<glyph unicode="&#xad;" horiz-adv-x="343" d="M25 257V323H318V257H25Z" />
<glyph unicode="&#xae;" horiz-adv-x="841" d="M313 0Q257 0 215 22T144 83T96 168T69 268T60 368Q60 433 71 497T109 615T186 700T313 732H551Q610 732 651 710T717 649T757 563T776 465T781 368Q781 288 766 221T722 104T651 27T551 0H313ZM313 43H547Q600 43
642 78T709 185T734 368Q734 431 726 488T697 591T641 662T551 689H313Q274 689 237 674T172 623T125 525T107 368Q106 309 118 251T155 146T220 71T313 43ZM269 153V580H450Q483 580 512 570T559 532T577 450Q577 412 568 390T543 357T512 342T481 335L583 153H535L435
335L316 339V153H269ZM316 372H452Q490 372 510 386T530 449Q530 500 509 518T452 537H316V372Z" />
<glyph unicode="&#xaf;" horiz-adv-x="374" d="M55 671V719H320V671H55Z" />
<glyph unicode="&#xb0;" horiz-adv-x="329" d="M165 497Q109 497 72 534T34 629Q34 668 51 697T98 744T165 762Q223 762 259 725T296 629Q296 571 260 534T165 497ZM165 535Q207 535 232 561T258 629Q258 670 233 697T165 724Q125 724 98 697T71 629Q71 588 98
562T165 535Z" />
<glyph unicode="&#xb1;" horiz-adv-x="609" d="M80 123V189H528V123H80ZM271 282V730H337V282H271ZM80 473V539H528V473H80Z" />
<glyph unicode="&#xb2;" horiz-adv-x="455" d="M48 280V333L244 522Q287 564 305 599T324 676Q324 700 315 719T282 749T214 760H67V812Q100 816 141 820T229 824Q292 824 328 807T380 758T395 684Q395 646 386 616T354 555T296 489L143 343H415V280H48Z" />
<glyph unicode="&#xb3;" horiz-adv-x="455" d="M237 276Q179 276 130 278T41 287V340H216Q248 340 272 346T310 369T324 416V449Q324 476 311 491T276 513T233 521L96 527V578L230 583Q269 585 292 599T316 649V683Q316 720 291 740T211 760H59V813Q94 819 138
822T238 824Q311 824 348 790T385 696V651Q385 619 373 599T342 567T308 552Q326 548 346 535T380 500T394 443V407Q394 344 353 310T237 276Z" />
<glyph unicode="&#xb4;" horiz-adv-x="215" d="M22 631L126 767H193L68 631H22Z" />
<glyph unicode="&#xb5;" horiz-adv-x="588" d="M259 -6Q218 -6 185 7T127 45T89 105T75 183V534H154V178Q154 133 169 109T210 74T270 64Q319 64 357 77T436 115V534H515V0H453L439 59Q404 31 358 13T259 -6ZM75 -269V231H154V-269H75Z" />
<glyph unicode="&#xb6;" horiz-adv-x="573" d="M274 -270V323Q267 318 247 314T195 311Q142 311 107 331T54 386T37 462V596Q37 644 60 675T120 721T200 736H558V677H481V0H425V679H330V-270H274ZM203 367H274V679H203Q147 679 120 653T93 583V469Q93 435 106
415T137 384T174 370T203 367Z" />
<glyph unicode="&#xb7;" horiz-adv-x="262" d="M109 332Q93 332 93 347V394Q93 410 109 410H153Q170 410 170 394V347Q170 339 165 336T153 332H109Z" />
<glyph unicode="&#xb8;" horiz-adv-x="258" d="M55 -190V-157L77 -155Q105 -152 119 -142T133 -110Q133 -93 121 -81T67 -66L100 -54Q143 -54 163 -70T184 -118Q184 -152 159 -171T88 -190H55ZM67 -66L119 13H156L104 -66H67Z" />
<glyph unicode="&#xb9;" horiz-adv-x="455" d="M201 280V758L76 728V778L207 825H271V280H201ZM68 280V341H404V280H68Z" />
<glyph unicode="&#xba;" horiz-adv-x="431" d="M49 264V306H382V264H49ZM110 557Q110 491 122 460T157 418T215 408Q249 408 272 418T308 459T321 557Q321 623 309 654T273 694T215 704Q181 704 158 695T122 654T110 557ZM40 556Q40 639 59 682T117 741T215 757Q275
757 313 741T371 681T391 556Q391 476 372 433T315 373T215 356Q156 356 117 373T59 433T40 556Z" />
<glyph unicode="&#xbb;" horiz-adv-x="611" d="M93 65L52 108L223 277L49 447L92 489L307 277L93 65ZM343 65L302 108L473 277L299 447L342 489L557 277L343 65Z" />
<glyph unicode="&#xbc;" horiz-adv-x="1275" d="M420 0L796 770H854L479 0H420ZM1093 1V133H839L828 179L1024 540H1095L905 191H1093V317L1110 381H1160V191H1231V144L1160 133V1H1093ZM208 280V758L83 728V778L214 825H278V280H208ZM75 280V341H411V280H75Z" />
<glyph unicode="&#xbd;" horiz-adv-x="1275" d="M420 0L796 770H854L479 0H420ZM843 0V53L1039 242Q1082 284 1100 319T1119 396Q1119 420 1110 439T1077 469T1009 480H862V532Q895 536 936 540T1024 544Q1087 544 1123 527T1175 478T1190 404Q1190 366 1181 336T1149
275T1091 209L938 63H1210V0H843ZM208 280V758L83 728V778L214 825H278V280H208ZM75 280V341H411V280H75Z" />
<glyph unicode="&#xbe;" horiz-adv-x="1275" d="M420 0L796 770H854L479 0H420ZM1093 1V133H839L828 179L1024 540H1095L905 191H1093V317L1110 381H1160V191H1231V144L1160 133V1H1093ZM247 276Q189 276 140 278T51 287V340H226Q258 340 282 346T320 369T334
416V449Q334 476 321 491T286 513T243 521L106 527V578L240 583Q279 585 302 599T326 649V683Q326 720 301 740T221 760H69V813Q104 819 148 822T248 824Q321 824 358 790T395 696V651Q395 619 383 599T352 567T318 552Q336 548 356 535T390 500T404 443V407Q404
344 363 310T247 276Z" />
<glyph unicode="&#xbf;" horiz-adv-x="531" d="M361 335V177H311Q230 177 194 153T157 63V3Q157 -72 190 -103T294 -134Q344 -134 389 -125T486 -96V-152Q440 -179 387 -192T274 -205Q203 -206 160 -182T98 -113T78 -7V64Q78 153 130 196T299 240V335H361ZM353
534Q369 534 369 519V439Q369 423 353 423H309Q292 423 292 439V519Q292 527 297 530T309 534H353Z" />
<glyph unicode="&#xc0;" horiz-adv-x="674" d="M34 0L286 736H388L640 0H558L484 210H188L116 0H34ZM208 282H464L337 666L208 282ZM319 791L194 927H261L365 791H319Z" />
<glyph unicode="&#xc1;" horiz-adv-x="674" d="M34 0L286 736H388L640 0H558L484 210H188L116 0H34ZM208 282H464L337 666L208 282ZM318 791L422 927H489L364 791H318Z" />
<glyph unicode="&#xc2;" horiz-adv-x="674" d="M34 0L286 736H388L640 0H558L484 210H188L116 0H34ZM208 282H464L337 666L208 282ZM189 791L311 926H367L477 791H429L337 888L238 791H189Z" />
<glyph unicode="&#xc3;" horiz-adv-x="674" d="M34 0L286 736H388L640 0H558L484 210H188L116 0H34ZM208 282H464L337 666L208 282ZM165 807Q166 847 180 870T216 903T261 914Q285 914 305 905T343 883T379 862T416 853Q442 853 459 869T477 916H517Q516 865 491
836T421 807Q398 807 378 816T339 838T302 859T265 869Q241 869 224 854T206 807H165Z" />
<glyph unicode="&#xc4;" horiz-adv-x="674" d="M34 0L286 736H388L640 0H558L484 210H188L116 0H34ZM208 282H464L337 666L208 282ZM429 813Q413 813 413 829V907Q413 923 429 923H466Q473 923 477 919T481 907V829Q481 813 466 813H429ZM193 813Q177 813 177
829V907Q177 923 193 923H230Q238 923 242 919T246 907V829Q246 813 230 813H193Z" />
<glyph unicode="&#xc5;" horiz-adv-x="674" d="M34 0L286 736H388L640 0H558L484 210H188L116 0H34ZM208 282H464L337 666L208 282ZM337 763Q283 763 254 786T225 870Q225 931 254 954T337 978Q392 978 419 955T447 870Q447 810 420 787T337 763ZM337 797Q374
797 390 812T407 870Q407 914 391 929T337 945Q301 945 283 930T264 870Q264 827 282 812T337 797Z" />
<glyph unicode="&#xc6;" horiz-adv-x="964" d="M635 -4Q564 -5 524 21T480 118V209H242L113 0H34L390 601Q417 648 447 678T519 722T616 736Q694 735 768 732T906 726V663H625Q584 663 569 647T553 596V401L863 396V335L553 330V157Q553 124 564 105T597 78T648
70H906V7Q842 3 776 0T635 -4ZM279 277H480V615L279 277Z" />
<glyph unicode="&#xc7;" horiz-adv-x="581" d="M318 -6Q252 -6 203 9T122 63T75 177T59 370Q59 482 75 554T123 668T206 725T324 742Q355 742 393 738T468 729T535 715V656Q518 659 487 662T417 667T336 670Q283 670 245 658T184 614T149 522T138 369Q138 274
148 214T182 121T242 77T334 65Q409 65 457 69T535 78V18Q505 11 469 6T394 -3T318 -6ZM264 -190V-157L286 -155Q314 -152 328 -142T342 -110Q342 -93 330 -81T276 -66L309 -54Q352 -54 372 -70T393 -118Q393 -152 368 -171T297 -190H264ZM276 -66L328 13H365L313
-66H276Z" />
<glyph unicode="&#xc8;" horiz-adv-x="587" d="M233 -4Q209 -4 182 0T131 19T92 61T77 139V588Q77 631 89 659T123 704T170 728T222 736Q284 735 337 734T437 731T530 727V663H242Q203 663 180 642T157 575V401L486 396V335L157 330V157Q157 120 169 101T203 76T246
70H530V6Q484 3 434 1T333 -2T233 -4ZM294 791L169 927H236L340 791H294Z" />
<glyph unicode="&#xc9;" horiz-adv-x="587" d="M233 -4Q209 -4 182 0T131 19T92 61T77 139V588Q77 631 89 659T123 704T170 728T222 736Q284 735 337 734T437 731T530 727V663H242Q203 663 180 642T157 575V401L486 396V335L157 330V157Q157 120 169 101T203 76T246
70H530V6Q484 3 434 1T333 -2T233 -4ZM293 791L397 927H464L339 791H293Z" />
<glyph unicode="&#xca;" horiz-adv-x="587" d="M233 -4Q209 -4 182 0T131 19T92 61T77 139V588Q77 631 89 659T123 704T170 728T222 736Q284 735 337 734T437 731T530 727V663H242Q203 663 180 642T157 575V401L486 396V335L157 330V157Q157 120 169 101T203 76T246
70H530V6Q484 3 434 1T333 -2T233 -4ZM164 791L286 926H342L452 791H404L312 888L213 791H164Z" />
<glyph unicode="&#xcb;" horiz-adv-x="587" d="M233 -4Q209 -4 182 0T131 19T92 61T77 139V588Q77 631 89 659T123 704T170 728T222 736Q284 735 337 734T437 731T530 727V663H242Q203 663 180 642T157 575V401L486 396V335L157 330V157Q157 120 169 101T203 76T246
70H530V6Q484 3 434 1T333 -2T233 -4ZM403 813Q387 813 387 829V907Q387 923 403 923H440Q447 923 451 919T455 907V829Q455 813 440 813H403ZM167 813Q151 813 151 829V907Q151 923 167 923H204Q212 923 216 919T220 907V829Q220 813 204 813H167Z" />
<glyph unicode="&#xcc;" horiz-adv-x="234" d="M77 0V736H157V0H77ZM99 791L-26 927H41L145 791H99Z" />
<glyph unicode="&#xcd;" horiz-adv-x="234" d="M77 0V736H157V0H77ZM98 791L202 927H269L144 791H98Z" />
<glyph unicode="&#xce;" horiz-adv-x="234" d="M77 0V736H157V0H77ZM-30 791L92 926H148L258 791H210L118 888L19 791H-30Z" />
<glyph unicode="&#xcf;" horiz-adv-x="234" d="M77 0V736H157V0H77ZM209 813Q193 813 193 829V907Q193 923 209 923H246Q253 923 257 919T261 907V829Q261 813 246 813H209ZM-27 813Q-43 813 -43 829V907Q-43 923 -27 923H10Q18 923 22 919T26 907V829Q26 813
10 813H-27Z" />
<glyph unicode="&#xd0;" horiz-adv-x="669" d="M15 345V400H325V345H15ZM77 0V736H368Q435 736 481 712T555 640T597 525T610 368Q610 252 583 170T502 44T368 0H77ZM157 71H362Q421 71 458 107T513 210T531 368Q531 450 521 506T491 598T438 648T362 664H157V71Z" />
<glyph unicode="&#xd1;" horiz-adv-x="683" d="M91 0V736H156L540 137V736H619V0H554L170 599V0H91ZM168 807Q169 847 183 870T219 903T264 914Q288 914 308 905T346 883T382 862T419 853Q445 853 462 869T480 916H520Q519 865 494 836T424 807Q401 807 381 816T342
838T305 859T268 869Q244 869 227 854T209 807H168Z" />
<glyph unicode="&#xd2;" horiz-adv-x="686" d="M343 -6Q272 -6 219 7T130 59T77 171T59 365Q59 485 77 559T131 673T220 727T343 742Q415 742 468 728T557 674T610 560T627 365Q627 245 610 171T557 59T468 8T343 -6ZM343 65Q399 65 438 76T501 118T537 209T548
365Q548 466 537 527T501 619T438 660T343 670Q291 670 253 660T189 619T151 527T138 365Q138 268 148 209T183 119T246 76T343 65ZM326 791L201 927H268L372 791H326Z" />
<glyph unicode="&#xd3;" horiz-adv-x="686" d="M343 -6Q272 -6 219 7T130 59T77 171T59 365Q59 485 77 559T131 673T220 727T343 742Q415 742 468 728T557 674T610 560T627 365Q627 245 610 171T557 59T468 8T343 -6ZM343 65Q399 65 438 76T501 118T537 209T548
365Q548 466 537 527T501 619T438 660T343 670Q291 670 253 660T189 619T151 527T138 365Q138 268 148 209T183 119T246 76T343 65ZM324 791L428 927H495L370 791H324Z" />
<glyph unicode="&#xd4;" horiz-adv-x="686" d="M343 -6Q272 -6 219 7T130 59T77 171T59 365Q59 485 77 559T131 673T220 727T343 742Q415 742 468 728T557 674T610 560T627 365Q627 245 610 171T557 59T468 8T343 -6ZM343 65Q399 65 438 76T501 118T537 209T548
365Q548 466 537 527T501 619T438 660T343 670Q291 670 253 660T189 619T151 527T138 365Q138 268 148 209T183 119T246 76T343 65ZM196 791L318 926H374L484 791H436L344 888L245 791H196Z" />
<glyph unicode="&#xd5;" horiz-adv-x="686" d="M343 -6Q272 -6 219 7T130 59T77 171T59 365Q59 485 77 559T131 673T220 727T343 742Q415 742 468 728T557 674T610 560T627 365Q627 245 610 171T557 59T468 8T343 -6ZM343 65Q399 65 438 76T501 118T537 209T548
365Q548 466 537 527T501 619T438 660T343 670Q291 670 253 660T189 619T151 527T138 365Q138 268 148 209T183 119T246 76T343 65ZM171 807Q172 847 186 870T222 903T267 914Q291 914 311 905T349 883T385 862T422 853Q448 853 465 869T483 916H523Q522 865 497
836T427 807Q404 807 384 816T345 838T308 859T271 869Q247 869 230 854T212 807H171Z" />
<glyph unicode="&#xd6;" horiz-adv-x="686" d="M343 -6Q272 -6 219 7T130 59T77 171T59 365Q59 485 77 559T131 673T220 727T343 742Q415 742 468 728T557 674T610 560T627 365Q627 245 610 171T557 59T468 8T343 -6ZM343 65Q399 65 438 76T501 118T537 209T548
365Q548 466 537 527T501 619T438 660T343 670Q291 670 253 660T189 619T151 527T138 365Q138 268 148 209T183 119T246 76T343 65ZM435 813Q419 813 419 829V907Q419 923 435 923H472Q479 923 483 919T487 907V829Q487 813 472 813H435ZM199 813Q183 813 183 829V907Q183
923 199 923H236Q244 923 248 919T252 907V829Q252 813 236 813H199Z" />
<glyph unicode="&#xd7;" horiz-adv-x="609" d="M439 174L122 491L169 538L486 221L439 174ZM169 174L122 221L439 538L486 491L169 174Z" />
<glyph unicode="&#xd8;" horiz-adv-x="686" d="M72 0L557 736H615L130 0H72ZM343 -6Q272 -6 219 7T130 59T77 171T59 365Q59 485 77 559T131 673T220 727T343 742Q415 742 468 728T557 674T610 560T627 365Q627 245 610 171T557 59T468 8T343 -6ZM343 65Q399 65
438 76T501 118T537 209T548 365Q548 466 537 527T501 619T438 660T343 670Q291 670 253 660T189 619T151 527T138 365Q138 268 148 209T183 119T246 76T343 65Z" />
<glyph unicode="&#xd9;" horiz-adv-x="676" d="M338 -6Q276 -6 226 5T141 42T86 114T67 228V736H147V228Q147 165 169 130T235 81T338 66Q398 66 441 80T506 130T529 228V736H609V228Q609 160 590 115T536 43T450 5T338 -6ZM317 791L192 927H259L363 791H317Z" />
<glyph unicode="&#xda;" horiz-adv-x="676" d="M338 -6Q276 -6 226 5T141 42T86 114T67 228V736H147V228Q147 165 169 130T235 81T338 66Q398 66 441 80T506 130T529 228V736H609V228Q609 160 590 115T536 43T450 5T338 -6ZM315 791L419 927H486L361 791H315Z" />
<glyph unicode="&#xdb;" horiz-adv-x="676" d="M338 -6Q276 -6 226 5T141 42T86 114T67 228V736H147V228Q147 165 169 130T235 81T338 66Q398 66 441 80T506 130T529 228V736H609V228Q609 160 590 115T536 43T450 5T338 -6ZM187 791L309 926H365L475 791H427L335
888L236 791H187Z" />
<glyph unicode="&#xdc;" horiz-adv-x="676" d="M338 -6Q276 -6 226 5T141 42T86 114T67 228V736H147V228Q147 165 169 130T235 81T338 66Q398 66 441 80T506 130T529 228V736H609V228Q609 160 590 115T536 43T450 5T338 -6ZM426 813Q410 813 410 829V907Q410 923
426 923H463Q470 923 474 919T478 907V829Q478 813 463 813H426ZM190 813Q174 813 174 829V907Q174 923 190 923H227Q235 923 239 919T243 907V829Q243 813 227 813H190Z" />
<glyph unicode="&#xdd;" horiz-adv-x="618" d="M269 0V244L35 736H118L310 324L502 736H582L349 244V0H269ZM291 791L395 927H462L337 791H291Z" />
<glyph unicode="&#xde;" horiz-adv-x="560" d="M77 0V736H157V601H326Q359 601 392 593T454 562T500 496T518 382Q518 311 500 266T452 198T388 166T323 157Q311 157 288 158T239 161T191 164T157 168V0H77ZM157 229H313Q348 229 376 242T421 289T438 382Q438
441 422 472T378 516T320 529H157V229Z" />
<glyph unicode="&#xdf;" horiz-adv-x="584" d="M392 -7Q344 -7 300 -3T230 8V60Q256 59 294 58T375 56Q421 56 444 70T476 104T485 140V163Q485 186 471 199T434 222T386 239T338 259T300 291T285 343Q285 377 300 402T338 450T383 494T421 540T436 596Q436 650
400 675T295 701Q222 701 184 661T145 541V0H66V548Q66 609 90 659T165 738T295 767Q374 767 421 745T490 685T511 601Q511 562 496 534T459 483T415 441T377 401T361 355Q361 333 376 320T413 298T461 280T509 258T546 224T561 168V139Q561 100 548 73T510 27T455
1T392 -7Z" />
<glyph unicode="&#xe0;" horiz-adv-x="545" d="M180 -6Q121 -6 83 29T45 128V166Q45 229 86 268T212 307H393V373Q393 406 382 429T341 466T255 479H89V526Q124 532 170 537T280 542Q345 543 388 526T451 473T472 377V0H411L396 61Q392 57 372 47T320 25T252 3T180
-6ZM213 53Q231 52 254 57T301 68T345 82T379 94T393 99V267L230 260Q173 258 149 232T124 165V141Q124 109 137 90T171 62T213 53ZM266 631L141 767H208L312 631H266Z" />
<glyph unicode="&#xe1;" horiz-adv-x="545" d="M180 -6Q121 -6 83 29T45 128V166Q45 229 86 268T212 307H393V373Q393 406 382 429T341 466T255 479H89V526Q124 532 170 537T280 542Q345 543 388 526T451 473T472 377V0H411L396 61Q392 57 372 47T320 25T252 3T180
-6ZM213 53Q231 52 254 57T301 68T345 82T379 94T393 99V267L230 260Q173 258 149 232T124 165V141Q124 109 137 90T171 62T213 53ZM238 631L342 767H409L284 631H238Z" />
<glyph unicode="&#xe2;" horiz-adv-x="545" d="M180 -6Q121 -6 83 29T45 128V166Q45 229 86 268T212 307H393V373Q393 406 382 429T341 466T255 479H89V526Q124 532 170 537T280 542Q345 543 388 526T451 473T472 377V0H411L396 61Q392 57 372 47T320 25T252 3T180
-6ZM213 53Q231 52 254 57T301 68T345 82T379 94T393 99V267L230 260Q173 258 149 232T124 165V141Q124 109 137 90T171 62T213 53ZM123 631L245 766H301L411 631H363L271 728L172 631H123Z" />
<glyph unicode="&#xe3;" horiz-adv-x="545" d="M180 -6Q121 -6 83 29T45 128V166Q45 229 86 268T212 307H393V373Q393 406 382 429T341 466T255 479H89V526Q124 532 170 537T280 542Q345 543 388 526T451 473T472 377V0H411L396 61Q392 57 372 47T320 25T252 3T180
-6ZM213 53Q231 52 254 57T301 68T345 82T379 94T393 99V267L230 260Q173 258 149 232T124 165V141Q124 109 137 90T171 62T213 53ZM106 647Q107 687 121 710T157 743T202 754Q226 754 246 745T284 723T320 702T357 693Q383 693 400 709T418 756H458Q457 705 432
676T362 647Q339 647 319 656T280 678T243 699T206 709Q182 709 165 694T147 647H106Z" />
<glyph unicode="&#xe4;" horiz-adv-x="545" d="M180 -6Q121 -6 83 29T45 128V166Q45 229 86 268T212 307H393V373Q393 406 382 429T341 466T255 479H89V526Q124 532 170 537T280 542Q345 543 388 526T451 473T472 377V0H411L396 61Q392 57 372 47T320 25T252 3T180
-6ZM213 53Q231 52 254 57T301 68T345 82T379 94T393 99V267L230 260Q173 258 149 232T124 165V141Q124 109 137 90T171 62T213 53ZM348 653Q332 653 332 669V747Q332 763 348 763H384Q392 763 396 759T400 747V669Q400 653 384 653H348ZM153 653Q137 653 137 669V747Q137
763 153 763H189Q197 763 201 759T205 747V669Q205 653 189 653H153Z" />
<glyph unicode="&#xe5;" horiz-adv-x="545" d="M180 -6Q121 -6 83 29T45 128V166Q45 229 86 268T212 307H393V373Q393 406 382 429T341 466T255 479H89V526Q124 532 170 537T280 542Q345 543 388 526T451 473T472 377V0H411L396 61Q392 57 372 47T320 25T252 3T180
-6ZM213 53Q231 52 254 57T301 68T345 82T379 94T393 99V267L230 260Q173 258 149 232T124 165V141Q124 109 137 90T171 62T213 53ZM271 593Q217 593 188 616T159 700Q159 761 188 784T271 808Q326 808 353 785T381 700Q381 640 354 617T271 593ZM271 627Q308 627
324 642T341 700Q341 744 325 759T271 775Q235 775 217 760T198 700Q198 657 216 642T271 627Z" />
<glyph unicode="&#xe6;" horiz-adv-x="881" d="M183 -6Q138 -6 107 11T61 60T46 131V164Q46 206 64 236T119 284T210 302H394V374Q394 404 383 427T343 465T264 479H90V526Q128 533 168 537T271 542Q329 543 375 521T440 451Q460 501 505 521T615 541Q685 541
730 525T798 470T821 362Q821 295 780 271T664 247H472Q472 188 484 150T520 92T575 64T645 56H807V8Q761 0 709 -3T612 -6Q558 -6 521 9T461 50T423 102Q398 74 361 50T279 10T183 -6ZM214 53Q266 53 316 76T407 142Q403 158 399 187T393 258L223 254Q169 253
147 227T125 165V142Q125 109 138 89T171 61T214 53ZM472 300H662Q688 300 707 305T738 323T749 364Q749 406 736 431T692 467T611 479Q557 479 527 465T485 412T472 300Z" />
<glyph unicode="&#xe7;" horiz-adv-x="490" d="M270 -6Q225 -6 186 6T118 48T73 131T57 266Q57 349 72 402T115 486T183 528T272 540Q312 540 359 537T449 526V479H293Q242 479 207 462T154 399T136 264Q136 179 155 134T209 73T294 56H457V10Q434 6 404 2T339
-4T270 -6ZM200 -190V-157L222 -155Q250 -152 264 -142T278 -110Q278 -93 266 -81T212 -66L245 -54Q288 -54 308 -70T329 -118Q329 -152 304 -171T233 -190H200ZM212 -66L264 13H301L249 -66H212Z" />
<glyph unicode="&#xe8;" horiz-adv-x="541" d="M280 -6Q196 -6 148 19T78 104T57 268Q57 374 78 433T149 517T281 541Q352 541 396 525T462 471T484 364Q484 317 466 289T413 248T331 235H136Q137 170 150 131T197 74T299 56H471V8Q425 2 381 -2T280 -6ZM135 287H325Q370
287 391 303T413 363Q413 409 400 434T358 470T281 481Q225 481 193 465T148 406T135 287ZM266 631L141 767H208L312 631H266Z" />
<glyph unicode="&#xe9;" horiz-adv-x="541" d="M280 -6Q196 -6 148 19T78 104T57 268Q57 374 78 433T149 517T281 541Q352 541 396 525T462 471T484 364Q484 317 466 289T413 248T331 235H136Q137 170 150 131T197 74T299 56H471V8Q425 2 381 -2T280 -6ZM135 287H325Q370
287 391 303T413 363Q413 409 400 434T358 470T281 481Q225 481 193 465T148 406T135 287ZM238 631L342 767H409L284 631H238Z" />
<glyph unicode="&#xea;" horiz-adv-x="541" d="M280 -6Q196 -6 148 19T78 104T57 268Q57 374 78 433T149 517T281 541Q352 541 396 525T462 471T484 364Q484 317 466 289T413 248T331 235H136Q137 170 150 131T197 74T299 56H471V8Q425 2 381 -2T280 -6ZM135 287H325Q370
287 391 303T413 363Q413 409 400 434T358 470T281 481Q225 481 193 465T148 406T135 287ZM123 631L245 766H301L411 631H363L271 728L172 631H123Z" />
<glyph unicode="&#xeb;" horiz-adv-x="541" d="M280 -6Q196 -6 148 19T78 104T57 268Q57 374 78 433T149 517T281 541Q352 541 396 525T462 471T484 364Q484 317 466 289T413 248T331 235H136Q137 170 150 131T197 74T299 56H471V8Q425 2 381 -2T280 -6ZM135 287H325Q370
287 391 303T413 363Q413 409 400 434T358 470T281 481Q225 481 193 465T148 406T135 287ZM348 653Q332 653 332 669V747Q332 763 348 763H384Q392 763 396 759T400 747V669Q400 653 384 653H348ZM153 653Q137 653 137 669V747Q137 763 153 763H189Q197 763 201
759T205 747V669Q205 653 189 653H153Z" />
<glyph unicode="&#xec;" horiz-adv-x="228" d="M76 0V534H155V0H76ZM367 631L242 767H309L413 631H367Z" />
<glyph unicode="&#xed;" horiz-adv-x="228" d="M76 0V534H155V0H76ZM83 631L187 767H254L129 631H83Z" />
<glyph unicode="&#xee;" horiz-adv-x="228" d="M76 0V534H155V0H76ZM224 631L346 766H402L512 631H464L372 728L273 631H224Z" />
<glyph unicode="&#xef;" horiz-adv-x="228" d="M76 0V534H155V0H76ZM193 653Q177 653 177 669V747Q177 763 193 763H229Q237 763 241 759T245 747V669Q245 653 229 653H193ZM-2 653Q-18 653 -18 669V747Q-18 763 -2 763H34Q42 763 46 759T50 747V669Q50 653 34 653H-2Z" />
<glyph unicode="&#xf0;" horiz-adv-x="577" d="M288 -6Q230 -6 187 6T114 47T71 130T57 264Q57 348 72 400T115 482T185 522T279 533Q325 533 360 524T420 493T459 431Q472 408 486 386T510 335T520 268Q520 184 506 131T463 48T390 6T288 -6ZM288 59Q325 59 353
66T401 94T430 156T440 265Q440 333 430 374T401 435T354 462T288 469Q250 469 222 462T175 435T146 374T136 265Q136 197 146 156T175 94T222 66T288 59ZM520 267L448 290Q448 410 428 489T370 616T275 687T148 716V767Q238 761 307 734T423 650T495 500T520 267ZM183
583L172 612L507 743L519 713L183 583Z" />
<glyph unicode="&#xf1;" horiz-adv-x="588" d="M76 0V534H138L155 475Q193 502 244 522T350 543Q409 543 445 518T498 452T515 363V0H436V354Q436 388 423 414T385 456T324 471Q291 471 263 465T209 447T155 419V0H76ZM129 647Q130 687 144 710T180 743T225 754Q249
754 269 745T307 723T343 702T380 693Q406 693 423 709T441 756H481Q480 705 455 676T385 647Q362 647 342 656T303 678T266 699T229 709Q205 709 188 694T170 647H129Z" />
<glyph unicode="&#xf2;" horiz-adv-x="577" d="M288 -6Q230 -6 187 6T114 48T71 131T57 268Q57 352 71 405T114 488T186 529T288 541Q346 541 389 529T462 488T505 405T520 268Q520 184 506 131T463 48T390 6T288 -6ZM288 59Q325 59 353 66T401 94T430 157T440
268Q440 338 430 379T401 441T354 469T288 476Q250 476 222 469T175 441T146 379T136 268Q136 199 146 157T175 94T222 66T288 59ZM284 631L159 767H226L330 631H284Z" />
<glyph unicode="&#xf3;" horiz-adv-x="577" d="M288 -6Q230 -6 187 6T114 48T71 131T57 268Q57 352 71 405T114 488T186 529T288 541Q346 541 389 529T462 488T505 405T520 268Q520 184 506 131T463 48T390 6T288 -6ZM288 59Q325 59 353 66T401 94T430 157T440
268Q440 338 430 379T401 441T354 469T288 476Q250 476 222 469T175 441T146 379T136 268Q136 199 146 157T175 94T222 66T288 59ZM255 631L359 767H426L301 631H255Z" />
<glyph unicode="&#xf4;" horiz-adv-x="577" d="M288 -6Q230 -6 187 6T114 48T71 131T57 268Q57 352 71 405T114 488T186 529T288 541Q346 541 389 529T462 488T505 405T520 268Q520 184 506 131T463 48T390 6T288 -6ZM288 59Q325 59 353 66T401 94T430 157T440
268Q440 338 430 379T401 441T354 469T288 476Q250 476 222 469T175 441T146 379T136 268Q136 199 146 157T175 94T222 66T288 59ZM141 631L263 766H319L429 631H381L289 728L190 631H141Z" />
<glyph unicode="&#xf5;" horiz-adv-x="577" d="M288 -6Q230 -6 187 6T114 48T71 131T57 268Q57 352 71 405T114 488T186 529T288 541Q346 541 389 529T462 488T505 405T520 268Q520 184 506 131T463 48T390 6T288 -6ZM288 59Q325 59 353 66T401 94T430 157T440
268Q440 338 430 379T401 441T354 469T288 476Q250 476 222 469T175 441T146 379T136 268Q136 199 146 157T175 94T222 66T288 59ZM123 647Q124 687 138 710T174 743T219 754Q243 754 263 745T301 723T337 702T374 693Q400 693 417 709T435 756H475Q474 705 449
676T379 647Q356 647 336 656T297 678T260 699T223 709Q199 709 182 694T164 647H123Z" />
<glyph unicode="&#xf6;" horiz-adv-x="577" d="M288 -6Q230 -6 187 6T114 48T71 131T57 268Q57 352 71 405T114 488T186 529T288 541Q346 541 389 529T462 488T505 405T520 268Q520 184 506 131T463 48T390 6T288 -6ZM288 59Q325 59 353 66T401 94T430 157T440
268Q440 338 430 379T401 441T354 469T288 476Q250 476 222 469T175 441T146 379T136 268Q136 199 146 157T175 94T222 66T288 59ZM366 653Q350 653 350 669V747Q350 763 366 763H402Q410 763 414 759T418 747V669Q418 653 402 653H366ZM171 653Q155 653 155 669V747Q155
763 171 763H207Q215 763 219 759T223 747V669Q223 653 207 653H171Z" />
<glyph unicode="&#xf7;" horiz-adv-x="609" d="M282 506Q258 506 258 529V579Q258 604 282 604H326Q351 604 351 579V529Q351 516 344 511T326 506H282ZM282 108Q258 108 258 131V181Q258 206 282 206H326Q351 206 351 181V131Q351 118 344 113T326 108H282ZM80
323V389H528V323H80Z" />
<glyph unicode="&#xf8;" horiz-adv-x="577" d="M51 0L482 534H525L94 0H51ZM288 -6Q230 -6 187 6T114 48T71 131T57 268Q57 352 71 405T114 488T186 529T288 541Q346 541 389 529T462 488T505 405T520 268Q520 184 506 131T463 48T390 6T288 -6ZM288 59Q325 59
353 66T401 94T430 157T440 268Q440 338 430 379T401 441T354 469T288 476Q250 476 222 469T175 441T146 379T136 268Q136 199 146 157T175 94T222 66T288 59Z" />
<glyph unicode="&#xf9;" horiz-adv-x="588" d="M235 -6Q158 -6 117 34T75 158V534H154V178Q154 111 184 88T270 64Q317 64 356 77T436 115V534H515V0H453L436 59Q395 33 344 14T235 -6ZM282 631L157 767H224L328 631H282Z" />
<glyph unicode="&#xfa;" horiz-adv-x="588" d="M235 -6Q158 -6 117 34T75 158V534H154V178Q154 111 184 88T270 64Q317 64 356 77T436 115V534H515V0H453L436 59Q395 33 344 14T235 -6ZM254 631L358 767H425L300 631H254Z" />
<glyph unicode="&#xfb;" horiz-adv-x="588" d="M235 -6Q158 -6 117 34T75 158V534H154V178Q154 111 184 88T270 64Q317 64 356 77T436 115V534H515V0H453L436 59Q395 33 344 14T235 -6ZM139 631L261 766H317L427 631H379L287 728L188 631H139Z" />
<glyph unicode="&#xfc;" horiz-adv-x="588" d="M235 -6Q158 -6 117 34T75 158V534H154V178Q154 111 184 88T270 64Q317 64 356 77T436 115V534H515V0H453L436 59Q395 33 344 14T235 -6ZM364 653Q348 653 348 669V747Q348 763 364 763H400Q408 763 412 759T416
747V669Q416 653 400 653H364ZM169 653Q153 653 153 669V747Q153 763 169 763H205Q213 763 217 759T221 747V669Q221 653 205 653H169Z" />
<glyph unicode="&#xfd;" horiz-adv-x="541" d="M219 -237L287 0Q262 1 235 12T185 50T147 125L19 534H102L221 142Q232 111 244 96T270 75T292 69T304 68L441 534H522L327 -138L281 -237H219ZM234 631L338 767H405L280 631H234Z" />
<glyph unicode="&#xfe;" horiz-adv-x="578" d="M76 -237V763H155V479Q173 492 201 506T263 531T330 541Q381 541 417 519T476 458T510 371T521 268Q521 178 500 117T437 24T330 -7Q285 -7 240 7T155 44V-237H76ZM308 60Q346 60 376 79T424 142T442 265Q442 341
423 387T374 454T308 475Q262 475 224 461T155 430V103Q190 84 229 72T308 60Z" />
<glyph unicode="&#xff;" horiz-adv-x="541" d="M219 -237L287 0Q262 1 235 12T185 50T147 125L19 534H102L221 142Q232 111 244 96T270 75T292 69T304 68L441 534H522L327 -138L281 -237H219ZM345 653Q329 653 329 669V747Q329 763 345 763H381Q389 763 393 759T397
747V669Q397 653 381 653H345ZM150 653Q134 653 134 669V747Q134 763 150 763H186Q194 763 198 759T202 747V669Q202 653 186 653H150Z" />
<glyph unicode="&#x2013;" horiz-adv-x="522" d="M25 256V323H498V256H25Z" />
<glyph unicode="&#x2014;" horiz-adv-x="745" d="M25 256V323H721V256H25Z" />
<glyph unicode="&#x2018;" horiz-adv-x="186" d="M69 528Q61 528 58 533T55 547V690Q55 715 64 728T87 745T112 749Q119 749 123 749T131 747V719Q117 719 113 713T108 696V646H116Q124 646 129 642T134 627V547Q134 528 116 528H69Z" />
<glyph unicode="&#x2019;" horiz-adv-x="186" d="M74 525Q68 525 64 525T55 527V555Q69 555 73 562T78 578V628H69Q62 628 57 633T52 647V727Q52 747 69 747H117Q125 747 128 741T131 727V584Q131 559 122 547T99 530T74 525Z" />
<glyph unicode="&#x201a;" horiz-adv-x="186" d="M74 -109Q68 -109 63 -109T55 -107V-79Q69 -79 73 -72T78 -56V-6H69Q62 -6 57 -1T52 13V93Q52 112 69 112H117Q125 112 128 107T131 93V-50Q131 -75 122 -88T99 -105T74 -109Z" />
<glyph unicode="&#x201c;" horiz-adv-x="305" d="M69 528Q61 528 58 533T55 547V690Q55 715 64 728T87 745T112 749Q119 749 123 749T131 747V719Q117 719 113 713T108 696V646H116Q124 646 129 642T134 627V547Q134 528 116 528H69ZM188 528Q180 528 177 533T174
547V690Q174 715 183 728T206 745T231 749Q238 749 242 749T250 747V719Q236 719 232 713T227 696V646H235Q243 646 248 642T253 627V547Q253 528 235 528H188Z" />
<glyph unicode="&#x201d;" horiz-adv-x="305" d="M74 525Q68 525 64 525T55 527V555Q69 555 73 562T78 578V628H69Q62 628 57 633T52 647V727Q52 747 69 747H117Q125 747 128 741T131 727V584Q131 559 122 547T99 530T74 525ZM193 525Q187 525 183 525T174 527V555Q188
555 192 562T197 578V628H188Q181 628 176 633T171 647V727Q171 747 188 747H236Q244 747 247 741T250 727V584Q250 559 241 547T218 530T193 525Z" />
<glyph unicode="&#x201e;" horiz-adv-x="305" d="M74 -109Q68 -109 63 -109T55 -107V-79Q69 -79 73 -72T78 -56V-6H69Q62 -6 57 -1T52 13V93Q52 112 69 112H117Q125 112 128 107T131 93V-50Q131 -75 122 -88T99 -105T74 -109ZM193 -109Q187 -109 182 -109T174
-107V-79Q188 -79 192 -72T197 -56V-6H188Q181 -6 176 -1T171 13V93Q171 112 188 112H236Q244 112 247 107T250 93V-50Q250 -75 241 -88T218 -105T193 -109Z" />
<glyph unicode="&#x2022;" horiz-adv-x="316" d="M126 314Q93 314 93 346V416Q93 432 101 441T126 451H189Q224 451 224 416V346Q224 328 214 321T189 314H126Z" />
<glyph unicode="&#x2039;" horiz-adv-x="361" d="M272 65L55 280L267 489L310 448L139 280L314 109L272 65Z" />
<glyph unicode="&#x203a;" horiz-adv-x="361" d="M93 65L52 108L223 277L49 447L92 489L307 277L93 65Z" />
</font>
</defs>
</svg>
