<?xml version="1.0" standalone="no"?>
<!DOCTYPE svg PUBLIC "-//W3C//DTD SVG 1.1//EN" "http://www.w3.org/Graphics/SVG/1.1/DTD/svg11.dtd">
<svg xmlns="http://www.w3.org/2000/svg">
<defs >
<font id="IbarraRealNova" horiz-adv-x="578" ><font-face
    font-family="Ibarra Real Nova"
    units-per-em="1000"
    panose-1="0 0 0 0 0 0 0 0 0 0"
    ascent="950"
    descent="-300"
    alphabetic="0" />
<glyph unicode=" " horiz-adv-x="200" />
<glyph unicode="!" horiz-adv-x="258" d="M110 239L227 658H382L162 239H110ZM67 -11Q35 -11 12 12T-11 67Q-11 100 12 123T67 146Q99 146 122 123T145 67Q145 35 122 12T67 -11Z" />
<glyph unicode="&quot;" horiz-adv-x="494" d="M380 401L461 710H635L457 401H380ZM173 401L254 710H428L250 401H173Z" />
<glyph unicode="#" horiz-adv-x="560" d="M12 -26L117 166H45L83 235H154L242 396H171L209 465H279L393 674H476L361 465H460L574 674H657L542 465H613L575 396H504L416 235H487L449 166H378L272 -26H193L298 166H197L91 -26H12ZM235 235H335L423 396H323L235 235Z" />
<glyph unicode="$" horiz-adv-x="620" d="M154 -89L500 766H540L194 -89H154ZM261 -10Q179 -10 120 10T11 70Q34 116 47 157T70 256H106Q98 233 94 211T90 167Q90 115 117 84T185 38T270 23Q314 23 355 39T422 87T449 165Q449 194 438 213T398 250T319 291Q279
309 244 332T188 389T166 472Q166 522 190 561T254 627T345 669T446 684Q484 684 523 676T595 650Q610 643 625 635T653 627Q665 627 678 630L682 626Q655 592 645 551T631 459H600Q605 526 583 568T523 630T437 651Q394 651 357 635T297 587T274 511Q274 483 290
463T334 428T395 398Q430 383 467 362T529 308T554 224Q554 167 530 124T463 50T369 5T261 -10Z" />
<glyph unicode="%" horiz-adv-x="657" d="M243 345Q182 345 159 369T136 435Q136 457 142 481T159 529Q185 594 225 639T326 684Q384 684 408 658T432 594Q432 572 425 548T408 498Q392 457 369 422T314 366T243 345ZM426 -8Q365 -8 342 16T319 82Q319 104 325
128T342 176Q368 241 408 286T509 331Q567 331 591 305T615 241Q615 219 608 195T591 145Q575 104 552 69T497 13T426 -8ZM412 15Q431 15 450 34T488 86T520 155Q530 181 539 212T548 268Q548 285 542 296T520 307Q501 307 482 287T444 235T412 164Q402 139 393
108T384 53Q384 36 390 26T412 15ZM229 368Q248 368 267 387T305 439T337 508Q347 534 356 565T365 621Q365 638 359 649T337 660Q318 660 299 640T261 588T229 517Q219 492 210 461T201 406Q201 389 207 379T229 368ZM-28 0L688 673H766L51 0H-28Z" />
<glyph unicode="&amp;" horiz-adv-x="918" d="M315 -9Q228 -9 170 13T82 81T53 191Q53 239 66 284T102 373T155 459Q185 501 224 534T307 588T393 608Q425 608 444 593T463 547Q463 516 441 479T383 407T309 347T239 313Q239 313 236 316T230 323T226 327Q270
345 302 378T353 447T372 508Q372 522 364 531T338 540Q309 540 285 522T241 472T208 401T187 319T179 236Q179 175 205 133T276 68T376 46Q443 46 498 74T594 148T656 247T678 349Q678 378 664 396T619 414Q587 414 563 401T525 366T508 316Q507 303 516 295T547
287Q595 287 649 295T750 313Q794 322 830 327T902 332L911 329Q911 329 907 308T895 256T881 194T870 142T865 121L836 119L844 177Q845 183 846 188T847 198Q849 218 845 227T823 236Q793 236 762 233T686 218Q640 206 595 200T521 194Q473 194 454 208T435 251Q435
298 457 336T515 402T591 445T666 460Q721 460 746 434T771 365Q771 324 751 274T691 175T596 83T469 16T315 -9ZM164 268L171 310Q237 327 295 358T400 428T482 504T534 569Q540 578 543 586T546 600Q546 611 540 624T527 647Q523 657 519 665T515 684Q515 711
532 730T574 750Q597 750 613 734T629 689Q629 676 626 660T615 625Q602 592 565 545T468 447T333 349T164 268Z" />
<glyph unicode="&apos;" horiz-adv-x="287" d="M173 401L254 710H428L250 401H173Z" />
<glyph unicode="(" horiz-adv-x="331" d="M64 -240Q40 -195 26 -155T6 -69T1 32Q3 152 45 259T156 460T309 627T478 754L498 733Q405 664 329 576T199 384T114 167T82 -66Q81 -104 83 -145T93 -224L64 -240Z" />
<glyph unicode=")" horiz-adv-x="331" d="M296 754Q321 709 335 669T354 584T359 482Q357 362 315 255T204 54T52 -113T-118 -240L-138 -219Q-45 -150 31 -62T161 130T246 348T278 580Q279 618 277 659T267 738L296 754Z" />
<glyph unicode="*" horiz-adv-x="471" d="M477 339Q469 333 451 330T420 342Q410 355 405 371T392 405Q384 426 375 447T348 491L338 503Q322 525 303 539T265 567Q250 578 236 587T211 610Q198 627 206 643T222 666Q230 672 248 676T279 663Q290 650 296 634T308
601Q316 579 326 558T352 514L362 502Q379 480 397 466T434 439Q451 427 464 418T488 395Q501 379 493 362T477 339ZM272 310Q262 314 250 328T246 362Q252 376 263 389T287 417Q301 434 315 453T339 499L344 513Q355 539 358 562T363 607Q365 627 366 644T373
676Q381 696 399 697T427 695Q437 691 449 677T453 643Q447 629 437 615T413 587Q399 570 386 551T361 506L355 492Q345 466 342 443T337 397Q336 378 334 361T326 329Q319 310 300 308T272 310ZM187 436Q167 434 156 449T144 474Q143 485 149 502T175 522Q192
524 209 522T243 516Q267 512 290 510T341 511L356 514Q384 518 406 526T448 544Q466 552 481 560T512 569Q532 571 543 557T555 531Q557 521 551 504T524 483Q508 481 492 484T455 491Q433 494 411 496T359 495L343 494Q316 490 294 481T252 462Q235 454 220 446T187
436Z" />
<glyph unicode="+" horiz-adv-x="570" d="M305 127V304H125V361H305V537H362V361H543V304H362V127H305Z" />
<glyph unicode="," horiz-adv-x="285" d="M-109 -158L-97 -130Q-62 -125 -27 -106T31 -58T55 8Q55 30 40 45T-5 64L4 93Q26 102 40 111T69 132T101 164Q132 155 150 128T168 67Q168 24 146 -14T84 -83T-5 -133T-109 -158Z" />
<glyph unicode="-" horiz-adv-x="313" d="M52 330H313V240H52V330Z" />
<glyph unicode="." horiz-adv-x="285" d="M82 -11Q48 -11 24 13T-1 72Q-1 107 23 131T82 156Q117 156 141 132T165 72Q165 38 141 14T82 -11Z" />
<glyph unicode="/" horiz-adv-x="464" d="M-67 -7L576 710H637L-6 -7H-67Z" />
<glyph unicode="0" horiz-adv-x="625" d="M272 -8Q208 -8 165 16T99 87T76 196Q76 238 85 284T110 379Q140 465 187 533T297 642T438 682Q513 682 559 654T626 579T647 472Q647 435 639 395T617 315Q588 228 537 155T419 37T272 -8ZM262 27Q296 27 325 52T379
120T426 218T470 333Q493 399 508 457T523 558Q523 590 507 618T450 646Q407 646 374 607T312 504T256 361Q231 289 213 223T195 110Q195 79 210 53T262 27Z" />
<glyph unicode="1" horiz-adv-x="396" d="M-58 0L-49 22L6 33Q25 37 37 41T58 53T73 71T86 98L284 587Q289 601 285 608T262 614L188 611L200 640L461 680L226 98Q218 77 217 65T224 45T254 33L301 22L292 0H-58Z" />
<glyph unicode="2" horiz-adv-x="529" d="M-59 0L-52 19L181 214Q208 236 242 267T312 335T377 410T425 487T443 560Q443 607 422 625T362 643Q340 643 319 636T284 618T270 595Q270 580 273 571T281 553T285 529Q285 504 263 490T214 475Q194 475 176 486T158
529Q158 565 180 594T239 642T320 672T408 683Q454 683 493 670T556 630T580 560Q580 518 557 478T497 399T416 326T327 259T246 202L132 119H358Q376 119 389 126T416 146T443 177L456 193H478L362 0H-59Z" />
<glyph unicode="3" horiz-adv-x="535" d="M168 -8Q73 -8 29 23T-15 118Q-15 144 1 167T46 191Q80 191 92 175T104 145Q104 127 94 116T74 95T64 73Q64 51 79 40T123 29Q190 29 238 58T313 137T340 251Q340 289 320 319T256 350L194 332L185 353L216 365Q249 378
286 399T355 449T409 513T430 588Q430 616 416 634T365 653Q322 653 306 640T289 612Q289 596 297 586T306 554Q306 531 286 517T239 503Q219 503 200 517T181 557Q181 586 201 609T254 649T328 676T409 685Q477 685 520 654T563 574Q563 540 547 513T502 464T438
428T365 403L364 401Q423 394 458 357T494 265Q494 198 464 147T384 62T278 10T168 -8Z" />
<glyph unicode="4" horiz-adv-x="576" d="M103 0L112 22L167 33Q192 38 206 45T230 64T248 98L422 529L438 520L77 221L85 244H469Q487 244 501 252T531 279L563 319H586L481 157H-11L9 206L582 683H615L379 98Q366 67 370 54T406 33L453 22L444 0H103Z" />
<glyph unicode="5" horiz-adv-x="522" d="M134 -9Q67 -9 21 21T-25 118Q-25 144 -9 167T36 191Q70 191 82 175T94 145Q94 127 84 116T64 95T54 73Q54 50 72 38T121 26Q165 26 203 45T270 97T316 166T333 237Q333 281 302 311T198 342Q187 342 178 342T156 339L146
346L323 687H562Q576 687 591 695T619 719L642 749H669L569 581H311L234 433Q246 435 257 435T280 435Q352 435 397 413T464 353T486 270Q486 221 462 172T391 82T280 16T134 -9Z" />
<glyph unicode="6" horiz-adv-x="542" d="M191 -9Q113 -9 71 36T28 151Q28 177 34 204T52 262Q91 358 152 435T290 568T451 653T625 683L618 661Q533 654 466 616T348 520T258 392T191 254Q169 200 161 160T153 91Q153 62 169 47T210 32Q248 32 281 58T339 127T378
214T393 297Q393 332 381 352T340 372Q303 372 271 350T213 289T165 200L181 301Q199 333 231 361T303 406T387 423Q459 423 491 385T523 291Q523 225 496 170T421 75T314 13T191 -9Z" />
<glyph unicode="7" horiz-adv-x="520" d="M16 0L537 556H242Q228 556 212 548T180 521L148 481H125L245 674H658L617 573L165 0H16Z" />
<glyph unicode="8" horiz-adv-x="588" d="M224 -12Q169 -12 123 5T48 56T20 139Q20 186 42 223T103 289T190 335T289 360L322 328Q264 307 229 273T178 201T162 126Q162 77 186 55T242 33Q273 33 302 47T350 93T370 173Q370 224 342 260T278 328Q254 350 232 374T196
426T182 491Q182 537 205 572T267 631T356 667T458 679Q507 679 549 665T616 626T642 565Q642 521 622 487T569 427T496 385T415 359L369 395Q409 414 439 438T488 494T506 566Q506 601 489 618T439 635Q413 635 386 623T342 587T324 528Q324 499 336 476T369 432T412
393Q439 371 464 344T506 282T523 198Q523 145 500 106T435 40T339 1T224 -12Z" />
<glyph unicode="9" horiz-adv-x="541" d="M444 683Q522 683 564 639T607 523Q607 498 601 470T583 412Q544 316 483 239T345 106T184 21T10 -9L17 13Q102 21 169 58T287 154T377 282T444 420Q466 474 474 514T482 583Q482 612 466 627T425 642Q388 642 355 616T296
547T257 460T242 377Q242 343 254 323T295 302Q332 302 364 324T423 385T470 474L454 373Q436 341 404 313T332 268T248 251Q176 251 144 289T112 383Q112 449 139 504T214 599T321 661T444 683Z" />
<glyph unicode=":" horiz-adv-x="285" d="M209 303Q175 303 151 327T126 386Q126 421 150 445T209 470Q244 470 268 446T292 386Q292 352 268 328T209 303ZM82 244Q48 244 24 268T-1 327Q-1 362 23 386T82 411Q117 411 141 387T165 327Q165 293 141 269T82 244Z" />
<glyph unicode=";" horiz-adv-x="285" d="M-109 -158L-97 -130Q-62 -125 -27 -106T31 -58T55 8Q55 30 40 45T-5 64L4 93Q26 102 40 111T69 132T101 164Q132 155 150 128T168 67Q168 24 146 -14T84 -83T-5 -133T-109 -158ZM206 303Q172 303 148 327T123 386Q123
421 147 445T206 470Q241 470 265 446T289 386Q289 352 265 328T206 303Z" />
<glyph unicode="&lt;" horiz-adv-x="570" d="M81 325L82 343L506 540V479L189 334L506 188V126L81 325Z" />
<glyph unicode="=" horiz-adv-x="570" d="M124 418V475H542V418H124ZM124 445V502H542V445H124Z" />
<glyph unicode="&gt;" horiz-adv-x="570" d="M586 325L161 126V188L478 334L161 479V540L585 343L586 325Z" />
<glyph unicode="?" horiz-adv-x="387" d="M80 193Q109 265 135 305T198 364T289 392Q323 397 340 402T365 415T379 440Q383 449 383 459Q383 481 345 485L180 504L249 673H268L264 643Q262 630 271 623T294 614L385 598Q424 591 443 575T462 526Q462 492 441 441Q411
366 366 321T240 263Q198 257 176 249T142 227T122 193H80ZM54 -11Q23 -11 1 11T-22 65Q-22 97 0 119T54 142Q86 142 108 120T130 65Q130 34 108 12T54 -11Z" />
<glyph unicode="@" horiz-adv-x="1024" d="M354 -186Q261 -186 186 -155T67 -64T23 84Q23 179 60 263T160 418T299 547Q367 598 442 634T593 690T741 710Q828 710 898 683T1010 599T1052 454Q1052 399 1030 341T967 227T877 127T769 56T654 30Q597 30 575 59T570
139L578 161L659 175Q634 118 642 100T691 81Q721 81 754 102T820 159T879 243T921 342T937 446Q937 524 910 572T832 642T712 665Q634 665 553 639T397 564T263 443T170 282T135 84Q135 11 169 -36T261 -105T393 -127Q473 -127 564 -103T743 -35L757 -68Q657 -127
553 -156T354 -186ZM448 115Q473 115 499 133T550 180T594 243T624 310T636 370Q636 392 626 401T595 411Q571 411 540 395T483 351Q449 315 425 269T400 177Q400 115 448 115ZM372 30Q344 30 324 46T303 105Q303 145 326 193T387 291T469 380T558 446T639 471Q665
471 678 462T696 442H698L768 475H781L645 139L574 159H566Q556 136 533 113T482 72T424 42T372 30Z" />
<glyph unicode="A" horiz-adv-x="763" d="M-84 0L-75 22L-12 35Q12 40 27 50T56 75L505 558L508 635Q540 636 566 647T610 673T631 698H645L592 62Q591 50 600 44T631 33L678 22L669 0H339L348 22L403 33Q438 40 449 50T463 87L503 533H527L96 74Q83 58 88 49T109
37L189 22L180 0H-84ZM218 226L236 259H517L503 226H218Z" />
<glyph unicode="B" horiz-adv-x="728" d="M-59 0L-50 22L5 33Q30 38 44 43T66 60T83 92L281 581Q294 613 289 623T251 640L204 651L213 673H533Q645 673 702 647T759 556Q759 504 727 467T641 406T524 373L523 371Q585 364 627 331T670 247Q670 165 624 110T499
28T320 0H-59ZM258 33H285Q332 33 374 50T448 98T500 168T519 252Q519 299 493 326T411 353H329L222 88Q209 55 216 44T258 33ZM342 386H417Q477 386 519 410T584 473T607 559Q607 600 581 620T493 640H445L342 386Z" />
<glyph unicode="C" horiz-adv-x="777" d="M409 -8Q307 -8 235 27T124 123T85 262Q85 349 126 425T237 559T397 650T582 683Q630 683 662 675T720 657Q740 650 759 644T800 638Q811 638 819 639T838 643L842 640Q823 599 821 549T822 451H797Q780 514 750 558T675
625T565 648Q506 648 455 622T364 552T294 454T250 343T234 234Q234 139 282 83T418 26Q465 26 508 41T590 84T662 147T722 224H753Q719 176 700 126T670 29Q667 29 665 29T659 29Q632 29 610 24T564 12Q536 5 497 -1T409 -8Z" />
<glyph unicode="D" horiz-adv-x="791" d="M-59 0L-50 22L5 33Q30 38 44 43T66 60T83 92L281 581Q294 613 289 623T251 640L204 651L213 673H519Q620 673 686 639T786 551T819 434Q819 341 783 262T682 124T526 33T325 0H-59ZM289 33Q388 33 460 66T579 158T649
292T672 450Q672 515 655 557T597 621T490 642H445L223 92Q211 63 228 48T289 33Z" />
<glyph unicode="E" horiz-adv-x="671" d="M-59 0L-50 22L5 33Q30 38 44 43T66 60T83 92L281 581Q294 613 289 623T251 640L204 651L213 673H786Q777 659 771 646T759 618Q746 587 739 558T724 496H702Q702 536 690 568T650 620T578 640H445L336 372H464Q498 372
522 381T563 407T594 448L621 494H643L531 217H509L519 265Q527 300 514 319T453 339H323L234 119Q222 90 217 71T223 42T268 33H342Q378 33 410 43T473 73T535 120L602 180H624Q596 136 571 91T526 0H-59Z" />
<glyph unicode="F" horiz-adv-x="647" d="M-59 0L-50 22L5 33Q30 38 44 43T66 60T83 92L281 581Q294 613 289 623T251 640L204 651L213 673H785Q776 659 770 646T758 618Q745 587 738 558T723 496H701Q701 526 694 552T672 597T634 628T577 640H445L328 352H456Q490
352 514 361T555 387T586 428L613 474H635L523 197H501L511 245Q517 269 513 285T493 310T445 319H315L223 92Q210 61 216 51T253 33L307 22L298 0H-59Z" />
<glyph unicode="G" horiz-adv-x="852" d="M390 -11Q310 -11 252 10T157 67T102 151T84 249Q84 334 119 412T221 551T379 647T584 683Q648 683 683 674T741 654Q759 647 775 641T812 635Q823 635 830 636T847 640L851 637Q837 614 831 584T825 524Q825 509 826
495T829 468H794Q783 526 755 566T681 626T573 647Q506 647 445 615T335 524T260 389T232 221Q232 159 253 115T317 47T424 23Q456 23 490 34T551 66L612 218Q625 250 620 260T582 277L535 288L544 310H883L874 288L824 277Q801 272 789 267T769 250T752 218L675
29L672 27Q659 30 652 31T627 33Q609 33 590 28T551 16Q522 7 481 -2T390 -11Z" />
<glyph unicode="H" horiz-adv-x="876" d="M407 0L416 22L471 33Q496 38 510 43T532 60T549 92L747 581Q760 613 755 623T717 640L670 651L679 673H1029L1020 651L965 640Q940 635 926 630T904 613T887 581L689 92Q676 61 682 51T719 33L766 22L757 0H407ZM-59
0L-50 22L5 33Q30 38 44 43T66 60T83 92L281 581Q294 613 289 623T251 640L204 651L213 673H563L554 651L499 640Q474 635 460 630T438 613T421 581L223 92Q210 61 216 51T253 33L300 22L291 0H-59ZM306 341L319 374H703L690 341H306Z" />
<glyph unicode="I" horiz-adv-x="410" d="M-59 0L-50 22L5 33Q30 38 44 43T66 60T83 92L281 581Q294 613 289 623T251 640L204 651L213 673H563L554 651L499 640Q474 635 460 630T438 613T421 581L223 92Q210 61 216 51T253 33L300 22L291 0H-59Z" />
<glyph unicode="J" horiz-adv-x="454" d="M-48 -202Q-75 -202 -99 -191T-140 -158T-156 -106Q-156 -50 -128 -29T-65 -7Q-39 -7 -21 -21T-2 -66Q-2 -85 -11 -98T-31 -121Q-38 -128 -44 -133T-50 -144Q-50 -153 -40 -156T-18 -159Q-1 -159 27 -134T80 -48L335 581Q348
613 343 623T305 640L258 651L267 673H617L608 651L553 640Q528 635 514 630T492 613T475 581L216 -58H214Q200 -58 183 -73T145 -110Q119 -137 87 -158T20 -190T-48 -202Z" />
<glyph unicode="K" horiz-adv-x="789" d="M624 0Q570 0 538 19T485 71L335 324L339 333L709 597Q717 603 722 609T728 622Q728 633 711 636L638 651L647 673H916L907 651L874 644Q853 640 835 634T795 616T743 582L454 373L634 64Q646 44 659 34T699 23L690 0H624ZM-59
0L-50 22L5 33Q30 38 44 43T66 60T83 92L281 581Q295 614 288 623T251 640L204 651L213 673H563L554 651L499 640Q474 635 460 630T438 613T421 581L223 92Q210 59 216 50T253 33L300 22L291 0H-59Z" />
<glyph unicode="L" horiz-adv-x="702" d="M-59 0L-50 22L5 33Q30 38 44 43T66 60T83 92L281 581Q294 613 289 623T251 640L204 651L213 673H563L554 651L499 640Q474 635 460 630T438 613T421 581L223 92Q213 65 220 49T268 33H394Q432 33 465 42T528 71T587 120L665
197H687Q659 153 628 100T578 0H-59Z" />
<glyph unicode="M" horiz-adv-x="979" d="M350 -6L342 578L125 92Q114 67 123 55T157 37L224 22L215 0H-59L-50 22L13 35Q32 39 46 45T70 63T89 92L304 581Q318 613 312 623T274 640L230 651L239 673H472L478 185L872 673H1114L1105 651L1049 640Q1024 635 1010
630T987 613T971 581L792 92Q781 61 786 51T822 33L869 22L860 0H512L521 22L576 33Q601 38 615 43T638 60T654 92L825 561L365 -6H350Z" />
<glyph unicode="N" horiz-adv-x="832" d="M598 -16L319 567L127 92Q117 67 125 55T158 37L225 22L216 0H-59L-50 22L14 35Q34 39 48 45T73 63T91 92L288 581Q297 602 297 613T289 629T258 640L212 651L220 673H410L654 177L814 581Q824 606 816 618T782 636L716
651L724 673H999L991 651L927 638Q908 634 893 628T868 610T850 581L610 -16H598Z" />
<glyph unicode="O" horiz-adv-x="825" d="M388 -8Q293 -8 226 27T123 123T87 262Q87 349 125 425T228 559T377 650T549 683Q644 683 711 648T814 552T850 413Q850 326 812 250T709 116T560 25T388 -8ZM409 27Q462 27 508 53T590 123T653 221T692 332T706 442Q706
506 687 552T630 623T534 649Q481 649 435 623T353 553T290 455T251 344T237 234Q237 171 256 125T314 53T409 27Z" />
<glyph unicode="P" horiz-adv-x="665" d="M-59 0L-50 22L5 33Q30 38 44 43T66 60T83 92L281 581Q290 603 290 614T281 630T251 640L204 651L213 673H507Q617 673 682 636T748 523Q748 467 717 420T634 339T523 285T403 266Q371 266 345 274L347 281Q400 284 447
306T530 364T587 445T608 541Q608 594 574 617T481 640H445L223 92Q211 61 216 50T253 33L309 22L300 0H-59Z" />
<glyph unicode="Q" horiz-adv-x="825" d="M557 -259Q518 -259 476 -238T391 -184T310 -121Q279 -96 250 -76T195 -43T146 -30Q124 -30 115 -38T103 -59T96 -87Q92 -107 83 -124T44 -142Q25 -142 10 -129T-5 -89Q-5 -49 35 -23T149 3Q205 3 253 -10T343 -45T422
-89Q472 -119 521 -142T617 -166Q656 -166 676 -149T708 -111L735 -118Q713 -194 668 -226T557 -259ZM388 -8Q293 -8 226 27T123 123T87 262Q87 349 125 425T228 559T377 650T549 683Q644 683 711 648T814 552T850 413Q850 326 812 250T709 116T560 25T388 -8ZM409
27Q462 27 508 53T590 123T653 221T692 332T706 442Q706 506 687 552T630 623T534 649Q481 649 435 623T353 553T290 455T251 344T237 234Q237 171 256 125T314 53T409 27Z" />
<glyph unicode="R" horiz-adv-x="839" d="M665 -16Q623 -16 592 2T536 57T482 146Q463 184 444 217T399 272T336 294H305L224 92Q211 61 217 51T254 33L300 22L292 0H-57L-49 22L7 33Q32 38 45 43T67 60T84 92L281 581Q294 613 289 623T251 640L205 651L213 673H480Q614
673 682 640T750 545Q750 499 725 460T657 390T563 340T461 316L460 314Q501 314 530 291T581 233T622 159Q640 124 657 92T697 39T752 19L743 -5Q721 -12 703 -14T665 -16ZM319 327H354Q404 327 449 342T530 386T587 454T608 543Q608 589 572 614T467 640H445L319
327Z" />
<glyph unicode="S" horiz-adv-x="620" d="M261 -10Q179 -10 120 10T11 70Q34 116 47 157T70 256H106Q98 233 94 211T90 167Q90 115 117 84T185 38T270 23Q314 23 355 39T422 87T449 165Q449 194 438 213T398 250T319 291Q279 309 244 332T188 389T166 472Q166
522 190 561T254 627T345 669T446 684Q484 684 523 676T595 650Q610 643 625 635T653 627Q665 627 678 630L682 626Q655 592 645 551T631 459H600Q605 526 583 568T523 630T437 651Q394 651 357 635T297 587T274 511Q274 483 290 463T334 428T395 398Q430 383 467
362T529 308T554 224Q554 167 530 124T463 50T369 5T261 -10Z" />
<glyph unicode="T" horiz-adv-x="704" d="M88 0L97 22L152 33Q177 38 191 43T213 60T230 92L452 640H379Q336 640 292 618T208 558T140 476H113Q130 503 148 537T182 607T205 673H865Q840 628 823 573T797 476H770Q777 520 769 557T735 617T665 640H592L370 92Q357
61 363 51T400 33L447 22L438 0H88Z" />
<glyph unicode="U" horiz-adv-x="765" d="M290 -11Q218 -11 172 24T115 119T133 252L266 581Q279 613 273 623T235 640L189 651L198 673H548L539 651L483 640Q458 635 445 630T423 613T406 581L260 220Q229 145 254 101T361 57Q410 57 456 77T540 134T595 216L743
581Q753 606 745 618T711 636L644 651L653 673H928L919 651L856 638Q836 634 822 628T797 610T779 581L587 109Q571 109 553 96T509 65Q475 39 423 14T290 -11Z" />
<glyph unicode="V" horiz-adv-x="769" d="M261 -15L256 614Q256 625 248 631T229 639L179 651L188 673H527L518 651L463 640Q436 635 421 627T399 604Q398 600 397 594T395 582L391 121H371L745 585Q753 595 756 602Q765 625 725 634L657 651L666 673H947L938
651L870 638Q856 636 845 632T823 621T803 602L304 -15H261Z" />
<glyph unicode="W" horiz-adv-x="1123" d="M246 -15L260 597Q261 617 256 626T233 639L183 651L191 673H518L510 651L454 640Q418 633 403 621T387 582L380 115L355 123L672 591Q686 611 682 622T659 638L595 651L603 673H900L892 651L823 638Q810 636 799 631T780
616T772 591L765 107L740 117L1106 595Q1119 612 1112 619T1066 637L1010 651L1018 673H1297L1289 651L1220 637Q1199 633 1182 624T1151 597L680 -15H632L643 481L294 -15H246Z" />
<glyph unicode="X" horiz-adv-x="803" d="M356 0L364 22L420 33Q470 43 482 57T487 91L402 300L390 310L270 607Q265 621 258 629T234 641L190 651L198 673H540L532 651L439 632Q419 628 413 619T410 597L500 375L507 365L632 70Q640 52 648 44T669 32L712 22L704
0H356ZM-78 0L-70 22L-1 35Q20 39 41 48T79 71L395 332L415 300L150 85Q129 69 128 57T143 39L211 22L203 0H-78ZM491 336L470 369L725 588Q745 605 747 617T732 634L664 651L672 673H954L946 651L877 638Q856 634 835 626T796 602L491 336Z" />
<glyph unicode="Y" horiz-adv-x="732" d="M351 250L264 614Q261 625 255 631T237 639L189 651L198 673H527L518 651L463 640Q428 633 415 620T407 585L455 373H453L698 596Q710 607 710 617T689 632L612 651L621 673H900L891 651L831 639Q810 635 792 627T756
602L381 257L351 250ZM84 0L93 22L148 33Q173 38 187 43T209 60T226 92L332 353L475 361L366 92Q353 61 359 51T396 33L443 22L434 0H84Z" />
<glyph unicode="Z" horiz-adv-x="666" d="M-64 0L-57 18L606 640H481Q416 640 363 618T265 558T182 471H160Q182 505 201 542T235 616Q241 630 245 644T253 673H808L799 652L149 33H313Q370 33 427 55T534 116T622 204H644Q610 151 583 102T535 0H-64Z" />
<glyph unicode="[" horiz-adv-x="261" d="M-146 -214L242 744H447L426 694H316L-30 -164H80L59 -214H-146Z" />
<glyph unicode="\" horiz-adv-x="446" d="M281 -7L218 712H271L334 -7H281Z" />
<glyph unicode="]" horiz-adv-x="261" d="M442 744L54 -214H-151L-130 -164H-20L326 694H216L237 744H442Z" />
<glyph unicode="^" horiz-adv-x="576" d="M57 289L433 677H509L573 289H485L421 622H477L145 289H57Z" />
<glyph unicode="_" horiz-adv-x="570" d="M-116 -94V-39H454V-94H-116Z" />
<glyph unicode="`" horiz-adv-x="600" d="M504 538L392 658Q374 678 375 700Q375 718 388 730T419 741Q433 740 445 732T464 706L526 549L504 538Z" />
<glyph unicode="a" horiz-adv-x="509" d="M58 -8Q21 -8 4 10T-14 64Q-14 103 7 151T64 250T145 344Q194 390 240 420T331 451Q357 451 372 440T397 412H400L470 456H483L344 105Q337 88 339 76T352 63Q361 63 380 82T421 128T459 180L479 167Q419 78 375 35T293
-8Q253 -8 241 17T242 76L262 126H257Q234 89 200 59T128 10T58 -8ZM137 81Q163 81 190 99T242 148T288 214T319 284T331 346Q331 369 320 379T289 389Q264 389 232 373T173 327Q136 290 111 241T86 145Q86 111 99 96T137 81Z" />
<glyph unicode="b" horiz-adv-x="475" d="M137 -8Q91 -8 64 17T37 84Q37 101 41 119T55 161L230 608Q238 627 232 636T213 648L188 655L193 673Q246 682 284 688T363 712L377 705Q364 683 353 658T332 609L213 316H215Q246 357 280 387T350 434T420 451Q449 451
469 436T489 376Q489 336 466 286T404 184T319 89T225 19T137 -8ZM186 54Q211 54 243 71T302 116Q327 141 347 173T378 239T390 300Q390 326 379 343T338 360Q312 360 285 342T233 293T187 228T156 159T144 97Q144 74 155 64T186 54Z" />
<glyph unicode="c" horiz-adv-x="366" d="M104 -8Q64 -8 37 17T10 92Q10 145 31 196T88 294T163 377Q201 411 237 431T305 451Q345 451 365 428T385 375Q385 352 374 337T339 322Q315 322 309 334T299 363Q297 377 293 385T272 393Q246 393 218 375T166 325T126
251T110 158Q110 111 129 96T172 81Q204 81 236 106T306 183L326 171Q300 126 266 85T190 18T104 -8Z" />
<glyph unicode="d" horiz-adv-x="509" d="M58 -8Q21 -8 4 10T-14 64Q-14 103 7 151T64 250T145 344Q194 390 240 420T331 451Q345 451 356 448T375 438L444 608Q452 628 446 636T427 648L402 655L407 673Q460 682 497 688T575 712L589 705Q576 683 565 658T544
609L344 105Q337 87 339 75T352 63Q361 63 380 82T421 128T459 180L479 167Q419 78 375 35T293 -8Q253 -8 241 17T242 76L262 126H257Q234 89 200 59T128 10T58 -8ZM137 81Q163 81 190 99T242 148T288 214T319 284T331 346Q331 369 320 379T289 389Q264 389 232
373T173 327Q136 290 111 241T86 145Q86 111 99 96T137 81Z" />
<glyph unicode="e" horiz-adv-x="360" d="M100 -8Q56 -8 35 21T14 94Q14 157 38 212T101 313T179 393Q212 421 246 436T309 451Q347 451 365 434T384 392Q384 356 356 320T262 256T85 212L87 241Q153 246 197 267T262 316T284 366Q284 393 258 393Q231 393 206
372T160 315T127 239T114 158Q114 119 129 100T175 80Q196 80 218 91T263 125T307 185L326 173Q298 124 259 83T178 17T100 -8Z" />
<glyph unicode="f" horiz-adv-x="335" d="M-76 -247Q-105 -247 -132 -237T-177 -210T-194 -173Q-194 -144 -178 -130T-140 -116Q-118 -116 -102 -130T-85 -187Q-85 -202 -79 -209T-63 -216Q-35 -216 -11 -137L183 501Q218 617 270 664T405 711Q467 711 502 689T537
634Q537 616 525 599T485 581Q454 581 439 595T423 634Q423 639 423 644T424 651Q424 664 414 670T390 677Q352 677 331 640T284 517L86 -138Q73 -138 64 -149T43 -178Q27 -203 -2 -225T-76 -247ZM85 407L99 442H374L359 407H85Z" />
<glyph unicode="g" horiz-adv-x="523" d="M78 -259Q29 -259 -14 -247T-85 -210T-112 -150Q-112 -107 -81 -77T2 -27T114 7L162 -3Q112 -17 71 -36T6 -80T-19 -142Q-19 -183 18 -201T107 -219Q172 -219 220 -207T294 -172T321 -121Q321 -104 310 -91T265 -67T165
-44Q103 -33 63 -20T5 11T-14 56Q-14 82 34 102T157 124L200 107Q168 106 142 103T101 93T85 76Q85 68 93 62T132 48T227 30Q338 11 382 -16T426 -88Q426 -137 379 -176T254 -237T78 -259ZM161 -1L111 20Q170 36 233 47T361 68L365 46Q316 37 263 25T161 -1ZM204
140Q233 140 257 159T300 209T329 276T340 346Q340 382 328 407Q316 419 289 419Q259 419 235 399T193 348T165 282T153 219Q152 185 162 163T204 140ZM212 106Q176 106 142 120T87 163T65 233Q65 268 78 306T119 377T187 430T282 451Q311 451 332 445T373 430Q390
424 406 418T439 412Q456 412 467 420T479 448Q479 456 475 465T470 483Q470 512 485 526T520 541Q542 541 552 529T563 497Q563 472 548 443T506 394T442 374Q432 374 425 376T408 383L406 377Q426 353 426 309Q426 277 413 242T372 175T305 125T212 106Z" />
<glyph unicode="h" horiz-adv-x="553" d="M-14 -11L230 608Q238 628 232 636T213 648L188 655L193 673Q246 682 283 688T361 712L375 705Q362 683 351 658T330 609L159 184H161Q181 215 206 251T261 322T324 386T391 433T460 451Q497 451 508 426T503 362L389
100Q381 81 385 72T399 63Q408 63 427 82T468 128T506 180L526 167Q463 78 419 35T334 -8Q294 -8 281 19T284 86L392 336Q399 351 396 359T380 368Q362 368 326 339T246 258T161 140T91 0L-14 -11Z" />
<glyph unicode="i" horiz-adv-x="326" d="M107 -8Q72 -8 55 16T52 76L159 346Q167 367 164 373T156 380Q147 380 128 361T88 315T50 263L30 276Q93 365 136 408T223 451Q261 451 270 425T266 362L164 105Q155 83 159 73T172 63Q181 63 200 82T241 128T279 180L299
167Q236 78 192 35T107 -8ZM286 544Q257 544 235 566T213 617Q213 648 235 670T286 692Q317 692 339 670T361 617Q361 588 339 566T286 544Z" />
<glyph unicode="j" horiz-adv-x="265" d="M-115 -259Q-158 -259 -186 -242T-215 -197Q-215 -171 -201 -157T-167 -142Q-146 -142 -130 -155T-113 -206Q-113 -219 -108 -225T-92 -232Q-76 -232 -63 -210T-36 -149L148 346Q156 367 153 373T145 380Q136 380 117
361T77 315T39 263L19 276Q82 365 125 408T212 451Q250 451 259 425T255 362L74 -128Q61 -128 48 -142T20 -174Q6 -193 -13 -213T-57 -246T-115 -259ZM279 544Q250 544 228 566T206 617Q206 648 228 670T279 692Q310 692 332 670T354 617Q354 588 332 566T279 544Z"
/>
<glyph unicode="k" horiz-adv-x="540" d="M-15 -12L229 607Q236 625 232 634T212 647L187 654L192 672Q237 680 278 687T360 711L374 704Q361 682 350 657T329 608L167 200H170L90 -1L-15 -12ZM338 -7Q310 -7 285 21T236 110Q231 125 224 145T206 180T179 195Q164
195 145 176L129 198Q155 224 177 235T220 247Q257 247 280 217T325 130Q351 59 380 59Q402 59 430 91T498 178L514 168Q464 85 420 39T338 -7ZM187 228L170 246Q191 282 219 318T280 385T350 433T426 451Q458 451 471 436T484 398Q484 370 466 341T417 286T346
243T261 223L234 239Q266 242 294 253T343 281T377 317T390 354Q390 369 383 377T359 385Q322 385 277 341T187 228Z" />
<glyph unicode="l" horiz-adv-x="296" d="M74 -8Q39 -8 22 16T19 76L230 608Q238 628 232 636T213 648L188 655L193 673Q246 682 283 688T361 712L375 705Q362 683 351 658T330 609L128 99Q121 81 125 72T139 63Q153 63 178 92T246 180L266 167Q203 78 159 35T74 -8Z" />
<glyph unicode="m" horiz-adv-x="836" d="M17 -12L161 350Q167 365 166 372T156 379Q147 379 128 360T88 314T50 262L30 275Q93 364 137 407T222 450Q257 450 270 426T266 361L191 184H193Q213 215 238 251T292 322T352 386T417 433T482 451Q523 451 531 424T523
356L450 184H452Q476 222 508 268T577 355T654 424T733 451Q768 451 779 426T775 362L672 100Q665 81 668 72T682 63Q691 63 710 82T751 128T789 180L809 167Q748 78 705 35T624 -8Q585 -8 572 19T575 86L673 336Q679 351 676 359T661 368Q643 368 609 339T532
258T450 140T382 0L276 -12L414 336Q420 351 417 359T402 368Q384 368 350 339T273 258T191 140T123 0L17 -12Z" />
<glyph unicode="n" horiz-adv-x="585" d="M17 -12L161 350Q167 365 166 372T156 379Q147 379 128 360T88 314T50 262L30 275Q93 364 137 407T222 450Q257 450 270 426T266 361L191 184H193Q213 215 238 251T293 322T356 386T423 433T492 451Q529 451 540 426T535
362L421 100Q413 81 417 72T431 63Q440 63 459 82T500 128T538 180L558 167Q495 78 451 35T366 -8Q326 -8 313 19T316 86L424 336Q431 351 428 359T412 368Q394 368 358 339T278 258T193 140T123 0L17 -12Z" />
<glyph unicode="o" horiz-adv-x="473" d="M188 -9Q120 -9 77 26T34 131Q34 197 55 254T113 356T196 426T292 451Q362 451 401 411T440 310Q440 246 420 189T365 87T285 17T188 -9ZM168 23Q192 23 217 47T266 109T307 193T337 280T348 354Q348 418 306 418Q282
418 257 394T209 332T167 249T138 162T127 88Q127 57 138 40T168 23Z" />
<glyph unicode="p" horiz-adv-x="528" d="M-128 -250L-121 -233L-87 -221Q-69 -215 -59 -206T-41 -181L195 406L313 482L239 312H242Q274 354 312 385T387 434T456 452Q487 452 507 433T528 372Q528 326 513 276T472 179T410 95T334 35T250 12Q195 12 160 33T125
94Q125 119 140 130T176 141Q199 141 214 126T230 73Q230 58 236 50T260 42Q285 42 308 59T350 106T385 173T408 249T416 325Q416 380 375 380Q356 380 333 363T286 318T242 254T206 182L57 -188Q48 -211 75 -221L117 -233L110 -250H-128ZM35 232L21 252Q77 282
112 311T169 371T209 431T245 494Q250 502 260 506T286 511Q300 511 311 507T319 494Q303 453 264 405T167 310T35 232Z" />
<glyph unicode="q" horiz-adv-x="455" d="M31 -250L38 -233L80 -221Q99 -215 110 -207T125 -188L240 98H237Q200 52 150 22T58 -8Q21 -8 4 10T-14 64Q-14 103 7 151T64 250T145 344Q194 390 240 420T331 451Q356 451 372 440T397 412H400L470 456H483L229 -181Q217
-210 240 -221L267 -233L260 -250H31ZM137 81Q163 81 190 99T242 148T288 214T319 284T331 346Q331 369 320 379T289 389Q264 389 232 373T173 327Q136 290 111 241T86 145Q86 111 99 96T137 81Z" />
<glyph unicode="r" horiz-adv-x="460" d="M17 -12L161 350Q167 365 166 372T156 379Q147 379 128 360T88 314T50 262L30 275Q93 364 137 407T222 450Q257 450 270 426T266 361L189 184H191Q212 222 238 268T295 355T361 424T434 451Q469 451 487 433T506 388Q506
357 488 339T446 321Q433 321 425 327T413 340Q406 354 400 364T379 375Q357 375 326 345T259 261T188 141T123 0L17 -12Z" />
<glyph unicode="s" horiz-adv-x="375" d="M137 -8Q99 -8 67 5T16 44T-3 109Q-3 143 15 159T53 176Q73 176 88 164T104 130Q104 118 99 110T89 94Q82 86 76 78T70 59Q70 44 89 33T133 21Q163 21 183 40T203 100Q203 123 191 146T161 195Q139 227 120 260T100 334Q100
367 117 393T166 436T241 452Q291 452 328 429T366 358Q366 339 354 325T319 310Q295 310 284 323T273 355Q273 358 273 362T275 371Q276 376 277 381T278 390Q278 405 266 415T234 425Q215 425 200 411T185 365Q185 340 201 313T236 260Q259 229 275 202T291 129Q291
83 269 53T211 7T137 -8Z" />
<glyph unicode="t" horiz-adv-x="325" d="M86 -8Q46 -8 34 18T37 85L162 406H95L109 441H178L210 521L315 531L279 442H361L347 407H265L144 100Q137 81 140 72T154 63Q162 63 180 82T218 128T253 180L273 167Q212 77 168 35T86 -8Z" />
<glyph unicode="u" horiz-adv-x="575" d="M92 -8Q56 -8 45 18T49 81L164 343Q172 362 169 371T154 380Q145 380 126 361T85 315T47 263L27 276Q90 365 134 407T219 450Q259 450 272 423T269 357L159 107Q152 92 155 84T171 75Q189 75 224 104T301 185T384 303T453
443L558 454L414 92Q408 77 409 70T419 63Q428 63 447 82T487 128T525 180L545 167Q482 78 438 35T353 -8Q319 -8 306 16T309 81L385 259H383Q364 228 339 192T284 121T222 57T157 10T92 -8Z" />
<glyph unicode="v" horiz-adv-x="556" d="M235 -6Q192 -6 162 21T131 100Q131 146 142 182T171 247T211 303T257 355L255 358Q248 357 240 356T227 355Q212 355 201 357T176 363Q162 368 149 370T124 373Q106 373 93 367T80 348Q80 338 89 333T108 324Q126 318
136 309T147 283Q147 264 135 252T99 240Q74 240 57 263T40 318Q40 356 57 386T103 433T166 451Q178 451 190 449T213 443Q226 439 239 436T267 432Q282 432 296 434T321 444Q329 451 333 454T347 457Q359 457 359 445Q359 438 352 431T340 417Q313 386 293 358T259
301T238 239T231 164Q231 115 251 97T305 79Q334 79 364 93T421 133T464 196T480 279Q480 310 469 326T446 355Q434 366 425 376T415 408Q415 443 436 455T473 468Q505 468 522 438T539 371Q539 304 520 247T470 143T398 63T316 12T235 -6Z" />
<glyph unicode="w" horiz-adv-x="744" d="M233 -6Q192 -6 162 20T132 96Q132 146 142 183T170 249T211 303T258 356L256 359Q249 358 241 357T228 356Q213 356 202 358T177 364Q163 369 150 371T125 374Q107 374 94 368T81 349Q81 339 90 334T109 325Q127 319
137 310T148 284Q148 265 136 253T100 241Q75 241 58 264T41 319Q41 357 58 387T104 434T167 452Q179 452 191 450T214 444Q227 440 240 437T268 433Q283 433 297 435T322 445Q330 451 334 454T348 458Q360 458 360 446Q360 439 353 432T341 418Q316 389 296 361T261
304T239 240T231 165Q231 116 249 98T298 79Q333 79 365 98T425 147T473 212T505 279T517 334Q517 371 495 371Q478 371 462 355T432 311T412 249T404 179Q404 124 421 102T488 79Q530 79 563 96T619 141T654 205T666 279Q666 311 656 327T632 355Q620 366 611
376T601 408Q601 443 622 455T659 468Q691 468 708 438T725 371Q725 307 705 240T647 117T560 27T451 -8Q403 -8 376 27T348 143Q348 197 362 245T400 331T451 390T503 411Q526 411 539 396T552 354Q552 316 534 269T483 173T410 85T324 19T233 -6Z" />
<glyph unicode="x" horiz-adv-x="574" d="M308 -8Q273 -8 252 17T231 91Q234 167 263 232T334 347T421 423T503 451Q541 451 559 429T577 380Q577 353 567 337T530 321Q507 321 501 333T492 359Q490 373 487 383T468 394Q442 394 417 378T372 330T339 252T327
147Q327 108 342 92T379 76Q405 76 441 102T516 183L535 173Q507 128 469 87T389 19T308 -8ZM71 -9Q33 -9 15 13T-3 62Q-3 89 8 105T44 121Q67 121 73 109T82 83Q84 70 87 59T106 48Q132 48 157 64T202 112T235 190T247 295Q247 334 233 350T195 366Q169 366 133
341T58 259L39 269Q67 314 105 355T185 423T266 450Q301 450 323 425T343 351Q340 275 311 210T240 95T153 19T71 -9Z" />
<glyph unicode="y" horiz-adv-x="501" d="M-58 -284Q-99 -284 -130 -274T-178 -244T-196 -200Q-196 -168 -180 -154T-142 -139Q-113 -139 -103 -158T-89 -201Q-84 -222 -78 -239T-50 -256Q-7 -256 35 -229T113 -156T178 -51T222 71T238 195Q238 301 209 354T129
408Q94 408 76 386T58 333Q58 316 65 298T90 265L78 251Q53 267 41 292T28 342Q28 384 57 418T145 452Q195 452 230 430T287 371T319 289T329 195Q329 146 320 101T296 20L300 18Q320 39 342 73T384 146T416 223T429 289Q429 321 416 335T386 360Q374 368 364 380T354
411Q354 442 375 454T417 467Q445 467 461 444T478 375Q478 329 463 268T417 138T338 3Q296 -54 246 -106T143 -198T39 -261T-58 -284Z" />
<glyph unicode="z" horiz-adv-x="437" d="M-23 -5Q-31 -5 -37 2T-43 14Q-43 22 -34 28T-6 51L421 450L444 427L-14 0L59 82Q76 100 95 111T135 122Q158 122 180 110T224 82Q245 66 261 53T300 40Q307 40 312 43T317 53Q317 64 312 70T298 84Q289 92 282 102T274
132Q274 152 287 168T330 185Q358 185 371 164T384 121Q384 77 344 37Q323 15 303 6T244 -3Q213 -3 187 4T138 18Q119 25 101 30T62 35Q35 35 18 23T-10 1Q-16 -5 -23 -5ZM117 276Q60 276 60 343Q60 361 69 379T94 411Q113 430 136 441T179 452Q206 452 229 446T271
433Q292 425 310 421T346 416Q361 416 375 420T403 437Q411 444 415 448T425 452Q429 452 436 447T448 435T446 423Q435 415 425 407T405 389L350 365Q329 351 307 340T266 328Q250 328 234 335T197 356Q181 368 166 381T131 394Q121 394 115 390T109 380Q109 373
114 369T129 359Q140 353 150 345T161 323Q161 303 149 290T117 276Z" />
<glyph unicode="{" horiz-adv-x="348" d="M150 -217Q101 -217 55 -210T-22 -181T-52 -116Q-52 -71 -28 -27T24 60Q49 98 69 134T89 204Q89 224 77 234T27 245L42 282Q87 282 114 300T156 348T180 417T196 496Q204 541 213 579T241 648T294 700T387 732T534 744L523
706Q457 706 416 685T350 629T311 552T283 465Q272 426 262 391T234 327T186 282T104 265L103 262Q135 255 148 242T163 212T166 172Q166 147 147 110T105 34Q83 -5 65 -41T46 -105Q46 -145 79 -161T166 -179L150 -217Z" />
<glyph unicode="|" horiz-adv-x="282" d="M122 687H196V-259H121L122 687Z" />
<glyph unicode="}" horiz-adv-x="347" d="M232 744Q281 744 327 737T404 709T434 643Q434 598 410 554T358 467Q333 429 313 393T293 323Q293 303 305 293T355 282L340 245Q295 245 268 227T226 179T203 110T186 31Q178 -14 169 -52T141 -121T88 -172T-5 -205T-152
-217L-141 -179Q-75 -179 -34 -158T32 -102T71 -25T99 62Q110 101 120 136T148 200T196 245T278 262L279 265Q247 273 234 285T219 315T216 355Q216 380 235 417T277 493Q300 532 318 568T336 632Q336 672 303 688T216 706L232 744Z" />
<glyph unicode="~" horiz-adv-x="570" d="M154 276L113 285Q124 338 153 360T217 382Q246 382 277 374T336 355Q364 345 391 337T440 329Q467 329 483 340T510 382L551 373Q541 321 512 299T447 277Q418 277 388 285T328 303Q300 313 274 321T224 329Q197 329
181 318T154 276Z" />
<glyph unicode="&#xa0;" horiz-adv-x="200" />
<glyph unicode="&#xa1;" horiz-adv-x="259" d="M167 249L50 -170H-105L115 249H167ZM210 499Q242 499 265 476T288 421Q288 388 265 365T210 342Q178 342 155 365T132 421Q132 453 155 476T210 499Z" />
<glyph unicode="&#xa2;" horiz-adv-x="366" d="M-28 -89L321 538L343 527L-6 -100L-28 -89ZM104 -8Q64 -8 37 17T10 92Q10 145 31 196T88 294T163 377Q201 411 237 431T305 451Q345 451 365 428T385 375Q385 352 374 337T339 322Q315 322 309 334T299 363Q297
377 293 385T272 393Q246 393 218 375T166 325T126 251T110 158Q110 111 129 96T172 81Q204 81 236 106T306 183L326 171Q300 126 266 85T190 18T104 -8Z" />
<glyph unicode="&#xa3;" horiz-adv-x="643" d="M-72 -100Q-83 -100 -91 -93T-99 -70Q-99 -49 -77 -18T-15 42T74 92T178 112Q226 112 258 97T311 59T347 13Q363 -11 375 -29T403 -47Q428 -47 447 -31T467 19Q467 27 466 36T462 56Q461 64 460 71T458 86Q458 121
481 135T529 150Q549 150 560 139T571 111Q571 75 555 39T509 -26T441 -73T360 -91Q315 -91 286 -75T239 -34T208 15Q193 43 180 64T146 85Q122 85 98 71T54 36T19 -2T0 -27L-6 -28Q39 25 67 64T114 135T151 199Q177 242 203 291T278 412Q350 518 420 576T554 658T672
682Q719 682 749 665T780 616Q780 588 766 569T733 539T694 529Q677 529 665 537T653 564Q653 581 660 589T675 605Q683 610 688 616T694 633Q694 642 683 645T659 649Q630 649 598 628T525 557T426 415Q374 333 309 249T178 94Q139 52 103 17T33 -45T-27 -85T-72
-100ZM51 243L76 283H458L432 243H51Z" />
<glyph unicode="&#xa4;" horiz-adv-x="764" d="M221 87L175 133L270 228Q253 253 244 282T235 344Q235 410 270 459L175 554L221 600L317 504Q340 520 369 528T432 537Q466 537 495 529T546 504L642 600L688 554L593 459Q610 435 619 406T628 344Q628 312 619
283T593 228L688 133L642 87L546 183Q523 168 495 160T432 151Q398 151 369 159T317 183L221 87ZM432 205Q467 205 493 221T535 269T550 344Q550 409 517 446T432 483Q397 483 370 467T328 419T313 344Q313 301 328 270T370 222T432 205Z" />
<glyph unicode="&#xa5;" horiz-adv-x="732" d="M162 322L177 358H619L604 322H162ZM112 199L127 235H569L554 199H112ZM351 250L264 614Q261 625 255 631T237 639L189 651L198 673H527L518 651L463 640Q428 633 415 620T407 585L455 373H453L698 596Q710 607 710
617T689 632L612 651L621 673H900L891 651L831 639Q810 635 792 627T756 602L381 257L351 250ZM84 0L93 22L148 33Q173 38 187 43T209 60T226 92L332 353L475 361L366 92Q353 61 359 51T396 33L443 22L434 0H84Z" />
<glyph unicode="&#xa6;" horiz-adv-x="286" d="M120 260V681H190V260H120ZM190 -283H120V130H190V-283Z" />
<glyph unicode="&#xa7;" horiz-adv-x="525" d="M177 84L199 121Q233 121 260 141T304 193T321 261Q321 300 301 334T258 397Q237 424 222 457T206 534Q206 586 240 626T328 689T440 712Q509 712 540 691T572 638Q572 615 560 595T527 561T481 548Q459 548 448
558T436 583Q436 594 441 605T454 626Q458 632 464 640T470 658Q470 680 433 680Q401 680 375 662T332 614T316 552Q316 517 333 484T373 421Q394 393 411 361T429 289Q429 243 408 206T350 142T268 101T177 84ZM22 -232Q-42 -232 -71 -209T-101 -151Q-101 -128
-90 -106T-58 -69T-12 -55Q5 -55 13 -64T22 -85Q22 -97 15 -107T2 -129Q-2 -137 -7 -146T-13 -166Q-13 -179 1 -185T36 -191Q74 -191 102 -171T147 -119T163 -48Q163 -14 150 14T116 70Q94 101 72 141T49 223Q49 282 82 322T167 384T277 408L286 375Q248 375 219
357T174 309T157 248Q157 212 173 182T212 120Q234 89 252 57T270 -15Q270 -60 249 -99T191 -168T111 -215T22 -232Z" />
<glyph unicode="&#xa8;" horiz-adv-x="570" d="M346 555Q319 555 299 575T279 622Q279 651 299 671T346 691Q375 691 395 671T415 622Q415 595 395 575T346 555ZM545 555Q518 555 498 575T478 622Q478 651 498 671T545 691Q574 691 594 671T614 622Q614 595 594
575T545 555Z" />
<glyph unicode="&#xa9;" horiz-adv-x="804" d="M451 3Q341 3 265 48T148 167T108 332Q108 399 131 461T200 572T308 651T451 680Q529 680 592 655T700 584T769 479T793 353Q793 286 770 223T703 111T595 32T451 3ZM468 153Q406 153 359 178T285 246T258 342Q258
400 285 444T359 515T466 541Q494 541 511 536T542 526Q551 522 560 518T582 514Q589 514 594 515T604 517L606 516Q599 492 603 465T613 411H588Q568 460 541 485T474 510Q421 510 386 465T351 342Q351 266 382 226T466 186Q514 186 544 212T593 284H619Q612 256
607 228T602 173H598Q583 173 569 170T542 165Q526 161 509 157T468 153ZM453 56Q532 56 594 94T694 198T731 348Q731 408 710 459T650 548T561 607T450 628Q390 628 340 604T251 539T192 445T171 336Q171 251 208 188T309 91T453 56Z" />
<glyph unicode="&#xaa;" horiz-adv-x="489" d="M190 370Q160 370 146 383T131 423Q131 452 148 488T195 561T263 631Q304 666 342 688T417 710Q437 710 450 702T471 681H473L531 714H542L430 460Q425 448 426 439T436 429Q444 429 459 442T492 475T522 512L541
499Q492 432 456 401T387 370Q354 370 348 390T353 436L370 473H365Q346 445 315 422T251 384T190 370ZM256 436Q277 436 299 450T343 486T380 534T407 586T417 632Q417 650 408 657T382 665Q361 665 335 653T286 618Q255 590 234 554T213 483Q213 458 225 447T256
436Z" />
<glyph unicode="&#xab;" horiz-adv-x="391" d="M273 49L175 195L179 207L388 353L413 337L276 199L304 69L273 49ZM105 49L7 195L11 207L220 353L245 337L108 199L136 69L105 49Z" />
<glyph unicode="&#xac;" horiz-adv-x="570" d="M498 209V380H105V437H553V209H498Z" />
<glyph unicode="&#xad;" horiz-adv-x="313" d="M52 330H313V240H52V330Z" />
<glyph unicode="&#xae;" horiz-adv-x="580" d="M374 178Q293 178 236 212T148 302T118 424Q118 474 135 520T186 604T267 663T374 685Q453 685 510 652T599 563T631 440Q631 373 601 313T513 216T374 178ZM377 222Q434 222 480 250T553 326T580 437Q580 495 553
541T479 615T374 642Q308 642 263 612T195 533T172 432Q172 380 195 332T264 253T377 222ZM494 313Q471 313 451 326T410 368Q395 389 381 405T343 422H338V357Q338 349 342 346T359 337L372 331V319H243V331L257 337Q269 342 272 344T276 357V529Q276 540 273
543T257 551L243 556V568H346Q402 568 433 551T465 500Q465 475 443 458T388 437V433Q420 432 436 416T469 378Q483 356 495 341T523 326V317Q516 315 509 314T494 313ZM338 445H346Q369 445 387 456T406 496Q406 525 389 537T342 550H338V445Z" />
<glyph unicode="&#xaf;" horiz-adv-x="570" d="M266 590L288 645H624L602 590H266Z" />
<glyph unicode="&#xb0;" horiz-adv-x="399" d="M322 368Q279 368 244 389T187 447T165 526Q165 569 186 604T243 661T322 683Q366 683 401 662T458 605T480 526Q480 483 459 447T402 390T322 368ZM321 443Q356 443 380 467T405 527Q405 562 381 587T321 613Q286
613 261 588T235 527Q235 492 260 468T321 443Z" />
<glyph unicode="&#xb1;" horiz-adv-x="560" d="M274 217V364H94V421H274V567H331V421H512V364H331V217H274ZM94 119V176H512V119H94Z" />
<glyph unicode="&#xb2;" horiz-adv-x="313" d="M80 349L84 359L209 453Q235 473 266 500T319 560T342 631Q342 645 333 653T300 662Q279 662 266 654T253 632Q253 627 254 621T255 609Q255 595 243 587T215 579Q204 579 195 585T186 608Q186 632 205 649T255 676T324
686Q374 686 399 669T425 625Q425 597 407 570T361 519T304 476T253 443L143 377L180 420H299Q313 420 323 427T344 448L354 461H375L307 349H80Z" />
<glyph unicode="&#xb3;" horiz-adv-x="320" d="M194 343Q156 343 129 359T102 413Q102 428 111 441T136 454Q154 454 161 446T168 429Q168 414 160 409T151 394Q151 382 161 376T190 369Q217 369 242 383T283 423T300 480Q300 496 290 505T253 515L216 506L214
525L229 530Q251 537 278 551T325 585T345 630Q345 644 337 653T309 662Q284 662 271 655T257 640Q257 630 259 627T261 611Q261 598 250 590T223 582Q211 582 201 589T190 613Q190 635 210 651T261 676T326 686Q370 686 398 672T426 630Q426 606 409 591T367 566T322
549V548Q358 544 375 527T393 482Q393 450 374 424T325 380T261 353T194 343Z" />
<glyph unicode="&#xb4;" horiz-adv-x="570" d="M341 537L326 556L512 715Q523 724 532 729T553 734Q571 734 583 722T596 691Q596 678 588 666T563 645L341 537Z" />
<glyph unicode="&#xb5;" horiz-adv-x="570" d="M-77 -260L164 343Q172 362 169 371T154 380Q145 380 126 361T85 315T47 263L27 276Q88 365 131 408T212 451Q251 451 264 424T261 357L163 107Q157 92 160 84T175 75Q193 75 228 104T305 185T388 303T457 443L553
454L409 92Q403 77 404 70T414 63Q423 63 442 82T482 128T520 180L540 167Q479 78 436 35T355 -8Q322 -8 310 16T313 81Q332 125 350 170T387 259H385Q360 220 327 173T256 83T177 15T96 -8Q102 -6 108 -5T120 -3L42 -242L-77 -260Z" />
<glyph unicode="&#xb6;" horiz-adv-x="645" d="M101 -229Q45 -229 8 -210T-47 -160T-65 -91Q-65 -53 -50 -14T-5 59T65 112T156 132Q197 132 216 113T235 70Q235 42 211 16T146 -10Q127 -10 113 0T98 30Q98 44 102 55T106 69Q106 75 102 77T92 80Q68 80 48 64T11
23T-14 -32T-23 -89Q-23 -136 10 -163T108 -190Q171 -190 223 -159T316 -73T385 52L446 203H310Q253 203 213 224T150 284T128 371Q128 447 160 503T248 597T372 654T514 673H793L784 651L728 640Q703 635 690 630T668 613T651 581L440 59Q407 -22 360 -87T248
-191T101 -229Z" />
<glyph unicode="&#xb7;" horiz-adv-x="285" d="M194 265Q160 265 136 289T111 348Q111 383 135 407T194 432Q229 432 253 408T277 348Q277 314 253 290T194 265Z" />
<glyph unicode="&#xb8;" horiz-adv-x="570" d="M-14 -247L1 -217Q34 -214 62 -207T113 -189T148 -165T161 -138Q161 -119 139 -109T75 -97L139 0H181L157 -36Q212 -43 234 -61T256 -110Q256 -136 236 -159T180 -202T94 -232T-14 -247Z" />
<glyph unicode="&#xb9;" horiz-adv-x="247" d="M77 350L85 369L117 374Q131 377 139 380T152 390T161 407L253 635Q260 649 239 649L197 647L207 670L356 690L241 407Q235 391 238 385T259 374L287 369L279 350H77Z" />
<glyph unicode="&#xba;" horiz-adv-x="407" d="M290 371Q238 371 203 400T167 482Q167 538 185 581T234 654T298 699T363 714Q410 714 445 685T481 603Q481 559 466 518T425 443T365 391T290 371ZM275 395Q297 395 321 420T366 485T400 564T413 634Q413 660 403
674T373 689Q348 689 324 664T280 600T248 521T236 452Q236 421 247 408T275 395Z" />
<glyph unicode="&#xbb;" horiz-adv-x="392" d="M270 353L368 207L364 195L155 49L130 65L267 203L239 333L270 353ZM102 353L200 207L196 195L-13 49L-38 65L99 203L71 333L102 353Z" />
<glyph unicode="&#xbc;" horiz-adv-x="623" d="M372 0L477 260L494 257L311 108L315 120H512Q522 120 529 124T544 137L561 157H572L512 58H252L267 95L560 335H583L447 0H372ZM77 350L85 369L117 374Q131 377 139 380T152 390T161 407L253 635Q260 649 239 649L197
647L207 670L356 690L241 407Q235 391 238 385T259 374L287 369L279 350H77ZM-24 0L692 673H770L55 0H-24Z" />
<glyph unicode="&#xbd;" horiz-adv-x="690" d="M77 350L85 369L117 374Q131 377 139 380T152 390T161 407L253 635Q260 649 239 649L197 647L207 670L356 690L241 407Q235 391 238 385T259 374L287 369L279 350H77ZM-24 0L692 673H770L55 0H-24ZM316 0L320 10L445
104Q471 124 502 151T555 211T578 282Q578 296 569 304T536 313Q515 313 502 305T489 283Q489 278 490 272T491 260Q491 246 479 238T451 230Q440 230 431 236T422 259Q422 283 441 300T491 327T560 337Q610 337 635 320T661 276Q661 248 643 221T597 170T540 127T489
94L379 28L416 71H535Q549 71 559 78T580 99L590 112H611L543 0H316Z" />
<glyph unicode="&#xbe;" horiz-adv-x="670" d="M419 0L524 260L541 257L358 108L362 120H559Q569 120 576 124T591 137L608 157H619L559 58H299L314 95L607 335H630L494 0H419ZM25 0L741 673H819L104 0H25ZM194 343Q156 343 129 359T102 413Q102 428 111 441T136
454Q154 454 161 446T168 429Q168 414 160 409T151 394Q151 382 161 376T190 369Q217 369 242 383T283 423T300 480Q300 496 290 505T253 515L216 506L214 525L229 530Q251 537 278 551T325 585T345 630Q345 644 337 653T309 662Q284 662 271 655T257 640Q257 630
259 627T261 611Q261 598 250 590T223 582Q211 582 201 589T190 613Q190 635 210 651T261 676T326 686Q370 686 398 672T426 630Q426 606 409 591T367 566T322 549V548Q358 544 375 527T393 482Q393 450 374 424T325 380T261 353T194 343Z" />
<glyph unicode="&#xbf;" horiz-adv-x="388" d="M328 300Q300 228 273 188T210 129T119 101Q86 96 69 91T43 78T29 53Q25 44 25 34Q25 12 63 8L228 -11L159 -180H140L144 -150Q146 -136 137 -130T114 -121L23 -105Q-16 -98 -35 -81T-54 -33Q-54 1 -33 52Q-3 127
42 172T168 230Q210 237 232 245T266 266T286 300H328ZM354 504Q386 504 408 482T430 428Q430 396 408 374T354 351Q323 351 301 373T278 428Q278 460 300 482T354 504Z" />
<glyph unicode="&#xc0;" horiz-adv-x="763" d="M-84 0L-75 22L-12 35Q12 40 27 50T56 75L505 558L508 635Q540 636 566 647T610 673T631 698H645L592 62Q591 50 600 44T631 33L678 22L669 0H339L348 22L403 33Q438 40 449 50T463 87L503 533H527L96 74Q83 58 88
49T109 37L189 22L180 0H-84ZM218 226L236 259H517L503 226H218ZM710 733L552 778Q526 786 516 805Q507 821 511 837T532 863Q544 869 559 868T589 856L723 753L710 733Z" />
<glyph unicode="&#xc1;" horiz-adv-x="763" d="M-84 0L-75 22L-12 35Q12 40 27 50T56 75L505 558L508 635Q540 636 566 647T610 673T631 698H645L592 62Q591 50 600 44T631 33L678 22L669 0H339L348 22L403 33Q438 40 449 50T463 87L503 533H527L96 74Q83 58 88
49T109 37L189 22L180 0H-84ZM218 226L236 259H517L503 226H218ZM519 732L510 755L731 860Q743 866 753 868T775 868Q792 864 801 848T806 815Q802 802 791 793T762 779L519 732Z" />
<glyph unicode="&#xc2;" horiz-adv-x="763" d="M-84 0L-75 22L-12 35Q12 40 27 50T56 75L505 558L508 635Q540 636 566 647T610 673T631 698H645L592 62Q591 50 600 44T631 33L678 22L669 0H339L348 22L403 33Q438 40 449 50T463 87L503 533H527L96 74Q83 58 88
49T109 37L189 22L180 0H-84ZM218 226L236 259H517L503 226H218ZM474 712L457 732L650 877H692L774 722L745 710L636 786L474 712Z" />
<glyph unicode="&#xc3;" horiz-adv-x="763" d="M-84 0L-75 22L-12 35Q12 40 27 50T56 75L505 558L508 635Q540 636 566 647T610 673T631 698H645L592 62Q591 50 600 44T631 33L678 22L669 0H339L348 22L403 33Q438 40 449 50T463 87L503 533H527L96 74Q83 58 88
49T109 37L189 22L180 0H-84ZM218 226L236 259H517L503 226H218ZM302 718L308 732H319Q356 732 376 735T409 747T432 771Q454 802 490 830T576 877T681 896Q735 896 772 878T827 831T842 772Q840 756 845 747T869 735T924 732H935L929 718H801Q819 741 806 764T755
804T657 820Q601 820 553 805T471 766T428 718H302Z" />
<glyph unicode="&#xc4;" horiz-adv-x="763" d="M-84 0L-75 22L-12 35Q12 40 27 50T56 75L505 558L508 635Q540 636 566 647T610 673T631 698H645L592 62Q591 50 600 44T631 33L678 22L669 0H339L348 22L403 33Q438 40 449 50T463 87L503 533H527L96 74Q83 58 88
49T109 37L189 22L180 0H-84ZM218 226L236 259H517L503 226H218ZM550 732Q523 732 503 752T483 799Q483 828 503 848T550 868Q579 868 599 848T619 799Q619 772 599 752T550 732ZM749 732Q722 732 702 752T682 799Q682 828 702 848T749 868Q778 868 798 848T818
799Q818 772 798 752T749 732Z" />
<glyph unicode="&#xc5;" horiz-adv-x="763" d="M-84 0L-75 22L-12 35Q12 40 27 50T56 75L505 558L508 635Q540 636 566 647T610 673T631 698H645L592 62Q591 50 600 44T631 33L678 22L669 0H339L348 22L403 33Q438 40 449 50T463 87L503 533H527L96 74Q83 58 88
49T109 37L189 22L180 0H-84ZM218 226L236 259H517L503 226H218ZM717 787Q717 745 687 715T615 685Q573 685 543 715T513 787Q513 829 543 858T615 888Q657 888 687 859T717 787ZM678 787Q678 813 660 831T616 850Q590 850 571 832T552 787Q552 761 571 743T616
724Q642 724 660 742T678 787Z" />
<glyph unicode="&#xc6;" horiz-adv-x="1049" d="M-49 0L-40 22L19 35Q43 40 57 50T87 75L668 597L687 567L137 74Q124 62 127 52T150 37L224 22L215 0H-49ZM278 226L296 259H567L553 226H278ZM319 0L328 22L383 33Q408 38 422 43T444 60T461 92L659 581Q672 613
667 623T629 640L582 651L591 673H1164Q1155 659 1149 646T1137 618Q1124 587 1117 558T1102 496H1080Q1080 536 1068 568T1028 620T956 640H823L714 372H842Q876 372 900 381T941 407T972 448L999 494H1021L909 217H887L897 265Q905 300 892 319T831 339H701L612
119Q600 90 595 71T601 42T646 33H720Q756 33 788 43T851 73T913 120L980 180H1002Q974 136 949 91T904 0H319Z" />
<glyph unicode="&#xc7;" horiz-adv-x="777" d="M409 -8Q307 -8 235 27T124 123T85 262Q85 349 126 425T237 559T397 650T582 683Q630 683 662 675T720 657Q740 650 759 644T800 638Q811 638 819 639T838 643L842 640Q823 599 821 549T822 451H797Q780 514 750
558T675 625T565 648Q506 648 455 622T364 552T294 454T250 343T234 234Q234 139 282 83T418 26Q465 26 508 41T590 84T662 147T722 224H753Q719 176 700 126T670 29Q667 29 665 29T659 29Q632 29 610 24T564 12Q536 5 497 -1T409 -8ZM219 -247L234 -217Q267 -214
295 -207T346 -189T381 -165T394 -138Q394 -119 372 -109T308 -97L372 0H414L390 -36Q445 -43 467 -61T489 -110Q489 -136 469 -159T413 -202T327 -232T219 -247Z" />
<glyph unicode="&#xc8;" horiz-adv-x="671" d="M-59 0L-50 22L5 33Q30 38 44 43T66 60T83 92L281 581Q294 613 289 623T251 640L204 651L213 673H786Q777 659 771 646T759 618Q746 587 739 558T724 496H702Q702 536 690 568T650 620T578 640H445L336 372H464Q498
372 522 381T563 407T594 448L621 494H643L531 217H509L519 265Q527 300 514 319T453 339H323L234 119Q222 90 217 71T223 42T268 33H342Q378 33 410 43T473 73T535 120L602 180H624Q596 136 571 91T526 0H-59ZM621 733L463 778Q437 786 427 805Q418 821 422 837T443
863Q455 869 470 868T500 856L634 753L621 733Z" />
<glyph unicode="&#xc9;" horiz-adv-x="671" d="M-59 0L-50 22L5 33Q30 38 44 43T66 60T83 92L281 581Q294 613 289 623T251 640L204 651L213 673H786Q777 659 771 646T759 618Q746 587 739 558T724 496H702Q702 536 690 568T650 620T578 640H445L336 372H464Q498
372 522 381T563 407T594 448L621 494H643L531 217H509L519 265Q527 300 514 319T453 339H323L234 119Q222 90 217 71T223 42T268 33H342Q378 33 410 43T473 73T535 120L602 180H624Q596 136 571 91T526 0H-59ZM430 732L421 755L642 860Q654 866 664 868T686 868Q703
864 712 848T717 815Q713 802 702 793T673 779L430 732Z" />
<glyph unicode="&#xca;" horiz-adv-x="671" d="M-59 0L-50 22L5 33Q30 38 44 43T66 60T83 92L281 581Q294 613 289 623T251 640L204 651L213 673H786Q777 659 771 646T759 618Q746 587 739 558T724 496H702Q702 536 690 568T650 620T578 640H445L336 372H464Q498
372 522 381T563 407T594 448L621 494H643L531 217H509L519 265Q527 300 514 319T453 339H323L234 119Q222 90 217 71T223 42T268 33H342Q378 33 410 43T473 73T535 120L602 180H624Q596 136 571 91T526 0H-59ZM385 712L368 732L561 877H603L685 722L656 710L547
786L385 712Z" />
<glyph unicode="&#xcb;" horiz-adv-x="671" d="M-59 0L-50 22L5 33Q30 38 44 43T66 60T83 92L281 581Q294 613 289 623T251 640L204 651L213 673H786Q777 659 771 646T759 618Q746 587 739 558T724 496H702Q702 536 690 568T650 620T578 640H445L336 372H464Q498
372 522 381T563 407T594 448L621 494H643L531 217H509L519 265Q527 300 514 319T453 339H323L234 119Q222 90 217 71T223 42T268 33H342Q378 33 410 43T473 73T535 120L602 180H624Q596 136 571 91T526 0H-59ZM461 732Q434 732 414 752T394 799Q394 828 414 848T461
868Q490 868 510 848T530 799Q530 772 510 752T461 732ZM660 732Q633 732 613 752T593 799Q593 828 613 848T660 868Q689 868 709 848T729 799Q729 772 709 752T660 732Z" />
<glyph unicode="&#xcc;" horiz-adv-x="410" d="M-59 0L-50 22L5 33Q30 38 44 43T66 60T83 92L281 581Q294 613 289 623T251 640L204 651L213 673H563L554 651L499 640Q474 635 460 630T438 613T421 581L223 92Q210 61 216 51T253 33L300 22L291 0H-59ZM753 733L595
778Q569 786 559 805Q550 821 554 837T575 863Q587 869 602 868T632 856L766 753L753 733Z" />
<glyph unicode="&#xcd;" horiz-adv-x="410" d="M-59 0L-50 22L5 33Q30 38 44 43T66 60T83 92L281 581Q294 613 289 623T251 640L204 651L213 673H563L554 651L499 640Q474 635 460 630T438 613T421 581L223 92Q210 61 216 51T253 33L300 22L291 0H-59ZM562 732L553
755L774 860Q786 866 796 868T818 868Q835 864 844 848T849 815Q845 802 834 793T805 779L562 732Z" />
<glyph unicode="&#xce;" horiz-adv-x="410" d="M-59 0L-50 22L5 33Q30 38 44 43T66 60T83 92L281 581Q294 613 289 623T251 640L204 651L213 673H563L554 651L499 640Q474 635 460 630T438 613T421 581L223 92Q210 61 216 51T253 33L300 22L291 0H-59ZM517 712L500
732L693 877H735L817 722L788 710L679 786L517 712Z" />
<glyph unicode="&#xcf;" horiz-adv-x="410" d="M-59 0L-50 22L5 33Q30 38 44 43T66 60T83 92L281 581Q294 613 289 623T251 640L204 651L213 673H563L554 651L499 640Q474 635 460 630T438 613T421 581L223 92Q210 61 216 51T253 33L300 22L291 0H-59ZM337 732Q310
732 290 752T270 799Q270 828 290 848T337 868Q366 868 386 848T406 799Q406 772 386 752T337 732ZM536 732Q509 732 489 752T469 799Q469 828 489 848T536 868Q565 868 585 848T605 799Q605 772 585 752T536 732Z" />
<glyph unicode="&#xd0;" horiz-adv-x="791" d="M72 323L94 378H451L429 323H72ZM-59 0L-50 22L5 33Q30 38 44 43T66 60T83 92L281 581Q294 613 289 623T251 640L204 651L213 673H519Q620 673 686 639T786 551T819 434Q819 341 783 262T682 124T526 33T325 0H-59ZM289
33Q388 33 460 66T579 158T649 292T672 450Q672 515 655 557T597 621T490 642H445L223 92Q211 63 228 48T289 33Z" />
<glyph unicode="&#xd1;" horiz-adv-x="832" d="M598 -16L319 567L127 92Q117 67 125 55T158 37L225 22L216 0H-59L-50 22L14 35Q34 39 48 45T73 63T91 92L288 581Q297 602 297 613T289 629T258 640L212 651L220 673H410L654 177L814 581Q824 606 816 618T782 636L716
651L724 673H999L991 651L927 638Q908 634 893 628T868 610T850 581L610 -16H598ZM310 718L316 732H327Q364 732 384 735T417 747T440 771Q462 802 498 830T584 877T689 896Q743 896 780 878T835 831T850 772Q848 756 853 747T877 735T932 732H943L937 718H809Q827
741 814 764T763 804T665 820Q609 820 561 805T479 766T436 718H310Z" />
<glyph unicode="&#xd2;" horiz-adv-x="825" d="M388 -8Q293 -8 226 27T123 123T87 262Q87 349 125 425T228 559T377 650T549 683Q644 683 711 648T814 552T850 413Q850 326 812 250T709 116T560 25T388 -8ZM409 27Q462 27 508 53T590 123T653 221T692 332T706
442Q706 506 687 552T630 623T534 649Q481 649 435 623T353 553T290 455T251 344T237 234Q237 171 256 125T314 53T409 27ZM654 733L496 778Q470 786 460 805Q451 821 455 837T476 863Q488 869 503 868T533 856L667 753L654 733Z" />
<glyph unicode="&#xd3;" horiz-adv-x="825" d="M388 -8Q293 -8 226 27T123 123T87 262Q87 349 125 425T228 559T377 650T549 683Q644 683 711 648T814 552T850 413Q850 326 812 250T709 116T560 25T388 -8ZM409 27Q462 27 508 53T590 123T653 221T692 332T706
442Q706 506 687 552T630 623T534 649Q481 649 435 623T353 553T290 455T251 344T237 234Q237 171 256 125T314 53T409 27ZM463 732L454 755L675 860Q687 866 697 868T719 868Q736 864 745 848T750 815Q746 802 735 793T706 779L463 732Z" />
<glyph unicode="&#xd4;" horiz-adv-x="825" d="M388 -8Q293 -8 226 27T123 123T87 262Q87 349 125 425T228 559T377 650T549 683Q644 683 711 648T814 552T850 413Q850 326 812 250T709 116T560 25T388 -8ZM409 27Q462 27 508 53T590 123T653 221T692 332T706
442Q706 506 687 552T630 623T534 649Q481 649 435 623T353 553T290 455T251 344T237 234Q237 171 256 125T314 53T409 27ZM418 712L401 732L594 877H636L718 722L689 710L580 786L418 712Z" />
<glyph unicode="&#xd5;" horiz-adv-x="825" d="M388 -8Q293 -8 226 27T123 123T87 262Q87 349 125 425T228 559T377 650T549 683Q644 683 711 648T814 552T850 413Q850 326 812 250T709 116T560 25T388 -8ZM409 27Q462 27 508 53T590 123T653 221T692 332T706
442Q706 506 687 552T630 623T534 649Q481 649 435 623T353 553T290 455T251 344T237 234Q237 171 256 125T314 53T409 27ZM246 718L252 732H263Q300 732 320 735T353 747T376 771Q398 802 434 830T520 877T625 896Q679 896 716 878T771 831T786 772Q784 756 789
747T813 735T868 732H879L873 718H745Q763 741 750 764T699 804T601 820Q545 820 497 805T415 766T372 718H246Z" />
<glyph unicode="&#xd6;" horiz-adv-x="825" d="M388 -8Q293 -8 226 27T123 123T87 262Q87 349 125 425T228 559T377 650T549 683Q644 683 711 648T814 552T850 413Q850 326 812 250T709 116T560 25T388 -8ZM409 27Q462 27 508 53T590 123T653 221T692 332T706
442Q706 506 687 552T630 623T534 649Q481 649 435 623T353 553T290 455T251 344T237 234Q237 171 256 125T314 53T409 27ZM494 732Q467 732 447 752T427 799Q427 828 447 848T494 868Q523 868 543 848T563 799Q563 772 543 752T494 732ZM693 732Q666 732 646 752T626
799Q626 828 646 848T693 868Q722 868 742 848T762 799Q762 772 742 752T693 732Z" />
<glyph unicode="&#xd7;" horiz-adv-x="570" d="M197 155L157 196L293 332L159 466L200 506L333 372L470 509L511 469L374 332L508 198L468 157L333 292L197 155Z" />
<glyph unicode="&#xd8;" horiz-adv-x="825" d="M-12 -10L-34 30L928 684L954 648L-12 -10ZM388 -8Q293 -8 226 27T123 123T87 262Q87 349 125 425T228 559T377 650T549 683Q644 683 711 648T814 552T850 413Q850 326 812 250T709 116T560 25T388 -8ZM409 27Q462
27 508 53T590 123T653 221T692 332T706 442Q706 506 687 552T630 623T534 649Q481 649 435 623T353 553T290 455T251 344T237 234Q237 171 256 125T314 53T409 27Z" />
<glyph unicode="&#xd9;" horiz-adv-x="765" d="M290 -11Q218 -11 172 24T115 119T133 252L266 581Q279 613 273 623T235 640L189 651L198 673H548L539 651L483 640Q458 635 445 630T423 613T406 581L260 220Q229 145 254 101T361 57Q410 57 456 77T540 134T595
216L743 581Q753 606 745 618T711 636L644 651L653 673H928L919 651L856 638Q836 634 822 628T797 610T779 581L587 109Q571 109 553 96T509 65Q475 39 423 14T290 -11ZM705 733L547 778Q521 786 511 805Q502 821 506 837T527 863Q539 869 554 868T584 856L718
753L705 733Z" />
<glyph unicode="&#xda;" horiz-adv-x="765" d="M290 -11Q218 -11 172 24T115 119T133 252L266 581Q279 613 273 623T235 640L189 651L198 673H548L539 651L483 640Q458 635 445 630T423 613T406 581L260 220Q229 145 254 101T361 57Q410 57 456 77T540 134T595
216L743 581Q753 606 745 618T711 636L644 651L653 673H928L919 651L856 638Q836 634 822 628T797 610T779 581L587 109Q571 109 553 96T509 65Q475 39 423 14T290 -11ZM514 732L505 755L726 860Q738 866 748 868T770 868Q787 864 796 848T801 815Q797 802 786
793T757 779L514 732Z" />
<glyph unicode="&#xdb;" horiz-adv-x="765" d="M290 -11Q218 -11 172 24T115 119T133 252L266 581Q279 613 273 623T235 640L189 651L198 673H548L539 651L483 640Q458 635 445 630T423 613T406 581L260 220Q229 145 254 101T361 57Q410 57 456 77T540 134T595
216L743 581Q753 606 745 618T711 636L644 651L653 673H928L919 651L856 638Q836 634 822 628T797 610T779 581L587 109Q571 109 553 96T509 65Q475 39 423 14T290 -11ZM469 712L452 732L645 877H687L769 722L740 710L631 786L469 712Z" />
<glyph unicode="&#xdc;" horiz-adv-x="765" d="M290 -11Q218 -11 172 24T115 119T133 252L266 581Q279 613 273 623T235 640L189 651L198 673H548L539 651L483 640Q458 635 445 630T423 613T406 581L260 220Q229 145 254 101T361 57Q410 57 456 77T540 134T595
216L743 581Q753 606 745 618T711 636L644 651L653 673H928L919 651L856 638Q836 634 822 628T797 610T779 581L587 109Q571 109 553 96T509 65Q475 39 423 14T290 -11ZM545 732Q518 732 498 752T478 799Q478 828 498 848T545 868Q574 868 594 848T614 799Q614
772 594 752T545 732ZM744 732Q717 732 697 752T677 799Q677 828 697 848T744 868Q773 868 793 848T813 799Q813 772 793 752T744 732Z" />
<glyph unicode="&#xdd;" horiz-adv-x="732" d="M351 250L264 614Q261 625 255 631T237 639L189 651L198 673H527L518 651L463 640Q428 633 415 620T407 585L455 373H453L698 596Q710 607 710 617T689 632L612 651L621 673H900L891 651L831 639Q810 635 792 627T756
602L381 257L351 250ZM84 0L93 22L148 33Q173 38 187 43T209 60T226 92L332 353L475 361L366 92Q353 61 359 51T396 33L443 22L434 0H84ZM490 732L481 755L702 860Q714 866 724 868T746 868Q763 864 772 848T777 815Q773 802 762 793T733 779L490 732Z" />
<glyph unicode="&#xde;" horiz-adv-x="655" d="M-59 0L-50 22L5 33Q30 38 44 43T66 60T83 92L281 581Q294 613 289 623T251 640L204 651L213 673H563L554 651L499 640Q474 635 460 630T438 613T421 581L408 549H457Q567 549 632 512T698 399Q698 343 667 296T584
215T473 161T353 142Q321 142 295 150L297 157Q350 160 397 182T480 240T537 321T558 417Q558 470 524 493T431 516H395L223 92Q210 61 216 51T253 33L300 22L291 0H-59Z" />
<glyph unicode="&#xdf;" horiz-adv-x="571" d="M-76 -247Q-105 -247 -132 -237T-177 -210T-194 -173Q-194 -144 -178 -130T-140 -116Q-118 -116 -102 -130T-85 -187Q-85 -202 -79 -209T-63 -216Q-35 -216 -11 -137L183 501Q218 617 270 664T405 711Q478 711 510
684T542 617Q542 576 528 549T494 502T452 464T417 422T403 365Q403 340 419 312T454 260Q477 231 493 204T509 132Q509 86 487 55T429 8T355 -8Q317 -8 285 5T234 44T215 109Q215 143 233 159T271 176Q291 176 306 164T322 130Q322 118 317 110T307 94Q300 86
294 78T288 59Q288 44 307 33T351 21Q381 21 401 40T421 100Q421 123 409 146T379 195Q357 227 338 260T318 334Q318 374 330 401T361 449T398 493T429 546T442 623Q442 647 432 664T398 681Q373 681 355 667T322 622T293 545L86 -138Q73 -138 64 -149T43 -178Q27
-203 -2 -225T-76 -247ZM85 407L99 442H235L220 407H85Z" />
<glyph unicode="&#xe0;" horiz-adv-x="509" d="M58 -8Q21 -8 4 10T-14 64Q-14 103 7 151T64 250T145 344Q194 390 240 420T331 451Q357 451 372 440T397 412H400L470 456H483L344 105Q337 88 339 76T352 63Q361 63 380 82T421 128T459 180L479 167Q419 78 375
35T293 -8Q253 -8 241 17T242 76L262 126H257Q234 89 200 59T128 10T58 -8ZM137 81Q163 81 190 99T242 148T288 214T319 284T331 346Q331 369 320 379T289 389Q264 389 232 373T173 327Q136 290 111 241T86 145Q86 111 99 96T137 81ZM632 538L520 658Q502 678 503
700Q503 718 516 730T547 741Q561 740 573 732T592 706L654 549L632 538Z" />
<glyph unicode="&#xe1;" horiz-adv-x="509" d="M58 -8Q21 -8 4 10T-14 64Q-14 103 7 151T64 250T145 344Q194 390 240 420T331 451Q357 451 372 440T397 412H400L470 456H483L344 105Q337 88 339 76T352 63Q361 63 380 82T421 128T459 180L479 167Q419 78 375
35T293 -8Q253 -8 241 17T242 76L262 126H257Q234 89 200 59T128 10T58 -8ZM137 81Q163 81 190 99T242 148T288 214T319 284T331 346Q331 369 320 379T289 389Q264 389 232 373T173 327Q136 290 111 241T86 145Q86 111 99 96T137 81ZM580 537L565 556L751 715Q762
724 771 729T792 734Q810 734 822 722T835 691Q835 678 827 666T802 645L580 537Z" />
<glyph unicode="&#xe2;" horiz-adv-x="509" d="M58 -8Q21 -8 4 10T-14 64Q-14 103 7 151T64 250T145 344Q194 390 240 420T331 451Q357 451 372 440T397 412H400L470 456H483L344 105Q337 88 339 76T352 63Q361 63 380 82T421 128T459 180L479 167Q419 78 375
35T293 -8Q253 -8 241 17T242 76L262 126H257Q234 89 200 59T128 10T58 -8ZM137 81Q163 81 190 99T242 148T288 214T319 284T331 346Q331 369 320 379T289 389Q264 389 232 373T173 327Q136 290 111 241T86 145Q86 111 99 96T137 81ZM710 722L775 541L756 530L660
622L479 525L462 545L668 722H710Z" />
<glyph unicode="&#xe3;" horiz-adv-x="509" d="M58 -8Q21 -8 4 10T-14 64Q-14 103 7 151T64 250T145 344Q194 390 240 420T331 451Q357 451 372 440T397 412H400L470 456H483L344 105Q337 88 339 76T352 63Q361 63 380 82T421 128T459 180L479 167Q419 78 375
35T293 -8Q253 -8 241 17T242 76L262 126H257Q234 89 200 59T128 10T58 -8ZM137 81Q163 81 190 99T242 148T288 214T319 284T331 346Q331 369 320 379T289 389Q264 389 232 373T173 327Q136 290 111 241T86 145Q86 111 99 96T137 81ZM484 517L461 522Q471 575 489
603T531 641T583 652Q597 652 612 649T644 642Q663 638 682 635T720 631Q731 631 738 636T746 654Q746 663 737 665T716 668Q690 672 680 682T669 715Q669 734 682 746T719 759Q754 759 769 736T785 683Q785 625 758 592T684 559Q668 559 651 562T617 568Q601 571
586 573T556 576Q531 576 513 561T484 517Z" />
<glyph unicode="&#xe4;" horiz-adv-x="509" d="M58 -8Q21 -8 4 10T-14 64Q-14 103 7 151T64 250T145 344Q194 390 240 420T331 451Q357 451 372 440T397 412H400L470 456H483L344 105Q337 88 339 76T352 63Q361 63 380 82T421 128T459 180L479 167Q419 78 375
35T293 -8Q253 -8 241 17T242 76L262 126H257Q234 89 200 59T128 10T58 -8ZM137 81Q163 81 190 99T242 148T288 214T319 284T331 346Q331 369 320 379T289 389Q264 389 232 373T173 327Q136 290 111 241T86 145Q86 111 99 96T137 81ZM548 555Q521 555 501 575T481
622Q481 651 501 671T548 691Q577 691 597 671T617 622Q617 595 597 575T548 555ZM747 555Q720 555 700 575T680 622Q680 651 700 671T747 691Q776 691 796 671T816 622Q816 595 796 575T747 555Z" />
<glyph unicode="&#xe5;" horiz-adv-x="509" d="M58 -8Q21 -8 4 10T-14 64Q-14 103 7 151T64 250T145 344Q194 390 240 420T331 451Q357 451 372 440T397 412H400L470 456H483L344 105Q337 88 339 76T352 63Q361 63 380 82T421 128T459 180L479 167Q419 78 375
35T293 -8Q253 -8 241 17T242 76L262 126H257Q234 89 200 59T128 10T58 -8ZM137 81Q163 81 190 99T242 148T288 214T319 284T331 346Q331 369 320 379T289 389Q264 389 232 373T173 327Q136 290 111 241T86 145Q86 111 99 96T137 81ZM767 630Q767 596 750 568T705
522T642 505Q608 505 580 522T534 567T517 630Q517 665 534 693T579 738T642 755Q677 755 705 738T750 693T767 630ZM715 630Q715 660 694 681T643 703Q613 703 591 682T569 630Q569 600 591 579T643 557Q673 557 694 578T715 630Z" />
<glyph unicode="&#xe6;" horiz-adv-x="632" d="M57 -8Q20 -8 3 10T-14 64Q-14 103 7 151T64 250T145 344Q194 390 240 420T331 451Q357 451 372 440T397 412H400L467 456H480L374 189L307 198Q280 149 240 102T154 23T57 -8ZM137 81Q163 81 190 99T242 148T288
214T319 284T331 346Q331 369 320 379T289 389Q264 389 232 373T173 327Q136 290 111 241T86 145Q86 111 99 96T137 81ZM372 -8Q328 -8 307 21T286 94Q286 157 310 212T373 313T451 393Q484 421 518 436T581 451Q619 451 637 434T656 392Q656 356 628 320T534 256T357
212L359 241Q425 246 469 267T534 316T556 366Q556 393 530 393Q503 393 478 372T432 315T399 239T386 158Q386 119 401 100T447 80Q468 80 490 91T535 125T579 185L598 173Q570 124 531 83T450 17T372 -8Z" />
<glyph unicode="&#xe7;" horiz-adv-x="366" d="M104 -8Q64 -8 37 17T10 92Q10 145 31 196T88 294T163 377Q201 411 237 431T305 451Q345 451 365 428T385 375Q385 352 374 337T339 322Q315 322 309 334T299 363Q297 377 293 385T272 393Q246 393 218 375T166 325T126
251T110 158Q110 111 129 96T172 81Q204 81 236 106T306 183L326 171Q300 126 266 85T190 18T104 -8ZM164 -247L179 -217Q212 -214 240 -207T291 -189T326 -165T339 -138Q339 -119 317 -109T253 -97L317 0H359L335 -36Q390 -43 412 -61T434 -110Q434 -136 414 -159T358
-202T272 -232T164 -247Z" />
<glyph unicode="&#xe8;" horiz-adv-x="360" d="M100 -8Q56 -8 35 21T14 94Q14 157 38 212T101 313T179 393Q212 421 246 436T309 451Q347 451 365 434T384 392Q384 356 356 320T262 256T85 212L87 241Q153 246 197 267T262 316T284 366Q284 393 258 393Q231 393
206 372T160 315T127 239T114 158Q114 119 129 100T175 80Q196 80 218 91T263 125T307 185L326 173Q298 124 259 83T178 17T100 -8ZM358 538L246 658Q228 678 229 700Q229 718 242 730T273 741Q287 740 299 732T318 706L380 549L358 538Z" />
<glyph unicode="&#xe9;" horiz-adv-x="360" d="M100 -8Q56 -8 35 21T14 94Q14 157 38 212T101 313T179 393Q212 421 246 436T309 451Q347 451 365 434T384 392Q384 356 356 320T262 256T85 212L87 241Q153 246 197 267T262 316T284 366Q284 393 258 393Q231 393
206 372T160 315T127 239T114 158Q114 119 129 100T175 80Q196 80 218 91T263 125T307 185L326 173Q298 124 259 83T178 17T100 -8ZM562 537L547 556L733 715Q744 724 753 729T774 734Q792 734 804 722T817 691Q817 678 809 666T784 645L562 537Z" />
<glyph unicode="&#xea;" horiz-adv-x="360" d="M100 -8Q56 -8 35 21T14 94Q14 157 38 212T101 313T179 393Q212 421 246 436T309 451Q347 451 365 434T384 392Q384 356 356 320T262 256T85 212L87 241Q153 246 197 267T262 316T284 366Q284 393 258 393Q231 393
206 372T160 315T127 239T114 158Q114 119 129 100T175 80Q196 80 218 91T263 125T307 185L326 173Q298 124 259 83T178 17T100 -8ZM692 722L757 541L738 530L642 622L461 525L444 545L650 722H692Z" />
<glyph unicode="&#xeb;" horiz-adv-x="360" d="M100 -8Q56 -8 35 21T14 94Q14 157 38 212T101 313T179 393Q212 421 246 436T309 451Q347 451 365 434T384 392Q384 356 356 320T262 256T85 212L87 241Q153 246 197 267T262 316T284 366Q284 393 258 393Q231 393
206 372T160 315T127 239T114 158Q114 119 129 100T175 80Q196 80 218 91T263 125T307 185L326 173Q298 124 259 83T178 17T100 -8ZM530 555Q503 555 483 575T463 622Q463 651 483 671T530 691Q559 691 579 671T599 622Q599 595 579 575T530 555ZM729 555Q702 555
682 575T662 622Q662 651 682 671T729 691Q758 691 778 671T798 622Q798 595 778 575T729 555Z" />
<glyph unicode="&#xec;" horiz-adv-x="326" d="M107 -8Q72 -8 55 16T52 76L159 346Q167 367 164 373T156 380Q147 380 128 361T88 315T50 263L30 276Q93 365 136 408T223 451Q261 451 270 425T266 362L164 105Q155 83 159 73T172 63Q181 63 200 82T241 128T279
180L299 167Q236 78 192 35T107 -8ZM292 538L180 658Q162 678 163 700Q163 718 176 730T207 741Q221 740 233 732T252 706L314 549L292 538Z" />
<glyph unicode="&#xed;" horiz-adv-x="326" d="M107 -8Q72 -8 55 16T52 76L159 346Q167 367 164 373T156 380Q147 380 128 361T88 315T50 263L30 276Q93 365 136 408T223 451Q261 451 270 425T266 362L164 105Q155 83 159 73T172 63Q181 63 200 82T241 128T279
180L299 167Q236 78 192 35T107 -8ZM496 537L481 556L667 715Q678 724 687 729T708 734Q726 734 738 722T751 691Q751 678 743 666T718 645L496 537Z" />
<glyph unicode="&#xee;" horiz-adv-x="326" d="M107 -8Q72 -8 55 16T52 76L159 346Q167 367 164 373T156 380Q147 380 128 361T88 315T50 263L30 276Q93 365 136 408T223 451Q261 451 270 425T266 362L164 105Q155 83 159 73T172 63Q181 63 200 82T241 128T279
180L299 167Q236 78 192 35T107 -8ZM370 722L435 541L416 530L320 622L139 525L122 545L328 722H370Z" />
<glyph unicode="&#xef;" horiz-adv-x="326" d="M107 -8Q72 -8 55 16T52 76L159 346Q167 367 164 373T156 380Q147 380 128 361T88 315T50 263L30 276Q93 365 136 408T223 451Q261 451 270 425T266 362L164 105Q155 83 159 73T172 63Q181 63 200 82T241 128T279
180L299 167Q236 78 192 35T107 -8ZM208 555Q181 555 161 575T141 622Q141 651 161 671T208 691Q237 691 257 671T277 622Q277 595 257 575T208 555ZM407 555Q380 555 360 575T340 622Q340 651 360 671T407 691Q436 691 456 671T476 622Q476 595 456 575T407 555Z"
/>
<glyph unicode="&#xf0;" d="M384 465L372 499L710 626L723 593L384 465ZM176 -14Q120 -14 84 6T31 62T14 138Q14 187 32 238T85 332T173 401T292 428Q330 428 360 413T406 370T416 303H422Q450 345 470 398T502 503T514 595Q514 619 505 633T472 647Q453 647 434
630T398 591Q382 572 364 552T326 532Q309 532 299 542T288 565Q288 594 306 615T354 652T417 674T481 682Q543 682 580 648T618 551Q618 479 595 401T531 249T435 116T313 21T176 -14ZM202 22Q243 22 277 49T337 119T375 209T389 297Q389 338 368 360T303 382Q257
382 224 358T169 296T137 213T126 129Q126 99 134 75T158 37T202 22Z" />
<glyph unicode="&#xf1;" horiz-adv-x="585" d="M17 -12L161 350Q167 365 166 372T156 379Q147 379 128 360T88 314T50 262L30 275Q93 364 137 407T222 450Q257 450 270 426T266 361L191 184H193Q213 215 238 251T293 322T356 386T423 433T492 451Q529 451 540
426T535 362L421 100Q413 81 417 72T431 63Q440 63 459 82T500 128T538 180L558 167Q495 78 451 35T366 -8Q326 -8 313 19T316 86L424 336Q431 351 428 359T412 368Q394 368 358 339T278 258T193 140T123 0L17 -12ZM524 517L501 522Q511 575 529 603T571 641T623
652Q637 652 652 649T684 642Q703 638 722 635T760 631Q771 631 778 636T786 654Q786 663 777 665T756 668Q730 672 720 682T709 715Q709 734 722 746T759 759Q794 759 809 736T825 683Q825 625 798 592T724 559Q708 559 691 562T657 568Q641 571 626 573T596 576Q571
576 553 561T524 517Z" />
<glyph unicode="&#xf2;" horiz-adv-x="473" d="M188 -9Q120 -9 77 26T34 131Q34 197 55 254T113 356T196 426T292 451Q362 451 401 411T440 310Q440 246 420 189T365 87T285 17T188 -9ZM168 23Q192 23 217 47T266 109T307 193T337 280T348 354Q348 418 306 418Q282
418 257 394T209 332T167 249T138 162T127 88Q127 57 138 40T168 23ZM634 538L522 658Q504 678 505 700Q505 718 518 730T549 741Q563 740 575 732T594 706L656 549L634 538Z" />
<glyph unicode="&#xf3;" horiz-adv-x="473" d="M188 -9Q120 -9 77 26T34 131Q34 197 55 254T113 356T196 426T292 451Q362 451 401 411T440 310Q440 246 420 189T365 87T285 17T188 -9ZM168 23Q192 23 217 47T266 109T307 193T337 280T348 354Q348 418 306 418Q282
418 257 394T209 332T167 249T138 162T127 88Q127 57 138 40T168 23ZM582 537L567 556L753 715Q764 724 773 729T794 734Q812 734 824 722T837 691Q837 678 829 666T804 645L582 537Z" />
<glyph unicode="&#xf4;" horiz-adv-x="473" d="M188 -9Q120 -9 77 26T34 131Q34 197 55 254T113 356T196 426T292 451Q362 451 401 411T440 310Q440 246 420 189T365 87T285 17T188 -9ZM168 23Q192 23 217 47T266 109T307 193T337 280T348 354Q348 418 306 418Q282
418 257 394T209 332T167 249T138 162T127 88Q127 57 138 40T168 23ZM712 722L777 541L758 530L662 622L481 525L464 545L670 722H712Z" />
<glyph unicode="&#xf5;" horiz-adv-x="473" d="M188 -9Q120 -9 77 26T34 131Q34 197 55 254T113 356T196 426T292 451Q362 451 401 411T440 310Q440 246 420 189T365 87T285 17T188 -9ZM168 23Q192 23 217 47T266 109T307 193T337 280T348 354Q348 418 306 418Q282
418 257 394T209 332T167 249T138 162T127 88Q127 57 138 40T168 23ZM486 517L463 522Q473 575 491 603T533 641T585 652Q599 652 614 649T646 642Q665 638 684 635T722 631Q733 631 740 636T748 654Q748 663 739 665T718 668Q692 672 682 682T671 715Q671 734
684 746T721 759Q756 759 771 736T787 683Q787 625 760 592T686 559Q670 559 653 562T619 568Q603 571 588 573T558 576Q533 576 515 561T486 517Z" />
<glyph unicode="&#xf6;" horiz-adv-x="473" d="M188 -9Q120 -9 77 26T34 131Q34 197 55 254T113 356T196 426T292 451Q362 451 401 411T440 310Q440 246 420 189T365 87T285 17T188 -9ZM168 23Q192 23 217 47T266 109T307 193T337 280T348 354Q348 418 306 418Q282
418 257 394T209 332T167 249T138 162T127 88Q127 57 138 40T168 23ZM550 555Q523 555 503 575T483 622Q483 651 503 671T550 691Q579 691 599 671T619 622Q619 595 599 575T550 555ZM749 555Q722 555 702 575T682 622Q682 651 702 671T749 691Q778 691 798 671T818
622Q818 595 798 575T749 555Z" />
<glyph unicode="&#xf7;" horiz-adv-x="570" d="M335 87Q300 87 276 111T251 170Q251 205 275 229T334 254Q369 254 393 230T417 171Q417 136 393 112T335 87ZM335 411Q300 411 276 435T251 494Q251 529 275 553T334 578Q369 578 393 554T417 495Q417 460 393 436T335
411ZM125 304V361H543V304H125Z" />
<glyph unicode="&#xf8;" horiz-adv-x="474" d="M-15 -9L-39 21L486 451L511 419L-15 -9ZM189 -9Q121 -9 78 26T35 131Q35 197 56 254T114 356T197 426T293 451Q363 451 402 411T441 310Q441 246 421 189T366 87T286 17T189 -9ZM169 23Q193 23 218 47T267 109T308
193T338 280T349 354Q349 418 307 418Q283 418 258 394T210 332T168 249T139 162T128 88Q128 57 139 40T169 23Z" />
<glyph unicode="&#xf9;" horiz-adv-x="575" d="M92 -8Q56 -8 45 18T49 81L164 343Q172 362 169 371T154 380Q145 380 126 361T85 315T47 263L27 276Q90 365 134 407T219 450Q259 450 272 423T269 357L159 107Q152 92 155 84T171 75Q189 75 224 104T301 185T384
303T453 443L558 454L414 92Q408 77 409 70T419 63Q428 63 447 82T487 128T525 180L545 167Q482 78 438 35T353 -8Q319 -8 306 16T309 81L385 259H383Q364 228 339 192T284 121T222 57T157 10T92 -8ZM658 538L546 658Q528 678 529 700Q529 718 542 730T573 741Q587
740 599 732T618 706L680 549L658 538Z" />
<glyph unicode="&#xfa;" horiz-adv-x="575" d="M92 -8Q56 -8 45 18T49 81L164 343Q172 362 169 371T154 380Q145 380 126 361T85 315T47 263L27 276Q90 365 134 407T219 450Q259 450 272 423T269 357L159 107Q152 92 155 84T171 75Q189 75 224 104T301 185T384
303T453 443L558 454L414 92Q408 77 409 70T419 63Q428 63 447 82T487 128T525 180L545 167Q482 78 438 35T353 -8Q319 -8 306 16T309 81L385 259H383Q364 228 339 192T284 121T222 57T157 10T92 -8ZM350 537L335 556L521 715Q532 724 541 729T562 734Q580 734
592 722T605 691Q605 678 597 666T572 645L350 537Z" />
<glyph unicode="&#xfb;" horiz-adv-x="575" d="M92 -8Q56 -8 45 18T49 81L164 343Q172 362 169 371T154 380Q145 380 126 361T85 315T47 263L27 276Q90 365 134 407T219 450Q259 450 272 423T269 357L159 107Q152 92 155 84T171 75Q189 75 224 104T301 185T384
303T453 443L558 454L414 92Q408 77 409 70T419 63Q428 63 447 82T487 128T525 180L545 167Q482 78 438 35T353 -8Q319 -8 306 16T309 81L385 259H383Q364 228 339 192T284 121T222 57T157 10T92 -8ZM736 722L801 541L782 530L686 622L505 525L488 545L694 722H736Z"
/>
<glyph unicode="&#xfc;" horiz-adv-x="575" d="M92 -8Q56 -8 45 18T49 81L164 343Q172 362 169 371T154 380Q145 380 126 361T85 315T47 263L27 276Q90 365 134 407T219 450Q259 450 272 423T269 357L159 107Q152 92 155 84T171 75Q189 75 224 104T301 185T384
303T453 443L558 454L414 92Q408 77 409 70T419 63Q428 63 447 82T487 128T525 180L545 167Q482 78 438 35T353 -8Q319 -8 306 16T309 81L385 259H383Q364 228 339 192T284 121T222 57T157 10T92 -8ZM574 555Q547 555 527 575T507 622Q507 651 527 671T574 691Q603
691 623 671T643 622Q643 595 623 575T574 555ZM773 555Q746 555 726 575T706 622Q706 651 726 671T773 691Q802 691 822 671T842 622Q842 595 822 575T773 555Z" />
<glyph unicode="&#xfd;" horiz-adv-x="501" d="M-58 -284Q-99 -284 -130 -274T-178 -244T-196 -200Q-196 -168 -180 -154T-142 -139Q-113 -139 -103 -158T-89 -201Q-84 -222 -78 -239T-50 -256Q-7 -256 35 -229T113 -156T178 -51T222 71T238 195Q238 301 209 354T129
408Q94 408 76 386T58 333Q58 316 65 298T90 265L78 251Q53 267 41 292T28 342Q28 384 57 418T145 452Q195 452 230 430T287 371T319 289T329 195Q329 146 320 101T296 20L300 18Q320 39 342 73T384 146T416 223T429 289Q429 321 416 335T386 360Q374 368 364 380T354
411Q354 442 375 454T417 467Q445 467 461 444T478 375Q478 329 463 268T417 138T338 3Q296 -54 246 -106T143 -198T39 -261T-58 -284ZM509 537L494 556L680 715Q691 724 700 729T721 734Q739 734 751 722T764 691Q764 678 756 666T731 645L509 537Z" />
<glyph unicode="&#xfe;" horiz-adv-x="484" d="M-172 -250L-165 -233L-131 -221Q-113 -215 -103 -206T-85 -181L230 608Q238 628 232 636T213 648L188 655L193 673Q246 682 283 688T361 712L375 705Q362 683 351 658T330 609L287 499L195 312H198Q230 354 268
385T343 434T412 452Q443 452 463 433T484 372Q484 326 469 276T428 179T366 95T290 35T206 12Q151 12 116 33T81 94Q81 119 96 130T132 141Q155 141 170 126T186 73Q186 58 192 50T216 42Q241 42 264 59T306 106T341 173T364 249T372 325Q372 380 331 380Q312
380 289 363T242 318T198 254T162 182L13 -188Q4 -211 31 -221L73 -233L66 -250H-172Z" />
<glyph unicode="&#xff;" horiz-adv-x="501" d="M-58 -284Q-99 -284 -130 -274T-178 -244T-196 -200Q-196 -168 -180 -154T-142 -139Q-113 -139 -103 -158T-89 -201Q-84 -222 -78 -239T-50 -256Q-7 -256 35 -229T113 -156T178 -51T222 71T238 195Q238 301 209 354T129
408Q94 408 76 386T58 333Q58 316 65 298T90 265L78 251Q53 267 41 292T28 342Q28 384 57 418T145 452Q195 452 230 430T287 371T319 289T329 195Q329 146 320 101T296 20L300 18Q320 39 342 73T384 146T416 223T429 289Q429 321 416 335T386 360Q374 368 364 380T354
411Q354 442 375 454T417 467Q445 467 461 444T478 375Q478 329 463 268T417 138T338 3Q296 -54 246 -106T143 -198T39 -261T-58 -284ZM477 555Q450 555 430 575T410 622Q410 651 430 671T477 691Q506 691 526 671T546 622Q546 595 526 575T477 555ZM676 555Q649
555 629 575T609 622Q609 651 629 671T676 691Q705 691 725 671T745 622Q745 595 725 575T676 555Z" />
<glyph unicode="&#x2013;" horiz-adv-x="570" d="M12 223V278H582V223H12Z" />
<glyph unicode="&#x2014;" horiz-adv-x="1140" d="M1151 222H11V278H1151V222Z" />
<glyph unicode="&#x2018;" horiz-adv-x="285" d="M427 681L415 653Q380 648 345 629T287 581T263 515Q263 493 278 478T323 459L314 430Q293 421 278 412T250 391T217 359Q186 368 168 395T150 456Q150 499 172 537T234 606T323 656T427 681Z" />
<glyph unicode="&#x2019;" horiz-adv-x="285" d="M99 358L111 386Q146 391 181 410T239 458T263 524Q263 546 248 561T203 580L212 609Q234 618 248 627T277 648T309 680Q340 671 358 644T376 583Q376 540 354 502T292 433T203 383T99 358Z" />
<glyph unicode="&#x201a;" horiz-adv-x="285" d="M-109 -158L-97 -130Q-62 -125 -27 -106T31 -58T55 8Q55 30 40 45T-5 64L4 93Q26 102 40 111T69 132T101 164Q132 155 150 128T168 67Q168 24 146 -14T84 -83T-5 -133T-109 -158Z" />
<glyph unicode="&#x201c;" horiz-adv-x="503" d="M433 695L421 667Q386 662 351 643T293 595T269 529Q269 507 284 492T329 473L320 444Q299 435 284 426T256 405T223 373Q192 382 174 409T156 470Q156 513 178 551T240 620T329 670T433 695ZM651 695L639 667Q604
662 569 643T511 595T487 529Q487 507 502 492T547 473L538 444Q517 435 502 426T474 405T441 373Q410 382 392 409T374 470Q374 513 396 551T458 620T547 670T651 695Z" />
<glyph unicode="&#x201d;" horiz-adv-x="504" d="M324 373L336 401Q371 406 406 425T464 473T488 539Q488 561 473 576T428 595L437 624Q459 633 473 642T502 663T534 695Q565 686 583 659T601 598Q601 555 579 517T517 448T428 398T324 373ZM105 373L117 401Q152
406 187 425T245 473T269 539Q269 561 254 576T209 595L218 624Q240 633 254 642T283 663T315 695Q346 686 364 659T382 598Q382 555 360 517T298 448T209 398T105 373Z" />
<glyph unicode="&#x201e;" horiz-adv-x="504" d="M110 -158L122 -130Q157 -125 192 -106T250 -58T274 8Q274 30 259 45T214 64L223 93Q245 102 259 111T288 132T320 164Q351 155 369 128T387 67Q387 24 365 -14T303 -83T214 -133T110 -158ZM-109 -158L-97 -130Q-62
-125 -27 -106T31 -58T55 8Q55 30 40 45T-5 64L4 93Q26 102 40 111T69 132T101 164Q132 155 150 128T168 67Q168 24 146 -14T84 -83T-5 -133T-109 -158Z" />
<glyph unicode="&#x2022;" horiz-adv-x="380" d="M127 359Q127 392 143 419T185 462T245 478Q278 478 305 462T348 419T364 359Q364 326 348 300T305 257T245 241Q196 241 162 275T127 359Z" />
<glyph unicode="&#x2039;" horiz-adv-x="223" d="M105 49L7 195L11 207L220 353L245 337L108 199L136 69L105 49Z" />
<glyph unicode="&#x203a;" horiz-adv-x="224" d="M102 353L200 207L196 195L-13 49L-38 65L99 203L71 333L102 353Z" />
</font>
</defs>
</svg>
