<?xml version="1.0" standalone="no"?>
<!DOCTYPE svg PUBLIC "-//W3C//DTD SVG 1.1//EN" "http://www.w3.org/Graphics/SVG/1.1/DTD/svg11.dtd">
<svg xmlns="http://www.w3.org/2000/svg">
<defs >
<font id="IbarraRealNova" horiz-adv-x="578" ><font-face
    font-family="Ibarra Real Nova"
    units-per-em="1000"
    panose-1="0 0 0 0 0 0 0 0 0 0"
    ascent="950"
    descent="-300"
    alphabetic="0" />
<glyph unicode=" " horiz-adv-x="220" />
<glyph unicode="!" horiz-adv-x="222" d="M95 199L249 658H339L122 199H95ZM44 -7Q22 -7 5 10T-12 49Q-12 73 5 90T44 107Q68 107 85 90T102 49Q102 27 85 10T44 -7Z" />
<glyph unicode="&quot;" horiz-adv-x="418" d="M369 454L436 710H537L396 454H369ZM216 454L283 710H384L243 454H216Z" />
<glyph unicode="#" horiz-adv-x="490" d="M-9 -26L105 180H17L41 222H130L231 410H144L167 452H256L378 674H423L301 452H422L540 674H587L466 452H557L534 410H441L336 222H431L407 180H311L198 -26H154L269 180H150L34 -26H-9ZM173 221H291L397 410H275L173 221Z" />
<glyph unicode="$" horiz-adv-x="587" d="M162 -89L478 766H509L193 -89H162ZM235 -8Q152 -8 102 14T14 70Q37 112 54 159T76 254L105 251Q101 229 98 208T95 166Q95 121 110 87T158 34T245 15Q297 15 339 33T408 89T434 182Q434 218 417 241T372 281T314 314Q281
332 250 352T198 404T178 482Q178 529 200 566T258 630T340 671T433 685Q468 685 504 677T571 651Q585 644 599 636T626 628Q638 628 651 631L655 627Q627 586 619 546T604 459L582 460Q589 517 571 562T514 633T417 659Q374 659 337 641T276 588T253 504Q253 473
271 453T318 417T378 385Q409 368 443 347T501 295T526 215Q526 158 502 116T436 47T342 6T235 -8Z" />
<glyph unicode="%" horiz-adv-x="650" d="M222 345Q180 345 156 371T132 432Q132 454 136 476T147 515Q179 603 226 642T332 682Q374 682 395 657T416 598Q416 576 412 554T401 515Q382 463 357 425T299 366T222 345ZM425 -8Q383 -8 359 18T335 79Q335 101 339
123T350 162Q382 250 429 289T535 329Q577 329 598 304T619 245Q619 223 615 201T604 162Q585 110 560 72T502 13T425 -8ZM430 15Q458 15 478 35T515 88T544 162Q554 192 560 218T567 263Q567 283 558 294T527 306Q500 306 478 287T440 235T409 162Q399 132 392
105T385 58Q385 38 397 27T430 15ZM227 368Q255 368 275 388T312 441T341 515Q351 545 357 571T364 616Q364 636 355 647T324 659Q297 659 275 640T237 588T206 515Q196 485 189 458T182 411Q182 391 194 380T227 368ZM-1 0L700 683H755L55 0H-1Z" />
<glyph unicode="&amp;" horiz-adv-x="819" d="M243 -8Q192 -8 150 10T84 68T59 168Q59 211 73 262T113 365T172 462Q201 501 233 531T301 580T370 598Q393 598 411 585T429 540Q429 506 412 474T369 415T313 366T257 333Q257 333 246 330T224 323T213 319Q256
337 290 370T344 439T364 502Q364 519 355 530T325 541Q293 541 265 519T214 460T175 379T151 289T142 205Q142 147 161 109T212 53T283 35Q347 35 401 58T497 122T564 216T594 328Q596 354 586 371T550 389Q522 389 499 375T462 340T448 298Q448 286 456 279T482
271Q526 271 570 279T655 296Q696 305 733 312T801 319L809 316Q809 316 805 298T795 254T783 200T772 155T768 137L749 135L757 192Q758 198 758 203T760 213Q762 232 758 240T738 248Q712 248 676 241T599 225Q555 215 513 207T441 198Q413 198 403 212T394 249Q397
290 417 322T465 378T525 414T584 427Q626 427 645 406T661 348Q655 285 627 230T555 132T458 57T350 9T243 -8ZM141 259L146 298Q218 316 280 351T392 428T473 509T517 576Q519 584 521 590T524 602Q526 617 523 626T514 645Q509 654 505 662T501 681Q501 705
519 722T559 740Q580 740 592 725T605 687Q605 675 603 661T592 629Q579 596 541 548T445 445T310 342T141 259Z" />
<glyph unicode="&apos;" horiz-adv-x="265" d="M216 454L283 710H384L243 454H216Z" />
<glyph unicode="(" horiz-adv-x="332" d="M93 -232Q66 -184 50 -137T27 -43T20 50Q20 149 53 244T144 429T280 600T445 752L466 734Q385 660 315 578T191 404T108 214T78 7Q78 -48 89 -104T117 -219L93 -232Z" />
<glyph unicode=")" horiz-adv-x="331" d="M274 746Q301 699 317 652T340 557T347 464Q347 365 314 270T223 85T87 -86T-78 -238L-99 -220Q-18 -146 52 -64T176 110T259 300T289 507Q289 562 278 618T250 733L274 746Z" />
<glyph unicode="*" horiz-adv-x="436" d="M459 371Q452 365 436 362T407 374Q399 386 393 401T381 432Q374 452 366 471T341 511L333 522Q317 542 300 555T266 580Q251 589 238 598T216 618Q204 634 211 649T226 671Q233 677 249 680T278 668Q286 656 292 642T304
610Q312 591 320 571T344 531L352 520Q369 500 386 487T419 462Q434 453 447 444T469 424Q481 408 474 393T459 371ZM272 345Q263 349 252 361T248 392Q253 406 263 418T285 443Q298 459 310 476T333 517L338 530Q348 554 351 575T355 617Q356 635 357 651T364
680Q372 698 388 699T413 697Q422 693 433 681T437 650Q432 637 422 625T400 599Q387 583 375 566T352 525L347 512Q337 488 335 467T330 425Q329 407 328 392T321 362Q314 344 297 343T272 345ZM196 461Q176 457 166 471T154 495Q153 504 158 520T183 539Q197
541 213 539T246 532Q266 528 288 526T335 527L349 529Q374 533 394 541T432 558Q448 566 462 573T489 581Q509 585 519 571T531 547Q533 538 528 522T502 503Q488 502 472 504T439 510Q419 514 398 516T350 515L336 513Q311 509 291 501T253 484Q237 476 223 470T196
461Z" />
<glyph unicode="+" horiz-adv-x="530" d="M295 148V316H122V354H295V521H333V354H506V316H333V148H295Z" />
<glyph unicode="," horiz-adv-x="265" d="M-107 -150L-98 -130Q-66 -124 -30 -106T31 -59T57 4Q57 24 42 41T-3 62L9 94Q27 101 39 108T61 126T83 149Q106 136 120 116T134 68Q134 27 114 -10T59 -78T-19 -127T-107 -150Z" />
<glyph unicode="-" horiz-adv-x="265" d="M49 315H274V255H49V315Z" />
<glyph unicode="." horiz-adv-x="265" d="M68 -6Q43 -6 24 13T5 57Q5 84 24 103T68 122Q95 122 114 103T133 57Q133 32 114 13T68 -6Z" />
<glyph unicode="/" horiz-adv-x="447" d="M-69 -7L583 711H629L-23 -7H-69Z" />
<glyph unicode="0" horiz-adv-x="584" d="M233 -8Q176 -8 143 17T96 83T82 170Q82 215 91 261T113 342Q156 461 205 536T317 647T458 683Q515 683 547 659T593 596T606 511Q606 466 597 422T575 342Q536 234 491 156T384 35T233 -8ZM235 15Q281 15 317 41T382
112T436 217T483 342Q505 407 519 464T533 564Q533 608 515 633T450 659Q390 659 346 616T268 502T205 342Q182 275 167 215T152 110Q152 67 171 41T235 15Z" />
<glyph unicode="1" horiz-adv-x="410" d="M-46 0L-39 18L7 26Q40 32 58 36T87 47T103 66T119 101L326 612Q331 625 328 630T309 635L224 632L231 649L440 685L204 101Q193 72 191 59T203 40T256 26L296 18L289 0H-46Z" />
<glyph unicode="2" horiz-adv-x="527" d="M-35 0L-30 12L237 218Q286 256 324 291T391 359T438 426T466 492T475 560Q475 600 455 624T379 649Q349 649 321 641T276 619T258 588Q258 577 262 569T270 554T274 534Q274 515 258 504T221 492Q205 492 192 501T179
534Q179 570 198 597T251 643T324 671T406 681Q462 681 498 666T553 623T571 558Q571 525 559 493T523 430T470 369T403 308T326 246L111 80H324Q343 80 354 84T377 100T407 136L432 170H450L353 0H-35Z" />
<glyph unicode="3" horiz-adv-x="526" d="M141 -10Q74 -10 33 20T-8 103Q-8 125 4 145T40 165Q66 165 75 151T85 126Q85 108 78 98T62 80T54 63Q54 45 77 34T132 22Q199 22 253 51T340 132T372 250Q372 289 346 321T263 355L203 337L196 355L247 376Q279 389 315
408T382 452T434 510T454 584Q454 616 435 633T372 651Q335 651 304 636T273 600Q273 586 281 575T289 546Q289 527 273 516T236 504Q220 504 207 514T194 546Q194 579 211 604T258 645T322 670T394 679Q466 679 505 649T544 574Q544 540 527 513T481 464T420 426T357
398V397Q411 391 441 353T472 265Q472 199 444 148T367 62T261 9T141 -10Z" />
<glyph unicode="4" horiz-adv-x="547" d="M105 0L112 18L167 27Q197 32 212 37T237 54T254 86L447 563L463 557L85 225V249H444Q465 249 476 255T500 280L531 323H549L466 179H12L19 197L575 685H582L340 86Q327 55 335 45T381 27L428 18L421 0H105Z" />
<glyph unicode="5" horiz-adv-x="496" d="M115 -10Q48 -10 10 20T-28 103Q-28 125 -16 145T20 165Q46 165 55 151T65 126Q65 108 58 97T42 79T34 63Q34 46 57 35T111 24Q163 24 206 41T282 88T331 158T349 241Q349 297 317 324T210 352Q196 352 181 351T150 348L147
351L308 661H532Q551 661 563 669T588 694L592 699H608L539 581H299L213 414Q225 416 238 417T263 419Q330 419 371 399T433 346T453 272Q453 222 429 172T360 81T253 15T115 -10Z" />
<glyph unicode="6" horiz-adv-x="508" d="M180 -9Q100 -9 68 28T36 120Q36 155 47 193T73 269Q110 361 165 436T290 567T436 653T592 683L588 673Q508 654 443 617T326 526T232 404T158 255Q137 203 127 166T117 99Q117 58 134 36T180 13Q224 13 263 40T333 110T380
203T397 297Q397 340 376 359T328 378Q296 378 260 358T194 306T152 240L159 297Q164 332 196 357T272 396T358 410Q423 410 453 375T483 287Q483 238 462 186T400 90T304 18T180 -9Z" />
<glyph unicode="7" horiz-adv-x="470" d="M23 0L544 594H245Q235 594 224 588T202 569L168 527H152L233 674H626L602 615L124 0H23Z" />
<glyph unicode="8" horiz-adv-x="559" d="M199 -12Q154 -12 116 3T54 48T30 123Q30 168 54 205T117 273T201 325T287 359L307 338Q261 320 219 291T149 219T121 122Q121 73 148 48T220 22Q260 22 301 43T369 105T397 199Q397 240 373 268T315 323Q292 342 268
364T227 412T211 469Q211 515 233 554T292 621T377 665T477 681Q514 681 544 668T591 631T609 572Q609 531 589 499T535 442T464 400T389 370L367 390Q402 407 439 434T501 499T527 579Q527 613 506 632T449 651Q412 651 377 631T318 578T294 504Q294 475 306 454T338
416T381 379Q406 359 431 337T473 285T490 216Q490 162 465 120T399 49T305 4T199 -12Z" />
<glyph unicode="9" horiz-adv-x="507" d="M428 683Q508 683 540 646T572 554Q572 520 561 482T535 405Q498 314 443 238T318 107T172 21T16 -9L20 1Q100 20 165 57T282 148T376 270T450 419Q471 472 481 509T491 575Q491 616 474 638T428 661Q384 661 345 634T275
564T228 471T211 377Q211 334 232 315T280 296Q312 296 348 316T415 369T456 434L449 377Q445 343 413 318T336 278T250 264Q185 264 155 299T125 387Q125 437 146 488T208 584T304 656T428 683Z" />
<glyph unicode=":" horiz-adv-x="265" d="M195 308Q170 308 151 327T132 371Q132 398 151 417T195 436Q222 436 241 417T260 371Q260 346 241 327T195 308ZM68 249Q43 249 24 268T5 312Q5 339 24 358T68 377Q95 377 114 358T133 312Q133 287 114 268T68 249Z" />
<glyph unicode=";" horiz-adv-x="265" d="M-107 -150L-98 -130Q-66 -124 -30 -106T31 -59T57 4Q57 24 42 41T-3 62L9 94Q27 101 39 108T61 126T83 149Q106 136 120 116T134 68Q134 27 114 -10T59 -78T-19 -127T-107 -150ZM185 308Q160 308 141 327T122 371Q122
398 141 417T185 436Q212 436 231 417T250 371Q250 346 231 327T185 308Z" />
<glyph unicode="&lt;" horiz-adv-x="530" d="M90 315L91 353L465 529V484L131 334L465 183V137L90 315Z" />
<glyph unicode="=" horiz-adv-x="530" d="M122 430V468H506V430H122ZM122 457V495H506V457H122Z" />
<glyph unicode="&gt;" horiz-adv-x="530" d="M536 315L161 137V183L495 334L161 484V529L535 353L536 315Z" />
<glyph unicode="?" horiz-adv-x="364" d="M82 199Q107 260 130 293T186 342T268 366Q307 373 328 381T362 405T383 443Q392 467 392 481Q392 511 355 518L200 550L249 673H267L260 647Q256 628 260 619T279 606L368 589Q400 583 416 568T432 524Q432 495 412 444Q384
376 343 335T228 284Q191 279 169 269T133 241T109 199H82ZM40 -6Q18 -6 1 11T-16 50Q-16 74 1 91T40 108Q64 108 81 91T98 50Q98 28 81 11T40 -6Z" />
<glyph unicode="@" horiz-adv-x="963" d="M338 -180Q247 -180 175 -151T60 -63T18 84Q18 179 53 263T149 418T282 547Q347 598 419 634T564 688T705 707Q788 707 855 681T963 598T1003 454Q1003 399 982 341T922 227T834 127T727 56T611 30Q562 30 544 59T544
139L552 161L608 168Q585 107 593 87T647 67Q681 67 720 89T796 151T864 239T913 344T932 455Q932 533 902 581T818 651T691 674Q613 674 528 647T364 568T220 444T118 280T80 81Q80 4 116 -46T214 -120T354 -144Q438 -144 533 -117T722 -41L729 -62Q632 -121 531
-150T338 -180ZM405 83Q430 83 458 103T513 155T564 224T600 298T614 361Q614 384 604 396T571 408Q546 408 515 391T452 339Q413 298 389 245T365 136Q365 83 405 83ZM352 31Q328 31 310 46T291 105Q291 145 313 192T371 286T451 371T535 433T610 457Q630 457
643 449T663 427H666L721 467H730L590 119L550 155H545Q528 132 505 110T457 70T404 42T352 31Z" />
<glyph unicode="A" horiz-adv-x="757" d="M-81 0L-72 18L-20 26Q17 32 42 45T89 84L546 595L548 635Q568 636 586 647T617 673T636 698H645L592 107Q588 63 599 48T638 26L673 18L664 0H358L367 18L426 27Q472 34 488 48T508 102L547 564H555L123 82Q102 60 100
48T126 30L184 18L175 0H-81ZM247 229L270 261H563L547 229H247Z" />
<glyph unicode="B" horiz-adv-x="703" d="M-44 0L-37 18L28 29Q57 34 73 39T98 56T115 88L316 585Q329 618 322 627T276 644L219 655L226 673H529Q635 673 681 645T727 568Q727 514 694 473T608 407T493 373L492 371Q567 363 602 330T637 240Q637 176 598 121T477
33T263 0H-44ZM252 24H276Q339 24 387 42T467 91T516 162T533 247Q533 295 505 326T412 357H313L205 90Q189 54 200 39T252 24ZM323 383H427Q481 383 529 408T606 475T636 570Q636 610 607 629T510 649H431L323 383Z" />
<glyph unicode="C" horiz-adv-x="767" d="M390 -8Q302 -8 238 28T138 125T102 255Q102 339 137 416T235 553T381 647T559 682Q616 682 662 674T733 656Q753 649 769 644T806 638Q817 638 825 640T843 643L845 641Q828 602 822 561T818 469H798Q784 521 756 563T678
631T549 657Q485 657 431 633T333 566T259 471T212 361T195 248Q195 135 253 77T402 18Q423 18 458 23T534 48T616 105T694 207H714Q696 159 680 113T655 27Q655 27 651 27T638 28Q625 28 601 24T547 14Q507 7 465 0T390 -8Z" />
<glyph unicode="D" horiz-adv-x="805" d="M-46 0L-39 18L27 29Q57 34 73 39T98 56T115 88L315 585Q328 617 321 627T275 644L219 655L226 673H519Q604 673 670 643T774 553T812 406Q812 327 776 254T674 124T521 34T334 0H-46ZM305 24Q397 24 473 52T605 135T691
267T722 446Q722 512 696 557T627 626T528 649H431L203 83Q190 49 212 37T305 24Z" />
<glyph unicode="E" horiz-adv-x="685" d="M-46 0L-39 18L27 29Q57 34 73 39T98 56T115 88L315 585Q328 617 321 627T275 644L219 655L226 673H795Q786 659 779 645T766 617Q752 580 746 549T733 496H713Q716 540 711 574T681 629T606 649H432L319 369H478Q513
369 534 377T572 402T605 447L633 494H651L538 216H520L530 263Q539 305 529 323T467 341H308L206 90Q197 66 197 52T211 31T258 25H350Q391 25 432 41T509 81T566 129L613 180H632Q601 134 576 87T533 0H-46Z" />
<glyph unicode="F" horiz-adv-x="644" d="M-46 0L-39 18L27 29Q57 34 73 39T98 56T115 88L315 585Q328 617 321 627T275 644L219 655L226 673H795Q786 659 779 645T766 617Q752 580 746 549T733 496H713Q716 518 715 544T704 594T674 633T619 649H432L311 349H445Q476
349 502 352T551 372T597 427L624 474H642L530 198L512 197L521 241Q530 281 520 297T486 317T433 321H299L205 88Q192 57 199 47T245 29L306 18L299 0H-46Z" />
<glyph unicode="G" horiz-adv-x="842" d="M385 -6Q331 -6 281 11T191 61T128 144T104 260Q104 350 141 426T243 560T386 649T548 681Q598 681 644 675T730 655Q751 648 769 645T811 642Q824 642 835 643T850 645L852 643Q839 617 830 581T821 510Q821 500 822
491T824 472L804 473Q783 539 744 579T655 638T551 657Q478 657 414 624T301 533T225 404T197 253Q197 171 222 120T290 45T390 21Q429 21 472 34T557 75L611 213Q624 246 616 255T570 272L514 283L521 301H857L850 283L794 274Q765 269 749 264T724 247T706 215L629
24L623 21Q616 23 606 24T584 25Q568 25 542 20T485 8Q460 1 435 -2T385 -6Z" />
<glyph unicode="H" horiz-adv-x="836" d="M370 0L377 18L443 29Q473 34 489 39T514 56T531 88L731 585Q744 617 737 627T691 644L635 655L642 673H982L975 655L909 644Q880 639 864 634T839 617T821 585L621 88Q608 57 615 47T661 29L717 18L710 0H370ZM-46 0L-39
18L27 29Q57 34 73 39T98 56T115 88L315 585Q328 617 321 627T275 644L219 655L226 673H566L559 655L493 644Q464 639 448 634T423 617T405 585L205 88Q192 57 199 47T245 29L301 18L294 0H-46ZM282 341L289 369H674L666 341H282Z" />
<glyph unicode="I" horiz-adv-x="420" d="M-46 0L-39 18L27 29Q57 34 73 39T98 56T115 88L315 585Q328 617 321 627T275 644L219 655L226 673H566L559 655L493 644Q464 639 448 634T423 617T405 585L205 88Q192 57 199 47T245 29L301 18L294 0H-46Z" />
<glyph unicode="J" horiz-adv-x="421" d="M-41 -180Q-72 -180 -96 -166T-134 -129T-148 -79Q-148 -49 -128 -35T-88 -21Q-68 -21 -54 -32T-40 -68Q-40 -82 -46 -91T-61 -109Q-68 -116 -73 -122T-78 -136Q-78 -142 -72 -148T-44 -154Q-13 -154 21 -127T76 -50L331
585Q344 617 337 627T291 644L235 655L242 673H582L575 655L509 644Q480 639 464 634T439 617T421 585L169 -35H167Q152 -35 141 -51T114 -90Q101 -110 82 -131T33 -166T-41 -180Z" />
<glyph unicode="K" horiz-adv-x="809" d="M663 0Q621 0 596 11T550 48L320 321L323 329L695 588Q711 599 725 609T739 628Q739 638 699 647L662 655L669 673H934L927 655L877 645Q849 640 825 632T773 608T706 564L404 351L656 55Q670 39 681 31T715 18L708 0H663ZM-46
0L-39 18L27 29Q57 34 73 39T98 56T115 88L315 585Q328 618 321 627T275 644L219 655L226 673H566L559 655L493 644Q464 639 448 634T423 617T405 585L205 88Q192 55 199 46T245 29L301 18L294 0H-46Z" />
<glyph unicode="L" horiz-adv-x="704" d="M-46 0L-39 18L27 29Q57 34 73 39T98 56T115 88L315 585Q328 617 321 627T275 644L219 655L226 673H566L559 655L493 644Q464 639 448 634T423 617T405 585L205 90Q191 53 200 39T258 25H399Q440 25 481 41T558 81T615
129L662 180H681Q650 134 625 87T582 0H-46Z" />
<glyph unicode="M" horiz-adv-x="955" d="M359 -9L352 586L137 89Q124 58 132 48T177 30L235 18L227 0H-51L-43 18L22 30Q52 36 67 41T91 57T109 89L318 579Q332 611 325 625T282 647L243 655L250 673H442L447 143L883 673H1091L1084 655L1020 645Q992 641 975
634T948 614T929 578L744 88Q732 57 739 47T784 29L841 18L833 0H510L518 18L593 31Q607 34 615 37T629 48T639 65L829 562L366 -9H359Z" />
<glyph unicode="N" horiz-adv-x="856" d="M606 -16L340 567L148 95Q135 64 141 51T185 29L242 18L234 0H-45L-37 18L28 29Q58 34 74 40T99 59T117 92L314 578Q323 601 324 613T312 633T263 647L219 656L226 673H390L642 122L825 578Q838 610 832 623T787 644L731
655L738 673H1017L1010 655L944 644Q915 639 899 633T873 614T855 581L614 -16H606Z" />
<glyph unicode="O" horiz-adv-x="822" d="M400 -8Q319 -8 252 25T145 119T105 266Q105 353 142 428T241 561T378 650T532 682Q614 682 680 649T787 555T827 408Q827 321 790 246T691 113T554 24T400 -8ZM394 17Q443 17 491 35T584 90T661 178T714 298T734 446Q734
512 708 559T638 632T540 658Q491 658 442 639T349 584T271 495T218 375T198 226Q198 161 224 114T295 42T394 17Z" />
<glyph unicode="P" horiz-adv-x="674" d="M-43 0L-36 18L29 29Q58 34 74 39T99 56T116 88L312 572Q324 602 324 615T310 635T261 647L219 655L226 673H544Q644 673 699 637T754 540Q754 494 728 451T657 375T559 322T449 302Q420 302 393 310L397 317Q437 319
482 335T566 380T630 453T655 551Q655 601 620 625T519 649H433L206 88Q193 57 200 47T246 29L303 18L296 0H-43Z" />
<glyph unicode="Q" horiz-adv-x="822" d="M582 -256Q542 -256 508 -240T442 -199T379 -145Q347 -116 313 -90T238 -46T147 -29Q127 -29 118 -35T107 -52T102 -75Q99 -93 93 -108T57 -123Q40 -123 27 -112T14 -78Q14 -43 52 -21T145 2Q207 2 259 -14T356 -56T442
-108Q492 -141 535 -161T624 -182Q668 -182 691 -165T727 -123L750 -129Q726 -198 687 -227T582 -256ZM400 -8Q319 -8 252 25T145 119T105 266Q105 353 142 428T241 561T378 650T532 682Q614 682 680 649T787 555T827 408Q827 321 790 246T691 113T554 24T400 -8ZM394
17Q443 17 491 35T584 90T661 178T714 298T734 446Q734 512 708 559T638 632T540 658Q491 658 442 639T349 584T271 495T218 375T198 226Q198 161 224 114T295 42T394 17Z" />
<glyph unicode="R" horiz-adv-x="809" d="M662 -13Q625 -13 594 9T536 67T484 142Q459 182 435 218T381 277T311 301H291L205 88Q192 57 199 47T245 29L301 18L294 0H-45L-38 18L28 29Q57 34 73 39T98 56T115 88L316 585Q329 617 321 627T275 644L219 655L226
673H506Q615 673 670 639T725 546Q725 499 697 459T624 387T527 338T425 315L424 312Q460 307 485 285T532 231T576 161Q598 124 619 91T666 35T723 13L716 -5Q703 -9 690 -11T662 -13ZM302 329H367Q417 329 464 345T548 389T606 458T628 546Q628 594 591 622T484
650H432L302 329Z" />
<glyph unicode="S" horiz-adv-x="587" d="M235 -8Q152 -8 102 14T14 70Q37 112 54 159T76 254L105 251Q101 229 98 208T95 166Q95 121 110 87T158 34T245 15Q297 15 339 33T408 89T434 182Q434 218 417 241T372 281T314 314Q281 332 250 352T198 404T178 482Q178
529 200 566T258 630T340 671T433 685Q468 685 504 677T571 651Q585 644 599 636T626 628Q638 628 651 631L655 627Q627 586 619 546T604 459L582 460Q589 517 571 562T514 633T417 659Q374 659 337 641T276 588T253 504Q253 473 271 453T318 417T378 385Q409 368
443 347T501 295T526 215Q526 158 502 116T436 47T342 6T235 -8Z" />
<glyph unicode="T" horiz-adv-x="694" d="M91 0L98 18L164 29Q194 34 209 39T234 56T252 88L478 649H383Q334 649 293 629T216 574T150 496H129Q152 535 167 564T193 619T211 673H854Q831 631 819 593T793 496H772Q777 539 770 573T738 628T663 649H568L342 88Q329
57 336 47T382 29L438 18L431 0H91Z" />
<glyph unicode="U" horiz-adv-x="792" d="M313 -13Q235 -13 191 19T138 107T158 231L301 585Q314 617 306 627T260 644L204 655L211 673H551L544 655L478 644Q449 639 433 634T409 617T391 585L248 232Q212 143 236 90T354 37Q415 37 466 61T558 129T623 236L761
578Q774 610 768 623T723 644L667 655L674 673H953L946 655L880 644Q851 639 835 633T809 614T791 581L602 110Q583 110 564 96T518 63Q483 38 434 13T313 -13Z" />
<glyph unicode="V" horiz-adv-x="764" d="M306 -15L279 577Q278 612 268 626T223 647L184 655L191 673H505L498 655L448 647Q422 643 401 637T372 616Q369 608 368 595T367 571L386 111H378L752 584Q773 611 773 624Q773 638 731 646L688 655L695 673H945L938
655L892 645Q870 640 853 634T820 615T782 576L314 -15H306Z" />
<glyph unicode="W" horiz-adv-x="1129" d="M262 -9L278 574Q279 608 268 624T222 647L184 655L191 673H508L501 655L428 643Q392 638 381 626T370 584L355 124L342 130L691 574Q720 610 721 622T686 643L630 655L637 673H923L916 655L844 643Q817 638 805 632T790
614T785 577L764 124L748 130L1103 584Q1127 615 1125 625T1093 643L1034 655L1041 673H1310L1303 655L1245 647Q1206 642 1182 625T1131 574L674 -9H667L695 535L269 -9H262Z" />
<glyph unicode="X" horiz-adv-x="783" d="M363 0L370 18L428 27Q472 34 484 48T486 96L414 314L411 323L327 580Q317 609 302 625T246 649L218 654L226 673H548L541 655L483 647Q439 640 423 627T416 580L484 371L487 362L564 127Q581 77 601 55T664 24L692 19L684
0H363ZM-76 0L-69 18L-23 24Q15 29 49 42T113 80L420 343L432 315L159 81Q136 62 136 50T157 32L219 18L212 0H-76ZM473 340L463 365L727 588Q748 606 751 621T730 641L668 655L675 673H959L952 655L906 649Q869 644 836 631T769 589L473 340Z" />
<glyph unicode="Y" horiz-adv-x="706" d="M366 305L265 604Q258 624 247 634T211 649L183 654L191 673H490L483 656L428 648Q385 642 370 627T365 580L441 352H432L678 587Q701 609 703 622T683 641L626 655L633 673H887L880 655L839 649Q809 645 781 633T720
588L438 321L366 305ZM102 0L109 18L175 29Q205 34 220 39T245 56T263 88L360 330L454 340L353 88Q340 57 347 47T393 29L449 18L442 0H102Z" />
<glyph unicode="Z" horiz-adv-x="680" d="M-46 0L-44 5L660 649H471Q419 649 374 631T288 577T207 489H187Q206 520 224 554T255 621Q260 634 263 647T271 673H806L804 668L92 25H324Q377 25 430 47T531 105T614 187H634Q602 138 577 93T533 0H-46Z" />
<glyph unicode="[" horiz-adv-x="269" d="M-135 -215L253 744H443L431 714H301L-63 -185H67L55 -215H-135Z" />
<glyph unicode="\" horiz-adv-x="433" d="M286 -7L222 711H260L324 -7H286Z" />
<glyph unicode="]" horiz-adv-x="268" d="M445 744L57 -215H-133L-121 -185H9L373 714H243L255 744H445Z" />
<glyph unicode="^" horiz-adv-x="516" d="M85 325L411 651H459L521 325H467L408 605H430L152 325H85Z" />
<glyph unicode="_" horiz-adv-x="531" d="M-116 -93V-58H414V-93H-116Z" />
<glyph unicode="`" horiz-adv-x="530" d="M477 548L381 667Q369 682 369 695Q369 709 380 718T404 727Q413 727 421 723T434 707L498 559L477 548Z" />
<glyph unicode="a" horiz-adv-x="490" d="M65 -8Q40 -8 21 8T1 70Q1 108 20 151T70 238T139 322Q186 372 239 403T335 434Q355 434 368 428T389 410H391L445 449H455L308 85Q299 63 303 53T314 43Q326 43 346 59T392 105T446 178L462 168Q400 71 355 32T281 -7Q262
-7 250 10T251 65L272 123H266Q242 91 209 61T139 12T65 -8ZM119 44Q145 44 175 65T234 120T288 194T326 272T341 339Q341 364 330 376T295 389Q269 389 236 371T169 316Q128 272 102 216T76 102Q76 71 88 58T119 44Z" />
<glyph unicode="b" horiz-adv-x="459" d="M124 -8Q93 -8 74 13T54 69Q54 82 57 96T66 127L262 631Q266 641 262 648T232 658L192 662L196 673Q237 679 274 688T346 712L358 706Q347 687 338 666T320 625L207 328H212Q237 356 267 380T331 419T394 434Q420 434
439 418T458 357Q458 316 436 267T378 169T297 81T207 16T124 -8ZM165 40Q191 40 224 59T288 111Q313 137 334 170T369 243T383 325Q383 357 370 369T337 382Q314 382 286 363T228 313T173 243T133 165T118 91Q118 64 130 52T165 40Z" />
<glyph unicode="c" horiz-adv-x="368" d="M103 -8Q69 -8 46 16T22 87Q22 146 43 198T96 293T163 367Q198 399 235 416T302 434Q340 434 359 416T378 371Q378 350 370 340T345 329Q323 329 318 339T310 362Q309 374 304 384T281 394Q256 394 224 376T161 323T110
244T90 144Q90 87 104 67T144 46Q179 46 222 80T301 177L319 166Q294 123 258 83T182 18T103 -8Z" />
<glyph unicode="d" horiz-adv-x="490" d="M65 -8Q40 -8 21 8T1 70Q1 108 20 151T70 238T139 322Q186 372 239 403T335 434Q351 434 362 430T381 419L466 631Q471 645 465 650T436 658L396 662L400 673Q441 679 478 688T550 712L562 706Q551 687 542 666T524 625L308
85Q299 63 303 53T314 43Q326 43 346 59T392 105T446 178L462 168Q400 71 355 32T281 -7Q262 -7 250 10T251 65L272 123H266Q242 91 209 61T139 12T65 -8ZM119 44Q145 44 175 65T234 120T288 194T326 272T341 339Q341 364 330 376T295 389Q269 389 236 371T169
316Q128 272 102 216T76 102Q76 71 88 58T119 44Z" />
<glyph unicode="e" horiz-adv-x="373" d="M107 -8Q64 -8 45 21T25 93Q25 142 43 194T93 294T168 376Q200 402 236 418T311 434Q343 434 359 418T375 377Q375 345 346 309T253 244T90 204L94 227Q168 233 215 256T286 308T309 359Q309 392 274 392Q252 392 222
377T163 330T114 251T94 137Q94 97 104 72T150 46Q171 46 198 62T254 108T303 177L322 166Q296 119 259 80T181 16T107 -8Z" />
<glyph unicode="f" horiz-adv-x="305" d="M-92 -247Q-119 -247 -144 -237T-185 -210T-201 -173Q-201 -150 -188 -139T-157 -127Q-140 -127 -127 -138T-113 -187Q-113 -206 -104 -214T-82 -222Q-34 -222 -8 -137L186 501Q221 616 266 663T384 711Q440 711 471 689T502
634Q502 621 493 609T462 596Q438 596 426 607T414 636Q414 641 415 646T416 655Q416 669 405 677T376 685Q331 685 306 646T253 516L55 -138Q44 -138 37 -149T19 -178Q3 -202 -24 -224T-92 -247ZM83 398L95 426H339L327 398H83Z" />
<glyph unicode="g" horiz-adv-x="457" d="M61 -259Q13 -259 -26 -247T-88 -213T-111 -159Q-111 -114 -84 -82T-11 -28T93 11L142 -3Q91 -14 51 -33T-12 -80T-35 -144Q-35 -186 4 -205T97 -225Q154 -225 199 -212T269 -175T295 -118Q295 -100 285 -85T242 -56T144
-29Q82 -16 48 -3T0 25T-13 60Q-13 85 26 107T141 143L193 129Q160 128 129 123T78 106T58 78Q58 66 68 58T106 42T192 22Q285 3 323 -23T361 -94Q361 -139 320 -176T211 -236T61 -259ZM142 3L93 17Q152 33 215 44T343 65L346 50Q297 41 244 29T142 3ZM192 150Q215
150 238 167T280 213T310 274T322 339Q322 376 300 404Q284 413 261 413Q236 413 213 396T171 351T141 290T130 225Q130 197 144 174T192 150ZM189 129Q154 129 127 141T84 178T68 237Q68 268 80 302T116 367T176 415T259 434Q276 434 294 431T330 423Q347 419
364 416T394 413Q408 413 416 418T425 440Q425 448 423 455T420 472Q420 498 433 511T464 524Q483 524 492 513T501 484Q501 463 489 440T453 401T395 385Q384 385 373 388T352 397L350 392Q381 365 381 321Q381 290 368 256T329 194T268 147T189 129Z" />
<glyph unicode="h" horiz-adv-x="528" d="M13 -9L262 631Q267 645 261 650T232 658L192 662L196 673Q237 679 274 688T346 712L358 706Q347 687 338 666T320 625L151 184H155Q169 208 190 240T239 306T298 369T361 416T423 434Q455 434 466 411T463 352L350 82Q343
63 345 53T358 43Q370 43 390 59T435 105T489 178L505 168Q441 71 393 32T314 -7Q288 -7 277 14T281 74L390 332Q400 355 397 368T376 382Q356 382 319 353T239 271T154 149T83 0L13 -9Z" />
<glyph unicode="i" horiz-adv-x="319" d="M105 -7Q80 -7 68 12T66 59L177 339Q187 364 184 374T172 384Q160 384 139 364T92 314T45 251L29 260Q90 348 131 391T210 434Q234 434 249 414T249 354L142 85Q133 63 137 53T148 43Q160 43 180 59T226 105T280 178L296
168Q232 71 184 32T105 -7ZM300 573Q278 573 261 590T244 629Q244 653 261 670T300 687Q324 687 341 670T358 629Q358 607 341 590T300 573Z" />
<glyph unicode="j" horiz-adv-x="261" d="M-103 -258Q-148 -258 -177 -240T-207 -194Q-207 -174 -194 -164T-162 -154Q-143 -154 -131 -164T-118 -206Q-118 -222 -110 -228T-90 -235Q-66 -235 -41 -206T7 -111L168 339Q178 364 175 374T163 384Q151 384 130 364T83
314T36 251L20 260Q81 348 122 391T201 434Q225 434 240 414T240 354L62 -129Q50 -129 39 -142T15 -173Q2 -191 -14 -211T-52 -244T-103 -258ZM267 573Q245 573 228 590T211 629Q211 653 228 670T267 687Q291 687 308 670T325 629Q325 607 308 590T267 573Z" />
<glyph unicode="k" horiz-adv-x="505" d="M13 -9L262 631Q267 645 261 650T232 658L192 662L196 673Q237 679 274 688T346 712L358 706Q347 687 338 666T320 625L166 221L164 217L82 1L13 -9ZM324 -7Q287 -7 265 22T220 114Q215 130 207 150T189 186T162 202Q146
202 127 182L107 184Q132 210 154 222T195 234Q231 234 254 204T297 115Q321 43 350 43Q372 43 402 78T465 177L482 169Q443 87 401 40T324 -7ZM174 223L161 229Q182 262 209 298T268 365T332 415T396 434Q424 434 440 423T456 385Q456 365 438 336T387 279T313
231T224 209L212 226Q242 227 273 239T330 269T373 310T389 355Q389 367 382 375T358 384Q325 384 275 340T174 223Z" />
<glyph unicode="l" horiz-adv-x="298" d="M79 -7Q54 -7 42 12T40 59L262 631Q267 645 261 650T232 658L192 662L196 673Q237 679 277 688T351 712L363 706Q352 687 343 666T325 625L116 85Q108 63 111 53T122 43Q139 43 175 78T254 178L270 168Q206 71 158 32T79 -7Z" />
<glyph unicode="m" horiz-adv-x="769" d="M38 -9L177 339Q187 364 184 374T172 384Q160 384 139 364T92 314T45 251L29 260Q89 348 130 391T208 434Q233 434 248 414T246 354L176 184H178Q192 208 213 240T260 306T316 369T377 416T438 434Q465 434 479 413T478
356L401 184H404Q421 214 449 256T512 339T585 407T662 434Q694 434 706 411T704 352L591 82Q584 63 586 53T599 43Q611 43 631 59T676 105T730 178L746 168Q682 71 634 32T555 -7Q529 -7 518 14T522 74L631 332Q641 355 638 368T617 382Q597 382 562 353T486 271T405
149T335 0L265 -9L406 332Q414 349 414 365T390 382Q371 382 336 353T260 271T178 149T108 0L38 -9Z" />
<glyph unicode="n" horiz-adv-x="553" d="M38 -9L177 339Q187 364 184 374T172 384Q160 384 139 364T92 314T45 251L29 260Q89 348 130 391T208 434Q237 434 249 412T246 354L176 184H181Q195 208 216 240T265 306T323 369T386 416T448 434Q480 434 491 411T488
352L375 82Q368 63 370 53T383 43Q395 43 415 59T460 105T514 178L530 168Q466 71 418 32T339 -7Q313 -7 302 14T306 74L415 332Q425 355 422 368T401 382Q381 382 344 353T264 271T179 149T108 0L38 -9Z" />
<glyph unicode="o" horiz-adv-x="436" d="M159 -7Q102 -7 72 33T41 135Q41 179 58 230T107 328T182 404T278 434Q335 434 365 394T396 292Q396 248 379 197T330 99T255 23T159 -7ZM152 13Q180 13 206 35T257 95T299 175T327 261T338 336Q338 411 285 411Q257 411
231 389T180 330T138 251T110 166T99 91Q99 55 113 34T152 13Z" />
<glyph unicode="p" horiz-adv-x="477" d="M-145 -250L-139 -235L-93 -224Q-76 -220 -68 -213T-54 -192L173 369L264 465L202 304H207Q234 340 269 369T342 416T409 434Q435 434 454 418T473 357Q473 320 457 275T411 183T346 98T271 36T194 12Q153 12 124 27T95
79Q95 99 106 108T133 117Q150 117 161 106T173 62Q173 49 178 43T196 36Q227 36 257 55T313 107T360 178T392 256T404 329Q404 382 355 382Q332 382 304 363T247 312T195 243T157 170L12 -192Q1 -219 25 -224L77 -235L71 -250H-145ZM33 232L24 248Q69 275 101
302T155 358T192 414T220 472Q223 480 231 483T248 487Q257 487 262 484T266 472Q257 435 224 390T142 304T33 232Z" />
<glyph unicode="q" horiz-adv-x="445" d="M37 -250L43 -235L93 -224Q110 -220 118 -213T132 -192L248 95H243Q207 55 160 24T65 -8Q40 -8 21 8T1 70Q1 110 22 157T77 250T153 335Q199 379 247 406T335 434Q355 434 368 428T389 410H391L445 449H455L197 -192Q186
-219 210 -224L259 -235L253 -250H37ZM119 44Q145 44 175 65T234 120T288 194T326 272T341 339Q341 364 330 376T295 389Q269 389 236 371T169 316Q128 272 102 216T76 102Q76 71 88 58T119 44Z" />
<glyph unicode="r" horiz-adv-x="424" d="M38 -9L177 339Q187 364 184 374T172 384Q160 384 139 364T92 314T45 251L29 260Q89 348 130 391T208 434Q237 434 249 412T246 354L176 184H179Q195 214 219 256T273 339T336 407T406 434Q433 434 447 420T462 382Q462
357 448 343T415 328Q399 328 390 336T378 357Q377 369 373 374T361 380Q336 380 304 348T238 261T171 139T109 0L38 -9Z" />
<glyph unicode="s" horiz-adv-x="362" d="M131 -8Q97 -8 67 3T19 41T1 109Q1 138 15 151T46 165Q62 165 74 155T87 125Q87 115 83 108T73 94Q67 87 62 81T56 64Q56 40 76 28T129 15Q163 15 188 34T214 97Q214 129 199 155T163 206Q143 233 126 262T108 328Q108
364 127 387T177 422T239 434Q281 434 314 414T348 355Q348 334 340 323T312 311Q293 311 285 321T276 346Q276 348 276 351T278 359Q279 362 279 365T280 371Q280 391 265 401T230 412Q207 412 186 396T165 346Q165 317 181 292T216 242Q237 215 255 185T273 115Q273
75 252 48T199 6T131 -8Z" />
<glyph unicode="t" horiz-adv-x="304" d="M69 -8Q44 -8 32 11T30 58L165 398H90L101 426H178L210 506L279 515L243 426H325L314 398H232L104 79Q97 60 101 51T114 42Q125 42 144 58T187 105T239 177L255 167Q191 70 149 31T69 -8Z" />
<glyph unicode="u" horiz-adv-x="548" d="M104 -8Q73 -8 62 16T65 74L178 345Q186 364 183 374T170 384Q159 384 139 368T93 322T39 248L23 258Q88 356 135 395T214 434Q240 434 252 413T247 353L138 94Q128 72 131 58T152 44Q172 44 208 73T286 155T370 277T440
426L510 435L371 87Q361 62 365 52T376 42Q388 42 409 62T456 113T503 175L519 166Q459 78 418 35T340 -8Q311 -8 299 14T302 72L372 242H367Q354 218 333 186T284 120T227 57T166 10T104 -8Z" />
<glyph unicode="v" horiz-adv-x="506" d="M201 -8Q156 -8 133 18T109 91Q109 141 123 181T159 253T203 311T241 359L239 362Q232 361 227 360T216 359Q201 359 189 362T163 370Q148 374 134 376T109 378Q85 378 71 370T57 351Q57 341 64 337T81 329Q95 325 102
318T109 297Q109 282 99 273T75 264Q54 264 42 283T29 327Q29 358 45 382T87 420T143 434Q155 434 166 432T188 426Q202 422 220 418T257 413Q270 413 281 416T302 426Q309 431 312 435T323 439Q333 439 333 429Q333 425 327 421T312 405Q284 369 259 341T214 283T184
220T173 138Q173 89 193 66T245 43Q275 43 309 62T375 114T425 193T445 293Q445 320 435 333T413 356Q403 364 395 373T386 400Q386 425 402 437T436 450Q460 450 475 429T490 368Q490 323 476 272T436 171T374 81T294 16T201 -8Z" />
<glyph unicode="w" horiz-adv-x="678" d="M204 -8Q157 -8 133 18T109 91Q109 141 123 181T159 253T203 311T241 359L239 362Q232 361 227 360T216 359Q201 359 189 362T163 370Q148 374 134 376T109 378Q85 378 71 370T57 351Q57 341 64 337T81 329Q95 325 102
318T109 297Q109 282 99 273T75 264Q54 264 42 283T29 327Q29 358 45 382T87 420T143 434Q155 434 166 432T188 426Q202 422 220 418T257 413Q270 413 281 416T302 426Q309 431 312 435T323 439Q333 439 333 429Q333 425 327 421T312 405Q284 369 259 341T214 283T184
220T173 138Q173 89 193 66T245 43Q278 43 311 63T375 116T428 185T464 257T478 316Q478 355 454 355Q438 355 420 338T386 292T361 230T351 165Q351 108 367 77T424 45Q466 45 500 67T560 126T599 207T613 293Q613 320 603 333T581 356Q571 364 563 373T554 400Q554
425 570 437T604 450Q628 450 643 429T658 368Q658 293 633 226T568 106T482 23T395 -8Q355 -8 331 25T307 134Q307 185 321 230T359 311T409 366T460 386Q483 386 494 372T505 332Q505 297 488 252T440 162T372 78T290 16T204 -8Z" />
<glyph unicode="x" horiz-adv-x="553" d="M298 -7Q269 -7 252 15T235 78Q235 153 260 217T325 331T406 407T481 434Q507 434 526 419T545 372Q545 350 535 340T508 329Q489 329 484 340T477 364Q476 375 473 384T456 393Q436 393 409 376T355 326T311 245T293
132Q293 83 304 63T334 43Q369 43 409 79T486 177L504 166Q478 123 445 84T374 19T298 -7ZM72 -8Q47 -8 28 7T8 54Q8 76 18 86T45 97Q65 97 70 86T76 62Q78 51 81 42T97 33Q117 33 144 50T198 100T242 181T260 294Q260 344 249 363T219 383Q185 383 145 347T67
249L49 260Q76 303 109 342T179 407T255 433Q284 433 301 411T318 348Q318 273 293 209T228 95T147 19T72 -8Z" />
<glyph unicode="y" horiz-adv-x="458" d="M-79 -284Q-106 -284 -134 -274T-183 -246T-203 -202Q-203 -179 -190 -167T-158 -155Q-130 -155 -122 -172T-110 -210Q-106 -229 -101 -245T-75 -262Q-25 -262 20 -234T103 -159T168 -52T211 70T226 191Q226 292 200 346T128
400Q94 400 75 379T56 326Q56 308 63 290T86 256L79 246Q56 261 45 284T33 332Q33 371 60 402T138 434Q177 434 205 414T253 358T282 279T292 188Q292 145 285 102T264 25L268 23Q289 44 311 78T352 151T382 229T394 297Q394 325 383 337T360 358Q350 366 342 375T333
400Q333 425 351 437T386 450Q409 450 423 429T438 368Q438 321 419 260T366 131T286 -2Q257 -44 217 -92T129 -184T28 -256T-79 -284Z" />
<glyph unicode="z" horiz-adv-x="401" d="M-28 -6Q-35 -6 -41 1T-47 13Q-47 20 -38 26T-11 48L385 432L404 414L-24 -1L12 61Q30 77 49 84T86 92Q111 92 133 83T178 61Q200 50 222 41T270 31Q278 31 286 36T294 54Q294 63 289 70T275 84Q267 92 260 101T253 125Q253
142 263 155T296 168Q324 168 335 148T347 108Q347 68 311 30Q292 10 274 2T219 -6Q187 -6 161 2T112 18Q94 25 78 30T44 35Q26 35 11 24T-15 1Q-21 -6 -28 -6ZM108 295Q63 295 63 347Q63 362 71 376T90 401Q105 416 122 425T155 434Q181 434 201 426T240 410Q259
401 275 396T308 390Q322 390 336 396T365 417Q372 424 377 429T389 434Q393 434 399 430T409 421T406 410Q395 402 385 394T366 377L327 364Q308 351 292 345T260 338Q241 338 224 347T190 367Q174 378 156 386T118 395Q108 395 103 390T98 377Q98 369 104 365T117
356Q127 352 135 346T143 329Q143 314 133 305T108 295Z" />
<glyph unicode="{" horiz-adv-x="353" d="M135 -215Q95 -215 55 -209T-11 -181T-37 -119Q-37 -76 -10 -27T48 68Q74 107 94 141T114 200Q114 227 94 238T41 250L52 279Q100 279 128 292T171 330T194 391T209 476Q216 519 224 559T248 633T297 691T383 730T522
744L512 719Q450 719 410 702T346 655T308 588T282 510Q264 441 253 397T229 326T191 286T121 265V264Q136 260 144 250T155 223T158 183Q158 155 136 113T89 26Q68 -12 52 -49T36 -116Q36 -153 64 -170T145 -190L135 -215Z" />
<glyph unicode="|" horiz-adv-x="335" d="M177 711H218V-250H177V711Z" />
<glyph unicode="}" horiz-adv-x="353" d="M260 744Q301 744 340 738T406 711T432 648Q432 605 405 557T347 461Q321 422 301 388T281 329Q281 302 302 291T354 279L343 250Q295 250 267 237T224 199T202 138T186 53Q179 10 171 -30T147 -104T98 -162T12 -201T-127
-215L-117 -190Q-55 -190 -15 -173T49 -126T87 -59T113 19Q131 88 142 132T166 203T204 243T274 264V265Q259 270 251 280T240 306T237 346Q237 375 259 417T306 503Q327 541 343 578T359 645Q359 683 331 700T250 719L260 744Z" />
<glyph unicode="~" horiz-adv-x="530" d="M147 292L113 299Q124 343 152 362T216 381Q243 381 271 374T327 356Q353 347 377 340T422 332Q444 332 458 341T481 378L515 371Q505 327 476 308T412 289Q385 289 357 296T301 314Q276 323 252 330T206 338Q184 338
170 329T147 292Z" />
<glyph unicode="&#xa0;" horiz-adv-x="220" />
<glyph unicode="&#xa1;" horiz-adv-x="222" d="M152 289L-2 -170H-92L125 289H152ZM203 495Q226 495 242 479T259 439Q259 415 243 398T203 381Q179 381 162 398T145 439Q145 462 162 478T203 495Z" />
<glyph unicode="&#xa2;" horiz-adv-x="368" d="M-17 -85L340 526L363 514L7 -97L-17 -85ZM103 -8Q69 -8 46 16T22 87Q22 146 43 198T96 293T163 367Q198 399 235 416T302 434Q340 434 359 416T378 371Q378 350 370 340T345 329Q323 329 318 339T310 362Q309 374
304 384T281 394Q256 394 224 376T161 323T110 244T90 144Q90 87 104 67T144 46Q179 46 222 80T301 177L319 166Q294 123 258 83T182 18T103 -8Z" />
<glyph unicode="&#xa3;" horiz-adv-x="639" d="M-63 -99Q-71 -99 -80 -94T-89 -71Q-89 -40 -65 -10T-1 44T83 82T168 97Q207 97 231 85T270 53T295 12Q309 -16 325 -34T372 -52Q408 -52 429 -30T450 20Q450 28 449 35T446 49Q445 56 444 62T442 76Q442 97 458
109T493 121Q507 121 517 113T527 88Q527 61 511 31T468 -27T406 -71T332 -89Q293 -89 269 -75T230 -40T204 3Q191 30 177 51T136 72Q112 72 89 60T47 30T15 -4T-3 -27L-10 -28Q32 21 62 60T114 132T156 198Q182 242 208 290T278 402Q332 482 387 545T509 644T660
681Q712 681 740 661T769 606Q769 585 762 569T740 544T703 535Q687 535 675 545T663 568Q663 583 669 591T681 606Q687 612 692 618T697 633Q697 644 682 649T650 654Q610 654 571 629T489 553T397 426Q336 332 269 243T139 80Q116 54 88 23T31 -36T-22 -81T-63
-99ZM52 247L74 280H448L425 247H52Z" />
<glyph unicode="&#xa4;" horiz-adv-x="588" d="M130 128L104 160L191 240Q168 266 157 296T146 356Q146 420 189 475L107 551L133 579L224 500Q244 517 275 526T339 535Q366 535 395 526T441 503L528 580L554 553L474 479Q497 451 507 422T517 363Q517 332 506
301T475 238L557 161L531 129L439 212Q417 198 386 188T325 178Q294 178 268 187T222 213L130 128ZM330 213Q362 213 390 229T437 277T455 357Q455 421 421 461T331 501Q287 501 259 480T219 425T206 357Q206 309 224 277T270 229T330 213Z" />
<glyph unicode="&#xa5;" horiz-adv-x="706" d="M189 325L201 355H631L619 325H189ZM140 202L152 232H582L570 202H140ZM366 305L265 604Q258 624 247 634T211 649L183 654L191 673H490L483 656L428 648Q385 642 370 627T365 580L441 352H432L678 587Q701 609 703
622T683 641L626 655L633 673H887L880 655L839 649Q809 645 781 633T720 588L438 321L366 305ZM102 0L109 18L175 29Q205 34 220 39T245 56T263 88L360 330L454 340L353 88Q340 57 347 47T393 29L449 18L442 0H102Z" />
<glyph unicode="&#xa6;" horiz-adv-x="283" d="M169 340V691H210V340H169ZM210 -141H169V210H210V-141Z" />
<glyph unicode="&#xa7;" horiz-adv-x="438" d="M188 88L206 113Q240 114 269 133T317 185T335 253Q335 288 318 316T278 370Q252 399 228 432T203 514Q203 567 234 608T314 672T414 695Q471 695 497 676T523 629Q523 612 516 597T496 572T464 563Q448 563 440
570T432 588Q432 599 436 607T444 622Q449 628 452 634T455 646Q455 669 399 669Q364 669 337 650T294 600T278 532Q278 495 295 465T337 407Q360 379 382 344T405 272Q405 231 386 197T334 137T264 100T188 88ZM53 -199Q-12 -199 -45 -177T-78 -121Q-78 -102 -69
-82T-44 -49T-5 -35Q12 -35 20 -44T28 -65Q28 -78 22 -88T8 -107Q1 -115 -4 -121T-9 -136Q-9 -152 12 -163T63 -175Q97 -175 126 -157T173 -107T191 -39Q191 -2 176 29T138 89Q113 119 90 159T67 241Q67 290 97 327T175 386T272 408L268 383Q233 383 203 364T154
313T136 247Q136 212 154 184T196 126Q219 98 241 64T263 -11Q263 -48 248 -81T204 -141T137 -183T53 -199Z" />
<glyph unicode="&#xa8;" horiz-adv-x="530" d="M330 571Q310 571 295 586T279 622Q279 644 294 659T330 675Q352 675 367 660T383 622Q383 602 368 587T330 571ZM529 571Q509 571 494 586T478 622Q478 644 493 659T529 675Q551 675 566 660T582 622Q582 602 567
587T529 571Z" />
<glyph unicode="&#xa9;" horiz-adv-x="805" d="M455 3Q345 3 269 48T152 167T112 332Q112 399 135 461T204 572T312 651T455 680Q533 680 596 655T704 584T773 479T797 353Q797 286 774 223T707 111T599 32T455 3ZM459 152Q400 152 356 178T286 248T261 346Q261
403 288 446T361 514T457 538Q487 538 507 533T542 522Q553 518 563 516T584 513Q589 513 594 514T604 516L605 514Q603 501 603 479T613 419H593Q580 455 547 484T459 514Q401 514 369 469T336 348Q336 271 367 226T459 180Q503 180 537 197T593 273H614Q609 246
604 221T599 172H594Q583 172 568 170T534 163Q515 159 495 156T459 152ZM457 32Q542 32 610 73T718 186T758 349Q758 414 735 469T671 565T574 629T454 652Q390 652 335 626T239 555T175 453T152 335Q152 242 192 174T301 69T457 32Z" />
<glyph unicode="&#xaa;" horiz-adv-x="475" d="M191 370Q169 370 153 383T137 430Q137 460 153 493T196 561T254 626Q294 666 340 689T423 713Q440 713 451 708T469 695H470L517 725H525L401 447Q394 430 397 422T407 414Q417 414 432 425T469 460T515 517L533
505Q480 429 441 400T376 371Q360 371 350 384T351 426L368 472H364Q343 447 315 424T254 385T191 370ZM240 414Q262 414 287 430T336 473T381 529T413 589T425 640Q425 660 417 668T388 677Q366 677 338 662T281 618Q245 584 224 545T203 460Q203 435 213 425T240
414Z" />
<glyph unicode="&#xab;" horiz-adv-x="365" d="M257 66L173 200L178 212L366 338L378 331L237 203L273 75L257 66ZM104 66L20 200L25 212L213 338L225 331L84 203L120 75L104 66Z" />
<glyph unicode="&#xac;" horiz-adv-x="530" d="M479 228V391H102V429H518V228H479Z" />
<glyph unicode="&#xad;" horiz-adv-x="265" d="M49 315H274V255H49V315Z" />
<glyph unicode="&#xae;" horiz-adv-x="517" d="M356 231Q284 231 233 261T156 340T129 449Q129 493 144 534T190 609T262 661T356 680Q426 680 476 651T555 572T583 463Q583 404 556 351T478 264T356 231ZM358 257Q413 257 456 283T525 356T551 461Q551 516 525
560T455 629T356 655Q293 655 251 626T186 552T164 456Q164 406 186 361T251 286T358 257ZM473 350Q450 350 434 366T402 402Q386 422 371 437T327 453H320V389Q320 379 324 376T343 369L358 365V354H241V365L256 369Q270 373 274 376T278 389V550Q278 561 274
563T256 570L241 574V585H337Q388 585 414 568T440 521Q440 497 421 482T371 464V463Q394 463 411 446T443 408Q456 389 469 374T498 358V353Q494 351 486 351T473 350ZM320 470H337Q361 470 376 484T392 520Q392 545 375 558T333 572H320V470Z" />
<glyph unicode="&#xaf;" horiz-adv-x="530" d="M270 599L286 637H586L570 599H270Z" />
<glyph unicode="&#xb0;" horiz-adv-x="366" d="M318 416Q282 416 252 434T204 482T186 549Q186 585 204 615T252 663T318 681Q355 681 385 663T433 615T451 549Q451 513 433 483T385 434T318 416ZM317 457Q355 457 382 484T410 550Q410 588 383 615T317 643Q279
643 252 616T224 550Q224 512 251 485T317 457Z" />
<glyph unicode="&#xb1;" horiz-adv-x="530" d="M268 227V365H95V403H268V540H306V403H479V365H306V227H268ZM95 131V169H479V131H95Z" />
<glyph unicode="&#xb2;" horiz-adv-x="315" d="M89 349L91 355L223 444Q255 466 284 495T332 559T351 628Q351 648 340 658T309 668Q280 668 264 659T248 637Q248 627 251 622T255 607Q255 597 244 590T222 583Q213 583 204 588T194 607Q194 634 213 651T262 677T326
686Q364 686 396 673T428 625Q428 598 412 574T368 526T309 481T244 436L142 366L189 410H293Q310 410 318 415T340 437L353 454H367L309 349H89Z" />
<glyph unicode="&#xb3;" horiz-adv-x="323" d="M191 345Q151 345 128 362T104 409Q104 422 112 435T136 448Q151 448 156 441T162 425Q162 409 151 402T140 386Q140 376 155 370T193 363Q224 363 250 381T292 426T309 479Q309 499 298 511T259 525L218 513L216
527L244 537Q266 545 290 558T331 591T349 638Q349 653 340 660T314 668Q291 668 273 661T254 642Q254 635 258 629T262 612Q262 602 253 596T231 590Q221 590 213 595T204 612Q204 636 222 652T269 677T327 686Q366 686 391 673T416 633Q416 608 398 592T355 565T308
549L306 546Q345 544 364 524T383 478Q383 447 365 423T318 381T256 354T191 345Z" />
<glyph unicode="&#xb4;" horiz-adv-x="530" d="M349 543L337 559L499 698Q509 706 516 708T531 711Q544 711 552 703T561 683Q561 674 555 665T532 646L349 543Z" />
<glyph unicode="&#xb5;" horiz-adv-x="540" d="M-70 -260L171 336Q181 361 178 371T166 381Q154 381 133 361T86 311T39 248L23 257Q81 345 121 388T196 431Q220 431 235 411T233 351L127 92Q120 75 120 59T144 42Q166 42 202 71T280 153T363 275T434 424L497
433L358 85Q349 63 353 53T364 43Q376 43 396 59T442 105T496 178L512 168Q449 71 402 32T325 -7Q300 -7 290 12T291 59Q309 103 328 149T365 240H359Q342 210 314 168T250 85T176 17T100 -10Q97 -10 95 -10T89 -9L8 -242L-70 -260Z" />
<glyph unicode="&#xb6;" horiz-adv-x="641" d="M86 -229Q38 -229 5 -213T-45 -168T-62 -106Q-62 -66 -47 -26T-5 47T58 101T135 121Q168 121 183 105T198 66Q198 38 181 21T141 3Q110 3 101 15T91 42Q91 47 92 52T93 61Q93 64 91 66T84 68Q65 68 46 52T11 10T-14
-45T-24 -100Q-24 -150 10 -173T96 -196Q155 -196 205 -165T294 -79T362 44L439 235H348Q285 235 242 258T176 321T154 407Q154 466 178 514T251 598T368 653T526 673H782L776 658L710 647Q681 642 665 637T640 620T622 588L403 45Q372 -33 329 -95T226 -193T86
-229Z" />
<glyph unicode="&#xb7;" horiz-adv-x="265" d="M180 270Q155 270 136 289T117 333Q117 360 136 379T180 398Q207 398 226 379T245 333Q245 308 226 289T180 270Z" />
<glyph unicode="&#xb8;" horiz-adv-x="530" d="M-23 -247L-12 -221Q12 -218 39 -213T92 -199T133 -174T149 -135Q149 -116 130 -106T68 -94L133 0H165L137 -42Q178 -47 204 -61T230 -110Q230 -144 205 -169T141 -210T58 -236T-23 -247Z" />
<glyph unicode="&#xb9;" horiz-adv-x="277" d="M85 349L91 364L117 368Q142 372 152 374T168 384T179 406L276 647Q281 659 267 659L217 657L223 672L359 691L244 406Q235 384 238 379T276 368L298 364L292 349H85Z" />
<glyph unicode="&#xba;" horiz-adv-x="369" d="M262 372Q218 372 192 404T166 485Q166 519 180 558T219 632T279 690T354 713Q398 713 424 681T450 600Q450 566 436 527T397 453T337 395T262 372ZM259 393Q285 393 310 418T356 481T389 560T402 630Q402 657 390
673T358 689Q332 689 307 665T261 602T228 525T215 455Q215 428 227 411T259 393Z" />
<glyph unicode="&#xbb;" horiz-adv-x="365" d="M251 336L335 202L330 190L142 64L130 71L271 199L235 327L251 336ZM354 336L438 202L433 190L245 64L233 71L374 199L338 327L354 336Z" />
<glyph unicode="&#xbc;" horiz-adv-x="595" d="M363 0L466 256L501 277L305 109L297 116H481Q492 116 496 119T508 131L522 149H534L487 63H222L226 72L545 342H561L423 0H363ZM85 349L91 364L117 368Q142 372 152 374T168 384T179 406L276 647Q281 659 267 659L217
657L223 672L359 691L244 406Q235 384 238 379T276 368L298 364L292 349H85ZM-21 0L680 683H735L35 0H-21Z" />
<glyph unicode="&#xbd;" horiz-adv-x="639" d="M85 349L91 364L117 368Q142 372 152 374T168 384T179 406L276 647Q281 659 267 659L217 657L223 672L359 691L244 406Q235 384 238 379T276 368L298 364L292 349H85ZM-21 0L680 683H735L35 0H-21ZM267 0L269 6L401
95Q433 117 462 146T510 210T529 279Q529 299 518 309T487 319Q458 319 442 310T426 288Q426 278 429 273T433 258Q433 248 422 241T400 234Q391 234 382 239T372 258Q372 285 391 302T440 328T504 337Q542 337 574 324T606 276Q606 249 590 225T546 177T487 132T422
87L320 17L367 61H471Q488 61 496 66T518 88L531 105H545L487 0H267Z" />
<glyph unicode="&#xbe;" horiz-adv-x="645" d="M403 0L506 256L541 277L345 109L337 116H521Q532 116 536 119T548 131L562 149H574L527 63H262L266 72L585 342H601L463 0H403ZM28 0L729 683H784L84 0H28ZM191 345Q151 345 128 362T104 409Q104 422 112 435T136
448Q151 448 156 441T162 425Q162 409 151 402T140 386Q140 376 155 370T193 363Q224 363 250 381T292 426T309 479Q309 499 298 511T259 525L218 513L216 527L244 537Q266 545 290 558T331 591T349 638Q349 653 340 660T314 668Q291 668 273 661T254 642Q254 635
258 629T262 612Q262 602 253 596T231 590Q221 590 213 595T204 612Q204 636 222 652T269 677T327 686Q366 686 391 673T416 633Q416 608 398 592T355 565T308 549L306 546Q345 544 364 524T383 478Q383 447 365 423T318 381T256 354T191 345Z" />
<glyph unicode="&#xbf;" horiz-adv-x="364" d="M306 286Q282 226 258 193T202 143T120 119Q81 113 60 104T27 81T5 42Q-4 18 -4 4Q-4 -26 33 -33L188 -65L139 -188H121L128 -162Q133 -142 128 -133T109 -121L20 -104Q-12 -98 -28 -83T-44 -39Q-44 -10 -24 41Q4
109 45 150T160 201Q198 206 220 216T255 244T279 286H306ZM348 491Q371 491 387 475T404 435Q404 411 388 394T348 377Q324 377 307 394T290 435Q290 458 307 474T348 491Z" />
<glyph unicode="&#xc0;" horiz-adv-x="757" d="M-81 0L-72 18L-20 26Q17 32 42 45T89 84L546 595L548 635Q568 636 586 647T617 673T636 698H645L592 107Q588 63 599 48T638 26L673 18L664 0H358L367 18L426 27Q472 34 488 48T508 102L547 564H555L123 82Q102
60 100 48T126 30L184 18L175 0H-81ZM247 229L270 261H563L547 229H247ZM717 734L578 799Q562 806 555 818Q549 832 555 844T573 863Q581 867 590 867T609 858L731 753L717 734Z" />
<glyph unicode="&#xc1;" horiz-adv-x="757" d="M-81 0L-72 18L-20 26Q17 32 42 45T89 84L546 595L548 635Q568 636 586 647T617 673T636 698H645L592 107Q588 63 599 48T638 26L673 18L664 0H358L367 18L426 27Q472 34 488 48T508 102L547 564H555L123 82Q102
60 100 48T126 30L184 18L175 0H-81ZM247 229L270 261H563L547 229H247ZM573 738L565 757L758 849Q769 854 777 854T792 853Q805 850 811 840T814 818Q812 810 803 803T776 790L573 738Z" />
<glyph unicode="&#xc2;" horiz-adv-x="757" d="M-81 0L-72 18L-20 26Q17 32 42 45T89 84L546 595L548 635Q568 636 586 647T617 673T636 698H645L592 107Q588 63 599 48T638 26L673 18L664 0H358L367 18L426 27Q472 34 488 48T508 102L547 564H555L123 82Q102
60 100 48T126 30L184 18L175 0H-81ZM247 229L270 261H563L547 229H247ZM518 725L503 742L687 863H714L781 738L757 725L677 795L518 725Z" />
<glyph unicode="&#xc3;" horiz-adv-x="757" d="M-81 0L-72 18L-20 26Q17 32 42 45T89 84L546 595L548 635Q568 636 586 647T617 673T636 698H645L592 107Q588 63 599 48T638 26L673 18L664 0H358L367 18L426 27Q472 34 488 48T508 102L547 564H555L123 82Q102
60 100 48T126 30L184 18L175 0H-81ZM247 229L270 261H563L547 229H247ZM351 718L357 732H367Q401 732 419 737T448 751T474 775Q505 806 540 829T618 867T713 881Q764 881 794 866T839 827T861 772Q864 758 868 749T888 736T938 732H948L942 718H821Q830 750 819
776T778 819T694 835Q641 835 597 820T520 778T472 718H351Z" />
<glyph unicode="&#xc4;" horiz-adv-x="757" d="M-81 0L-72 18L-20 26Q17 32 42 45T89 84L546 595L548 635Q568 636 586 647T617 673T636 698H645L592 107Q588 63 599 48T638 26L673 18L664 0H358L367 18L426 27Q472 34 488 48T508 102L547 564H555L123 82Q102
60 100 48T126 30L184 18L175 0H-81ZM247 229L270 261H563L547 229H247ZM550 746Q530 746 515 761T499 797Q499 819 514 834T550 850Q572 850 587 835T603 797Q603 777 588 762T550 746ZM749 746Q729 746 714 761T698 797Q698 819 713 834T749 850Q771 850 786
835T802 797Q802 777 787 762T749 746Z" />
<glyph unicode="&#xc5;" horiz-adv-x="757" d="M-81 0L-72 18L-20 26Q17 32 42 45T89 84L546 595L548 635Q568 636 586 647T617 673T636 698H645L592 107Q588 63 599 48T638 26L673 18L664 0H358L367 18L426 27Q472 34 488 48T508 102L547 564H555L123 82Q102
60 100 48T126 30L184 18L175 0H-81ZM247 229L270 261H563L547 229H247ZM733 776Q733 739 707 712T642 685Q605 685 578 712T551 776Q551 814 578 840T642 867Q680 867 706 841T733 776ZM696 776Q696 799 681 814T643 830Q621 830 605 815T588 776Q588 754 604
738T643 722Q666 722 681 738T696 776Z" />
<glyph unicode="&#xc6;" horiz-adv-x="1030" d="M-81 0L-72 18L-20 26Q17 32 40 47T89 84L666 595L675 564L123 82Q100 62 99 49T126 30L184 18L175 0H-81ZM277 229L300 261H563L547 229H277ZM299 0L306 18L372 29Q402 34 418 39T443 56T460 88L660 585Q673 617
666 627T620 644L564 655L571 673H1140Q1131 659 1124 645T1111 617Q1097 580 1091 549T1078 496H1058Q1061 540 1056 574T1026 629T951 649H777L664 369H823Q858 369 879 377T917 402T950 447L978 494H996L883 216H865L875 263Q884 305 874 323T812 341H653L551
90Q542 66 542 52T556 31T603 25H695Q736 25 777 41T854 81T911 129L958 180H977Q946 134 921 87T878 0H299Z" />
<glyph unicode="&#xc7;" horiz-adv-x="767" d="M390 -8Q302 -8 238 28T138 125T102 255Q102 339 137 416T235 553T381 647T559 682Q616 682 662 674T733 656Q753 649 769 644T806 638Q817 638 825 640T843 643L845 641Q828 602 822 561T818 469H798Q784 521 756
563T678 631T549 657Q485 657 431 633T333 566T259 471T212 361T195 248Q195 135 253 77T402 18Q423 18 458 23T534 48T616 105T694 207H714Q696 159 680 113T655 27Q655 27 651 27T638 28Q625 28 601 24T547 14Q507 7 465 0T390 -8ZM199 -247L210 -221Q234 -218
261 -213T314 -199T355 -174T371 -135Q371 -116 352 -106T290 -94L355 0H387L359 -42Q400 -47 426 -61T452 -110Q452 -144 427 -169T363 -210T280 -236T199 -247Z" />
<glyph unicode="&#xc8;" horiz-adv-x="685" d="M-46 0L-39 18L27 29Q57 34 73 39T98 56T115 88L315 585Q328 617 321 627T275 644L219 655L226 673H795Q786 659 779 645T766 617Q752 580 746 549T733 496H713Q716 540 711 574T681 629T606 649H432L319 369H478Q513
369 534 377T572 402T605 447L633 494H651L538 216H520L530 263Q539 305 529 323T467 341H308L206 90Q197 66 197 52T211 31T258 25H350Q391 25 432 41T509 81T566 129L613 180H632Q601 134 576 87T533 0H-46ZM649 734L510 799Q494 806 487 818Q481 832 487 844T505
863Q513 867 522 867T541 858L663 753L649 734Z" />
<glyph unicode="&#xc9;" horiz-adv-x="685" d="M-46 0L-39 18L27 29Q57 34 73 39T98 56T115 88L315 585Q328 617 321 627T275 644L219 655L226 673H795Q786 659 779 645T766 617Q752 580 746 549T733 496H713Q716 540 711 574T681 629T606 649H432L319 369H478Q513
369 534 377T572 402T605 447L633 494H651L538 216H520L530 263Q539 305 529 323T467 341H308L206 90Q197 66 197 52T211 31T258 25H350Q391 25 432 41T509 81T566 129L613 180H632Q601 134 576 87T533 0H-46ZM505 738L497 757L690 849Q701 854 709 854T724 853Q737
850 743 840T746 818Q744 810 735 803T708 790L505 738Z" />
<glyph unicode="&#xca;" horiz-adv-x="685" d="M-46 0L-39 18L27 29Q57 34 73 39T98 56T115 88L315 585Q328 617 321 627T275 644L219 655L226 673H795Q786 659 779 645T766 617Q752 580 746 549T733 496H713Q716 540 711 574T681 629T606 649H432L319 369H478Q513
369 534 377T572 402T605 447L633 494H651L538 216H520L530 263Q539 305 529 323T467 341H308L206 90Q197 66 197 52T211 31T258 25H350Q391 25 432 41T509 81T566 129L613 180H632Q601 134 576 87T533 0H-46ZM450 725L435 742L619 863H646L713 738L689 725L609
795L450 725Z" />
<glyph unicode="&#xcb;" horiz-adv-x="685" d="M-46 0L-39 18L27 29Q57 34 73 39T98 56T115 88L315 585Q328 617 321 627T275 644L219 655L226 673H795Q786 659 779 645T766 617Q752 580 746 549T733 496H713Q716 540 711 574T681 629T606 649H432L319 369H478Q513
369 534 377T572 402T605 447L633 494H651L538 216H520L530 263Q539 305 529 323T467 341H308L206 90Q197 66 197 52T211 31T258 25H350Q391 25 432 41T509 81T566 129L613 180H632Q601 134 576 87T533 0H-46ZM482 746Q462 746 447 761T431 797Q431 819 446 834T482
850Q504 850 519 835T535 797Q535 777 520 762T482 746ZM681 746Q661 746 646 761T630 797Q630 819 645 834T681 850Q703 850 718 835T734 797Q734 777 719 762T681 746Z" />
<glyph unicode="&#xcc;" horiz-adv-x="420" d="M-46 0L-39 18L27 29Q57 34 73 39T98 56T115 88L315 585Q328 617 321 627T275 644L219 655L226 673H566L559 655L493 644Q464 639 448 634T423 617T405 585L205 88Q192 57 199 47T245 29L301 18L294 0H-46ZM742 734L603
799Q587 806 580 818Q574 832 580 844T598 863Q606 867 615 867T634 858L756 753L742 734Z" />
<glyph unicode="&#xcd;" horiz-adv-x="420" d="M-46 0L-39 18L27 29Q57 34 73 39T98 56T115 88L315 585Q328 617 321 627T275 644L219 655L226 673H566L559 655L493 644Q464 639 448 634T423 617T405 585L205 88Q192 57 199 47T245 29L301 18L294 0H-46ZM598 738L590
757L783 849Q794 854 802 854T817 853Q830 850 836 840T839 818Q837 810 828 803T801 790L598 738Z" />
<glyph unicode="&#xce;" horiz-adv-x="420" d="M-46 0L-39 18L27 29Q57 34 73 39T98 56T115 88L315 585Q328 617 321 627T275 644L219 655L226 673H566L559 655L493 644Q464 639 448 634T423 617T405 585L205 88Q192 57 199 47T245 29L301 18L294 0H-46ZM543 725L528
742L712 863H739L806 738L782 725L702 795L543 725Z" />
<glyph unicode="&#xcf;" horiz-adv-x="420" d="M-46 0L-39 18L27 29Q57 34 73 39T98 56T115 88L315 585Q328 617 321 627T275 644L219 655L226 673H566L559 655L493 644Q464 639 448 634T423 617T405 585L205 88Q192 57 199 47T245 29L301 18L294 0H-46ZM319 746Q299
746 284 761T268 797Q268 819 283 834T319 850Q341 850 356 835T372 797Q372 777 357 762T319 746ZM518 746Q498 746 483 761T467 797Q467 819 482 834T518 850Q540 850 555 835T571 797Q571 777 556 762T518 746Z" />
<glyph unicode="&#xd0;" horiz-adv-x="805" d="M85 321L99 356H442L428 321H85ZM-46 0L-39 18L27 29Q57 34 73 39T98 56T115 88L315 585Q328 617 321 627T275 644L219 655L226 673H519Q604 673 670 643T774 553T812 406Q812 327 776 254T674 124T521 34T334 0H-46ZM305
24Q397 24 473 52T605 135T691 267T722 446Q722 512 696 557T627 626T528 649H431L203 83Q190 49 212 37T305 24Z" />
<glyph unicode="&#xd1;" horiz-adv-x="856" d="M606 -16L340 567L148 95Q135 64 141 51T185 29L242 18L234 0H-45L-37 18L28 29Q58 34 74 40T99 59T117 92L314 578Q323 601 324 613T312 633T263 647L219 656L226 673H390L642 122L825 578Q838 610 832 623T787
644L731 655L738 673H1017L1010 655L944 644Q915 639 899 633T873 614T855 581L614 -16H606ZM327 718L333 732H343Q377 732 395 737T424 751T450 775Q481 806 516 829T594 867T689 881Q740 881 770 866T815 827T837 772Q840 758 844 749T864 736T914 732H924L918
718H797Q806 750 795 776T754 819T670 835Q617 835 573 820T496 778T448 718H327Z" />
<glyph unicode="&#xd2;" horiz-adv-x="822" d="M400 -8Q319 -8 252 25T145 119T105 266Q105 353 142 428T241 561T378 650T532 682Q614 682 680 649T787 555T827 408Q827 321 790 246T691 113T554 24T400 -8ZM394 17Q443 17 491 35T584 90T661 178T714 298T734
446Q734 512 708 559T638 632T540 658Q491 658 442 639T349 584T271 495T218 375T198 226Q198 161 224 114T295 42T394 17ZM643 734L504 799Q488 806 481 818Q475 832 481 844T499 863Q507 867 516 867T535 858L657 753L643 734Z" />
<glyph unicode="&#xd3;" horiz-adv-x="822" d="M400 -8Q319 -8 252 25T145 119T105 266Q105 353 142 428T241 561T378 650T532 682Q614 682 680 649T787 555T827 408Q827 321 790 246T691 113T554 24T400 -8ZM394 17Q443 17 491 35T584 90T661 178T714 298T734
446Q734 512 708 559T638 632T540 658Q491 658 442 639T349 584T271 495T218 375T198 226Q198 161 224 114T295 42T394 17ZM499 738L491 757L684 849Q695 854 703 854T718 853Q731 850 737 840T740 818Q738 810 729 803T702 790L499 738Z" />
<glyph unicode="&#xd4;" horiz-adv-x="822" d="M400 -8Q319 -8 252 25T145 119T105 266Q105 353 142 428T241 561T378 650T532 682Q614 682 680 649T787 555T827 408Q827 321 790 246T691 113T554 24T400 -8ZM394 17Q443 17 491 35T584 90T661 178T714 298T734
446Q734 512 708 559T638 632T540 658Q491 658 442 639T349 584T271 495T218 375T198 226Q198 161 224 114T295 42T394 17ZM444 725L429 742L613 863H640L707 738L683 725L603 795L444 725Z" />
<glyph unicode="&#xd5;" horiz-adv-x="822" d="M400 -8Q319 -8 252 25T145 119T105 266Q105 353 142 428T241 561T378 650T532 682Q614 682 680 649T787 555T827 408Q827 321 790 246T691 113T554 24T400 -8ZM394 17Q443 17 491 35T584 90T661 178T714 298T734
446Q734 512 708 559T638 632T540 658Q491 658 442 639T349 584T271 495T218 375T198 226Q198 161 224 114T295 42T394 17ZM277 718L283 732H293Q327 732 345 737T374 751T400 775Q431 806 466 829T544 867T639 881Q690 881 720 866T765 827T787 772Q790 758 794
749T814 736T864 732H874L868 718H747Q756 750 745 776T704 819T620 835Q567 835 523 820T446 778T398 718H277Z" />
<glyph unicode="&#xd6;" horiz-adv-x="822" d="M400 -8Q319 -8 252 25T145 119T105 266Q105 353 142 428T241 561T378 650T532 682Q614 682 680 649T787 555T827 408Q827 321 790 246T691 113T554 24T400 -8ZM394 17Q443 17 491 35T584 90T661 178T714 298T734
446Q734 512 708 559T638 632T540 658Q491 658 442 639T349 584T271 495T218 375T198 226Q198 161 224 114T295 42T394 17ZM476 746Q456 746 441 761T425 797Q425 819 440 834T476 850Q498 850 513 835T529 797Q529 777 514 762T476 746ZM675 746Q655 746 640 761T624
797Q624 819 639 834T675 850Q697 850 712 835T728 797Q728 777 713 762T675 746Z" />
<glyph unicode="&#xd7;" horiz-adv-x="530" d="M184 177L157 204L287 335L157 464L184 491L314 362L444 491L471 464L341 335L470 204L443 177L314 308L184 177Z" />
<glyph unicode="&#xd8;" horiz-adv-x="829" d="M-1 -8L-22 22L936 681L958 651L-1 -8ZM407 -8Q326 -8 259 25T152 119T112 266Q112 353 149 428T248 561T385 650T539 682Q621 682 687 649T794 555T834 408Q834 321 797 246T698 113T561 24T407 -8ZM401 17Q450
17 498 35T591 90T668 178T721 298T741 446Q741 512 715 559T645 632T547 658Q498 658 449 639T356 584T278 495T225 375T205 226Q205 161 231 114T302 42T401 17Z" />
<glyph unicode="&#xd9;" horiz-adv-x="792" d="M313 -13Q235 -13 191 19T138 107T158 231L301 585Q314 617 306 627T260 644L204 655L211 673H551L544 655L478 644Q449 639 433 634T409 617T391 585L248 232Q212 143 236 90T354 37Q415 37 466 61T558 129T623
236L761 578Q774 610 768 623T723 644L667 655L674 673H953L946 655L880 644Q851 639 835 633T809 614T791 581L602 110Q583 110 564 96T518 63Q483 38 434 13T313 -13ZM699 734L560 799Q544 806 537 818Q531 832 537 844T555 863Q563 867 572 867T591 858L713
753L699 734Z" />
<glyph unicode="&#xda;" horiz-adv-x="792" d="M313 -13Q235 -13 191 19T138 107T158 231L301 585Q314 617 306 627T260 644L204 655L211 673H551L544 655L478 644Q449 639 433 634T409 617T391 585L248 232Q212 143 236 90T354 37Q415 37 466 61T558 129T623
236L761 578Q774 610 768 623T723 644L667 655L674 673H953L946 655L880 644Q851 639 835 633T809 614T791 581L602 110Q583 110 564 96T518 63Q483 38 434 13T313 -13ZM555 738L547 757L740 849Q751 854 759 854T774 853Q787 850 793 840T796 818Q794 810 785
803T758 790L555 738Z" />
<glyph unicode="&#xdb;" horiz-adv-x="792" d="M313 -13Q235 -13 191 19T138 107T158 231L301 585Q314 617 306 627T260 644L204 655L211 673H551L544 655L478 644Q449 639 433 634T409 617T391 585L248 232Q212 143 236 90T354 37Q415 37 466 61T558 129T623
236L761 578Q774 610 768 623T723 644L667 655L674 673H953L946 655L880 644Q851 639 835 633T809 614T791 581L602 110Q583 110 564 96T518 63Q483 38 434 13T313 -13ZM500 725L485 742L669 863H696L763 738L739 725L659 795L500 725Z" />
<glyph unicode="&#xdc;" horiz-adv-x="792" d="M313 -13Q235 -13 191 19T138 107T158 231L301 585Q314 617 306 627T260 644L204 655L211 673H551L544 655L478 644Q449 639 433 634T409 617T391 585L248 232Q212 143 236 90T354 37Q415 37 466 61T558 129T623
236L761 578Q774 610 768 623T723 644L667 655L674 673H953L946 655L880 644Q851 639 835 633T809 614T791 581L602 110Q583 110 564 96T518 63Q483 38 434 13T313 -13ZM532 746Q512 746 497 761T481 797Q481 819 496 834T532 850Q554 850 569 835T585 797Q585
777 570 762T532 746ZM731 746Q711 746 696 761T680 797Q680 819 695 834T731 850Q753 850 768 835T784 797Q784 777 769 762T731 746Z" />
<glyph unicode="&#xdd;" horiz-adv-x="706" d="M366 305L265 604Q258 624 247 634T211 649L183 654L191 673H490L483 656L428 648Q385 642 370 627T365 580L441 352H432L678 587Q701 609 703 622T683 641L626 655L633 673H887L880 655L839 649Q809 645 781 633T720
588L438 321L366 305ZM102 0L109 18L175 29Q205 34 220 39T245 56T263 88L360 330L454 340L353 88Q340 57 347 47T393 29L449 18L442 0H102ZM505 738L497 757L690 849Q701 854 709 854T724 853Q737 850 743 840T746 818Q744 810 735 803T708 790L505 738Z" />
<glyph unicode="&#xde;" horiz-adv-x="612" d="M-46 0L-39 18L27 29Q57 34 73 39T98 56T115 88L315 585Q328 617 321 627T275 644L219 655L226 673H566L559 655L493 644Q464 639 448 634T423 617T405 585L388 543H439Q539 543 594 507T649 410Q649 364 623 321T552
245T454 192T344 172Q315 172 288 180L292 187Q332 189 377 205T461 250T525 323T550 421Q550 471 515 495T414 519H378L205 88Q192 57 199 47T245 29L301 18L294 0H-46Z" />
<glyph unicode="&#xdf;" horiz-adv-x="559" d="M-92 -247Q-119 -247 -144 -237T-185 -210T-201 -173Q-201 -150 -188 -139T-157 -127Q-140 -127 -127 -138T-113 -187Q-113 -206 -104 -214T-82 -222Q-34 -222 -8 -137L186 501Q221 616 270 663T390 711Q455 711
487 683T520 611Q520 573 506 548T472 504T430 465T395 417T381 345Q381 316 397 291T432 241Q453 214 471 184T489 114Q489 74 468 47T415 5T347 -9Q313 -9 283 2T235 40T217 108Q217 137 231 150T262 164Q278 164 290 154T303 124Q303 114 299 107T289 93Q283
86 278 80T272 63Q272 39 292 27T345 14Q379 14 404 33T430 96Q430 128 415 154T379 205Q359 232 342 261T324 327Q324 369 337 396T370 443T410 486T443 539T457 618Q457 647 443 666T392 685Q357 685 333 669T290 615T253 516L55 -138Q44 -138 37 -149T19 -178Q3
-202 -24 -224T-92 -247ZM83 398L95 426H213L201 398H83Z" />
<glyph unicode="&#xe0;" horiz-adv-x="490" d="M65 -8Q40 -8 21 8T1 70Q1 108 20 151T70 238T139 322Q186 372 239 403T335 434Q355 434 368 428T389 410H391L445 449H455L308 85Q299 63 303 53T314 43Q326 43 346 59T392 105T446 178L462 168Q400 71 355 32T281
-7Q262 -7 250 10T251 65L272 123H266Q242 91 209 61T139 12T65 -8ZM119 44Q145 44 175 65T234 120T288 194T326 272T341 339Q341 364 330 376T295 389Q269 389 236 371T169 316Q128 272 102 216T76 102Q76 71 88 58T119 44ZM623 548L527 667Q515 682 515 695Q515
709 526 718T550 727Q559 727 567 723T580 707L644 559L623 548Z" />
<glyph unicode="&#xe1;" horiz-adv-x="490" d="M65 -8Q40 -8 21 8T1 70Q1 108 20 151T70 238T139 322Q186 372 239 403T335 434Q355 434 368 428T389 410H391L445 449H455L308 85Q299 63 303 53T314 43Q326 43 346 59T392 105T446 178L462 168Q400 71 355 32T281
-7Q262 -7 250 10T251 65L272 123H266Q242 91 209 61T139 12T65 -8ZM119 44Q145 44 175 65T234 120T288 194T326 272T341 339Q341 364 330 376T295 389Q269 389 236 371T169 316Q128 272 102 216T76 102Q76 71 88 58T119 44ZM593 543L581 559L743 698Q753 706 760
708T775 711Q788 711 796 703T805 683Q805 674 799 665T776 646L593 543Z" />
<glyph unicode="&#xe2;" horiz-adv-x="490" d="M65 -8Q40 -8 21 8T1 70Q1 108 20 151T70 238T139 322Q186 372 239 403T335 434Q355 434 368 428T389 410H391L445 449H455L308 85Q299 63 303 53T314 43Q326 43 346 59T392 105T446 178L462 168Q400 71 355 32T281
-7Q262 -7 250 10T251 65L272 123H266Q242 91 209 61T139 12T65 -8ZM119 44Q145 44 175 65T234 120T288 194T326 272T341 339Q341 364 330 376T295 389Q269 389 236 371T169 316Q128 272 102 216T76 102Q76 71 88 58T119 44ZM687 692L760 550L744 539L656 616L501
540L489 553L671 692H687Z" />
<glyph unicode="&#xe3;" horiz-adv-x="490" d="M65 -8Q40 -8 21 8T1 70Q1 108 20 151T70 238T139 322Q186 372 239 403T335 434Q355 434 368 428T389 410H391L445 449H455L308 85Q299 63 303 53T314 43Q326 43 346 59T392 105T446 178L462 168Q400 71 355 32T281
-7Q262 -7 250 10T251 65L272 123H266Q242 91 209 61T139 12T65 -8ZM119 44Q145 44 175 65T234 120T288 194T326 272T341 339Q341 364 330 376T295 389Q269 389 236 371T169 316Q128 272 102 216T76 102Q76 71 88 58T119 44ZM509 523L490 527Q500 572 517 597T555
631T600 641Q618 641 634 637T666 629Q678 627 693 624T720 621Q737 621 749 627T762 650Q762 658 755 660T738 663Q719 665 711 673T703 698Q703 712 713 721T739 730Q767 730 779 713T792 673Q792 633 770 604T689 575Q680 575 671 576T650 578Q633 581 618 583T588
586Q555 586 539 572T509 523Z" />
<glyph unicode="&#xe4;" horiz-adv-x="490" d="M65 -8Q40 -8 21 8T1 70Q1 108 20 151T70 238T139 322Q186 372 239 403T335 434Q355 434 368 428T389 410H391L445 449H455L308 85Q299 63 303 53T314 43Q326 43 346 59T392 105T446 178L462 168Q400 71 355 32T281
-7Q262 -7 250 10T251 65L272 123H266Q242 91 209 61T139 12T65 -8ZM119 44Q145 44 175 65T234 120T288 194T326 272T341 339Q341 364 330 376T295 389Q269 389 236 371T169 316Q128 272 102 216T76 102Q76 71 88 58T119 44ZM554 571Q534 571 519 586T503 622Q503
644 518 659T554 675Q576 675 591 660T607 622Q607 602 592 587T554 571ZM753 571Q733 571 718 586T702 622Q702 644 717 659T753 675Q775 675 790 660T806 622Q806 602 791 587T753 571Z" />
<glyph unicode="&#xe5;" horiz-adv-x="490" d="M65 -8Q40 -8 21 8T1 70Q1 108 20 151T70 238T139 322Q186 372 239 403T335 434Q355 434 368 428T389 410H391L445 449H455L308 85Q299 63 303 53T314 43Q326 43 346 59T392 105T446 178L462 168Q400 71 355 32T281
-7Q262 -7 250 10T251 65L272 123H266Q242 91 209 61T139 12T65 -8ZM119 44Q145 44 175 65T234 120T288 194T326 272T341 339Q341 364 330 376T295 389Q269 389 236 371T169 316Q128 272 102 216T76 102Q76 71 88 58T119 44ZM714 616Q714 586 699 561T659 520T603
505Q573 505 548 520T507 560T492 616Q492 647 507 672T547 712T603 727Q634 727 659 712T699 672T714 616ZM674 616Q674 645 654 666T604 687Q575 687 554 666T532 616Q532 587 553 566T604 545Q633 545 653 566T674 616Z" />
<glyph unicode="&#xe6;" horiz-adv-x="635" d="M65 -8Q40 -8 21 8T1 70Q1 108 20 151T70 238T139 322Q186 372 239 403T335 434Q355 434 368 428T389 410H391L445 449H455L344 175L306 179Q276 129 236 87T151 18T65 -8ZM119 44Q145 44 175 65T234 120T288 194T326
272T341 339Q341 364 330 376T295 389Q269 389 236 371T169 316Q128 272 102 216T76 102Q76 71 88 58T119 44ZM369 -8Q326 -8 307 21T287 93Q287 142 305 194T356 294T430 376Q462 402 498 418T573 434Q605 434 621 418T637 377Q637 345 608 309T515 244T352 204L356
227Q430 233 477 256T548 308T571 359Q571 392 536 392Q514 392 484 377T425 330T376 251T356 137Q356 97 366 72T412 46Q433 46 460 62T516 108T565 177L584 166Q558 119 521 80T443 16T369 -8Z" />
<glyph unicode="&#xe7;" horiz-adv-x="368" d="M103 -8Q69 -8 46 16T22 87Q22 146 43 198T96 293T163 367Q198 399 235 416T302 434Q340 434 359 416T378 371Q378 350 370 340T345 329Q323 329 318 339T310 362Q309 374 304 384T281 394Q256 394 224 376T161 323T110
244T90 144Q90 87 104 67T144 46Q179 46 222 80T301 177L319 166Q294 123 258 83T182 18T103 -8ZM189 -247L200 -221Q224 -218 251 -213T304 -199T345 -174T361 -135Q361 -116 342 -106T280 -94L345 0H377L349 -42Q390 -47 416 -61T442 -110Q442 -144 417 -169T353
-210T270 -236T189 -247Z" />
<glyph unicode="&#xe8;" horiz-adv-x="373" d="M107 -8Q64 -8 45 21T25 93Q25 142 43 194T93 294T168 376Q200 402 236 418T311 434Q343 434 359 418T375 377Q375 345 346 309T253 244T90 204L94 227Q168 233 215 256T286 308T309 359Q309 392 274 392Q252 392
222 377T163 330T114 251T94 137Q94 97 104 72T150 46Q171 46 198 62T254 108T303 177L322 166Q296 119 259 80T181 16T107 -8ZM334 548L238 667Q226 682 226 695Q226 709 237 718T261 727Q270 727 278 723T291 707L355 559L334 548Z" />
<glyph unicode="&#xe9;" horiz-adv-x="373" d="M107 -8Q64 -8 45 21T25 93Q25 142 43 194T93 294T168 376Q200 402 236 418T311 434Q343 434 359 418T375 377Q375 345 346 309T253 244T90 204L94 227Q168 233 215 256T286 308T309 359Q309 392 274 392Q252 392
222 377T163 330T114 251T94 137Q94 97 104 72T150 46Q171 46 198 62T254 108T303 177L322 166Q296 119 259 80T181 16T107 -8ZM560 543L548 559L710 698Q720 706 727 708T742 711Q755 711 763 703T772 683Q772 674 766 665T743 646L560 543Z" />
<glyph unicode="&#xea;" horiz-adv-x="373" d="M107 -8Q64 -8 45 21T25 93Q25 142 43 194T93 294T168 376Q200 402 236 418T311 434Q343 434 359 418T375 377Q375 345 346 309T253 244T90 204L94 227Q168 233 215 256T286 308T309 359Q309 392 274 392Q252 392
222 377T163 330T114 251T94 137Q94 97 104 72T150 46Q171 46 198 62T254 108T303 177L322 166Q296 119 259 80T181 16T107 -8ZM654 692L727 550L711 539L623 616L468 540L456 553L638 692H654Z" />
<glyph unicode="&#xeb;" horiz-adv-x="373" d="M107 -8Q64 -8 45 21T25 93Q25 142 43 194T93 294T168 376Q200 402 236 418T311 434Q343 434 359 418T375 377Q375 345 346 309T253 244T90 204L94 227Q168 233 215 256T286 308T309 359Q309 392 274 392Q252 392
222 377T163 330T114 251T94 137Q94 97 104 72T150 46Q171 46 198 62T254 108T303 177L322 166Q296 119 259 80T181 16T107 -8ZM521 571Q501 571 486 586T470 622Q470 644 485 659T521 675Q543 675 558 660T574 622Q574 602 559 587T521 571ZM720 571Q700 571 685
586T669 622Q669 644 684 659T720 675Q742 675 757 660T773 622Q773 602 758 587T720 571Z" />
<glyph unicode="&#xec;" horiz-adv-x="319" d="M105 -7Q80 -7 68 12T66 59L177 339Q187 364 184 374T172 384Q160 384 139 364T92 314T45 251L29 260Q90 348 131 391T210 434Q234 434 249 414T249 354L142 85Q133 63 137 53T148 43Q160 43 180 59T226 105T280
178L296 168Q232 71 184 32T105 -7ZM267 548L171 667Q159 682 159 695Q159 709 170 718T194 727Q203 727 211 723T224 707L288 559L267 548Z" />
<glyph unicode="&#xed;" horiz-adv-x="319" d="M105 -7Q80 -7 68 12T66 59L177 339Q187 364 184 374T172 384Q160 384 139 364T92 314T45 251L29 260Q90 348 131 391T210 434Q234 434 249 414T249 354L142 85Q133 63 137 53T148 43Q160 43 180 59T226 105T280
178L296 168Q232 71 184 32T105 -7ZM493 543L481 559L643 698Q653 706 660 708T675 711Q688 711 696 703T705 683Q705 674 699 665T676 646L493 543Z" />
<glyph unicode="&#xee;" horiz-adv-x="319" d="M105 -7Q80 -7 68 12T66 59L177 339Q187 364 184 374T172 384Q160 384 139 364T92 314T45 251L29 260Q90 348 131 391T210 434Q234 434 249 414T249 354L142 85Q133 63 137 53T148 43Q160 43 180 59T226 105T280
178L296 168Q232 71 184 32T105 -7ZM331 692L404 550L388 539L300 616L145 540L133 553L315 692H331Z" />
<glyph unicode="&#xef;" horiz-adv-x="319" d="M105 -7Q80 -7 68 12T66 59L177 339Q187 364 184 374T172 384Q160 384 139 364T92 314T45 251L29 260Q90 348 131 391T210 434Q234 434 249 414T249 354L142 85Q133 63 137 53T148 43Q160 43 180 59T226 105T280
178L296 168Q232 71 184 32T105 -7ZM198 571Q178 571 163 586T147 622Q147 644 162 659T198 675Q220 675 235 660T251 622Q251 602 236 587T198 571ZM397 571Q377 571 362 586T346 622Q346 644 361 659T397 675Q419 675 434 660T450 622Q450 602 435 587T397 571Z"
/>
<glyph unicode="&#xf0;" horiz-adv-x="494" d="M323 472L315 497L633 616L642 592L323 472ZM159 -14Q112 -14 82 3T37 48T22 111Q22 182 45 238T106 335T189 396T278 417Q312 417 337 402T375 359T382 292H388Q411 340 428 389T456 488T466 582Q466 618 456 636T419
654Q404 654 389 640T360 609Q348 593 333 578T302 562Q289 562 281 570T272 589Q272 612 288 629T328 658T377 676T422 682Q475 682 503 649T531 554Q531 482 515 404T466 251T389 117T286 22T159 -14ZM181 22Q222 22 255 49T313 119T350 209T363 297Q363 338
344 360T281 382Q246 382 215 362T158 305T119 218T105 106Q105 87 113 68T139 35T181 22Z" />
<glyph unicode="&#xf1;" horiz-adv-x="553" d="M38 -9L177 339Q187 364 184 374T172 384Q160 384 139 364T92 314T45 251L29 260Q89 348 130 391T208 434Q237 434 249 412T246 354L176 184H181Q195 208 216 240T265 306T323 369T386 416T448 434Q480 434 491 411T488
352L375 82Q368 63 370 53T383 43Q395 43 415 59T460 105T514 178L530 168Q466 71 418 32T339 -7Q313 -7 302 14T306 74L415 332Q425 355 422 368T401 382Q381 382 344 353T264 271T179 149T108 0L38 -9ZM536 523L517 527Q527 572 544 597T582 631T627 641Q645
641 661 637T693 629Q705 627 720 624T747 621Q764 621 776 627T789 650Q789 658 782 660T765 663Q746 665 738 673T730 698Q730 712 740 721T766 730Q794 730 806 713T819 673Q819 633 797 604T716 575Q707 575 698 576T677 578Q660 581 645 583T615 586Q582 586
566 572T536 523Z" />
<glyph unicode="&#xf2;" horiz-adv-x="436" d="M159 -7Q102 -7 72 33T41 135Q41 179 58 230T107 328T182 404T278 434Q335 434 365 394T396 292Q396 248 379 197T330 99T255 23T159 -7ZM152 13Q180 13 206 35T257 95T299 175T327 261T338 336Q338 411 285 411Q257
411 231 389T180 330T138 251T110 166T99 91Q99 55 113 34T152 13ZM335 548L239 667Q227 682 227 695Q227 709 238 718T262 727Q271 727 279 723T292 707L356 559L335 548Z" />
<glyph unicode="&#xf3;" horiz-adv-x="436" d="M159 -7Q102 -7 72 33T41 135Q41 179 58 230T107 328T182 404T278 434Q335 434 365 394T396 292Q396 248 379 197T330 99T255 23T159 -7ZM152 13Q180 13 206 35T257 95T299 175T327 261T338 336Q338 411 285 411Q257
411 231 389T180 330T138 251T110 166T99 91Q99 55 113 34T152 13ZM561 543L549 559L711 698Q721 706 728 708T743 711Q756 711 764 703T773 683Q773 674 767 665T744 646L561 543Z" />
<glyph unicode="&#xf4;" horiz-adv-x="436" d="M159 -7Q102 -7 72 33T41 135Q41 179 58 230T107 328T182 404T278 434Q335 434 365 394T396 292Q396 248 379 197T330 99T255 23T159 -7ZM152 13Q180 13 206 35T257 95T299 175T327 261T338 336Q338 411 285 411Q257
411 231 389T180 330T138 251T110 166T99 91Q99 55 113 34T152 13ZM655 692L728 550L712 539L624 616L469 540L457 553L639 692H655Z" />
<glyph unicode="&#xf5;" horiz-adv-x="436" d="M159 -7Q102 -7 72 33T41 135Q41 179 58 230T107 328T182 404T278 434Q335 434 365 394T396 292Q396 248 379 197T330 99T255 23T159 -7ZM152 13Q180 13 206 35T257 95T299 175T327 261T338 336Q338 411 285 411Q257
411 231 389T180 330T138 251T110 166T99 91Q99 55 113 34T152 13ZM477 523L458 527Q468 572 485 597T523 631T568 641Q586 641 602 637T634 629Q646 627 661 624T688 621Q705 621 717 627T730 650Q730 658 723 660T706 663Q687 665 679 673T671 698Q671 712 681
721T707 730Q735 730 747 713T760 673Q760 633 738 604T657 575Q648 575 639 576T618 578Q601 581 586 583T556 586Q523 586 507 572T477 523Z" />
<glyph unicode="&#xf6;" horiz-adv-x="436" d="M159 -7Q102 -7 72 33T41 135Q41 179 58 230T107 328T182 404T278 434Q335 434 365 394T396 292Q396 248 379 197T330 99T255 23T159 -7ZM152 13Q180 13 206 35T257 95T299 175T327 261T338 336Q338 411 285 411Q257
411 231 389T180 330T138 251T110 166T99 91Q99 55 113 34T152 13ZM522 571Q502 571 487 586T471 622Q471 644 486 659T522 675Q544 675 559 660T575 622Q575 602 560 587T522 571ZM721 571Q701 571 686 586T670 622Q670 644 685 659T721 675Q743 675 758 660T774
622Q774 602 759 587T721 571Z" />
<glyph unicode="&#xf7;" horiz-adv-x="530" d="M314 133Q294 133 280 147T265 182Q265 202 279 216T314 231Q334 231 348 217T363 182Q363 162 349 148T314 133ZM314 439Q294 439 280 453T265 488Q265 508 279 522T314 537Q334 537 348 523T363 488Q363 468 349
454T314 439ZM122 316V354H506V316H122Z" />
<glyph unicode="&#xf8;" horiz-adv-x="436" d="M-13 -9L-31 13L445 434L466 412L-13 -9ZM159 -7Q102 -7 72 33T41 135Q41 179 58 230T107 328T182 404T278 434Q335 434 365 394T396 292Q396 248 379 197T330 99T255 23T159 -7ZM152 13Q180 13 206 35T257 95T299
175T327 261T338 336Q338 411 285 411Q257 411 231 389T180 330T138 251T110 166T99 91Q99 55 113 34T152 13Z" />
<glyph unicode="&#xf9;" horiz-adv-x="548" d="M104 -8Q73 -8 62 16T65 74L178 345Q186 364 183 374T170 384Q159 384 139 368T93 322T39 248L23 258Q88 356 135 395T214 434Q240 434 252 413T247 353L138 94Q128 72 131 58T152 44Q172 44 208 73T286 155T370
277T440 426L510 435L371 87Q361 62 365 52T376 42Q388 42 409 62T456 113T503 175L519 166Q459 78 418 35T340 -8Q311 -8 299 14T302 72L372 242H367Q354 218 333 186T284 120T227 57T166 10T104 -8ZM646 548L550 667Q538 682 538 695Q538 709 549 718T573 727Q582
727 590 723T603 707L667 559L646 548Z" />
<glyph unicode="&#xfa;" horiz-adv-x="548" d="M104 -8Q73 -8 62 16T65 74L178 345Q186 364 183 374T170 384Q159 384 139 368T93 322T39 248L23 258Q88 356 135 395T214 434Q240 434 252 413T247 353L138 94Q128 72 131 58T152 44Q172 44 208 73T286 155T370
277T440 426L510 435L371 87Q361 62 365 52T376 42Q388 42 409 62T456 113T503 175L519 166Q459 78 418 35T340 -8Q311 -8 299 14T302 72L372 242H367Q354 218 333 186T284 120T227 57T166 10T104 -8ZM360 543L348 559L510 698Q520 706 527 708T542 711Q555 711
563 703T572 683Q572 674 566 665T543 646L360 543Z" />
<glyph unicode="&#xfb;" horiz-adv-x="548" d="M104 -8Q73 -8 62 16T65 74L178 345Q186 364 183 374T170 384Q159 384 139 368T93 322T39 248L23 258Q88 356 135 395T214 434Q240 434 252 413T247 353L138 94Q128 72 131 58T152 44Q172 44 208 73T286 155T370
277T440 426L510 435L371 87Q361 62 365 52T376 42Q388 42 409 62T456 113T503 175L519 166Q459 78 418 35T340 -8Q311 -8 299 14T302 72L372 242H367Q354 218 333 186T284 120T227 57T166 10T104 -8ZM710 692L783 550L767 539L679 616L524 540L512 553L694 692H710Z"
/>
<glyph unicode="&#xfc;" horiz-adv-x="548" d="M104 -8Q73 -8 62 16T65 74L178 345Q186 364 183 374T170 384Q159 384 139 368T93 322T39 248L23 258Q88 356 135 395T214 434Q240 434 252 413T247 353L138 94Q128 72 131 58T152 44Q172 44 208 73T286 155T370
277T440 426L510 435L371 87Q361 62 365 52T376 42Q388 42 409 62T456 113T503 175L519 166Q459 78 418 35T340 -8Q311 -8 299 14T302 72L372 242H367Q354 218 333 186T284 120T227 57T166 10T104 -8ZM570 571Q550 571 535 586T519 622Q519 644 534 659T570 675Q592
675 607 660T623 622Q623 602 608 587T570 571ZM769 571Q749 571 734 586T718 622Q718 644 733 659T769 675Q791 675 806 660T822 622Q822 602 807 587T769 571Z" />
<glyph unicode="&#xfd;" horiz-adv-x="458" d="M-79 -284Q-106 -284 -134 -274T-183 -246T-203 -202Q-203 -179 -190 -167T-158 -155Q-130 -155 -122 -172T-110 -210Q-106 -229 -101 -245T-75 -262Q-25 -262 20 -234T103 -159T168 -52T211 70T226 191Q226 292
200 346T128 400Q94 400 75 379T56 326Q56 308 63 290T86 256L79 246Q56 261 45 284T33 332Q33 371 60 402T138 434Q177 434 205 414T253 358T282 279T292 188Q292 145 285 102T264 25L268 23Q289 44 311 78T352 151T382 229T394 297Q394 325 383 337T360 358Q350
366 342 375T333 400Q333 425 351 437T386 450Q409 450 423 429T438 368Q438 321 419 260T366 131T286 -2Q257 -44 217 -92T129 -184T28 -256T-79 -284ZM493 543L481 559L643 698Q653 706 660 708T675 711Q688 711 696 703T705 683Q705 674 699 665T676 646L493
543Z" />
<glyph unicode="&#xfe;" horiz-adv-x="460" d="M-162 -250L-156 -235L-110 -224Q-93 -220 -85 -213T-71 -192L262 631Q267 645 261 650T232 658L192 662L196 673Q237 679 277 688T351 712L363 706Q352 687 343 666T325 625L260 465L185 304H190Q217 340 252 369T325
416T392 434Q418 434 437 418T456 357Q456 320 440 275T394 183T329 98T254 36T177 12Q136 12 107 27T78 79Q78 99 89 108T116 117Q133 117 144 106T156 62Q156 49 161 43T179 36Q210 36 240 55T296 107T343 178T375 256T387 329Q387 382 338 382Q315 382 287 363T230
312T178 243T140 170L-5 -192Q-16 -219 8 -224L60 -235L54 -250H-162Z" />
<glyph unicode="&#xff;" horiz-adv-x="458" d="M-79 -284Q-106 -284 -134 -274T-183 -246T-203 -202Q-203 -179 -190 -167T-158 -155Q-130 -155 -122 -172T-110 -210Q-106 -229 -101 -245T-75 -262Q-25 -262 20 -234T103 -159T168 -52T211 70T226 191Q226 292
200 346T128 400Q94 400 75 379T56 326Q56 308 63 290T86 256L79 246Q56 261 45 284T33 332Q33 371 60 402T138 434Q177 434 205 414T253 358T282 279T292 188Q292 145 285 102T264 25L268 23Q289 44 311 78T352 151T382 229T394 297Q394 325 383 337T360 358Q350
366 342 375T333 400Q333 425 351 437T386 450Q409 450 423 429T438 368Q438 321 419 260T366 131T286 -2Q257 -44 217 -92T129 -184T28 -256T-79 -284ZM198 571Q178 571 163 586T147 622Q147 644 162 659T198 675Q220 675 235 660T251 622Q251 602 236 587T198
571ZM397 571Q377 571 362 586T346 622Q346 644 361 659T397 675Q419 675 434 660T450 622Q450 602 435 587T397 571Z" />
<glyph unicode="&#x2013;" horiz-adv-x="530" d="M14 230V265H544V230H14Z" />
<glyph unicode="&#x2014;" horiz-adv-x="1060" d="M1074 230H14V265H1074V230Z" />
<glyph unicode="&#x2018;" horiz-adv-x="265" d="M414 681L405 661Q374 655 338 637T276 590T250 527Q250 507 265 491T310 469L298 437Q280 430 268 423T246 406T224 382Q201 395 187 415T173 463Q173 504 193 541T248 609T326 658T414 681Z" />
<glyph unicode="&#x2019;" horiz-adv-x="265" d="M108 381L117 401Q149 407 185 425T246 472T272 535Q272 555 257 572T212 593L224 625Q242 632 254 639T276 657T298 680Q321 667 335 647T349 599Q349 558 329 521T274 453T196 404T108 381Z" />
<glyph unicode="&#x201a;" horiz-adv-x="265" d="M-107 -150L-98 -130Q-66 -124 -30 -106T31 -59T57 4Q57 24 42 41T-3 62L9 94Q27 101 39 108T61 126T83 149Q106 136 120 116T134 68Q134 27 114 -10T59 -78T-19 -127T-107 -150Z" />
<glyph unicode="&#x201c;" horiz-adv-x="457" d="M415 682L406 662Q375 656 339 638T277 591T251 528Q251 508 266 492T311 470L299 438Q281 431 269 424T247 407T225 383Q202 396 188 416T174 464Q174 505 194 542T249 610T327 659T415 682ZM606 682L597 662Q566
656 530 638T468 591T442 528Q442 508 457 492T502 470L490 438Q472 431 460 424T438 407T416 383Q393 396 379 416T365 464Q365 505 385 542T440 610T518 659T606 682Z" />
<glyph unicode="&#x201d;" horiz-adv-x="456" d="M299 381L308 401Q340 407 376 425T437 472T463 535Q463 555 448 572T403 593L415 625Q433 632 445 639T467 657T489 680Q512 667 526 647T540 599Q540 558 520 521T465 453T387 404T299 381ZM108 381L117 401Q149
407 185 425T246 472T272 535Q272 555 257 572T212 593L224 625Q242 632 254 639T276 657T298 680Q321 667 335 647T349 599Q349 558 329 521T274 453T196 404T108 381Z" />
<glyph unicode="&#x201e;" horiz-adv-x="453" d="M81 -150L90 -130Q122 -124 158 -106T219 -59T245 4Q245 24 230 41T185 62L197 94Q215 101 227 108T249 126T271 149Q294 136 308 116T322 68Q322 27 302 -10T247 -78T169 -127T81 -150ZM-107 -150L-98 -130Q-66
-124 -30 -106T31 -59T57 4Q57 24 42 41T-3 62L9 94Q27 101 39 108T61 126T83 149Q106 136 120 116T134 68Q134 27 114 -10T59 -78T-19 -127T-107 -150Z" />
<glyph unicode="&#x2022;" horiz-adv-x="361" d="M121 359Q121 392 137 419T179 462T239 478Q272 478 299 462T342 419T358 359Q358 326 342 300T299 257T239 241Q190 241 156 275T121 359Z" />
<glyph unicode="&#x2039;" horiz-adv-x="212" d="M104 66L20 200L25 212L213 338L225 331L84 203L120 75L104 66Z" />
<glyph unicode="&#x203a;" horiz-adv-x="212" d="M99 336L183 202L178 190L-10 64L-22 71L119 199L83 327L99 336Z" />
</font>
</defs>
</svg>
