<?xml version="1.0" standalone="no"?>
<!DOCTYPE svg PUBLIC "-//W3C//DTD SVG 1.1//EN" "http://www.w3.org/Graphics/SVG/1.1/DTD/svg11.dtd">
<svg xmlns="http://www.w3.org/2000/svg">
<defs >
<font id="Karla" horiz-adv-x="1049" ><font-face
    font-family="Karla ExtraBold"
    units-per-em="2000"
    panose-1="2 11 0 4 3 5 3 3 0 3"
    ascent="1834"
    descent="-504"
    alphabetic="0" />
<glyph unicode=" " horiz-adv-x="539" />
<glyph unicode="!" horiz-adv-x="619" d="M177 528L145 1404H495L459 528H177ZM321 -18Q226 -18 167 39T107 188Q107 275 166 334T321 393Q415 393 477 334T539 188Q539 97 477 40T321 -18Z" />
<glyph unicode="&quot;" horiz-adv-x="929" d="M584 866L543 1380H859L817 866H584ZM111 866L70 1380H386L344 866H111Z" />
<glyph unicode="#" horiz-adv-x="1466" d="M264 70L290 315H122L141 520H312L342 792H170L193 996H362L390 1241H692L664 996H898L924 1241H1224L1200 996H1367L1347 792H1175L1148 520H1319L1299 315H1127L1102 70H800L826 315H591L566 70H264ZM614 520H848L878
792H644L614 520Z" />
<glyph unicode="$" horiz-adv-x="1501" d="M782 -32Q652 -32 533 -6T322 76T176 221T122 438H438Q438 372 476 333T595 276T800 259Q881 259 928 273T997 312T1018 371Q1018 409 991 441T912 495L755 559V831L1074 713Q1238 653 1308 571T1378 363Q1378 263 1316
173T1123 25T782 -32ZM644 -223V1527H860V-223H644ZM698 551L506 618Q335 678 238 763T141 993Q141 1163 294 1267T739 1372Q1015 1372 1154 1254T1330 927H1014Q999 993 929 1047T733 1101Q610 1101 550 1069T490 983Q490 948 513 925T584 881L698 829V551Z" />
<glyph unicode="%" horiz-adv-x="1611" d="M202 0L1117 1342H1435L523 0H202ZM1228 -24Q1150 -24 1084 10T977 116T937 297Q937 408 977 479T1083 585T1228 620Q1307 620 1374 586T1482 480T1523 297Q1523 188 1482 117T1374 11T1228 -24ZM1228 174Q1256 174 1273
199T1290 297Q1290 370 1273 396T1228 423Q1200 423 1184 397T1167 297Q1167 224 1183 199T1228 174ZM413 731Q335 731 269 765T162 872T122 1054Q122 1162 162 1232T268 1337T413 1372Q494 1372 561 1338T668 1233T708 1054Q708 944 668 872T561 766T413 731ZM413
927Q442 927 459 953T477 1054Q477 1125 460 1149T413 1174Q385 1174 369 1150T353 1054Q353 979 369 953T413 927Z" />
<glyph unicode="&amp;" horiz-adv-x="2036" d="M1560 -32Q1441 -32 1339 21T1123 180L512 750Q458 800 418 873T378 1027Q378 1118 433 1195T598 1319T869 1366Q1028 1366 1136 1320T1300 1198T1356 1031Q1356 929 1305 851T1157 718T926 626L762 778Q829 799
883 825T970 889T1003 980Q1003 1027 966 1057T869 1087Q804 1087 769 1057T733 981Q733 942 753 911T808 844L1382 311Q1414 283 1446 266T1524 249Q1569 249 1599 281T1629 381H1912Q1911 195 1824 82T1560 -32ZM772 -32Q656 -32 551 -1T365 88T237 223T190 393Q190
549 319 632T664 731L780 566Q651 557 598 516T545 416Q545 372 573 337T653 281T775 260Q875 260 964 298T1131 406T1276 575T1399 793L1608 675Q1548 507 1462 376T1267 154T1034 16T772 -32Z" />
<glyph unicode="&apos;" horiz-adv-x="451" d="M68 1354H384L342 840H109L68 1354Z" />
<glyph unicode="(" horiz-adv-x="891" d="M587 1565L818 1392Q702 1268 626 1153T512 918T474 659Q474 454 559 286T818 -68L587 -244Q352 -41 249 180T146 659Q146 918 249 1140T587 1565Z" />
<glyph unicode=")" horiz-adv-x="891" d="M305 -244L72 -68Q247 117 332 285T418 659Q418 798 380 918T266 1153T72 1392L305 1565Q539 1363 642 1141T746 659Q746 487 701 332T559 34T305 -244Z" />
<glyph unicode="*" horiz-adv-x="811" d="M133 936L297 1083L87 1149L160 1325L343 1231L313 1450H515L485 1231L668 1331L741 1153L537 1085L701 936L553 809L416 1005L272 809L133 936Z" />
<glyph unicode="+" horiz-adv-x="1122" d="M401 982H723V632H1088V350H723V0H401V350H36V632H401V982Z" />
<glyph unicode="," horiz-adv-x="598" d="M268 -329L35 -209Q111 -171 173 -121T257 -10Q189 7 141 52T92 168Q92 247 153 299T307 352Q423 352 487 272T551 83Q551 -40 473 -153T268 -329Z" />
<glyph unicode="-" horiz-adv-x="801" d="M109 485V765H690V485H109Z" />
<glyph unicode="." horiz-adv-x="507" d="M35 186Q35 275 94 334T249 393Q344 393 406 334T468 186Q468 97 406 40T249 -18Q154 -18 95 40T35 186Z" />
<glyph unicode="/" horiz-adv-x="1027" d="M98 -177L624 1519H952L422 -177H98Z" />
<glyph unicode="0" horiz-adv-x="1347" d="M676 -32Q504 -32 371 44T162 275T86 669Q86 910 161 1065T370 1296T676 1372Q846 1372 978 1297T1186 1066T1262 669Q1262 431 1186 276T978 44T676 -32ZM676 259Q792 259 862 362T932 669Q932 872 862 977T676 1083Q555
1083 486 978T416 669Q416 466 485 363T676 259Z" />
<glyph unicode="1" horiz-adv-x="768" d="M365 1354H597V0H277V969Q220 955 171 947T71 940V1244Q144 1250 213 1275T365 1354Z" />
<glyph unicode="2" horiz-adv-x="1264" d="M112 0V260Q112 369 142 448T239 585T416 683L701 789Q778 819 813 860T848 959Q848 1012 806 1053T682 1095Q606 1095 551 1049T488 918H134Q133 1076 207 1176T406 1324T676 1372Q818 1372 934 1320T1120 1174T1190
949Q1190 846 1153 766T1034 624T816 510L533 403Q475 381 454 361T432 307V292H1186V0H112Z" />
<glyph unicode="3" horiz-adv-x="1310" d="M660 -32Q548 -32 443 -3T255 85T122 231T73 433H414Q420 384 450 345T532 282T660 259Q762 259 823 303T884 415Q884 462 860 492T791 536T679 551H475V802H674Q754 802 799 842T844 947Q844 1006 801 1044T660 1083Q575
1083 508 1048T429 936H89Q101 1086 174 1182T368 1325T644 1372Q802 1372 924 1324T1117 1190T1188 989Q1188 890 1137 814T981 703Q1097 657 1163 577T1230 383Q1230 261 1158 167T957 21T660 -32Z" />
<glyph unicode="4" horiz-adv-x="1267" d="M706 1352H1020V545H1254V269H1020V0H702V269H36V508L706 1352ZM720 893L414 508H720V893Z" />
<glyph unicode="5" horiz-adv-x="1201" d="M625 -32Q463 -32 347 22T166 180T97 428H425Q425 342 482 301T625 259Q708 259 768 317T829 459Q829 615 608 615H149L215 1342H1079V1048H472L533 1131L499 800L479 826Q527 837 598 843T717 850Q915 850 1035 746T1155
459Q1155 323 1088 212T902 34T625 -32Z" />
<glyph unicode="6" horiz-adv-x="1286" d="M688 -32Q513 -32 377 54T164 294T86 647Q86 883 163 1044T377 1289T690 1372Q837 1372 949 1319T1125 1170T1188 944H850Q844 1009 807 1046T702 1083Q566 1083 485 961T403 631Q403 609 404 588T409 545Q433 658 489
721T620 811T778 838Q908 838 1004 782T1153 628T1206 405Q1206 275 1141 177T959 23T688 -32ZM688 259Q762 259 820 305T878 421Q878 498 820 541T688 585Q640 585 598 566T530 510T504 421Q504 351 559 305T688 259Z" />
<glyph unicode="7" horiz-adv-x="1054" d="M57 0L642 1030H48V1342H1019V1030L490 0H57Z" />
<glyph unicode="8" horiz-adv-x="1360" d="M680 -32Q493 -32 360 20T156 161T85 363Q85 452 134 514T266 609T451 642Q507 642 552 631T663 603V533Q594 533 538 516T448 468T415 399Q415 358 452 327T549 277T680 259Q829 259 888 288T948 357Q948 388 923 414T852
461L457 614Q386 642 311 692T184 817T132 995Q132 1115 195 1199T381 1327T680 1372Q831 1372 956 1322T1157 1182T1232 975Q1232 903 1189 842T1067 742T880 704Q831 704 791 713T696 740V827Q746 827 793 842T871 885T902 951Q902 995 874 1024T795 1068T680
1083Q620 1083 570 1071T490 1036T460 981Q460 950 481 928T550 885L969 720Q1117 662 1196 588T1276 376Q1276 259 1207 167T1004 21T680 -32Z" />
<glyph unicode="9" horiz-adv-x="1283" d="M621 -32Q476 -32 358 21T170 171T99 397H433Q439 333 492 296T609 259Q709 259 768 316T855 474T882 707Q882 727 881 750T876 793Q851 681 794 618T663 530T508 504Q378 504 282 558T132 710T79 933Q79 1065 144 1163T326
1317T591 1372Q716 1372 825 1323T1018 1182T1149 966T1197 689Q1197 469 1132 308T938 57T621 -32ZM595 757Q643 757 685 776T754 830T781 915Q781 990 723 1034T591 1079Q520 1079 465 1035T409 915Q409 839 465 798T595 757Z" />
<glyph unicode=":" horiz-adv-x="621" d="M91 186Q91 275 150 334T305 393Q400 393 462 334T524 186Q524 97 462 40T305 -18Q210 -18 151 40T91 186ZM91 766Q91 855 150 914T305 973Q400 973 462 914T524 766Q524 677 462 620T305 562Q210 562 151 620T91 766Z" />
<glyph unicode=";" horiz-adv-x="715" d="M334 -329L101 -209Q177 -171 239 -121T323 -10Q255 7 207 52T158 168Q158 247 219 299T373 352Q489 352 553 272T617 83Q617 -40 539 -153T334 -329ZM176 766Q176 855 235 914T390 973Q485 973 547 914T609 766Q609 677
547 620T390 562Q295 562 236 620T176 766Z" />
<glyph unicode="&lt;" horiz-adv-x="1107" d="M806 1331L1019 1088L331 611V749L1019 272L806 31L98 534V826L806 1331Z" />
<glyph unicode="=" horiz-adv-x="1051" d="M158 425H894V148H158V425ZM158 883H894V608H158V883Z" />
<glyph unicode="&gt;" horiz-adv-x="1107" d="M299 31L86 272L774 749V611L86 1088L299 1331L1006 826V534L299 31Z" />
<glyph unicode="?" horiz-adv-x="1073" d="M346 459V529Q346 616 368 671T434 763T548 830Q607 858 636 881T675 927T685 975Q685 1022 648 1052T545 1083Q459 1083 412 1038T365 927H35Q43 1131 170 1251T529 1372Q686 1372 800 1321T976 1180T1039 975Q1039
869 987 795T827 671Q765 642 730 616T682 562T668 494V459H346ZM516 -32Q419 -32 361 26T302 170Q302 259 360 316T516 374Q612 374 673 317T734 170Q734 84 673 26T516 -32Z" />
<glyph unicode="@" horiz-adv-x="2238" d="M1190 -512Q950 -512 756 -442T422 -247T209 47T134 413Q134 624 216 799T446 1103T789 1302T1210 1372Q1421 1372 1590 1312T1880 1143T2064 888T2128 572Q2128 423 2082 310T1958 122T1784 8T1586 -30Q1487 -30 1418
3T1320 91L1302 126Q1268 60 1212 15T1059 -30Q958 -30 876 22T747 166T699 372Q699 478 739 571T852 736T1018 849T1218 890Q1367 890 1452 803T1538 543V325Q1538 270 1555 248T1600 225Q1636 225 1685 258T1772 365T1809 564Q1809 714 1744 831T1548 1015T1224
1083Q1056 1083 915 1031T671 883T511 659T454 374Q454 193 536 52T782 -169T1190 -250V-512ZM1119 227Q1179 227 1217 259T1291 354V539Q1291 579 1275 612T1205 646Q1154 646 1102 612T1014 517T978 379Q978 297 1019 262T1119 227Z" />
<glyph unicode="A" horiz-adv-x="1358" d="M36 0L488 1342H895L1322 0H985L912 236H449L376 0H36ZM530 473H839L687 964L530 473Z" />
<glyph unicode="B" horiz-adv-x="1352" d="M169 0V1342H750Q913 1342 1020 1295T1180 1166T1234 981Q1234 870 1171 793T1004 681Q1073 663 1130 626T1221 529T1256 379Q1256 320 1234 254T1157 131T1004 37T754 0H169ZM489 280H744Q825 280 867 310T909 399Q909
457 870 492T744 527H489V280ZM489 1065V809H736Q828 809 867 844T906 935Q906 989 868 1027T738 1065H489Z" />
<glyph unicode="C" horiz-adv-x="1310" d="M679 -32Q503 -32 370 47T161 282T86 669Q86 901 160 1057T369 1292T679 1372Q933 1372 1066 1252T1224 941L884 882Q861 968 812 1024T679 1081Q605 1081 549 1037T461 901T430 669Q430 531 462 441T550 306T679 262Q782
262 833 316T884 449H1222Q1222 294 1160 187T976 24T679 -32Z" />
<glyph unicode="D" horiz-adv-x="1429" d="M169 1342H644Q851 1342 1009 1260T1256 1028T1346 669Q1346 464 1257 314T1009 82T644 0H169V1342ZM489 1048V292H644Q753 292 832 341T955 476T999 669Q999 781 956 866T833 999T644 1048H489Z" />
<glyph unicode="E" horiz-adv-x="1224" d="M167 0V1342H1064V1065H487V807H1028V529H487V280H1064V0H167Z" />
<glyph unicode="F" horiz-adv-x="1140" d="M169 0V1342H1044V1065H489V802H986V529H489V0H169Z" />
<glyph unicode="G" horiz-adv-x="1423" d="M677 -32Q508 -32 375 58T164 306T86 671Q86 826 131 954T261 1176T463 1321T725 1372Q943 1372 1080 1274T1275 965L935 904Q901 987 845 1035T707 1083Q629 1083 567 1033T468 891T432 671Q432 544 468 452T566 309T707
259Q784 259 844 291T939 379T974 502H1030Q1030 338 991 218T874 33T677 -32ZM1014 0L974 276V514L707 516V712H1278V0H1014Z" />
<glyph unicode="H" horiz-adv-x="1489" d="M169 1342H489V813H996V1342H1319V0H996V531H489V0H169V1342Z" />
<glyph unicode="I" horiz-adv-x="660" d="M169 0V1342H489V0H169Z" />
<glyph unicode="J" horiz-adv-x="971" d="M49 46V359Q138 313 220 297T366 280Q431 280 464 317T498 446V1342H822V446Q822 268 766 164T613 14T396 -32Q300 -32 212 -10T49 46Z" />
<glyph unicode="K" horiz-adv-x="1406" d="M949 1342H1386L473 414V843L949 1342ZM736 800L1424 0H1015L518 591L736 800ZM169 1342H491V0H169V1342Z" />
<glyph unicode="L" horiz-adv-x="1044" d="M489 1342V280H996V0H169V1342H489Z" />
<glyph unicode="M" horiz-adv-x="1807" d="M169 1342H627L924 626H899L1196 1342H1636V0H1314V955H1358L1013 125H806L463 953H489V0H169V1342Z" />
<glyph unicode="N" horiz-adv-x="1503" d="M163 1342H497L1036 530H1014V1342H1334V0H1025L430 892H483V0H163V1342Z" />
<glyph unicode="O" horiz-adv-x="1443" d="M720 -32Q529 -32 387 48T165 286T86 675Q86 912 165 1066T386 1296T720 1372Q913 1372 1056 1293T1279 1059T1358 675Q1358 440 1279 283T1057 47T720 -32ZM720 255Q860 255 944 365T1028 677Q1028 866 944 975T720
1085Q584 1085 500 976T416 675Q416 476 500 366T720 255Z" />
<glyph unicode="P" horiz-adv-x="1218" d="M161 0V1342H676Q908 1342 1044 1231T1180 901Q1180 684 1044 572T676 459H483V0H161ZM483 739H676Q763 739 807 787T852 901Q852 967 808 1016T676 1065H483V739Z" />
<glyph unicode="Q" horiz-adv-x="1444" d="M720 -32Q529 -32 387 48T165 286T86 675Q86 912 165 1066T386 1296T720 1372Q913 1372 1056 1293T1279 1059T1358 675Q1358 440 1279 283T1057 47T720 -32ZM1141 -387Q1031 -387 933 -327T769 -160L631 59L869 193L985
-2Q1009 -41 1048 -56T1131 -74Q1178 -74 1226 -63T1325 -34V-353Q1277 -372 1233 -379T1141 -387ZM720 255Q860 255 944 365T1028 677Q1028 866 944 975T720 1085Q584 1085 500 976T416 675Q416 476 500 366T720 255Z" />
<glyph unicode="R" horiz-adv-x="1352" d="M169 0V1342H693Q945 1342 1084 1227T1224 917Q1224 727 1085 613T693 498H489V0H169ZM869 0L542 648H880L1288 0H869ZM489 706H657Q776 706 835 755T895 882Q895 962 845 1013T693 1065H489V706Z" />
<glyph unicode="S" horiz-adv-x="1344" d="M674 -32Q530 -32 407 16T207 168T122 438H438Q438 377 469 337T553 278T672 259Q724 259 769 268T843 300T871 363Q871 412 842 436T735 491L443 618Q299 680 219 764T139 993Q139 1163 277 1267T657 1372Q902 1372
1033 1257T1180 927H866Q854 993 808 1038T657 1083Q582 1083 536 1056T490 987Q490 949 519 927T608 879L917 748Q1071 681 1146 591T1222 375Q1222 240 1158 150T971 14T674 -32Z" />
<glyph unicode="T" horiz-adv-x="1128" d="M12 1065V1342H1117V1065H654L726 1137V0H406V1137L478 1065H12Z" />
<glyph unicode="U" horiz-adv-x="1458" d="M158 1342H478V528Q478 385 551 322T734 259Q846 259 919 322T993 528V1342H1312V528Q1312 358 1245 232T1049 37T734 -32Q548 -32 420 37T225 232T158 528V1342Z" />
<glyph unicode="V" horiz-adv-x="1289" d="M630 355L920 1342H1254L810 0H472L36 1342H374L658 355H630Z" />
<glyph unicode="W" horiz-adv-x="2003" d="M12 1342H368L669 282H595L880 1302H1096L1410 306H1345L1629 1342H1992L1544 0H1207L991 676H1005L799 0H463L12 1342Z" />
<glyph unicode="X" horiz-adv-x="1455" d="M37 0L511 669L37 1342H434L726 920L960 1342H1346L906 675L1420 0H1015L696 420L425 0H37Z" />
<glyph unicode="Y" horiz-adv-x="1253" d="M10 1342H386L644 839H592L867 1342H1242L772 557V0H454V557L10 1342Z" />
<glyph unicode="Z" horiz-adv-x="1335" d="M146 0V271L883 1166V1051L146 1048V1342H1191V1075L523 257V292L1191 294V0H146Z" />
<glyph unicode="[" horiz-adv-x="780" d="M169 -366V1706H768V1412H489V-72H768V-366H169Z" />
<glyph unicode="\" horiz-adv-x="1027" d="M74 1520L600 -176H928L398 1520H74Z" />
<glyph unicode="]" horiz-adv-x="779" d="M612 -366V1706H13V1412H292V-72H13V-366H612Z" />
<glyph unicode="^" horiz-adv-x="1224" d="M38 379L482 1242H744L1188 379H838L551 1005H675L386 379H38Z" />
<glyph unicode="_" horiz-adv-x="1627" d="M110 0V280H1518V0H110Z" />
<glyph unicode="`" horiz-adv-x="795" d="M814 1108L342 1459L550 1627L964 1232L814 1108Z" />
<glyph unicode="a" horiz-adv-x="1242" d="M815 0L774 263V632Q774 706 747 747T632 788Q580 788 548 773T500 732T484 676H138Q138 792 193 867T358 980T632 1017Q775 1017 878 973T1038 841T1094 620V0H815ZM505 -32Q373 -32 283 12T146 133T100 301Q100 388
148 451T290 550T523 585Q607 585 671 576T804 554V374Q754 385 701 391T596 397Q525 397 484 375T442 301Q442 264 479 237T596 209Q664 209 703 236T758 304T774 385H849Q849 271 813 176T701 25T505 -32Z" />
<glyph unicode="b" horiz-adv-x="1273" d="M726 -32Q641 -32 568 19T450 178T405 453H489Q489 401 516 357T586 287T673 260Q734 260 777 291T845 376T869 498Q869 563 846 615T778 697T671 727Q622 727 581 704T514 640T489 542H405Q405 701 445 806T563 964T752
1017Q876 1017 974 952T1131 771T1189 498Q1189 340 1128 221T962 35T726 -32ZM169 0V1380H489V257L369 0H169Z" />
<glyph unicode="c" horiz-adv-x="1087" d="M571 -32Q442 -32 332 33T154 216T86 492Q86 665 153 781T331 957T571 1017Q680 1017 761 980T897 883T977 751T1004 610L684 613Q677 656 650 691T569 727Q527 727 490 706T429 633T405 492Q405 404 428 353T489 281T569
260Q637 260 660 291T684 371H1004Q1004 265 957 173T815 25T571 -32Z" />
<glyph unicode="d" horiz-adv-x="1273" d="M544 -32Q416 -32 312 34T146 220T85 498Q85 654 143 770T300 952T522 1017Q633 1017 711 965T829 807T870 542H781Q781 598 757 639T692 704T603 727Q540 727 496 697T428 615T405 498Q405 430 428 376T496 291T599
260Q646 260 687 286T755 357T781 453H870Q870 286 825 179T705 20T544 -32ZM844 0L781 257V1380H1105V0H844Z" />
<glyph unicode="e" horiz-adv-x="1095" d="M563 -32Q439 -32 330 32T154 215T86 497Q86 660 153 776T329 955T563 1017Q687 1017 779 968T927 834T1001 645T994 427H339V589H760L714 559Q717 594 712 630T690 696T645 745T569 764Q518 764 481 740T423 669T402
555V429Q402 366 420 320T473 249T563 223Q607 223 640 241T686 298H1004Q989 206 931 131T779 12T563 -32Z" />
<glyph unicode="f" horiz-adv-x="788" d="M229 0V1071Q229 1187 275 1259T395 1364T551 1398Q607 1398 669 1391T788 1375L725 1132Q705 1137 682 1142T634 1147Q610 1147 592 1138T564 1111T554 1065V0H229ZM98 778V985H711V778H98Z" />
<glyph unicode="g" horiz-adv-x="1201" d="M581 -513Q393 -513 264 -463T68 -332T1 -161Q1 -66 69 -12T235 42L498 -33Q411 -33 364 -61T317 -143Q317 -203 391 -231T581 -259Q662 -259 719 -234T805 -168T835 -85Q835 -59 821 -46T775 -33H498Q399 -33 308 1T160
94T102 229Q102 291 136 338T232 411T378 437L470 338Q442 338 420 329T384 303T371 259Q371 225 401 207T498 188H775Q951 188 1051 132T1151 -61Q1151 -177 1080 -280T881 -448T581 -513ZM576 321Q456 321 354 363T188 483T125 667Q125 776 188 854T353 975T576
1017Q694 1017 797 975T964 855T1028 667Q1028 561 964 484T797 364T576 321ZM580 540Q653 540 683 577T714 667Q714 729 683 764T576 800Q507 800 474 765T441 667Q441 614 474 577T580 540ZM952 857L808 952Q808 1043 856 1110T979 1214T1133 1251L1121 949Q1038
949 995 927T952 857Z" />
<glyph unicode="h" horiz-adv-x="1287" d="M821 0V574Q821 652 783 689T691 727Q636 727 590 696T517 597T489 415H392Q392 627 442 760T580 955T779 1017Q906 1017 986 960T1105 803T1143 574V0H821ZM169 0V1380H489V0H169Z" />
<glyph unicode="i" horiz-adv-x="719" d="M360 1112Q269 1112 220 1158T170 1290Q170 1373 219 1422T360 1472Q448 1472 499 1423T550 1290Q550 1205 499 1159T360 1112ZM200 0V991H520V0H200Z" />
<glyph unicode="j" horiz-adv-x="715" d="M353 1112Q265 1112 213 1158T161 1290Q161 1373 213 1422T353 1472Q441 1472 492 1423T543 1290Q543 1205 492 1159T353 1112ZM162 -513Q74 -513 6 -498T-131 -463V-188Q-88 -205 -32 -219T72 -233Q134 -233 164 -204T195
-89V989H517V-95Q517 -322 427 -417T162 -513Z" />
<glyph unicode="k" horiz-adv-x="1242" d="M169 0V1380H489V0H169ZM449 659L789 985H1216L449 333V659ZM854 0L441 633L734 714L1242 0H854Z" />
<glyph unicode="l" horiz-adv-x="660" d="M169 0V1380H489V0H169Z" />
<glyph unicode="m" horiz-adv-x="1926" d="M1460 0V574Q1460 652 1423 689T1329 727Q1247 727 1195 657T1143 415H1017Q1017 592 1049 708T1137 892T1265 988T1420 1017Q1546 1017 1626 960T1745 803T1784 574V0H1460ZM169 0V985H451L485 846Q536 935 612 976T779
1017Q906 1017 986 960T1105 803T1143 574V0H821V574Q821 652 783 689T691 727Q636 727 590 696T517 597T489 415V0H169Z" />
<glyph unicode="n" horiz-adv-x="1287" d="M821 0V574Q821 652 783 689T691 727Q636 727 590 696T517 597T489 415H392Q392 627 442 760T580 955T779 1017Q906 1017 986 960T1105 803T1143 574V0H821ZM169 0V985H451L489 822V0H169Z" />
<glyph unicode="o" horiz-adv-x="1173" d="M589 -32Q452 -32 338 24T155 196T86 490Q86 674 154 790T337 961T589 1017Q723 1017 836 962T1017 790T1086 490Q1086 312 1018 197T836 25T589 -32ZM577 247Q623 247 666 271T739 348T768 490Q768 627 719 683T601
739Q555 739 510 715T435 637T405 490Q405 357 456 302T577 247Z" />
<glyph unicode="p" horiz-adv-x="1274" d="M710 -32Q601 -32 528 12T419 150T382 394H489Q489 354 512 324T574 277T659 260Q705 260 753 283T835 357T869 492Q869 563 844 616T774 698T665 727Q614 727 574 706T512 647T489 556H382Q382 724 430 825T558 971T726
1017Q844 1017 950 955T1122 776T1189 492Q1189 326 1122 209T945 30T710 -32ZM169 -478V985H430L489 728V-478H169Z" />
<glyph unicode="q" horiz-adv-x="1274" d="M563 -32Q439 -32 330 30T154 209T86 492Q86 659 152 776T322 955T544 1017Q634 1017 713 972T841 825T890 556H781Q781 608 760 646T700 706T610 727Q546 727 500 698T430 616T405 492Q405 408 438 357T521 283T616
260Q660 260 697 277T758 325T781 394H827Q827 270 807 174T730 23T563 -32ZM1140 -513Q948 -469 865 -373T781 -111V728L903 985H1103V-137Q1103 -187 1114 -214T1152 -257T1225 -286L1140 -513Z" />
<glyph unicode="r" horiz-adv-x="850" d="M169 0V991H489V0H169ZM421 420Q421 621 472 750T601 941T760 1003Q776 1003 792 1002T822 997L825 675Q800 678 774 679T725 681Q655 681 602 655T519 572T489 420H421Z" />
<glyph unicode="s" horiz-adv-x="1059" d="M550 -32Q409 -32 301 5T133 118T73 309H362Q364 257 402 237T507 217Q547 217 573 227T612 253T625 289Q625 314 607 329T551 359L312 452Q206 496 149 563T91 724Q91 855 212 936T543 1017Q740 1017 846 925T953 691H660Q660
723 633 746T543 770Q491 770 461 753T431 708Q431 670 494 648L766 539Q867 499 925 439T983 289Q983 207 927 134T772 14T550 -32Z" />
<glyph unicode="t" horiz-adv-x="828" d="M533 -32Q439 -32 358 2T227 108T177 295V1234H499V307Q499 217 588 217Q616 217 647 223T721 245L768 22Q707 0 652 -16T533 -32ZM60 778V985H723V778H60Z" />
<glyph unicode="u" horiz-adv-x="1299" d="M811 991H1131V0H811V991ZM158 991H478V395Q478 327 512 295T601 262Q650 262 698 286T779 368T811 529H881Q881 333 836 213T714 37T538 -18Q439 -18 352 16T212 132T158 358V991Z" />
<glyph unicode="v" horiz-adv-x="1073" d="M11 985H382L543 273H529L690 985H1060L719 0H352L11 985Z" />
<glyph unicode="w" horiz-adv-x="1586" d="M11 985H346L520 314H492L648 926H950L1108 312H1078L1252 985H1572L1246 0H930L767 579H816L660 0H340L11 985Z" />
<glyph unicode="x" horiz-adv-x="1195" d="M11 0L406 490L11 991H406L606 731L792 991H1183L795 490L1185 0H794L586 257L406 0H11Z" />
<glyph unicode="y" horiz-adv-x="1087" d="M32 985H398L600 280H551L752 985H1076L692 -159Q622 -361 530 -437T314 -513Q239 -513 164 -500T13 -455V-180Q69 -206 122 -219T227 -233Q261 -233 291 -221T346 -177T388 -92L420 0L32 985Z" />
<glyph unicode="z" horiz-adv-x="1033" d="M122 0V261L563 727H122V985H912V727L495 261H912V0H122Z" />
<glyph unicode="{" horiz-adv-x="872" d="M873 -350Q663 -350 527 -281T326 -90T260 192V374Q260 452 250 479T200 507H134V836H200Q239 836 249 862T260 969V1153Q260 1312 325 1432T527 1619T873 1687V1397Q726 1397 652 1341T578 1147V949Q578 850 532 781T417
678V663Q485 630 531 561T578 392V194Q578 57 652 1T873 -56V-350Z" />
<glyph unicode="|" horiz-adv-x="660" d="M169 -244V1582H489V-244H169Z" />
<glyph unicode="}" horiz-adv-x="872" d="M-1 -350Q209 -350 345 -281T546 -90T612 192V374Q612 452 622 479T672 507H738V836H672Q633 836 623 862T612 969V1153Q612 1312 547 1432T345 1619T-1 1687V1397Q146 1397 220 1341T294 1147V949Q294 850 340 781T455
678V663Q387 630 341 561T294 392V194Q294 57 220 1T-1 -56V-350Z" />
<glyph unicode="~" horiz-adv-x="1255" d="M290 368L122 459Q159 611 228 705T422 800Q474 800 529 786T655 744Q717 720 759 707T833 694Q874 694 906 721T961 800L1131 693Q1086 547 1003 470T807 393Q771 393 720 405T596 449Q531 469 493 481T423 494Q379
494 347 464T290 368Z" />
<glyph unicode="&#xa0;" horiz-adv-x="539" />
<glyph unicode="&#xa1;" horiz-adv-x="619" d="M177 852L145 -24H495L459 852H177ZM321 1398Q226 1398 167 1341T107 1192Q107 1105 166 1046T321 987Q415 987 477 1046T539 1192Q539 1283 477 1340T321 1398Z" />
<glyph unicode="&#xa2;" horiz-adv-x="1091" d="M433 -222V67H690V-222H433ZM433 938V1208H690V938H433ZM571 -32Q442 -32 332 33T154 216T86 492Q86 665 153 781T331 957T571 1017Q680 1017 761 980T897 883T977 751T1004 610L684 613Q677 656 650 691T569 727Q527
727 490 706T429 633T405 492Q405 404 428 353T489 281T569 260Q637 260 660 291T684 371H1004Q1004 265 957 173T815 25T571 -32Z" />
<glyph unicode="&#xa3;" horiz-adv-x="1281" d="M121 201V292Q191 292 216 333T242 460V913Q242 1072 303 1173T466 1323T692 1372Q884 1372 989 1272T1118 970H804Q800 1020 772 1051T692 1083Q636 1083 599 1041T562 913V484Q562 342 465 272T121 201ZM48 0V292H665Q768
292 809 327T857 433H1208Q1208 225 1086 113T669 0H48ZM93 591V800H883V591H93Z" />
<glyph unicode="&#xa4;" horiz-adv-x="1200" d="M600 206Q478 206 378 265T217 425T157 646Q157 770 217 870T377 1031T600 1091Q723 1091 823 1031T982 871T1041 646Q1041 525 982 425T823 266T600 206ZM600 483Q647 483 684 505T744 565T766 646Q766 694 744
732T685 792T600 814Q555 814 517 792T457 732T434 646Q434 602 456 565T517 506T600 483ZM835 761L714 882L980 1149L1101 1031L835 761ZM346 779L99 1028L218 1149L465 900L346 779ZM854 516L1101 266L982 147L735 395L854 516ZM346 516L465 395L218 147L99 266L346
516Z" />
<glyph unicode="&#xa5;" horiz-adv-x="1253" d="M454 0V557L10 1342H386L644 839H592L867 1342H1242L772 557V0H454ZM257 136V304H978V136H257ZM257 367V535H978V367H257Z" />
<glyph unicode="&#xa6;" horiz-adv-x="660" d="M169 792V1582H489V792H169ZM169 -244V545H489V-244H169Z" />
<glyph unicode="&#xa7;" horiz-adv-x="1200" d="M619 517Q659 517 685 527T724 553T737 590Q737 614 719 629T663 659L424 752Q320 793 262 861T203 1021Q203 1155 324 1236T643 1317Q858 1317 960 1224T1065 991H772Q772 1023 745 1046T655 1070Q604 1070 574
1053T543 1007Q543 973 606 948L878 839Q979 799 1037 739T1095 593Q1095 508 1039 434T884 314T662 268L619 517ZM575 704Q523 704 493 686T463 637Q463 603 526 578L798 469Q899 429 957 369T1015 222Q1015 138 961 64T804 -56T559 -102Q438 -102 333 -65T165
48T105 239H394Q395 187 435 167T532 147Q600 147 628 168T657 219Q657 242 641 257T583 289L344 382Q237 424 180 492T123 655Q123 794 244 869T575 945V704Z" />
<glyph unicode="&#xa8;" horiz-adv-x="967" d="M700 1146Q626 1146 575 1193T523 1314Q523 1387 574 1434T700 1481Q779 1481 829 1434T880 1314Q880 1241 830 1194T700 1146ZM264 1146Q185 1146 136 1193T86 1312Q86 1386 135 1432T264 1479Q343 1479 393 1433T444
1312Q444 1241 394 1194T264 1146Z" />
<glyph unicode="&#xa9;" horiz-adv-x="1465" d="M733 -13Q591 -13 467 40T249 188T102 406T48 672Q48 813 101 937T249 1155T467 1303T733 1356Q874 1356 998 1303T1216 1156T1364 937T1417 672Q1417 530 1364 406T1217 188T998 41T733 -13ZM733 142Q843 142 938
183T1107 297T1221 466T1262 672Q1262 782 1221 877T1107 1046T939 1160T733 1201Q624 1201 528 1160T359 1046T245 878T203 672Q203 563 244 467T358 298T527 184T733 142ZM731 254Q627 254 547 301T423 441T378 671Q378 809 422 902T546 1042T731 1089Q882 1089
961 1018T1055 832L853 797Q839 849 810 882T731 916Q687 916 654 890T602 809T583 671Q583 589 602 536T654 456T731 429Q792 429 822 461T853 540H1053Q1053 401 970 328T731 254Z" />
<glyph unicode="&#xaa;" horiz-adv-x="1242" d="M815 0L774 263V632Q774 706 747 747T632 788Q580 788 548 773T500 732T484 676H138Q138 792 193 867T358 980T632 1017Q775 1017 878 973T1038 841T1094 620V0H815ZM505 -32Q373 -32 283 12T146 133T100 301Q100
388 148 451T290 550T523 585Q607 585 671 576T804 554V374Q754 385 701 391T596 397Q525 397 484 375T442 301Q442 264 479 237T596 209Q664 209 703 236T758 304T774 385H849Q849 271 813 176T701 25T505 -32Z" />
<glyph unicode="&#xab;" horiz-adv-x="1353" d="M384 516L706 817L504 984L86 550L504 116L706 283L384 584V516ZM944 516L1266 817L1064 984L646 550L1064 116L1266 283L944 584V516Z" />
<glyph unicode="&#xac;" horiz-adv-x="1200" d="M208 719H946V302H746V540L804 480H208V719Z" />
<glyph unicode="&#xad;" horiz-adv-x="1200" d="M109 485V765H690V485H109Z" />
<glyph unicode="&#xae;" horiz-adv-x="1465" d="M733 -13Q591 -13 467 40T249 188T102 406T48 672Q48 813 101 937T249 1155T467 1303T733 1356Q874 1356 998 1303T1216 1156T1364 937T1417 672Q1417 530 1364 406T1217 188T998 41T733 -13ZM733 142Q843 142 938
183T1107 297T1221 466T1262 672Q1262 782 1221 877T1107 1046T939 1160T733 1201Q624 1201 528 1160T359 1046T245 878T203 672Q203 563 244 467T358 298T527 184T733 142ZM846 307L663 670H852L1080 307H846ZM454 307V1059H747Q888 1059 966 995T1045 821Q1045
715 967 651T747 586H633V307H454ZM633 702H727Q794 702 827 730T860 801Q860 846 832 875T747 904H633V702Z" />
<glyph unicode="&#xaf;" horiz-adv-x="935" d="M86 1428H848V1169H86V1428Z" />
<glyph unicode="&#xb0;" horiz-adv-x="877" d="M439 986Q346 986 270 1031T148 1153T102 1323Q102 1416 147 1492T269 1613T439 1659Q532 1659 608 1614T729 1492T775 1323Q775 1230 730 1154T608 1032T439 986ZM439 1193Q492 1193 530 1231T568 1323Q568 1376
530 1414T439 1452Q385 1452 347 1414T309 1323Q309 1269 347 1231T439 1193Z" />
<glyph unicode="&#xb1;" horiz-adv-x="1051" d="M406 1148H646V870H893V669H646V395H406V669H159V870H406V1148ZM158 239H896V0H158V239Z" />
<glyph unicode="&#xb2;" horiz-adv-x="836" d="M112 545V702Q112 767 130 815T189 897T296 956L467 1020Q514 1038 535 1063T556 1123Q556 1155 531 1180T456 1205Q410 1205 377 1177T339 1098H126Q125 1193 170 1253T289 1343T452 1372Q538 1372 608 1341T720
1252T762 1117Q762 1055 740 1007T668 921T537 852L366 788Q331 775 318 763T305 730V721H759V545H112Z" />
<glyph unicode="&#xb3;" horiz-adv-x="850" d="M427 526Q359 526 296 543T183 596T103 684T73 806H278Q282 776 300 753T349 715T427 701Q488 701 525 727T562 795Q562 823 548 841T506 868T438 877H315V1028H435Q483 1028 510 1052T537 1115Q537 1151 512 1174T427
1197Q375 1197 335 1176T287 1109H83Q90 1199 134 1257T251 1343T417 1372Q512 1372 586 1343T702 1262T745 1141Q745 1081 714 1036T620 968Q690 941 730 893T770 776Q770 702 727 646T606 558T427 526Z" />
<glyph unicode="&#xb4;" horiz-adv-x="795" d="M236 1108L86 1232L500 1627L708 1459L236 1108Z" />
<glyph unicode="&#xb5;" horiz-adv-x="1299" d="M811 991H1131V0H811V991ZM158 991H478V395Q478 327 512 295T601 262Q650 262 698 286T779 368T811 529H881Q881 333 836 213T714 37T538 -18Q439 -18 352 16T212 132T158 358V991ZM158 -389V991H478V-389H158Z" />
<glyph unicode="&#xb6;" horiz-adv-x="1200" d="M535 459Q303 459 167 572T31 903Q31 1120 167 1231T535 1342H1057V1053H699V459H535ZM528 -252V1342H760V-252H528ZM858 -252V1342H1090V-252H858Z" />
<glyph unicode="&#xb7;" horiz-adv-x="507" d="M35 556Q35 645 94 704T249 763Q344 763 406 704T468 556Q468 467 406 410T249 352Q154 352 95 410T35 556Z" />
<glyph unicode="&#xb8;" horiz-adv-x="632" d="M86 -379L125 -278Q186 -303 232 -306T305 -294T336 -251Q338 -230 324 -213T274 -181T175 -151L261 103L380 81L306 -144L280 -80Q384 -90 442 -121T524 -192T545 -273Q541 -331 495 -367T378 -418T231 -423T86 -379Z" />
<glyph unicode="&#xb9;" horiz-adv-x="559" d="M248 1354H388V538H195V1122Q161 1113 131 1109T71 1104V1287Q115 1291 156 1306T248 1354Z" />
<glyph unicode="&#xba;" horiz-adv-x="1173" d="M589 -32Q452 -32 338 24T155 196T86 490Q86 674 154 790T337 961T589 1017Q723 1017 836 962T1017 790T1086 490Q1086 312 1018 197T836 25T589 -32ZM577 247Q623 247 666 271T739 348T768 490Q768 627 719 683T601
739Q555 739 510 715T435 637T405 490Q405 357 456 302T577 247Z" />
<glyph unicode="&#xbb;" horiz-adv-x="1353" d="M968 516L646 817L848 984L1266 550L848 116L646 283L968 584V516ZM408 516L86 817L288 984L706 550L288 116L86 283L408 584V516Z" />
<glyph unicode="&#xbc;" horiz-adv-x="1935" d="M248 1416H388V600H195V1184Q161 1175 131 1170T71 1166V1349Q115 1353 157 1368T248 1416ZM242 -31L1246 1410H1497L490 -31H242ZM1592 814H1781V328H1922V162H1781V0H1589V162H1188V306L1592 814ZM1600 538L1416
306H1600V538Z" />
<glyph unicode="&#xbd;" horiz-adv-x="1987" d="M248 1416H388V600H195V1184Q161 1175 131 1170T71 1166V1349Q115 1353 157 1368T248 1416ZM242 -31L1246 1410H1497L490 -31H242ZM1264 0V157Q1264 255 1305 314T1447 411L1618 475Q1665 493 1686 518T1707 578Q1707
610 1682 635T1607 660Q1561 660 1528 632T1490 553H1277Q1276 648 1321 708T1440 798T1603 827Q1689 827 1759 796T1871 708T1913 572Q1913 479 1862 417T1688 307L1517 243Q1482 230 1469 218T1456 185V176H1911V0H1264Z" />
<glyph unicode="&#xbe;" horiz-adv-x="2226" d="M427 568Q337 568 256 599T124 693T73 848H278Q284 804 321 774T427 743Q489 743 525 769T562 837Q562 880 530 899T438 919H315V1070H435Q484 1070 510 1094T537 1158Q537 1193 512 1216T427 1240Q375 1240 335
1219T287 1151H83Q94 1286 185 1350T417 1414Q560 1414 652 1351T745 1183Q745 1124 714 1078T620 1011Q690 983 730 935T770 818Q770 707 674 638T427 568ZM533 -31L1537 1410H1788L781 -31H533ZM1883 814H2072V328H2213V162H2072V0H1880V162H1479V306L1883 814ZM1891
538L1707 306H1891V538Z" />
<glyph unicode="&#xbf;" horiz-adv-x="1073" d="M728 907V837Q728 750 706 695T640 603T526 536Q467 508 438 485T399 439T389 391Q389 344 426 314T529 283Q615 283 662 328T709 439H1039Q1031 235 904 115T545 -6Q388 -6 274 45T98 186T35 391Q35 497 87 571T247
695Q309 724 344 750T392 804T406 872V907H728ZM558 1398Q655 1398 713 1340T772 1196Q772 1107 714 1050T558 992Q462 992 401 1049T340 1196Q340 1282 401 1340T558 1398Z" />
<glyph unicode="&#xc0;" horiz-adv-x="1358" d="M36 0L488 1342H895L1322 0H985L912 236H449L376 0H36ZM530 473H839L687 964L530 473ZM852 1461L380 1812L588 1980L1002 1585L852 1461Z" />
<glyph unicode="&#xc1;" horiz-adv-x="1358" d="M36 0L488 1342H895L1322 0H985L912 236H449L376 0H36ZM530 473H839L687 964L530 473ZM628 1461L478 1585L892 1980L1100 1812L628 1461Z" />
<glyph unicode="&#xc2;" horiz-adv-x="1358" d="M36 0L488 1342H895L1322 0H985L912 236H449L376 0H36ZM530 473H839L687 964L530 473ZM486 1474L301 1621L697 1921L1096 1621L908 1474L640 1685H754L486 1474Z" />
<glyph unicode="&#xc3;" horiz-adv-x="1358" d="M36 0L488 1342H895L1322 0H985L912 236H449L376 0H36ZM530 473H839L687 964L530 473ZM445 1489L319 1562Q343 1705 409 1788T571 1871Q603 1871 637 1859T717 1823Q757 1804 784 1792T837 1779Q866 1779 894 1801T943
1871L1076 1784Q1063 1703 1026 1636T941 1529T845 1489Q802 1489 765 1504T679 1543Q639 1566 616 1575T571 1585Q537 1585 507 1567T445 1489Z" />
<glyph unicode="&#xc4;" horiz-adv-x="1358" d="M36 0L488 1342H895L1322 0H985L912 236H449L376 0H36ZM530 473H839L687 964L530 473ZM915 1499Q841 1499 790 1546T738 1667Q738 1740 789 1787T915 1834Q994 1834 1044 1787T1095 1667Q1095 1594 1045 1547T915
1499ZM479 1499Q400 1499 351 1546T301 1665Q301 1739 350 1785T479 1832Q558 1832 608 1786T659 1665Q659 1594 609 1547T479 1499Z" />
<glyph unicode="&#xc5;" horiz-adv-x="1358" d="M36 0L488 1342H895L1322 0H985L912 236H449L376 0H36ZM530 473H839L687 964L530 473ZM700 1439Q624 1439 561 1476T461 1577T423 1716Q423 1792 460 1855T561 1955T700 1993Q776 1993 839 1956T939 1855T977 1716Q977
1640 940 1577T839 1477T700 1439ZM700 1644Q730 1644 751 1665T772 1716Q772 1746 751 1767T700 1788Q670 1788 649 1767T628 1716Q628 1686 649 1665T700 1644Z" />
<glyph unicode="&#xc6;" horiz-adv-x="1856" d="M1696 1342V1065H1128L1180 1110V680L1128 807H1658V529H1128L1180 620V134L1128 280H1696V0H860V352L912 236H358L510 347L369 0H36L581 1342H1696ZM912 473L860 386L858 1105L912 1065H729L852 1190L527 391L432
473H912Z" />
<glyph unicode="&#xc7;" horiz-adv-x="1310" d="M679 -32Q503 -32 370 47T161 282T86 669Q86 901 160 1057T369 1292T679 1372Q933 1372 1066 1252T1224 941L884 882Q861 968 812 1024T679 1081Q605 1081 549 1037T461 901T430 669Q430 531 462 441T550 306T679
262Q782 262 833 316T884 449H1222Q1222 294 1160 187T976 24T679 -32ZM486 -379L525 -278Q586 -303 632 -306T705 -294T736 -251Q738 -230 724 -213T674 -181T575 -151L661 103L780 81L706 -144L680 -80Q784 -90 842 -121T924 -192T945 -273Q941 -331 895 -367T778
-418T631 -423T486 -379Z" />
<glyph unicode="&#xc8;" horiz-adv-x="1224" d="M167 0V1342H1064V1065H487V807H1028V529H487V280H1064V0H167ZM766 1461L294 1812L502 1980L916 1585L766 1461Z" />
<glyph unicode="&#xc9;" horiz-adv-x="1224" d="M167 0V1342H1064V1065H487V807H1028V529H487V280H1064V0H167ZM542 1461L392 1585L806 1980L1014 1812L542 1461Z" />
<glyph unicode="&#xca;" horiz-adv-x="1224" d="M167 0V1342H1064V1065H487V807H1028V529H487V280H1064V0H167ZM400 1474L215 1621L611 1921L1010 1621L822 1474L554 1685H668L400 1474Z" />
<glyph unicode="&#xcb;" horiz-adv-x="1224" d="M167 0V1342H1064V1065H487V807H1028V529H487V280H1064V0H167ZM829 1499Q755 1499 704 1546T652 1667Q652 1740 703 1787T829 1834Q908 1834 958 1787T1009 1667Q1009 1594 959 1547T829 1499ZM393 1499Q314 1499
265 1546T215 1665Q215 1739 264 1785T393 1832Q472 1832 522 1786T573 1665Q573 1594 523 1547T393 1499Z" />
<glyph unicode="&#xcc;" horiz-adv-x="660" d="M169 0V1342H489V0H169ZM484 1461L12 1812L220 1980L634 1585L484 1461Z" />
<glyph unicode="&#xcd;" horiz-adv-x="660" d="M169 0V1342H489V0H169ZM260 1461L110 1585L524 1980L732 1812L260 1461Z" />
<glyph unicode="&#xce;" horiz-adv-x="660" d="M169 0V1342H489V0H169ZM118 1474L-67 1621L329 1921L728 1621L540 1474L272 1685H386L118 1474Z" />
<glyph unicode="&#xcf;" horiz-adv-x="660" d="M169 0V1342H489V0H169ZM547 1499Q473 1499 422 1546T370 1667Q370 1740 421 1787T547 1834Q626 1834 676 1787T727 1667Q727 1594 677 1547T547 1499ZM111 1499Q32 1499 -17 1546T-67 1665Q-67 1739 -18 1785T111
1832Q190 1832 240 1786T291 1665Q291 1594 241 1547T111 1499Z" />
<glyph unicode="&#xd0;" horiz-adv-x="1429" d="M44 810H686V532H44V810ZM169 1342H644Q851 1342 1009 1260T1256 1028T1346 669Q1346 464 1257 314T1009 82T644 0H169V1342ZM489 1048V292H644Q753 292 832 341T955 476T999 669Q999 781 956 866T833 999T644 1048H489Z" />
<glyph unicode="&#xd1;" horiz-adv-x="1503" d="M163 1342H497L1036 530H1014V1342H1334V0H1025L430 892H483V0H163V1342ZM499 1489L373 1562Q397 1705 463 1788T625 1871Q657 1871 691 1859T771 1823Q811 1804 838 1792T891 1779Q920 1779 948 1801T997 1871L1130
1784Q1117 1703 1080 1636T995 1529T899 1489Q856 1489 819 1504T733 1543Q693 1566 670 1575T625 1585Q591 1585 561 1567T499 1489Z" />
<glyph unicode="&#xd2;" horiz-adv-x="1443" d="M720 -32Q529 -32 387 48T165 286T86 675Q86 912 165 1066T386 1296T720 1372Q913 1372 1056 1293T1279 1059T1358 675Q1358 440 1279 283T1057 47T720 -32ZM720 255Q860 255 944 365T1028 677Q1028 866 944 975T720
1085Q584 1085 500 976T416 675Q416 476 500 366T720 255ZM876 1461L404 1812L612 1980L1026 1585L876 1461Z" />
<glyph unicode="&#xd3;" horiz-adv-x="1443" d="M720 -32Q529 -32 387 48T165 286T86 675Q86 912 165 1066T386 1296T720 1372Q913 1372 1056 1293T1279 1059T1358 675Q1358 440 1279 283T1057 47T720 -32ZM720 255Q860 255 944 365T1028 677Q1028 866 944 975T720
1085Q584 1085 500 976T416 675Q416 476 500 366T720 255ZM652 1461L502 1585L916 1980L1124 1812L652 1461Z" />
<glyph unicode="&#xd4;" horiz-adv-x="1443" d="M720 -32Q529 -32 387 48T165 286T86 675Q86 912 165 1066T386 1296T720 1372Q913 1372 1056 1293T1279 1059T1358 675Q1358 440 1279 283T1057 47T720 -32ZM720 255Q860 255 944 365T1028 677Q1028 866 944 975T720
1085Q584 1085 500 976T416 675Q416 476 500 366T720 255ZM510 1474L325 1621L721 1921L1120 1621L932 1474L664 1685H778L510 1474Z" />
<glyph unicode="&#xd5;" horiz-adv-x="1443" d="M720 -32Q529 -32 387 48T165 286T86 675Q86 912 165 1066T386 1296T720 1372Q913 1372 1056 1293T1279 1059T1358 675Q1358 440 1279 283T1057 47T720 -32ZM720 255Q860 255 944 365T1028 677Q1028 866 944 975T720
1085Q584 1085 500 976T416 675Q416 476 500 366T720 255ZM469 1489L343 1562Q367 1705 433 1788T595 1871Q627 1871 661 1859T741 1823Q781 1804 808 1792T861 1779Q890 1779 918 1801T967 1871L1100 1784Q1087 1703 1050 1636T965 1529T869 1489Q826 1489 789
1504T703 1543Q663 1566 640 1575T595 1585Q561 1585 531 1567T469 1489Z" />
<glyph unicode="&#xd6;" horiz-adv-x="1443" d="M720 -32Q529 -32 387 48T165 286T86 675Q86 912 165 1066T386 1296T720 1372Q913 1372 1056 1293T1279 1059T1358 675Q1358 440 1279 283T1057 47T720 -32ZM720 255Q860 255 944 365T1028 677Q1028 866 944 975T720
1085Q584 1085 500 976T416 675Q416 476 500 366T720 255ZM939 1499Q865 1499 814 1546T762 1667Q762 1740 813 1787T939 1834Q1018 1834 1068 1787T1119 1667Q1119 1594 1069 1547T939 1499ZM503 1499Q424 1499 375 1546T325 1665Q325 1739 374 1785T503 1832Q582
1832 632 1786T683 1665Q683 1594 633 1547T503 1499Z" />
<glyph unicode="&#xd7;" horiz-adv-x="1123" d="M328 69L101 298L336 531L101 763L328 992L561 757L796 992L1025 763L788 531L1025 298L796 69L561 304L328 69Z" />
<glyph unicode="&#xd8;" horiz-adv-x="1443" d="M26 0L1116 1342H1380L287 0H26ZM720 -32Q529 -32 387 48T165 286T86 675Q86 912 165 1066T386 1296T720 1372Q913 1372 1056 1293T1279 1059T1358 675Q1358 440 1279 283T1057 47T720 -32ZM720 255Q860 255 944
365T1028 677Q1028 866 944 975T720 1085Q584 1085 500 976T416 675Q416 476 500 366T720 255Z" />
<glyph unicode="&#xd9;" horiz-adv-x="1458" d="M158 1342H478V528Q478 385 551 322T734 259Q846 259 919 322T993 528V1342H1312V528Q1312 358 1245 232T1049 37T734 -32Q548 -32 420 37T225 232T158 528V1342ZM883 1461L411 1812L619 1980L1033 1585L883 1461Z" />
<glyph unicode="&#xda;" horiz-adv-x="1458" d="M158 1342H478V528Q478 385 551 322T734 259Q846 259 919 322T993 528V1342H1312V528Q1312 358 1245 232T1049 37T734 -32Q548 -32 420 37T225 232T158 528V1342ZM659 1461L509 1585L923 1980L1131 1812L659 1461Z" />
<glyph unicode="&#xdb;" horiz-adv-x="1458" d="M158 1342H478V528Q478 385 551 322T734 259Q846 259 919 322T993 528V1342H1312V528Q1312 358 1245 232T1049 37T734 -32Q548 -32 420 37T225 232T158 528V1342ZM517 1474L332 1621L728 1921L1127 1621L939 1474L671
1685H785L517 1474Z" />
<glyph unicode="&#xdc;" horiz-adv-x="1458" d="M158 1342H478V528Q478 385 551 322T734 259Q846 259 919 322T993 528V1342H1312V528Q1312 358 1245 232T1049 37T734 -32Q548 -32 420 37T225 232T158 528V1342ZM946 1499Q872 1499 821 1546T769 1667Q769 1740
820 1787T946 1834Q1025 1834 1075 1787T1126 1667Q1126 1594 1076 1547T946 1499ZM510 1499Q431 1499 382 1546T332 1665Q332 1739 381 1785T510 1832Q589 1832 639 1786T690 1665Q690 1594 640 1547T510 1499Z" />
<glyph unicode="&#xdd;" horiz-adv-x="1253" d="M10 1342H386L644 839H592L867 1342H1242L772 557V0H454V557L10 1342ZM557 1461L407 1585L821 1980L1029 1812L557 1461Z" />
<glyph unicode="&#xde;" horiz-adv-x="1218" d="M161 0V1342H483V1060L411 1132H676Q908 1132 1044 1021T1180 691Q1180 474 1044 362T676 249H411L483 321V0H161ZM483 457L411 529H676Q763 529 807 577T852 691Q852 757 808 806T676 855H411L483 927V457Z" />
<glyph unicode="&#xdf;" horiz-adv-x="1371" d="M1129 1075Q1129 1005 1107 957T1054 873T1002 810T979 751Q979 716 1011 689T1090 632T1184 564T1263 469T1295 331Q1295 217 1231 137T1067 14T863 -28Q806 -28 740 -15T616 26V272Q681 232 724 215T817 198Q862
198 888 210T926 245T937 301Q937 361 910 402T842 475T760 537T692 605T664 696Q664 750 690 788T752 860T814 931T841 1020Q841 1090 788 1119T666 1148Q560 1148 528 1085T495 890V0H169V898Q169 1071 232 1182T410 1346T677 1400Q809 1400 911 1363T1071 1253T1129
1075Z" />
<glyph unicode="&#xe0;" horiz-adv-x="1242" d="M815 0L774 263V632Q774 706 747 747T632 788Q580 788 548 773T500 732T484 676H138Q138 792 193 867T358 980T632 1017Q775 1017 878 973T1038 841T1094 620V0H815ZM505 -32Q373 -32 283 12T146 133T100 301Q100
388 148 451T290 550T523 585Q607 585 671 576T804 554V374Q754 385 701 391T596 397Q525 397 484 375T442 301Q442 264 479 237T596 209Q664 209 703 236T758 304T774 385H849Q849 271 813 176T701 25T505 -32ZM775 1108L303 1459L511 1627L925 1232L775 1108Z"
/>
<glyph unicode="&#xe1;" horiz-adv-x="1242" d="M815 0L774 263V632Q774 706 747 747T632 788Q580 788 548 773T500 732T484 676H138Q138 792 193 867T358 980T632 1017Q775 1017 878 973T1038 841T1094 620V0H815ZM505 -32Q373 -32 283 12T146 133T100 301Q100
388 148 451T290 550T523 585Q607 585 671 576T804 554V374Q754 385 701 391T596 397Q525 397 484 375T442 301Q442 264 479 237T596 209Q664 209 703 236T758 304T774 385H849Q849 271 813 176T701 25T505 -32ZM551 1108L401 1232L815 1627L1023 1459L551 1108Z"
/>
<glyph unicode="&#xe2;" horiz-adv-x="1242" d="M815 0L774 263V632Q774 706 747 747T632 788Q580 788 548 773T500 732T484 676H138Q138 792 193 867T358 980T632 1017Q775 1017 878 973T1038 841T1094 620V0H815ZM505 -32Q373 -32 283 12T146 133T100 301Q100
388 148 451T290 550T523 585Q607 585 671 576T804 554V374Q754 385 701 391T596 397Q525 397 484 375T442 301Q442 264 479 237T596 209Q664 209 703 236T758 304T774 385H849Q849 271 813 176T701 25T505 -32ZM409 1121L224 1268L620 1568L1019 1268L831 1121L563
1332H677L409 1121Z" />
<glyph unicode="&#xe3;" horiz-adv-x="1242" d="M815 0L774 263V632Q774 706 747 747T632 788Q580 788 548 773T500 732T484 676H138Q138 792 193 867T358 980T632 1017Q775 1017 878 973T1038 841T1094 620V0H815ZM505 -32Q373 -32 283 12T146 133T100 301Q100
388 148 451T290 550T523 585Q607 585 671 576T804 554V374Q754 385 701 391T596 397Q525 397 484 375T442 301Q442 264 479 237T596 209Q664 209 703 236T758 304T774 385H849Q849 271 813 176T701 25T505 -32ZM368 1136L242 1209Q266 1352 332 1435T494 1518Q526
1518 560 1506T640 1470Q680 1451 707 1439T760 1426Q789 1426 817 1448T866 1518L999 1431Q986 1350 949 1283T864 1176T768 1136Q725 1136 688 1151T602 1190Q562 1213 539 1222T494 1232Q460 1232 430 1214T368 1136Z" />
<glyph unicode="&#xe4;" horiz-adv-x="1242" d="M815 0L774 263V632Q774 706 747 747T632 788Q580 788 548 773T500 732T484 676H138Q138 792 193 867T358 980T632 1017Q775 1017 878 973T1038 841T1094 620V0H815ZM505 -32Q373 -32 283 12T146 133T100 301Q100
388 148 451T290 550T523 585Q607 585 671 576T804 554V374Q754 385 701 391T596 397Q525 397 484 375T442 301Q442 264 479 237T596 209Q664 209 703 236T758 304T774 385H849Q849 271 813 176T701 25T505 -32ZM838 1146Q764 1146 713 1193T661 1314Q661 1387
712 1434T838 1481Q917 1481 967 1434T1018 1314Q1018 1241 968 1194T838 1146ZM402 1146Q323 1146 274 1193T224 1312Q224 1386 273 1432T402 1479Q481 1479 531 1433T582 1312Q582 1241 532 1194T402 1146Z" />
<glyph unicode="&#xe5;" horiz-adv-x="1242" d="M815 0L774 263V632Q774 706 747 747T632 788Q580 788 548 773T500 732T484 676H138Q138 792 193 867T358 980T632 1017Q775 1017 878 973T1038 841T1094 620V0H815ZM505 -32Q373 -32 283 12T146 133T100 301Q100
388 148 451T290 550T523 585Q607 585 671 576T804 554V374Q754 385 701 391T596 397Q525 397 484 375T442 301Q442 264 479 237T596 209Q664 209 703 236T758 304T774 385H849Q849 271 813 176T701 25T505 -32ZM623 1086Q547 1086 484 1123T384 1224T346 1363Q346
1439 383 1502T484 1602T623 1640Q699 1640 762 1603T862 1502T900 1363Q900 1287 863 1224T762 1124T623 1086ZM623 1291Q653 1291 674 1312T695 1363Q695 1393 674 1414T623 1435Q593 1435 572 1414T551 1363Q551 1333 572 1312T623 1291Z" />
<glyph unicode="&#xe6;" horiz-adv-x="1755" d="M795 303H754V632Q754 701 724 744T615 788Q569 788 540 773T498 732T484 676H138Q138 792 192 867T339 980T551 1017Q705 1017 800 960T940 801T984 568V500L795 303ZM501 -32Q370 -32 281 12T146 132T100 296Q100
387 147 451T284 550T505 585Q576 585 646 576T784 554V374Q734 385 675 391T582 397Q518 397 480 375T442 305Q442 265 474 237T573 209Q637 209 677 234T735 300T754 385H959Q959 288 911 192T762 32T501 -32ZM1239 -32Q1103 -32 994 38T820 229T756 497Q756
645 820 762T992 948T1236 1017Q1352 1017 1441 967T1587 833T1661 644T1654 427H999V589H1420L1374 559Q1377 594 1372 630T1350 696T1305 745T1229 764Q1178 764 1141 740T1083 669T1062 555V429Q1062 366 1080 320T1133 249T1223 223Q1267 223 1300 241T1346
298H1664Q1650 204 1589 130T1437 12T1239 -32Z" />
<glyph unicode="&#xe7;" horiz-adv-x="1087" d="M571 -32Q442 -32 332 33T154 216T86 492Q86 665 153 781T331 957T571 1017Q680 1017 761 980T897 883T977 751T1004 610L684 613Q677 656 650 691T569 727Q527 727 490 706T429 633T405 492Q405 404 428 353T489
281T569 260Q637 260 660 291T684 371H1004Q1004 265 957 173T815 25T571 -32ZM360 -376L399 -275Q460 -300 506 -303T579 -291T610 -248Q612 -227 598 -210T548 -178T449 -148L535 106L654 84L580 -141L554 -77Q658 -87 716 -118T798 -189T819 -270Q815 -328 769
-364T652 -415T505 -420T360 -376Z" />
<glyph unicode="&#xe8;" horiz-adv-x="1095" d="M563 -32Q439 -32 330 32T154 215T86 497Q86 660 153 776T329 955T563 1017Q687 1017 779 968T927 834T1001 645T994 427H339V589H760L714 559Q717 594 712 630T690 696T645 745T569 764Q518 764 481 740T423 669T402
555V429Q402 366 420 320T473 249T563 223Q607 223 640 241T686 298H1004Q989 206 931 131T779 12T563 -32ZM702 1108L230 1459L438 1627L852 1232L702 1108Z" />
<glyph unicode="&#xe9;" horiz-adv-x="1095" d="M563 -32Q439 -32 330 32T154 215T86 497Q86 660 153 776T329 955T563 1017Q687 1017 779 968T927 834T1001 645T994 427H339V589H760L714 559Q717 594 712 630T690 696T645 745T569 764Q518 764 481 740T423 669T402
555V429Q402 366 420 320T473 249T563 223Q607 223 640 241T686 298H1004Q989 206 931 131T779 12T563 -32ZM478 1108L328 1232L742 1627L950 1459L478 1108Z" />
<glyph unicode="&#xea;" horiz-adv-x="1095" d="M563 -32Q439 -32 330 32T154 215T86 497Q86 660 153 776T329 955T563 1017Q687 1017 779 968T927 834T1001 645T994 427H339V589H760L714 559Q717 594 712 630T690 696T645 745T569 764Q518 764 481 740T423 669T402
555V429Q402 366 420 320T473 249T563 223Q607 223 640 241T686 298H1004Q989 206 931 131T779 12T563 -32ZM336 1377L151 1524L547 1824L946 1524L758 1377L490 1588H604L336 1377Z" />
<glyph unicode="&#xeb;" horiz-adv-x="1095" d="M563 -32Q439 -32 330 32T154 215T86 497Q86 660 153 776T329 955T563 1017Q687 1017 779 968T927 834T1001 645T994 427H339V589H760L714 559Q717 594 712 630T690 696T645 745T569 764Q518 764 481 740T423 669T402
555V429Q402 366 420 320T473 249T563 223Q607 223 640 241T686 298H1004Q989 206 931 131T779 12T563 -32ZM765 1146Q691 1146 640 1193T588 1314Q588 1387 639 1434T765 1481Q844 1481 894 1434T945 1314Q945 1241 895 1194T765 1146ZM329 1146Q250 1146 201
1193T151 1312Q151 1386 200 1432T329 1479Q408 1479 458 1433T509 1312Q509 1241 459 1194T329 1146Z" />
<glyph unicode="&#xec;" horiz-adv-x="719" d="M200 0V991H520V0H200ZM770 1108L298 1459L506 1627L920 1232L770 1108Z" />
<glyph unicode="&#xed;" horiz-adv-x="719" d="M200 0V991H520V0H200ZM290 1108L140 1232L554 1627L762 1459L290 1108Z" />
<glyph unicode="&#xee;" horiz-adv-x="719" d="M200 0V991H520V0H200ZM404 1377L219 1524L615 1824L1014 1524L826 1377L558 1588H672L404 1377Z" />
<glyph unicode="&#xef;" horiz-adv-x="719" d="M200 0V991H520V0H200ZM833 1146Q759 1146 708 1193T656 1314Q656 1387 707 1434T833 1481Q912 1481 962 1434T1013 1314Q1013 1241 963 1194T833 1146ZM397 1146Q318 1146 269 1193T219 1312Q219 1386 268 1432T397
1479Q476 1479 526 1433T577 1312Q577 1241 527 1194T397 1146Z" />
<glyph unicode="&#xf0;" horiz-adv-x="1146" d="M554 -32Q426 -32 320 34T149 221T85 501Q85 655 143 771T299 952T512 1017Q636 1017 721 946T849 760T893 512H804Q802 585 772 632T695 703T598 727Q538 727 495 697T428 615T405 496Q405 429 429 376T496 291T599
260Q662 260 707 293T776 378T802 490Q804 629 795 754T743 1002T601 1253T324 1527L605 1697Q763 1542 862 1398T1016 1123T1090 878T1110 669Q1110 491 1061 360T931 141T752 11T554 -32ZM394 1106L306 1293L975 1637L1063 1450L394 1106Z" />
<glyph unicode="&#xf1;" horiz-adv-x="1287" d="M821 0V574Q821 652 783 689T691 727Q636 727 590 696T517 597T489 415H392Q392 627 442 760T580 955T779 1017Q906 1017 986 960T1105 803T1143 574V0H821ZM169 0V985H451L489 822V0H169ZM391 1136L265 1209Q289
1352 355 1435T517 1518Q549 1518 583 1506T663 1470Q703 1451 730 1439T783 1426Q812 1426 840 1448T889 1518L1022 1431Q1009 1350 972 1283T887 1176T791 1136Q748 1136 711 1151T625 1190Q585 1213 562 1222T517 1232Q483 1232 453 1214T391 1136Z" />
<glyph unicode="&#xf2;" horiz-adv-x="1173" d="M589 -32Q452 -32 338 24T155 196T86 490Q86 674 154 790T337 961T589 1017Q723 1017 836 962T1017 790T1086 490Q1086 312 1018 197T836 25T589 -32ZM577 247Q623 247 666 271T739 348T768 490Q768 627 719 683T601
739Q555 739 510 715T435 637T405 490Q405 357 456 302T577 247ZM741 1108L269 1459L477 1627L891 1232L741 1108Z" />
<glyph unicode="&#xf3;" horiz-adv-x="1173" d="M589 -32Q452 -32 338 24T155 196T86 490Q86 674 154 790T337 961T589 1017Q723 1017 836 962T1017 790T1086 490Q1086 312 1018 197T836 25T589 -32ZM577 247Q623 247 666 271T739 348T768 490Q768 627 719 683T601
739Q555 739 510 715T435 637T405 490Q405 357 456 302T577 247ZM517 1108L367 1232L781 1627L989 1459L517 1108Z" />
<glyph unicode="&#xf4;" horiz-adv-x="1173" d="M589 -32Q452 -32 338 24T155 196T86 490Q86 674 154 790T337 961T589 1017Q723 1017 836 962T1017 790T1086 490Q1086 312 1018 197T836 25T589 -32ZM577 247Q623 247 666 271T739 348T768 490Q768 627 719 683T601
739Q555 739 510 715T435 637T405 490Q405 357 456 302T577 247ZM375 1377L190 1524L586 1824L985 1524L797 1377L529 1588H643L375 1377Z" />
<glyph unicode="&#xf5;" horiz-adv-x="1173" d="M589 -32Q452 -32 338 24T155 196T86 490Q86 674 154 790T337 961T589 1017Q723 1017 836 962T1017 790T1086 490Q1086 312 1018 197T836 25T589 -32ZM577 247Q623 247 666 271T739 348T768 490Q768 627 719 683T601
739Q555 739 510 715T435 637T405 490Q405 357 456 302T577 247ZM334 1136L208 1209Q232 1352 298 1435T460 1518Q492 1518 526 1506T606 1470Q646 1451 673 1439T726 1426Q755 1426 783 1448T832 1518L965 1431Q952 1350 915 1283T830 1176T734 1136Q691 1136
654 1151T568 1190Q528 1213 505 1222T460 1232Q426 1232 396 1214T334 1136Z" />
<glyph unicode="&#xf6;" horiz-adv-x="1173" d="M589 -32Q452 -32 338 24T155 196T86 490Q86 674 154 790T337 961T589 1017Q723 1017 836 962T1017 790T1086 490Q1086 312 1018 197T836 25T589 -32ZM577 247Q623 247 666 271T739 348T768 490Q768 627 719 683T601
739Q555 739 510 715T435 637T405 490Q405 357 456 302T577 247ZM804 1146Q730 1146 679 1193T627 1314Q627 1387 678 1434T804 1481Q883 1481 933 1434T984 1314Q984 1241 934 1194T804 1146ZM368 1146Q289 1146 240 1193T190 1312Q190 1386 239 1432T368 1479Q447
1479 497 1433T548 1312Q548 1241 498 1194T368 1146Z" />
<glyph unicode="&#xf7;" horiz-adv-x="1052" d="M96 436V719H954V436H96ZM522 13Q448 13 400 59T351 177Q351 248 399 293T522 338Q598 338 649 293T700 177Q700 106 649 60T522 13ZM522 807Q448 807 400 852T351 970Q351 1038 399 1086T522 1134Q598 1134 649
1086T700 970Q700 897 649 852T522 807Z" />
<glyph unicode="&#xf8;" horiz-adv-x="1173" d="M589 -32Q452 -32 338 24T155 196T86 490Q86 674 154 790T337 961T589 1017Q723 1017 836 962T1017 790T1086 490Q1086 312 1018 197T836 25T589 -32ZM577 247Q623 247 666 271T739 348T768 490Q768 627 719 683T601
739Q555 739 510 715T435 637T405 490Q405 357 456 302T577 247ZM122 -2L964 1008H1262L417 -2H122Z" />
<glyph unicode="&#xf9;" horiz-adv-x="1299" d="M811 991H1131V0H811V991ZM158 991H478V395Q478 327 512 295T601 262Q650 262 698 286T779 368T811 529H881Q881 333 836 213T714 37T538 -18Q439 -18 352 16T212 132T158 358V991ZM817 1108L345 1459L553 1627L967
1232L817 1108Z" />
<glyph unicode="&#xfa;" horiz-adv-x="1299" d="M811 991H1131V0H811V991ZM158 991H478V395Q478 327 512 295T601 262Q650 262 698 286T779 368T811 529H881Q881 333 836 213T714 37T538 -18Q439 -18 352 16T212 132T158 358V991ZM593 1108L443 1232L857 1627L1065
1459L593 1108Z" />
<glyph unicode="&#xfb;" horiz-adv-x="1299" d="M811 991H1131V0H811V991ZM158 991H478V395Q478 327 512 295T601 262Q650 262 698 286T779 368T811 529H881Q881 333 836 213T714 37T538 -18Q439 -18 352 16T212 132T158 358V991ZM451 1121L266 1268L662 1568L1061
1268L873 1121L605 1332H719L451 1121Z" />
<glyph unicode="&#xfc;" horiz-adv-x="1299" d="M811 991H1131V0H811V991ZM158 991H478V395Q478 327 512 295T601 262Q650 262 698 286T779 368T811 529H881Q881 333 836 213T714 37T538 -18Q439 -18 352 16T212 132T158 358V991ZM880 1146Q806 1146 755 1193T703
1314Q703 1387 754 1434T880 1481Q959 1481 1009 1434T1060 1314Q1060 1241 1010 1194T880 1146ZM444 1146Q365 1146 316 1193T266 1312Q266 1386 315 1432T444 1479Q523 1479 573 1433T624 1312Q624 1241 574 1194T444 1146Z" />
<glyph unicode="&#xfd;" horiz-adv-x="1087" d="M32 985H398L600 280H551L752 985H1076L692 -159Q622 -361 530 -437T314 -513Q239 -513 164 -500T13 -455V-180Q69 -206 122 -219T227 -233Q261 -233 291 -221T346 -177T388 -92L420 0L32 985ZM474 1108L324 1232L738
1627L946 1459L474 1108Z" />
<glyph unicode="&#xfe;" horiz-adv-x="1200" d="M710 -32Q601 -32 528 12T419 150T382 394H489Q489 354 512 324T574 277T659 260Q705 260 753 283T835 357T869 492Q869 563 844 616T774 698T665 727Q614 727 574 706T512 647T489 556H382Q382 724 430 825T558
971T726 1017Q844 1017 950 955T1122 776T1189 492Q1189 326 1122 209T945 30T710 -32ZM169 -478V1342H489V-478H169Z" />
<glyph unicode="&#xff;" horiz-adv-x="1087" d="M32 985H398L600 280H551L752 985H1076L692 -159Q622 -361 530 -437T314 -513Q239 -513 164 -500T13 -455V-180Q69 -206 122 -219T227 -233Q261 -233 291 -221T346 -177T388 -92L420 0L32 985ZM761 1146Q687 1146
636 1193T584 1314Q584 1387 635 1434T761 1481Q840 1481 890 1434T941 1314Q941 1241 891 1194T761 1146ZM325 1146Q246 1146 197 1193T147 1312Q147 1386 196 1432T325 1479Q404 1479 454 1433T505 1312Q505 1241 455 1194T325 1146Z" />
<glyph unicode="&#x2013;" horiz-adv-x="1160" d="M110 485V765H1049V485H110Z" />
<glyph unicode="&#x2014;" horiz-adv-x="1627" d="M110 485V765H1518V485H110Z" />
<glyph unicode="&#x2018;" horiz-adv-x="665" d="M317 674Q241 674 186 713T102 816T72 951Q72 1077 157 1186T369 1359L587 1233Q512 1199 451 1150T364 1036Q432 1023 481 979T531 862Q531 784 470 729T317 674Z" />
<glyph unicode="&#x2019;" horiz-adv-x="665" d="M306 674L87 800Q163 835 226 885T313 999Q240 1013 193 1058T146 1173Q146 1255 208 1307T360 1359Q437 1359 491 1320T573 1218T601 1082Q601 954 516 847T306 674Z" />
<glyph unicode="&#x201a;" horiz-adv-x="652" d="M305 -329L72 -209Q148 -171 210 -121T294 -10Q226 7 178 52T129 168Q129 247 190 299T344 352Q460 352 524 272T588 83Q588 -40 510 -153T305 -329Z" />
<glyph unicode="&#x201c;" horiz-adv-x="1170" d="M836 674Q760 674 705 713T621 816T591 951Q591 1077 676 1186T888 1359L1106 1233Q1031 1199 970 1150T883 1036Q951 1023 1000 979T1050 862Q1050 784 989 729T836 674ZM317 674Q241 674 186 713T102 816T72
951Q72 1077 157 1186T369 1359L587 1233Q512 1199 451 1150T364 1036Q432 1023 481 979T531 862Q531 784 470 729T317 674Z" />
<glyph unicode="&#x201d;" horiz-adv-x="1155" d="M796 674L577 800Q653 835 716 885T803 999Q730 1013 683 1058T636 1173Q636 1255 698 1307T850 1359Q927 1359 981 1320T1063 1218T1091 1082Q1091 954 1006 847T796 674ZM547 674L328 800Q404 835 467 885T554
999Q481 1013 434 1058T387 1173Q387 1255 449 1307T601 1359Q678 1359 732 1320T814 1218T842 1082Q842 954 757 847T547 674Z" />
<glyph unicode="&#x201e;" horiz-adv-x="1201" d="M854 -329L621 -209Q697 -171 759 -121T843 -10Q775 7 727 52T678 168Q678 247 739 299T893 352Q1009 352 1073 272T1137 83Q1137 -40 1059 -153T854 -329ZM305 -329L72 -209Q148 -171 210 -121T294 -10Q226 7
178 52T129 168Q129 247 190 299T344 352Q460 352 524 272T588 83Q588 -40 510 -153T305 -329Z" />
<glyph unicode="&#x2022;" horiz-adv-x="750" d="M44 741Q44 903 152 1010T434 1118Q607 1118 720 1011T833 741Q833 578 720 474T434 369Q261 369 153 474T44 741Z" />
<glyph unicode="&#x2039;" horiz-adv-x="793" d="M384 516L706 817L504 984L86 550L504 116L706 283L384 584V516Z" />
<glyph unicode="&#x203a;" horiz-adv-x="793" d="M288 116L86 283L408 584V516L86 817L288 984L706 550L288 116Z" />
</font>
</defs>
</svg>
