<?xml version="1.0" standalone="no"?>
<!DOCTYPE svg PUBLIC "-//W3C//DTD SVG 1.1//EN" "http://www.w3.org/Graphics/SVG/1.1/DTD/svg11.dtd">
<svg xmlns="http://www.w3.org/2000/svg">
<defs >
<font id="Karla" horiz-adv-x="978" ><font-face
    font-family="Karla"
    units-per-em="2000"
    panose-1="2 11 0 4 3 5 3 3 0 3"
    ascent="1834"
    descent="-504"
    alphabetic="0" />
<glyph unicode=" " horiz-adv-x="428" />
<glyph unicode="!" horiz-adv-x="500" d="M228 352L296 1254H444L344 352H228ZM251 -18Q204 -18 177 16T154 94Q158 140 190 174T271 208Q319 208 346 175T368 94Q363 48 331 15T251 -18Z" />
<glyph unicode="&quot;" horiz-adv-x="550" d="M458 922L480 1362H628L566 922H458ZM156 922L178 1362H326L264 922H156Z" />
<glyph unicode="#" horiz-adv-x="1128" d="M254 62L306 340H126L146 448H326L394 804H212L232 910H414L466 1186H600L548 910H824L876 1186H1008L956 910H1140L1120 804H936L868 448H1052L1032 340H848L796 62H662L714 340H438L386 62H254ZM460 448H736L804 804H528L460
448Z" />
<glyph unicode="$" horiz-adv-x="1138" d="M494 -182L508 -18Q402 -8 319 40T192 172T158 378H296Q286 260 348 199T522 126L568 598L512 620Q370 673 300 744T242 948Q254 1083 354 1173T632 1276L646 1426H758L744 1274Q897 1261 975 1175T1060 952H920Q913
1027 865 1075T730 1136L690 706L812 660Q931 615 993 537T1044 330Q1035 246 985 169T843 41T620 -20L606 -182H494ZM634 124Q750 135 813 196T886 334Q892 409 854 460T740 540L676 564L634 124ZM582 742L618 1136Q516 1126 458 1073T394 942Q388 873 421 832T530
762L582 742Z" />
<glyph unicode="%" horiz-adv-x="1306" d="M460 1280Q552 1280 615 1207T664 992Q651 851 575 779T406 706Q345 706 296 738T221 834T204 992Q213 1086 251 1150T344 1247T460 1280ZM450 1174Q396 1174 360 1130T314 992Q305 899 333 857T416 814Q466 814 502
856T548 992Q557 1085 529 1129T450 1174ZM202 0L1080 1258H1228L348 0H202ZM1020 552Q1112 552 1175 480T1224 264Q1211 123 1134 51T964 -22Q874 -22 813 50T764 264Q778 407 854 479T1020 552ZM1010 446Q958 446 922 402T874 264Q867 171 895 129T976 86Q1027
86 1064 128T1108 264Q1119 357 1090 401T1010 446Z" />
<glyph unicode="&amp;" horiz-adv-x="1648" d="M602 -22Q474 -22 378 27T232 160T192 348Q206 483 299 558T560 664L536 690Q476 753 447 827T424 984Q432 1068 481 1134T612 1239T804 1278Q905 1278 976 1239T1083 1134T1110 986Q1100 874 1022 787T778 624L1038
346Q1109 430 1168 536T1276 760L1370 700Q1321 573 1259 460T1122 256L1192 182Q1224 148 1251 132T1322 116Q1366 116 1404 154T1456 280H1590Q1569 136 1501 57T1318 -22Q1275 -22 1241 -12T1176 21T1109 76T1028 156Q937 72 831 25T602 -22ZM618 118Q708 118
789 152T942 250L640 578Q499 559 428 503T348 354Q338 257 407 188T618 118ZM704 704Q798 750 850 793T926 881T956 976Q962 1048 917 1096T792 1144Q695 1144 640 1089T578 960Q572 906 591 857T658 754L704 704Z" />
<glyph unicode="&apos;" horiz-adv-x="244" d="M142 914L164 1354H313L251 914H142Z" />
<glyph unicode="(" horiz-adv-x="640" d="M624 1456L720 1374Q607 1259 526 1136T397 881T336 614Q324 479 346 348T426 93T576 -146L466 -226Q360 -108 294 28T201 313T188 614Q211 845 321 1061T624 1456Z" />
<glyph unicode=")" horiz-adv-x="640" d="M132 -226L36 -146Q149 -31 230 93T359 348T420 614Q432 750 410 881T330 1135T180 1374L290 1456Q449 1278 519 1062T566 614Q552 461 498 313T351 29T132 -226Z" />
<glyph unicode="*" horiz-adv-x="742" d="M302 776L228 854L408 1032L206 1112L260 1220L440 1112L444 1368H556L514 1112L716 1220L748 1112L532 1032L676 854L590 776L466 984L302 776Z" />
<glyph unicode="+" horiz-adv-x="948" d="M494 982H638L598 558H968L956 424H584L546 0H404L442 424H72L84 558H456L494 982Z" />
<glyph unicode="," horiz-adv-x="378" d="M138 -218L38 -160Q92 -133 132 -96T188 -10Q147 -5 121 21T100 92Q105 134 136 164T214 194Q252 194 277 173T314 117T322 38Q318 -6 297 -54T236 -145T138 -218Z" />
<glyph unicode="-" horiz-adv-x="628" d="M116 514L130 650H620L606 514H116Z" />
<glyph unicode="." horiz-adv-x="322" d="M156 -18Q110 -18 84 15T62 96Q67 143 100 175T179 208Q224 208 252 177T275 96Q271 48 237 15T156 -18Z" />
<glyph unicode="/" horiz-adv-x="778" d="M88 -146L692 1462H836L230 -146H88Z" />
<glyph unicode="0" horiz-adv-x="1070" d="M530 -22Q397 -22 305 50T172 267T152 630Q171 847 239 991T415 1208T656 1280Q789 1280 882 1208T1016 992T1038 630Q1018 412 949 267T772 50T530 -22ZM546 122Q692 122 779 254T890 630Q914 873 851 1004T640 1136Q498
1136 410 1005T298 630Q274 386 338 254T546 122Z" />
<glyph unicode="1" horiz-adv-x="596" d="M418 1262H532L414 0H274L374 1074Q328 1043 278 1025T182 1004L196 1160Q253 1168 309 1192T418 1262Z" />
<glyph unicode="2" horiz-adv-x="1044" d="M276 206L270 146H926L914 0H116L132 186Q142 295 180 368T282 489T428 572L660 672Q749 710 799 770T856 922Q867 1018 812 1079T650 1140Q545 1140 473 1090T380 940H224Q240 1049 298 1125T450 1240T662 1280Q772
1280 854 1233T978 1103T1010 914Q995 767 915 677T706 532L468 430Q378 391 331 339T276 206Z" />
<glyph unicode="3" horiz-adv-x="1064" d="M532 -22Q447 -22 370 4T236 81T149 209T130 386H278Q271 300 304 241T401 152T548 122Q671 122 746 190T832 358Q838 422 814 472T730 551T570 580H440L454 706H542Q671 706 752 763T842 920Q851 1012 796 1074T626
1136Q539 1136 468 1097T364 952H216Q254 1128 370 1204T638 1280Q750 1280 834 1236T963 1114T998 936Q988 837 931 767T772 658Q876 624 935 546T984 346Q973 237 915 154T759 25T532 -22Z" />
<glyph unicode="4" horiz-adv-x="1006" d="M632 0L658 304H74L86 426L760 1276H890L812 440H1008L994 304H798L770 0H632ZM256 426H674L730 1026L256 426Z" />
<glyph unicode="5" horiz-adv-x="1016" d="M506 -22Q399 -22 315 20T185 146T150 350H292Q282 238 348 180T520 122Q640 122 717 203T806 408Q817 525 751 585T548 646H244L352 1258H980L966 1114H476L410 752Q454 760 502 765T590 770Q775 770 873 679T954 408Q942
285 883 188T728 34T506 -22Z" />
<glyph unicode="6" horiz-adv-x="1032" d="M538 -24Q402 -24 309 59T174 284T148 606Q168 817 239 968T424 1199T682 1280Q784 1280 857 1237T968 1118T1006 940H854Q848 1030 805 1083T672 1136Q556 1136 465 1046T324 792T282 408Q303 540 357 616T485 725T638
758Q740 758 816 708T932 568T962 364Q950 248 893 161T745 25T538 -24ZM552 122Q656 122 730 188T814 370Q825 486 764 552T600 618Q533 618 476 585T383 496T340 370Q330 255 391 189T552 122Z" />
<glyph unicode="7" horiz-adv-x="846" d="M104 0L752 1106H148L162 1258H932L918 1112L296 0H104Z" />
<glyph unicode="8" horiz-adv-x="1106" d="M548 -22Q415 -22 318 24T170 152T130 336Q141 459 221 538T420 636Q370 662 322 704T245 806T224 946Q233 1043 290 1118T444 1237T674 1280Q793 1280 881 1234T1016 1109T1052 930Q1043 828 974 746T782 642L812 630Q931
578 990 507T1038 314Q1028 214 967 139T799 21T548 -22ZM564 122Q710 122 796 174T890 310Q896 375 857 419T746 494L550 578Q436 565 361 499T278 350Q268 241 351 182T564 122ZM638 706Q743 709 819 768T906 922Q915 1017 847 1076T658 1136Q582 1136 520 1110T419
1039T374 940Q368 873 405 834T512 762L638 706Z" />
<glyph unicode="9" horiz-adv-x="1046" d="M508 -22Q395 -22 313 29T189 169T158 372H308Q299 258 355 190T518 122Q677 122 762 272T872 674Q875 713 876 747T876 822Q854 714 804 643T681 536T524 500Q422 500 346 550T230 690T202 894Q213 1010 270 1097T418
1232T622 1280Q752 1280 847 1203T988 984T1016 652Q996 444 934 293T765 60T508 -22ZM564 638Q630 638 686 671T779 760T822 886Q833 1002 772 1068T608 1134Q508 1134 435 1068T350 886Q338 771 399 705T564 638Z" />
<glyph unicode=":" horiz-adv-x="416" d="M268 658Q223 658 196 690T172 770Q177 814 207 849T287 884Q334 884 361 851T384 770Q380 724 347 691T268 658ZM209 46Q162 46 136 80T114 158Q118 202 149 237T229 272Q278 272 304 238T326 158Q322 112 289 79T209 46Z" />
<glyph unicode=";" horiz-adv-x="472" d="M186 -218L86 -160Q140 -133 180 -96T236 -10Q195 -6 170 22T148 92Q152 134 184 164T262 194Q318 194 347 150T370 38Q363 -32 316 -103T186 -218ZM314 658Q269 658 242 690T218 770Q222 814 252 849T332 884Q380 884
407 851T430 770Q426 724 393 691T314 658Z" />
<glyph unicode="&lt;" horiz-adv-x="818" d="M748 1144L830 1024L272 610L752 202L648 80L122 542L134 680L748 1144Z" />
<glyph unicode="=" horiz-adv-x="878" d="M176 370H770L758 234H164L176 370ZM212 754H806L794 616H200L212 754Z" />
<glyph unicode="&gt;" horiz-adv-x="818" d="M184 80L102 202L656 610L180 1024L284 1144L808 680L796 542L184 80Z" />
<glyph unicode="?" horiz-adv-x="898" d="M348 322L356 412Q365 503 388 557T454 651T566 732Q621 767 661 797T724 863T750 954Q755 1041 703 1088T547 1136Q440 1136 378 1086T296 952H144Q168 1098 276 1189T557 1280Q678 1280 757 1236T874 1117T904 950Q898
869 864 813T780 716T676 644Q614 606 577 578T522 510T496 400L488 322H348ZM388 -22Q338 -22 314 12T294 92Q299 139 331 170T412 201Q464 201 487 168T507 91Q503 42 470 10T388 -22Z" />
<glyph unicode="@" horiz-adv-x="1692" d="M944 -362Q750 -362 598 -302T342 -132T193 125T162 448Q179 630 252 782T443 1045T713 1218T1040 1280Q1194 1280 1315 1227T1519 1079T1640 860T1664 592Q1652 468 1610 369T1507 200T1373 93T1226 56Q1150 56 1107
92T1060 196L1056 228Q1017 153 959 105T808 56Q735 56 675 99T581 220T558 402Q568 503 608 588T710 736T847 835T1002 870Q1109 870 1165 798T1208 580L1178 276Q1174 222 1189 198T1240 174Q1277 174 1320 200T1405 280T1477 411T1518 592Q1532 748 1478 871T1309
1066T1026 1138Q878 1138 753 1083T533 931T380 708T308 438Q288 237 359 86T583 -149T958 -234L944 -362ZM844 182Q916 182 967 229T1070 366L1088 578Q1097 664 1074 705T988 746Q930 746 865 705T750 587T692 404Q680 299 724 241T844 182Z" />
<glyph unicode="A" horiz-adv-x="1034" d="M46 0L554 1258H728L988 0H840L774 320H324L196 0H46ZM372 444H748L620 1066L372 444Z" />
<glyph unicode="B" horiz-adv-x="1120" d="M182 0L300 1258H724Q849 1258 927 1213T1038 1092T1062 928Q1053 822 992 742T820 632Q888 620 937 578T1010 475T1028 344Q1022 280 997 219T922 108T795 29T606 0H182ZM336 138H616Q745 138 806 197T876 350Q887 445
830 502T656 560H376L336 138ZM428 1122L388 696H666Q770 696 837 753T914 912Q923 1010 868 1066T706 1122H428Z" />
<glyph unicode="C" horiz-adv-x="1104" d="M570 -22Q420 -22 320 61T177 292T152 636Q171 845 248 988T441 1206T694 1280Q876 1280 977 1179T1106 916L948 882Q924 999 853 1068T680 1138Q591 1138 511 1082T375 913T304 636Q290 486 315 370T407 187T584 120Q719
120 805 199T904 408H1056Q1044 273 979 177T809 30T570 -22Z" />
<glyph unicode="D" horiz-adv-x="1190" d="M298 1258H632Q804 1258 923 1180T1098 961T1136 630Q1118 439 1035 298T818 78T512 0H180L298 1258ZM426 1118L334 138H526Q653 138 751 202T910 377T984 630Q997 771 958 881T832 1054T618 1118H426Z" />
<glyph unicode="E" horiz-adv-x="1012" d="M180 0L298 1258H996L980 1122H426L386 700H908L896 566H374L334 138H890L876 0H180Z" />
<glyph unicode="F" horiz-adv-x="944" d="M182 0L300 1258H988L974 1122H428L388 704H896L884 568H376L324 0H182Z" />
<glyph unicode="G" horiz-adv-x="1160" d="M576 -22Q442 -22 339 55T184 275T150 614Q165 777 219 901T355 1109T537 1235T744 1278Q876 1278 971 1218T1124 1026L982 974Q930 1057 866 1096T724 1136Q623 1136 532 1074T379 894T300 614Q287 470 318 359T421
185T600 122Q681 122 752 161T870 283T922 490Q924 503 922 516T910 555L969 504L640 518L650 622H1072L1016 0H900Q900 62 901 124T902 248L914 251Q869 122 786 50T576 -22Z" />
<glyph unicode="H" horiz-adv-x="1204" d="M182 0L300 1258H442L388 704H944L998 1258H1142L1022 0H880L932 568H376L324 0H182Z" />
<glyph unicode="I" horiz-adv-x="504" d="M182 0L300 1258H442L324 0H182Z" />
<glyph unicode="J" horiz-adv-x="728" d="M20 62L34 226Q94 178 155 154T278 130Q373 130 418 191T476 364L560 1258H702L618 364Q604 227 558 142T439 18T274 -22Q199 -22 138 2T20 62Z" />
<glyph unicode="K" horiz-adv-x="1096" d="M300 1258H444L390 676L950 1258H1146L598 694L1058 0H874L492 582L368 456L326 0H182L300 1258Z" />
<glyph unicode="L" horiz-adv-x="842" d="M182 0L300 1258H442L336 138H840L828 0H182Z" />
<glyph unicode="M" horiz-adv-x="1526" d="M182 0L300 1258H504L804 406L1264 1258H1464L1344 0H1202L1302 1077H1319L828 158H732L407 1098L426 1095L324 0H182Z" />
<glyph unicode="N" horiz-adv-x="1232" d="M178 0L296 1258H462L956 197L926 200L1028 1258H1170L1052 0H896L390 1074L422 1071L322 0H178Z" />
<glyph unicode="O" horiz-adv-x="1162" d="M578 -22Q437 -22 334 49T181 265T152 628Q172 847 249 992T443 1208T702 1280Q843 1280 947 1208T1101 990T1132 628Q1110 408 1032 264T837 49T578 -22ZM592 122Q750 122 855 250T984 628Q1008 873 927 1005T688 1138Q529
1138 426 1006T298 628Q274 379 354 251T592 122Z" />
<glyph unicode="P" horiz-adv-x="998" d="M178 0L296 1258H662Q786 1258 867 1210T984 1075T1008 868Q992 693 883 590T588 486H366L320 0H178ZM378 622H602Q718 622 785 689T862 868Q873 984 819 1053T648 1122H424L378 622Z" />
<glyph unicode="Q" horiz-adv-x="1174" d="M890 -334Q809 -334 749 -289T642 -156L570 -22Q431 -20 330 52T180 268T152 628Q172 847 249 992T443 1208T702 1280Q843 1280 947 1208T1101 990T1132 628Q1105 354 992 198T716 -4L764 -92Q791 -137 820 -154T880
-174Q928 -174 969 -161T1060 -124L1044 -296Q1001 -317 964 -325T890 -334ZM592 122Q750 122 855 250T984 628Q1008 873 927 1005T688 1138Q529 1138 426 1006T298 628Q274 379 354 251T592 122Z" />
<glyph unicode="R" horiz-adv-x="1104" d="M182 0L300 1258H694Q889 1258 979 1155T1052 884Q1039 742 955 645T722 522L998 0H816L570 514H372L324 0H182ZM382 624H622Q750 624 823 693T906 874Q917 988 859 1055T680 1122H428L382 624Z" />
<glyph unicode="S" horiz-adv-x="1088" d="M540 -22Q427 -22 337 23T198 158T158 378H296Q288 290 321 234T416 150T552 122Q634 122 697 150T797 226T840 330Q848 410 809 458T686 538L494 620Q359 673 294 744T240 948Q255 1094 365 1187T662 1280Q835 1280
924 1191T1014 952H874Q870 1039 813 1087T648 1136Q536 1136 469 1081T394 942Q388 873 422 833T538 762L764 672Q881 626 944 546T996 334Q987 234 931 154T776 26T540 -22Z" />
<glyph unicode="T" horiz-adv-x="902" d="M380 0L484 1122H116L130 1258H1010L996 1122H626L522 0H380Z" />
<glyph unicode="U" horiz-adv-x="1178" d="M584 -22Q386 -22 282 98T198 454L276 1258H418L340 454Q324 279 396 201T598 122Q727 122 813 200T916 454L994 1258H1136L1058 454Q1044 297 981 191T816 32T584 -22Z" />
<glyph unicode="V" horiz-adv-x="1014" d="M152 1258H300L524 196L950 1258H1100L580 0H432L152 1258Z" />
<glyph unicode="W" horiz-adv-x="1610" d="M144 1258H302L478 214L844 1128H940L1128 210L1546 1258H1702L1184 0H1034L864 804L532 0H384L144 1258Z" />
<glyph unicode="X" horiz-adv-x="1156" d="M86 0L544 624L204 1258H374L650 744L998 1258H1168L716 626L1068 0H890L610 502L260 0H86Z" />
<glyph unicode="Y" horiz-adv-x="988" d="M420 0L468 516L136 1258H306L556 680L922 1258H1088L612 516L564 0H420Z" />
<glyph unicode="Z" horiz-adv-x="1066" d="M132 0L144 142L890 1108L236 1114L250 1258H1082L1068 1116L322 150L976 144L962 0H132Z" />
<glyph unicode="[" horiz-adv-x="570" d="M133 -204L289 1462H645L633 1322H419L287 -64H501L489 -204H133Z" />
<glyph unicode="\" horiz-adv-x="778" d="M784 -146L180 1462H322L928 -146H784Z" />
<glyph unicode="]" horiz-adv-x="512" d="M-14 -204L-1 -64H213L359 1322H145L159 1462H517L341 -204H-14Z" />
<glyph unicode="^" horiz-adv-x="806" d="M82 490L464 1172H574L826 490H668L500 984L242 490H82Z" />
<glyph unicode="_" horiz-adv-x="1306" d="M76 -1L87 135H1195L1183 -1H76Z" />
<glyph unicode="`" horiz-adv-x="566" d="M192 1580L264 1720L662 1454L612 1354L192 1580Z" />
<glyph unicode="a" horiz-adv-x="1008" d="M432 -22Q332 -22 267 20T174 128T152 268Q162 365 212 427T341 519T514 550Q577 550 640 537T760 498L772 620Q786 749 741 805T598 862Q542 862 495 844T419 789T384 692H226Q236 799 290 862T426 952T598 980Q761
980 845 894T912 616L854 0H732Q732 41 733 80T734 160Q685 68 606 23T432 -22ZM459 100Q532 100 598 136T706 240T750 398Q695 416 636 427T524 438Q437 438 374 401T302 268Q296 198 334 149T459 100Z" />
<glyph unicode="b" horiz-adv-x="1052" d="M576 -22Q490 -22 425 26T328 168L280 0H182L310 1362H452L398 812Q446 892 518 936T676 980Q770 980 845 928T965 781T1010 557Q1010 467 984 366T904 177T768 34T576 -22ZM569 118Q647 118 702 158T794 264T847 403T864
545Q864 682 800 761T639 840Q575 840 517 805T420 701T371 536L362 432Q353 342 375 271T447 159T569 118Z" />
<glyph unicode="c" horiz-adv-x="926" d="M484 -22Q378 -22 293 38T164 212T134 480Q149 639 214 750T374 921T577 980Q648 980 703 956T797 889T860 792T890 676L746 662Q731 744 683 792T562 840Q495 840 435 799T333 678T280 480Q270 370 293 289T370 163T499
118Q589 118 647 171T712 322H858Q850 223 800 145T668 23T484 -22Z" />
<glyph unicode="d" horiz-adv-x="1070" d="M489 -22Q392 -22 315 31T193 180T148 403Q148 501 175 602T255 789T388 927T571 980Q660 980 722 938T820 816L872 1362H1014L886 0H770L766 160Q717 70 644 24T489 -22ZM519 118Q575 118 632 150T730 242T780 390L798
586Q800 595 800 599T800 612Q800 688 769 738T689 814T584 840Q506 840 451 799T362 693T312 555T296 419Q296 281 359 200T519 118Z" />
<glyph unicode="e" horiz-adv-x="926" d="M478 -22Q365 -22 282 38T159 209T134 476Q149 633 210 746T364 919T570 980Q653 980 713 949T812 862T868 734T880 580Q879 549 875 514T862 444H227L276 477Q264 373 281 289T349 155T491 106Q572 106 630 150T708 280H854Q831
184 777 117T645 14T478 -22ZM279 522L241 545H791L742 527Q754 612 743 686T690 807T562 854Q480 854 421 809T326 688T279 522Z" />
<glyph unicode="f" horiz-adv-x="618" d="M168 848L178 956H318L332 1102Q341 1199 380 1259T478 1349T604 1378Q639 1378 677 1372T752 1352L714 1228Q689 1240 662 1247T608 1254Q579 1254 551 1241T502 1195T474 1100L460 956H638L628 848H450L370 0H230L308 848H168Z" />
<glyph unicode="g" horiz-adv-x="1016" d="M438 -492Q307 -492 213 -452T72 -342T31 -186Q38 -104 89 -48T220 30Q170 59 147 103T128 200Q134 270 180 317T292 380Q252 427 233 490T220 632Q231 737 284 815T420 937T601 980Q665 980 719 962T814 908Q829 978
865 1030T957 1112T1082 1142L1052 986Q976 986 931 952T874 840Q900 798 912 746T918 632Q909 528 855 449T715 325T528 280Q482 280 438 292T358 326Q321 319 291 289T254 210Q248 164 279 134T402 104H736Q856 104 921 48T978 -112Q971 -208 902 -295T713 -437T438
-492ZM441 -366Q553 -366 640 -331T778 -241T835 -122Q839 -73 812 -42T726 -10H376Q288 -10 233 -59T173 -180Q169 -260 237 -313T441 -366ZM547 394Q613 394 663 425T743 511T780 632Q790 736 740 801T592 866Q494 866 432 801T360 632Q350 531 399 463T547 394Z"
/>
<glyph unicode="h" horiz-adv-x="1088" d="M182 0L310 1362H452L396 780Q447 875 524 927T700 980Q802 980 870 930T968 786T987 562L934 0H794L846 562Q860 699 807 769T657 840Q576 840 515 794T416 660T366 452L324 0H182Z" />
<glyph unicode="i" horiz-adv-x="538" d="M373 1182Q330 1182 308 1209T289 1280Q293 1321 319 1350T391 1380Q435 1380 457 1352T476 1280Q472 1234 444 1208T373 1182ZM190 0L280 958H422L332 0H190Z" />
<glyph unicode="j" horiz-adv-x="566" d="M399 1182Q359 1182 336 1208T316 1280Q320 1325 348 1352T420 1380Q463 1380 486 1353T504 1280Q500 1237 472 1210T399 1182ZM41 -492Q-21 -492 -78 -473T-192 -418L-172 -280Q-125 -314 -76 -334T23 -354Q100 -354
145 -303T204 -134L308 960H450L346 -134Q334 -264 292 -342T185 -456T41 -492Z" />
<glyph unicode="k" horiz-adv-x="1016" d="M782 0L486 506L362 402L324 0H182L310 1362H452L378 572L830 956H1028L598 598L958 0H782Z" />
<glyph unicode="l" horiz-adv-x="504" d="M182 0L310 1362H452L324 0H182Z" />
<glyph unicode="m" horiz-adv-x="1682" d="M180 0L270 956H392Q392 910 391 864T390 770Q441 872 519 926T698 980Q810 980 881 920T976 750Q1028 868 1110 924T1297 980Q1399 980 1467 930T1565 787T1582 562L1530 0H1390L1443 562Q1455 696 1404 768T1252 840Q1172
840 1115 795T1023 666T974 464L932 0H792L844 562Q858 700 804 770T655 840Q534 840 458 737T364 452L322 0H180Z" />
<glyph unicode="n" horiz-adv-x="1086" d="M180 0L270 956H392L390 770Q441 872 519 926T698 980Q800 980 868 930T967 787T984 562L932 0H792L844 562Q858 700 804 770T655 840Q534 840 458 737T364 452L322 0H180Z" />
<glyph unicode="o" horiz-adv-x="982" d="M489 -22Q372 -22 286 35T159 203T134 478Q150 643 212 754T371 923T584 980Q701 980 786 922T912 753T938 478Q922 315 860 204T702 35T489 -22ZM496 114Q621 114 699 211T794 478Q811 649 755 746T573 844Q449 844 374
748T281 478Q270 367 290 285T361 159T496 114Z" />
<glyph unicode="p" horiz-adv-x="1070" d="M136 -470L272 956H388Q388 920 389 883T390 810Q441 894 513 937T668 980Q769 980 851 921T977 749T1006 480Q992 323 927 211T766 38T567 -22Q487 -22 427 13T334 116L278 -470H136ZM569 118Q632 118 694 158T802 279T860
480Q871 595 844 675T763 797T637 840Q575 840 518 808T423 712T375 556L358 388Q351 301 378 241T456 150T569 118Z" />
<glyph unicode="q" horiz-adv-x="1052" d="M908 -492Q785 -454 742 -376T714 -152L742 154Q700 72 632 25T477 -22Q375 -22 292 38T166 211T136 480Q151 637 216 749T374 920T568 980Q653 980 719 934T816 798L862 956H960L854 -162Q848 -229 855 -267T888 -328T964
-370L908 -492ZM508 118Q567 118 623 149T717 241T764 388L784 586Q782 670 753 726T677 811T572 840Q502 840 441 798T337 676T283 480Q271 359 301 279T387 158T508 118Z" />
<glyph unicode="r" horiz-adv-x="686" d="M180 0L270 958H412L394 776Q439 878 501 926T645 974Q666 974 691 971T740 956L718 802Q691 811 663 816T607 822Q531 822 480 774T400 638T361 432L322 0H180Z" />
<glyph unicode="s" horiz-adv-x="946" d="M475 -22Q363 -22 285 17T167 124T134 282H270Q264 197 323 150T478 102Q573 102 635 145T706 256Q713 314 674 345T566 400L404 462Q301 500 248 564T205 722Q213 800 259 858T383 948T563 980Q720 980 800 908T874 726H736Q734
790 686 823T558 856Q491 856 448 836T381 784T353 718Q346 663 384 628T490 570L656 506Q757 472 813 412T860 256Q853 184 806 121T675 18T475 -22Z" />
<glyph unicode="t" horiz-adv-x="676" d="M444 -22Q373 -22 320 7T242 96T224 248L282 881L323 850H138L152 956H333L283 911L314 1222H456L425 911L385 956H700L688 850H373L422 881L362 250Q355 177 384 141T474 104Q508 104 544 113T624 140L634 28Q585 4 539
-9T444 -22Z" />
<glyph unicode="u" horiz-adv-x="1090" d="M478 -18Q381 -18 312 22T210 143T188 350L246 958H388L332 362Q320 242 366 181T512 120Q592 120 656 168T761 300T812 492L856 958H998L908 0H766L784 190Q732 90 653 36T478 -18Z" />
<glyph unicode="v" horiz-adv-x="906" d="M122 956H282L468 166L802 956H962L530 0H374L122 956Z" />
<glyph unicode="w" horiz-adv-x="1304" d="M122 956H270L408 196L678 910H798L934 186L1216 956H1358L986 0H848L712 670L456 0H318L122 956Z" />
<glyph unicode="x" horiz-adv-x="922" d="M46 0L418 478L136 958H310L522 598L792 958H964L590 478L872 0H700L488 362L220 0H46Z" />
<glyph unicode="y" horiz-adv-x="872" d="M174 -492Q119 -492 70 -474T-30 -422L-16 -278Q26 -318 69 -336T160 -354Q214 -354 254 -317T324 -221T376 -98L412 0L150 956H308L496 196L772 956H916L486 -190Q449 -287 403 -354T301 -457T174 -492Z" />
<glyph unicode="z" horiz-adv-x="854" d="M96 0L106 128L678 828H172L186 956H852L838 828L274 128H772L762 0H96Z" />
<glyph unicode="{" horiz-adv-x="628" d="M586 -276Q446 -276 368 -216T263 -50T248 192L264 376Q273 462 261 498T216 534H186L200 686H230Q265 686 283 721T310 844L326 1026Q339 1162 386 1268T524 1435T754 1496L742 1358Q610 1358 547 1273T466 1024L450
840Q441 747 410 693T334 614L332 606Q373 584 394 529T404 380L388 194Q373 32 420 -53T600 -138L586 -276Z" />
<glyph unicode="|" horiz-adv-x="504" d="M158 -244L322 1500H464L300 -244H158Z" />
<glyph unicode="}" horiz-adv-x="628" d="M-30 -276L-18 -138Q114 -138 179 -53T258 196L274 380Q283 473 316 528T392 608V614Q358 634 338 677T318 792Q318 803 318 815T320 840L336 1026Q339 1059 339 1075T340 1104Q340 1229 290 1293T124 1358L138 1496Q262
1496 337 1448T446 1315T480 1118Q480 1097 479 1074T476 1028L460 844Q459 826 458 811T456 782Q456 730 468 708T508 686H538L524 534H494Q460 534 441 499T414 376L398 194Q385 58 338 -48T200 -215T-30 -276Z" />
<glyph unicode="~" horiz-adv-x="926" d="M216 446L140 492Q179 599 233 656T354 714Q387 714 425 702T530 658Q601 627 634 616T692 604Q765 604 820 718L892 664Q850 556 793 504T670 452Q643 452 603 466T496 508Q427 540 395 552T336 564Q306 564 276 538T216 446Z" />
<glyph unicode="&#xa0;" horiz-adv-x="428" />
<glyph unicode="&#xa1;" horiz-adv-x="500" d="M420 884L352 -18H204L304 884H420ZM397 1254Q444 1254 471 1220T494 1142Q490 1096 458 1062T377 1028Q329 1028 302 1061T280 1142Q285 1188 317 1221T397 1254Z" />
<glyph unicode="&#xa2;" horiz-adv-x="926" d="M517 950L555 1136H689L650 950H517ZM333 -167L372 18H507L468 -167H333ZM455 -22Q349 -22 264 38T135 212T105 480Q120 639 185 750T345 921T548 980Q619 980 674 956T768 889T831 792T861 676L717 662Q702 744
654 792T533 840Q466 840 406 799T304 678T251 480Q241 370 264 289T341 163T470 118Q560 118 618 171T683 322H829Q821 223 771 145T639 23T455 -22Z" />
<glyph unicode="&#xa3;" horiz-adv-x="1016" d="M36 0L48 138H98Q167 138 203 182T246 318L266 534H104L114 646H278L298 864Q311 995 357 1088T482 1230T670 1280Q796 1280 870 1204T950 980H812Q805 1058 762 1097T656 1136Q568 1136 511 1072T440 864L418 646H746L736
534H408L388 326Q381 259 362 212T302 138H634Q721 138 766 179T830 308H980Q958 166 878 83T620 0H36Z" />
<glyph unicode="&#xa4;" horiz-adv-x="1200" d="M572 238Q467 238 382 290T251 431T212 626Q220 731 277 818T426 959T626 1012Q733 1012 817 960T947 820T986 626Q979 518 920 430T770 290T572 238ZM197 185L122 268L327 457L403 373L197 185ZM924 182L764 359L852
443L1015 264L924 182ZM582 382Q649 382 706 414T801 502T842 626Q847 695 818 750T735 836T616 868Q548 868 491 835T398 748T356 626Q351 557 380 502T463 415T582 382ZM363 810L194 995L283 1078L454 891L363 810ZM876 799L796 882L994 1062L1072 978L876 799Z"
/>
<glyph unicode="&#xa5;" horiz-adv-x="988" d="M862 411H194L204 509H874L862 411ZM844 240H175L188 339H856L844 240ZM420 0L468 516L136 1258H306L556 680L922 1258H1088L612 516L564 0H420Z" />
<glyph unicode="&#xa6;" horiz-adv-x="504" d="M158 -244L231 538H373L300 -244H158ZM249 719L322 1500H464L391 719H249Z" />
<glyph unicode="&#xa7;" horiz-adv-x="975" d="M542 214L546 337Q638 340 699 384T768 495Q775 552 737 583T628 639L466 701Q363 739 310 802T267 961Q275 1039 321 1097T445 1187T625 1219Q783 1219 862 1147T936 965H798Q796 1028 748 1061T620 1095Q554 1095
510 1075T443 1023T415 957Q408 902 446 867T552 809L718 745Q819 710 876 650T922 495Q915 422 868 359T738 256T542 214ZM449 -212Q337 -212 259 -173T141 -66T108 92H244Q238 7 297 -40T452 -88Q547 -88 609 -45T680 66Q687 124 648 155T540 210L378 272Q275
310 222 374T179 532Q191 648 287 720T537 798L534 674Q434 668 384 625T327 528Q320 473 358 438T464 380L630 316Q731 282 787 222T834 66Q827 -6 780 -69T649 -172T449 -212Z" />
<glyph unicode="&#xa8;" horiz-adv-x="582" d="M200 1656Q205 1700 233 1729T302 1758Q344 1758 369 1729T390 1656Q387 1616 356 1587T282 1558Q242 1558 219 1587T200 1656ZM502 1656Q507 1700 536 1729T604 1758Q646 1758 671 1729T692 1656Q689 1616 658 1587T584
1558Q545 1558 522 1587T502 1656Z" />
<glyph unicode="&#xa9;" horiz-adv-x="1380" d="M644 -12Q511 -12 400 38T210 176T94 380T70 629Q84 762 146 878T305 1082T524 1220T778 1270Q911 1270 1022 1220T1212 1082T1328 878T1352 629Q1338 496 1276 380T1117 176T898 38T644 -12ZM653 70Q769 70 874
113T1064 234T1203 412T1270 629Q1282 745 1249 846T1148 1024T982 1144T769 1188Q654 1188 549 1145T358 1025T219 847T152 629Q140 514 173 413T275 234T441 114T653 70ZM666 238Q574 238 514 288T427 428T411 638Q423 765 470 852T587 984T741 1029Q851 1029
913 968T991 808L895 787Q881 858 838 900T732 943Q678 943 630 909T547 806T504 638Q495 546 510 476T566 365T674 324Q756 324 808 372T869 499H961Q954 417 915 359T811 269T666 238Z" />
<glyph unicode="&#xaa;" horiz-adv-x="1008" d="M432 -22Q332 -22 267 20T174 128T152 268Q162 365 212 427T341 519T514 550Q577 550 640 537T760 498L772 620Q786 749 741 805T598 862Q542 862 495 844T419 789T384 692H226Q236 799 290 862T426 952T598 980Q761
980 845 894T912 616L854 0H732Q732 41 733 80T734 160Q685 68 606 23T432 -22ZM459 100Q532 100 598 136T706 240T750 398Q695 416 636 427T524 438Q437 438 374 401T302 268Q296 198 334 149T459 100Z" />
<glyph unicode="&#xab;" horiz-adv-x="1175" d="M489 101L140 530L610 959L716 881L283 499L284 558L610 175L489 101ZM962 101L613 530L1083 959L1189 881L756 499L757 558L1083 175L962 101Z" />
<glyph unicode="&#xac;" horiz-adv-x="1200" d="M253 633H937L890 293H775L812 558L844 513H237L253 633Z" />
<glyph unicode="&#xad;" horiz-adv-x="1200" d="M116 514L130 650H620L606 514H116Z" />
<glyph unicode="&#xae;" horiz-adv-x="1380" d="M644 -12Q511 -12 400 38T210 176T94 380T70 629Q84 762 146 878T305 1082T524 1220T778 1270Q911 1270 1022 1220T1212 1082T1328 878T1352 629Q1338 496 1276 380T1117 176T898 38T644 -12ZM653 70Q769 70 874
113T1064 234T1203 412T1270 629Q1282 745 1249 846T1148 1024T982 1144T769 1188Q654 1188 549 1145T358 1025T219 847T152 629Q140 514 173 413T275 234T441 114T653 70ZM448 230L523 1032H774Q899 1032 956 966T1002 793Q994 703 941 641T792 563L968 230H852L695
558H569L538 230H448ZM575 628H728Q810 628 856 672T909 787Q916 860 879 902T765 945H605L575 628Z" />
<glyph unicode="&#xaf;" horiz-adv-x="803" d="M251 1297H875L854 1168H230L251 1297Z" />
<glyph unicode="&#xb0;" horiz-adv-x="653" d="M411 978Q341 978 286 1012T201 1105T177 1234Q183 1305 222 1362T323 1454T455 1489Q526 1489 581 1455T665 1363T689 1234Q683 1163 643 1105T543 1013T411 978ZM419 1072Q485 1072 536 1119T593 1234Q599 1301
556 1347T446 1394Q379 1394 329 1347T271 1234Q265 1167 309 1120T419 1072Z" />
<glyph unicode="&#xb1;" horiz-adv-x="960" d="M493 1054H635L608 750H921L909 616H595L569 314H427L454 616H145L156 750H466L493 1054ZM105 134H867L849 0H87L105 134Z" />
<glyph unicode="&#xb2;" horiz-adv-x="728" d="M275 620L271 583H675L667 493H176L186 607Q192 675 216 719T278 793T368 845L511 907Q566 930 596 967T632 1060Q639 1119 605 1157T505 1195Q440 1195 396 1164T339 1071H243Q253 1139 289 1185T382 1256T512 1281Q580
1281 630 1252T707 1172T727 1055Q717 965 668 910T539 820L393 758Q338 734 309 702T275 620Z" />
<glyph unicode="&#xb3;" horiz-adv-x="733" d="M425 479Q373 479 326 495T243 543T190 622T178 731H269Q265 678 285 642T345 587T435 568Q511 568 557 610T610 713Q614 753 599 783T547 832T449 850H369L377 927H432Q511 927 561 962T616 1059Q622 1116 588 1154T483
1192Q430 1192 386 1168T322 1079H231Q254 1187 326 1234T491 1281Q560 1281 612 1254T691 1179T712 1069Q706 1008 671 965T573 898Q637 877 673 829T704 706Q697 639 661 588T565 508T425 479Z" />
<glyph unicode="&#xb4;" horiz-adv-x="653" d="M269 1109L236 1209L684 1475L731 1335L269 1109Z" />
<glyph unicode="&#xb5;" horiz-adv-x="1091" d="M479 -18Q382 -18 313 22T211 143T189 350L247 958H389L333 362Q321 242 367 181T513 120Q593 120 657 168T762 300T813 492L857 958H999L909 0H767L785 190Q733 90 654 36T479 -18ZM116 -404L246 958H387L256 -404H116Z" />
<glyph unicode="&#xb6;" horiz-adv-x="1200" d="M536 484Q329 484 231 587T150 869Q169 1047 290 1151T617 1256H1001L987 1118H695L628 484H536ZM478 -252L636 1256H756L598 -252H478ZM755 -252L913 1256H1032L874 -252H755Z" />
<glyph unicode="&#xb7;" horiz-adv-x="323" d="M221 442Q175 442 149 475T127 556Q132 603 165 635T244 668Q289 668 317 637T340 556Q336 508 302 475T221 442Z" />
<glyph unicode="&#xb8;" horiz-adv-x="580" d="M16 -356L38 -290Q115 -330 174 -335T268 -320T302 -265Q303 -230 272 -204T193 -160T95 -131L154 56L244 48L189 -127L149 -70Q240 -90 303 -119T398 -186T431 -272Q431 -329 389 -363T282 -408T146 -406T16 -356Z" />
<glyph unicode="&#xb9;" horiz-adv-x="450" d="M338 1263H408L336 486H250L311 1147Q283 1128 252 1117T193 1104L202 1200Q237 1205 271 1219T338 1263Z" />
<glyph unicode="&#xba;" horiz-adv-x="982" d="M489 -22Q372 -22 286 35T159 203T134 478Q150 643 212 754T371 923T584 980Q701 980 786 922T912 753T938 478Q922 315 860 204T702 35T489 -22ZM496 114Q621 114 699 211T794 478Q811 649 755 746T573 844Q449
844 374 748T281 478Q270 367 290 285T361 159T496 114Z" />
<glyph unicode="&#xbb;" horiz-adv-x="1172" d="M197 101L90 175L523 558V502L196 885L317 959L666 530L197 101ZM667 101L560 175L993 558V502L666 885L787 959L1136 530L667 101Z" />
<glyph unicode="&#xbc;" horiz-adv-x="1712" d="M703 1389H775L701 600H613L676 1271Q647 1252 616 1241T556 1228L565 1325Q600 1330 635 1345T703 1389ZM286 -1L1248 1350H1356L392 -1H286ZM1329 0L1345 190H980L988 266L1409 798H1490L1442 275H1564L1555 190H1433L1415
0H1329ZM1094 266H1355L1390 641L1094 266Z" />
<glyph unicode="&#xbd;" horiz-adv-x="1724" d="M703 1389H775L701 600H613L676 1271Q647 1252 616 1241T556 1228L565 1325Q600 1330 635 1345T703 1389ZM274 -1L1236 1350H1344L380 -1H274ZM1143 129L1139 91H1549L1541 0H1043L1053 116Q1062 219 1111 272T1238
358L1383 420Q1438 443 1469 481T1505 576Q1512 636 1478 674T1376 713Q1311 713 1266 682T1208 588H1110Q1120 656 1156 703T1251 775T1384 800Q1453 800 1504 771T1581 690T1601 571Q1592 480 1542 424T1411 333L1263 269Q1207 244 1178 212T1143 129Z" />
<glyph unicode="&#xbe;" horiz-adv-x="1865" d="M491 578Q420 578 360 607T265 693T239 833H332Q325 753 374 711T501 668Q578 668 624 710T678 816Q684 876 646 915T514 955H433L442 1033H497Q577 1033 628 1069T684 1167Q690 1224 655 1263T549 1302Q495 1302
451 1278T386 1187H293Q316 1297 389 1344T557 1392Q662 1392 726 1332T782 1177Q775 1116 739 1072T641 1003Q706 982 743 934T773 808Q766 740 730 688T633 607T491 578ZM475 -1L1437 1350H1545L581 -1H475ZM1482 0L1498 190H1133L1141 266L1562 798H1643L1595
275H1717L1708 190H1586L1568 0H1482ZM1247 266H1508L1543 641L1247 266Z" />
<glyph unicode="&#xbf;" horiz-adv-x="897" d="M605 901L597 811Q588 720 565 666T499 572T387 491Q332 456 292 426T229 360T203 269Q198 182 250 135T406 87Q513 87 575 137T657 271H809Q785 125 677 34T396 -57Q275 -57 196 -13T79 106T49 273Q55 354 89 410T173
507T277 579Q339 617 376 645T431 713T457 823L465 901H605ZM565 1245Q615 1245 639 1211T659 1131Q654 1084 622 1053T541 1022Q489 1022 466 1055T446 1132Q450 1181 483 1213T565 1245Z" />
<glyph unicode="&#xc0;" horiz-adv-x="1034" d="M46 0L554 1258H728L988 0H840L774 320H324L196 0H46ZM372 444H748L620 1066L372 444ZM843 1388L424 1614L496 1754L894 1488L843 1388Z" />
<glyph unicode="&#xc1;" horiz-adv-x="1034" d="M46 0L554 1258H728L988 0H840L774 320H324L196 0H46ZM372 444H748L620 1066L372 444ZM540 1411L507 1511L955 1777L1002 1637L540 1411Z" />
<glyph unicode="&#xc2;" horiz-adv-x="1034" d="M46 0L554 1258H728L988 0H840L774 320H324L196 0H46ZM372 444H748L620 1066L372 444ZM403 1420L322 1498L673 1810L968 1498L871 1420L658 1636L403 1420Z" />
<glyph unicode="&#xc3;" horiz-adv-x="1034" d="M46 0L554 1258H728L988 0H840L774 320H324L196 0H46ZM372 444H748L620 1066L372 444ZM438 1482L384 1520Q417 1626 463 1677T565 1728Q588 1728 613 1717T690 1676Q739 1647 760 1636T802 1624Q831 1624 857 1647T909
1728L967 1682Q948 1619 920 1574T858 1506T791 1482Q768 1482 741 1495T654 1540Q605 1567 587 1575T551 1584Q523 1584 496 1563T438 1482Z" />
<glyph unicode="&#xc4;" horiz-adv-x="1034" d="M46 0L554 1258H728L988 0H840L774 320H324L196 0H46ZM372 444H748L620 1066L372 444ZM514 1512Q472 1512 450 1541T431 1610Q434 1648 461 1680T534 1712Q571 1712 597 1686T621 1616Q618 1567 585 1540T514 1512ZM815
1512Q775 1512 752 1541T733 1610Q736 1648 764 1680T836 1712Q870 1712 897 1688T923 1616Q920 1563 885 1538T815 1512Z" />
<glyph unicode="&#xc5;" horiz-adv-x="1034" d="M46 0L554 1258H728L988 0H840L774 320H324L196 0H46ZM372 444H748L620 1066L372 444ZM663 1393Q608 1393 563 1420T490 1493T463 1593Q463 1648 490 1693T562 1766T663 1793Q718 1793 763 1766T836 1694T863 1593Q863
1539 836 1494T764 1421T663 1393ZM663 1505Q700 1505 726 1530T752 1593Q752 1631 726 1656T663 1682Q626 1682 600 1657T574 1593Q574 1556 600 1531T663 1505Z" />
<glyph unicode="&#xc6;" horiz-adv-x="1488" d="M46 0L554 1258H1468L1457 1122H851L907 1168L860 653L811 700H1383L1373 566H799L856 612L808 91L759 138H1367L1353 0H652L686 365L728 340H290L343 370L196 0H46ZM690 404L761 1166L802 1122H608L659 1165L359
411L341 464H739L690 404Z" />
<glyph unicode="&#xc7;" horiz-adv-x="1104" d="M570 -22Q420 -22 320 61T177 292T152 636Q171 845 248 988T441 1206T694 1280Q876 1280 977 1179T1106 916L948 882Q924 999 853 1068T680 1138Q591 1138 511 1082T375 913T304 636Q290 486 315 370T407 187T584
120Q719 120 805 199T904 408H1056Q1044 273 979 177T809 30T570 -22ZM404 -356L426 -290Q503 -330 562 -335T656 -320T690 -265Q691 -230 660 -204T581 -160T483 -131L542 56L632 48L577 -127L537 -70Q628 -90 691 -119T786 -186T819 -272Q819 -329 777 -363T670
-408T534 -406T404 -356Z" />
<glyph unicode="&#xc8;" horiz-adv-x="1012" d="M180 0L298 1258H996L980 1122H426L386 700H908L896 566H374L334 138H890L876 0H180ZM832 1388L413 1614L485 1754L883 1488L832 1388Z" />
<glyph unicode="&#xc9;" horiz-adv-x="1012" d="M180 0L298 1258H996L980 1122H426L386 700H908L896 566H374L334 138H890L876 0H180ZM529 1411L496 1511L944 1777L991 1637L529 1411Z" />
<glyph unicode="&#xca;" horiz-adv-x="1012" d="M180 0L298 1258H996L980 1122H426L386 700H908L896 566H374L334 138H890L876 0H180ZM392 1420L311 1498L662 1810L957 1498L860 1420L647 1636L392 1420Z" />
<glyph unicode="&#xcb;" horiz-adv-x="1012" d="M180 0L298 1258H996L980 1122H426L386 700H908L896 566H374L334 138H890L876 0H180ZM503 1512Q461 1512 439 1541T420 1610Q423 1648 450 1680T523 1712Q560 1712 586 1686T610 1616Q607 1567 574 1540T503 1512ZM804
1512Q764 1512 741 1541T722 1610Q725 1648 753 1680T825 1712Q859 1712 886 1688T912 1616Q909 1563 874 1538T804 1512Z" />
<glyph unicode="&#xcc;" horiz-adv-x="504" d="M182 0L300 1258H442L324 0H182ZM578 1388L159 1614L231 1754L629 1488L578 1388Z" />
<glyph unicode="&#xcd;" horiz-adv-x="504" d="M182 0L300 1258H442L324 0H182ZM275 1411L242 1511L690 1777L737 1637L275 1411Z" />
<glyph unicode="&#xce;" horiz-adv-x="504" d="M182 0L300 1258H442L324 0H182ZM138 1420L57 1498L408 1810L703 1498L606 1420L393 1636L138 1420Z" />
<glyph unicode="&#xcf;" horiz-adv-x="504" d="M182 0L300 1258H442L324 0H182ZM249 1512Q207 1512 185 1541T166 1610Q169 1648 196 1680T269 1712Q306 1712 332 1686T356 1616Q353 1567 320 1540T249 1512ZM550 1512Q510 1512 487 1541T468 1610Q471 1648 499
1680T571 1712Q605 1712 632 1688T658 1616Q655 1563 620 1538T550 1512Z" />
<glyph unicode="&#xd0;" horiz-adv-x="1190" d="M123 705H672L657 565H106L123 705ZM298 1258H632Q804 1258 923 1180T1098 961T1136 630Q1118 439 1035 298T818 78T512 0H180L298 1258ZM426 1118L334 138H526Q653 138 751 202T910 377T984 630Q997 771 958 881T832
1054T618 1118H426Z" />
<glyph unicode="&#xd1;" horiz-adv-x="1232" d="M178 0L296 1258H462L956 197L926 200L1028 1258H1170L1052 0H896L390 1074L422 1071L322 0H178ZM537 1482L483 1520Q516 1626 562 1677T664 1728Q687 1728 712 1717T789 1676Q838 1647 859 1636T901 1624Q930 1624
956 1647T1008 1728L1066 1682Q1047 1619 1019 1574T957 1506T890 1482Q867 1482 840 1495T753 1540Q704 1567 686 1575T650 1584Q622 1584 595 1563T537 1482Z" />
<glyph unicode="&#xd2;" horiz-adv-x="1162" d="M578 -22Q437 -22 334 49T181 265T152 628Q172 847 249 992T443 1208T702 1280Q843 1280 947 1208T1101 990T1132 628Q1110 408 1032 264T837 49T578 -22ZM592 122Q750 122 855 250T984 628Q1008 873 927 1005T688
1138Q529 1138 426 1006T298 628Q274 379 354 251T592 122ZM907 1388L488 1614L560 1754L958 1488L907 1388Z" />
<glyph unicode="&#xd3;" horiz-adv-x="1162" d="M578 -22Q437 -22 334 49T181 265T152 628Q172 847 249 992T443 1208T702 1280Q843 1280 947 1208T1101 990T1132 628Q1110 408 1032 264T837 49T578 -22ZM592 122Q750 122 855 250T984 628Q1008 873 927 1005T688
1138Q529 1138 426 1006T298 628Q274 379 354 251T592 122ZM604 1411L571 1511L1019 1777L1066 1637L604 1411Z" />
<glyph unicode="&#xd4;" horiz-adv-x="1162" d="M578 -22Q437 -22 334 49T181 265T152 628Q172 847 249 992T443 1208T702 1280Q843 1280 947 1208T1101 990T1132 628Q1110 408 1032 264T837 49T578 -22ZM592 122Q750 122 855 250T984 628Q1008 873 927 1005T688
1138Q529 1138 426 1006T298 628Q274 379 354 251T592 122ZM467 1420L386 1498L737 1810L1032 1498L935 1420L722 1636L467 1420Z" />
<glyph unicode="&#xd5;" horiz-adv-x="1162" d="M578 -22Q437 -22 334 49T181 265T152 628Q172 847 249 992T443 1208T702 1280Q843 1280 947 1208T1101 990T1132 628Q1110 408 1032 264T837 49T578 -22ZM592 122Q750 122 855 250T984 628Q1008 873 927 1005T688
1138Q529 1138 426 1006T298 628Q274 379 354 251T592 122ZM502 1482L448 1520Q481 1626 527 1677T629 1728Q652 1728 677 1717T754 1676Q803 1647 824 1636T866 1624Q895 1624 921 1647T973 1728L1031 1682Q1012 1619 984 1574T922 1506T855 1482Q832 1482 805
1495T718 1540Q669 1567 651 1575T615 1584Q587 1584 560 1563T502 1482Z" />
<glyph unicode="&#xd6;" horiz-adv-x="1162" d="M578 -22Q437 -22 334 49T181 265T152 628Q172 847 249 992T443 1208T702 1280Q843 1280 947 1208T1101 990T1132 628Q1110 408 1032 264T837 49T578 -22ZM592 122Q750 122 855 250T984 628Q1008 873 927 1005T688
1138Q529 1138 426 1006T298 628Q274 379 354 251T592 122ZM578 1512Q536 1512 514 1541T495 1610Q498 1648 525 1680T598 1712Q635 1712 661 1686T685 1616Q682 1567 649 1540T578 1512ZM879 1512Q839 1512 816 1541T797 1610Q800 1648 828 1680T900 1712Q934
1712 961 1688T987 1616Q984 1563 949 1538T879 1512Z" />
<glyph unicode="&#xd7;" horiz-adv-x="980" d="M162 126L60 226L423 527L417 463L123 757L233 849L527 555H458L818 856L920 754L557 455L563 519L857 225L747 133L453 427H523L162 126Z" />
<glyph unicode="&#xd8;" horiz-adv-x="1162" d="M578 -22Q437 -22 334 49T181 265T152 628Q172 847 249 992T443 1208T702 1280Q843 1280 947 1208T1101 990T1132 628Q1110 408 1032 264T837 49T578 -22ZM592 122Q750 122 855 250T984 628Q1008 873 927 1005T688
1138Q529 1138 426 1006T298 628Q274 379 354 251T592 122Z" />
<glyph unicode="&#xd9;" horiz-adv-x="1178" d="M584 -22Q386 -22 282 98T198 454L276 1258H418L340 454Q324 279 396 201T598 122Q727 122 813 200T916 454L994 1258H1136L1058 454Q1044 297 981 191T816 32T584 -22ZM916 1388L497 1614L569 1754L967 1488L916 1388Z" />
<glyph unicode="&#xda;" horiz-adv-x="1178" d="M584 -22Q386 -22 282 98T198 454L276 1258H418L340 454Q324 279 396 201T598 122Q727 122 813 200T916 454L994 1258H1136L1058 454Q1044 297 981 191T816 32T584 -22ZM613 1411L580 1511L1028 1777L1075 1637L613 1411Z" />
<glyph unicode="&#xdb;" horiz-adv-x="1178" d="M584 -22Q386 -22 282 98T198 454L276 1258H418L340 454Q324 279 396 201T598 122Q727 122 813 200T916 454L994 1258H1136L1058 454Q1044 297 981 191T816 32T584 -22ZM476 1420L395 1498L746 1810L1041 1498L944
1420L731 1636L476 1420Z" />
<glyph unicode="&#xdc;" horiz-adv-x="1178" d="M584 -22Q386 -22 282 98T198 454L276 1258H418L340 454Q324 279 396 201T598 122Q727 122 813 200T916 454L994 1258H1136L1058 454Q1044 297 981 191T816 32T584 -22ZM587 1512Q545 1512 523 1541T504 1610Q507
1648 534 1680T607 1712Q644 1712 670 1686T694 1616Q691 1567 658 1540T587 1512ZM888 1512Q848 1512 825 1541T806 1610Q809 1648 837 1680T909 1712Q943 1712 970 1688T996 1616Q993 1563 958 1538T888 1512Z" />
<glyph unicode="&#xdd;" horiz-adv-x="988" d="M420 0L468 516L136 1258H306L556 680L922 1258H1088L612 516L564 0H420ZM517 1411L484 1511L932 1777L979 1637L517 1411Z" />
<glyph unicode="&#xde;" horiz-adv-x="998" d="M178 0L296 1258H437L412 1000L371 1045H647Q771 1045 852 997T969 862T993 655Q977 480 868 376T573 272H306L349 319L320 0H178ZM352 353L309 408H587Q703 408 770 475T848 655Q858 770 803 839T633 909H356L409
967L352 353Z" />
<glyph unicode="&#xdf;" horiz-adv-x="1118" d="M707 -22Q659 -22 604 -9T495 33L519 161Q563 139 609 125T697 111Q745 111 790 132T864 195T893 297Q893 352 868 393T805 469T731 535T668 603T642 684Q642 733 670 773T734 854T798 939T826 1043Q826 1114 777
1161T636 1209Q571 1209 519 1181T432 1089T387 914L300 0H162L251 939Q264 1069 316 1159T453 1298T646 1346Q731 1346 791 1322T890 1257T946 1167T964 1068Q964 998 936 945T872 851T808 773T780 700Q780 666 805 636T869 573T944 501T1007 409T1033 287Q1033
199 990 129T873 19T707 -22Z" />
<glyph unicode="&#xe0;" horiz-adv-x="1008" d="M432 -22Q332 -22 267 20T174 128T152 268Q162 365 212 427T341 519T514 550Q577 550 640 537T760 498L772 620Q786 749 741 805T598 862Q542 862 495 844T419 789T384 692H226Q236 799 290 862T426 952T598 980Q761
980 845 894T912 616L854 0H732Q732 41 733 80T734 160Q685 68 606 23T432 -22ZM459 100Q532 100 598 136T706 240T750 398Q695 416 636 427T524 438Q437 438 374 401T302 268Q296 198 334 149T459 100ZM787 1086L368 1312L440 1452L838 1186L787 1086Z" />
<glyph unicode="&#xe1;" horiz-adv-x="1008" d="M432 -22Q332 -22 267 20T174 128T152 268Q162 365 212 427T341 519T514 550Q577 550 640 537T760 498L772 620Q786 749 741 805T598 862Q542 862 495 844T419 789T384 692H226Q236 799 290 862T426 952T598 980Q761
980 845 894T912 616L854 0H732Q732 41 733 80T734 160Q685 68 606 23T432 -22ZM459 100Q532 100 598 136T706 240T750 398Q695 416 636 427T524 438Q437 438 374 401T302 268Q296 198 334 149T459 100ZM484 1109L451 1209L899 1475L946 1335L484 1109Z" />
<glyph unicode="&#xe2;" horiz-adv-x="1008" d="M432 -22Q332 -22 267 20T174 128T152 268Q162 365 212 427T341 519T514 550Q577 550 640 537T760 498L772 620Q786 749 741 805T598 862Q542 862 495 844T419 789T384 692H226Q236 799 290 862T426 952T598 980Q761
980 845 894T912 616L854 0H732Q732 41 733 80T734 160Q685 68 606 23T432 -22ZM459 100Q532 100 598 136T706 240T750 398Q695 416 636 427T524 438Q437 438 374 401T302 268Q296 198 334 149T459 100ZM347 1118L266 1196L617 1508L912 1196L815 1118L602 1334L347
1118Z" />
<glyph unicode="&#xe3;" horiz-adv-x="1008" d="M432 -22Q332 -22 267 20T174 128T152 268Q162 365 212 427T341 519T514 550Q577 550 640 537T760 498L772 620Q786 749 741 805T598 862Q542 862 495 844T419 789T384 692H226Q236 799 290 862T426 952T598 980Q761
980 845 894T912 616L854 0H732Q732 41 733 80T734 160Q685 68 606 23T432 -22ZM459 100Q532 100 598 136T706 240T750 398Q695 416 636 427T524 438Q437 438 374 401T302 268Q296 198 334 149T459 100ZM382 1180L328 1218Q361 1324 407 1375T509 1426Q532 1426
557 1415T634 1374Q683 1345 704 1334T746 1322Q775 1322 801 1345T853 1426L911 1380Q892 1317 864 1272T802 1204T735 1180Q712 1180 685 1193T598 1238Q549 1265 531 1273T495 1282Q467 1282 440 1261T382 1180Z" />
<glyph unicode="&#xe4;" horiz-adv-x="1008" d="M432 -22Q332 -22 267 20T174 128T152 268Q162 365 212 427T341 519T514 550Q577 550 640 537T760 498L772 620Q786 749 741 805T598 862Q542 862 495 844T419 789T384 692H226Q236 799 290 862T426 952T598 980Q761
980 845 894T912 616L854 0H732Q732 41 733 80T734 160Q685 68 606 23T432 -22ZM459 100Q532 100 598 136T706 240T750 398Q695 416 636 427T524 438Q437 438 374 401T302 268Q296 198 334 149T459 100ZM458 1210Q416 1210 394 1239T375 1308Q378 1346 405 1378T478
1410Q515 1410 541 1384T565 1314Q562 1265 529 1238T458 1210ZM759 1210Q719 1210 696 1239T677 1308Q680 1346 708 1378T780 1410Q814 1410 841 1386T867 1314Q864 1261 829 1236T759 1210Z" />
<glyph unicode="&#xe5;" horiz-adv-x="1008" d="M432 -22Q332 -22 267 20T174 128T152 268Q162 365 212 427T341 519T514 550Q577 550 640 537T760 498L772 620Q786 749 741 805T598 862Q542 862 495 844T419 789T384 692H226Q236 799 290 862T426 952T598 980Q761
980 845 894T912 616L854 0H732Q732 41 733 80T734 160Q685 68 606 23T432 -22ZM459 100Q532 100 598 136T706 240T750 398Q695 416 636 427T524 438Q437 438 374 401T302 268Q296 198 334 149T459 100ZM607 1091Q552 1091 507 1118T434 1191T407 1291Q407 1346
434 1391T506 1464T607 1491Q662 1491 707 1464T780 1392T807 1291Q807 1237 780 1192T708 1119T607 1091ZM607 1203Q644 1203 670 1228T696 1291Q696 1329 670 1354T607 1380Q570 1380 544 1355T518 1291Q518 1254 544 1229T607 1203Z" />
<glyph unicode="&#xe6;" horiz-adv-x="1540" d="M152 268Q160 359 209 421T337 517T510 550Q575 550 643 534T776 485L744 453L760 620Q774 751 731 806T596 862Q543 862 497 844T421 789T386 692H228Q237 800 293 863T429 953T595 980Q711 980 783 927T867 748L845
755Q904 862 995 921T1193 980Q1273 980 1332 949T1430 862T1485 734T1493 580Q1492 549 1488 514T1475 444H847L896 483Q883 376 899 291T966 156T1105 106Q1186 106 1244 151T1321 280H1467Q1445 185 1390 117T1258 14T1099 -22Q1014 -22 948 13T837 105T775
229H801Q741 105 635 42T425 -22Q341 -22 277 15T180 117T152 268ZM304 268Q298 198 336 149T457 100Q512 100 564 123T658 191T722 296T740 433L767 389Q706 410 642 424T521 438Q469 438 422 423T342 370T304 268ZM897 510L857 545H1357Q1367 628 1354 698T1299
811T1177 854Q1094 854 1035 806T941 679T897 510Z" />
<glyph unicode="&#xe7;" horiz-adv-x="926" d="M484 -22Q378 -22 293 38T164 212T134 480Q149 639 214 750T374 921T577 980Q648 980 703 956T797 889T860 792T890 676L746 662Q731 744 683 792T562 840Q495 840 435 799T333 678T280 480Q270 370 293 289T370
163T499 118Q589 118 647 171T712 322H858Q850 223 800 145T668 23T484 -22ZM306 -356L328 -290Q405 -330 464 -335T558 -320T592 -265Q593 -230 562 -204T483 -160T385 -131L444 56L534 48L479 -127L439 -70Q530 -90 593 -119T688 -186T721 -272Q721 -329 679
-363T572 -408T436 -406T306 -356Z" />
<glyph unicode="&#xe8;" horiz-adv-x="926" d="M478 -22Q365 -22 282 38T159 209T134 476Q149 633 210 746T364 919T570 980Q653 980 713 949T812 862T868 734T880 580Q879 549 875 514T862 444H227L276 477Q264 373 281 289T349 155T491 106Q572 106 630 150T708
280H854Q831 184 777 117T645 14T478 -22ZM279 522L241 545H791L742 527Q754 612 743 686T690 807T562 854Q480 854 421 809T326 688T279 522ZM747 1086L328 1312L400 1452L798 1186L747 1086Z" />
<glyph unicode="&#xe9;" horiz-adv-x="926" d="M478 -22Q365 -22 282 38T159 209T134 476Q149 633 210 746T364 919T570 980Q653 980 713 949T812 862T868 734T880 580Q879 549 875 514T862 444H227L276 477Q264 373 281 289T349 155T491 106Q572 106 630 150T708
280H854Q831 184 777 117T645 14T478 -22ZM279 522L241 545H791L742 527Q754 612 743 686T690 807T562 854Q480 854 421 809T326 688T279 522ZM444 1109L411 1209L859 1475L906 1335L444 1109Z" />
<glyph unicode="&#xea;" horiz-adv-x="926" d="M478 -22Q365 -22 282 38T159 209T134 476Q149 633 210 746T364 919T570 980Q653 980 713 949T812 862T868 734T880 580Q879 549 875 514T862 444H227L276 477Q264 373 281 289T349 155T491 106Q572 106 630 150T708
280H854Q831 184 777 117T645 14T478 -22ZM279 522L241 545H791L742 527Q754 612 743 686T690 807T562 854Q480 854 421 809T326 688T279 522ZM563 1118L482 1196L833 1508L1128 1196L1031 1118L818 1334L563 1118Z" />
<glyph unicode="&#xeb;" horiz-adv-x="926" d="M478 -22Q365 -22 282 38T159 209T134 476Q149 633 210 746T364 919T570 980Q653 980 713 949T812 862T868 734T880 580Q879 549 875 514T862 444H227L276 477Q264 373 281 289T349 155T491 106Q572 106 630 150T708
280H854Q831 184 777 117T645 14T478 -22ZM279 522L241 545H791L742 527Q754 612 743 686T690 807T562 854Q480 854 421 809T326 688T279 522ZM418 1210Q376 1210 354 1239T335 1308Q338 1346 365 1378T438 1410Q475 1410 501 1384T525 1314Q522 1265 489 1238T418
1210ZM719 1210Q679 1210 656 1239T637 1308Q640 1346 668 1378T740 1410Q774 1410 801 1386T827 1314Q824 1261 789 1236T719 1210Z" />
<glyph unicode="&#xec;" horiz-adv-x="538" d="M190 0L280 958H422L332 0H190ZM808 1086L389 1312L461 1452L859 1186L808 1086Z" />
<glyph unicode="&#xed;" horiz-adv-x="538" d="M190 0L280 958H422L332 0H190ZM505 1109L472 1209L920 1475L967 1335L505 1109Z" />
<glyph unicode="&#xee;" horiz-adv-x="538" d="M190 0L280 958H422L332 0H190ZM112 1118L31 1196L382 1508L677 1196L580 1118L367 1334L112 1118Z" />
<glyph unicode="&#xef;" horiz-adv-x="538" d="M190 0L280 958H422L332 0H190ZM479 1210Q437 1210 415 1239T396 1308Q399 1346 426 1378T499 1410Q536 1410 562 1384T586 1314Q583 1265 550 1238T479 1210ZM780 1210Q740 1210 717 1239T698 1308Q701 1346 729
1378T801 1410Q835 1410 862 1386T888 1314Q885 1261 850 1236T780 1210Z" />
<glyph unicode="&#xf0;" horiz-adv-x="1039" d="M474 -22Q386 -22 310 18T186 142T139 354Q139 472 179 566T284 728T430 830T589 866Q636 866 686 851T779 796T849 688T876 512L865 513Q889 753 852 938T726 1271T510 1545L635 1613Q766 1478 843 1338T953 1050T986
746Q986 541 940 395T819 157T653 21T474 -22ZM490 99Q581 99 647 156T748 303T784 489Q784 617 727 680T583 743Q498 743 432 689T326 546T287 355Q287 242 339 171T490 99ZM529 1047L481 1140L1066 1473L1116 1380L529 1047Z" />
<glyph unicode="&#xf1;" horiz-adv-x="1086" d="M180 0L270 956H392L390 770Q441 872 519 926T698 980Q800 980 868 930T967 787T984 562L932 0H792L844 562Q858 700 804 770T655 840Q534 840 458 737T364 452L322 0H180ZM422 1180L368 1218Q401 1324 447 1375T549
1426Q572 1426 597 1415T674 1374Q723 1345 744 1334T786 1322Q815 1322 841 1345T893 1426L951 1380Q932 1317 904 1272T842 1204T775 1180Q752 1180 725 1193T638 1238Q589 1265 571 1273T535 1282Q507 1282 480 1261T422 1180Z" />
<glyph unicode="&#xf2;" horiz-adv-x="982" d="M489 -22Q372 -22 286 35T159 203T134 478Q150 643 212 754T371 923T584 980Q701 980 786 922T912 753T938 478Q922 315 860 204T702 35T489 -22ZM496 114Q621 114 699 211T794 478Q811 649 755 746T573 844Q449
844 374 748T281 478Q270 367 290 285T361 159T496 114ZM798 1086L379 1312L451 1452L849 1186L798 1086Z" />
<glyph unicode="&#xf3;" horiz-adv-x="982" d="M489 -22Q372 -22 286 35T159 203T134 478Q150 643 212 754T371 923T584 980Q701 980 786 922T912 753T938 478Q922 315 860 204T702 35T489 -22ZM496 114Q621 114 699 211T794 478Q811 649 755 746T573 844Q449
844 374 748T281 478Q270 367 290 285T361 159T496 114ZM495 1109L462 1209L910 1475L957 1335L495 1109Z" />
<glyph unicode="&#xf4;" horiz-adv-x="982" d="M489 -22Q372 -22 286 35T159 203T134 478Q150 643 212 754T371 923T584 980Q701 980 786 922T912 753T938 478Q922 315 860 204T702 35T489 -22ZM496 114Q621 114 699 211T794 478Q811 649 755 746T573 844Q449
844 374 748T281 478Q270 367 290 285T361 159T496 114ZM358 1118L277 1196L628 1508L923 1196L826 1118L613 1334L358 1118Z" />
<glyph unicode="&#xf5;" horiz-adv-x="982" d="M489 -22Q372 -22 286 35T159 203T134 478Q150 643 212 754T371 923T584 980Q701 980 786 922T912 753T938 478Q922 315 860 204T702 35T489 -22ZM496 114Q621 114 699 211T794 478Q811 649 755 746T573 844Q449
844 374 748T281 478Q270 367 290 285T361 159T496 114ZM393 1180L339 1218Q372 1324 418 1375T520 1426Q543 1426 568 1415T645 1374Q694 1345 715 1334T757 1322Q786 1322 812 1345T864 1426L922 1380Q903 1317 875 1272T813 1204T746 1180Q723 1180 696 1193T609
1238Q560 1265 542 1273T506 1282Q478 1282 451 1261T393 1180Z" />
<glyph unicode="&#xf6;" horiz-adv-x="982" d="M489 -22Q372 -22 286 35T159 203T134 478Q150 643 212 754T371 923T584 980Q701 980 786 922T912 753T938 478Q922 315 860 204T702 35T489 -22ZM496 114Q621 114 699 211T794 478Q811 649 755 746T573 844Q449
844 374 748T281 478Q270 367 290 285T361 159T496 114ZM469 1210Q427 1210 405 1239T386 1308Q389 1346 416 1378T489 1410Q526 1410 552 1384T576 1314Q573 1265 540 1238T469 1210ZM770 1210Q730 1210 707 1239T688 1308Q691 1346 719 1378T791 1410Q825 1410
852 1386T878 1314Q875 1261 840 1236T770 1210Z" />
<glyph unicode="&#xf7;" horiz-adv-x="878" d="M314 573H1076L1058 439H296L314 573ZM472 698Q426 698 400 731T378 812Q383 859 416 891T495 924Q540 924 568 893T591 812Q587 764 553 731T472 698ZM372 98Q326 98 300 131T278 212Q283 259 316 291T395 324Q440
324 468 293T491 212Q487 164 453 131T372 98Z" />
<glyph unicode="&#xf8;" horiz-adv-x="982" d="M489 -22Q372 -22 286 35T159 203T134 478Q150 643 212 754T371 923T584 980Q701 980 786 922T912 753T938 478Q922 315 860 204T702 35T489 -22ZM496 114Q621 114 699 211T794 478Q811 649 755 746T573 844Q449
844 374 748T281 478Q270 367 290 285T361 159T496 114Z" />
<glyph unicode="&#xf9;" horiz-adv-x="1090" d="M478 -18Q381 -18 312 22T210 143T188 350L246 958H388L332 362Q320 242 366 181T512 120Q592 120 656 168T761 300T812 492L856 958H998L908 0H766L784 190Q732 90 653 36T478 -18ZM829 1086L410 1312L482 1452L880
1186L829 1086Z" />
<glyph unicode="&#xfa;" horiz-adv-x="1090" d="M478 -18Q381 -18 312 22T210 143T188 350L246 958H388L332 362Q320 242 366 181T512 120Q592 120 656 168T761 300T812 492L856 958H998L908 0H766L784 190Q732 90 653 36T478 -18ZM526 1109L493 1209L941 1475L988
1335L526 1109Z" />
<glyph unicode="&#xfb;" horiz-adv-x="1090" d="M478 -18Q381 -18 312 22T210 143T188 350L246 958H388L332 362Q320 242 366 181T512 120Q592 120 656 168T761 300T812 492L856 958H998L908 0H766L784 190Q732 90 653 36T478 -18ZM389 1118L308 1196L659 1508L954
1196L857 1118L644 1334L389 1118Z" />
<glyph unicode="&#xfc;" horiz-adv-x="1090" d="M478 -18Q381 -18 312 22T210 143T188 350L246 958H388L332 362Q320 242 366 181T512 120Q592 120 656 168T761 300T812 492L856 958H998L908 0H766L784 190Q732 90 653 36T478 -18ZM500 1210Q458 1210 436 1239T417
1308Q420 1346 447 1378T520 1410Q557 1410 583 1384T607 1314Q604 1265 571 1238T500 1210ZM801 1210Q761 1210 738 1239T719 1308Q722 1346 750 1378T822 1410Q856 1410 883 1386T909 1314Q906 1261 871 1236T801 1210Z" />
<glyph unicode="&#xfd;" horiz-adv-x="872" d="M174 -492Q119 -492 70 -474T-30 -422L-16 -278Q26 -318 69 -336T160 -354Q214 -354 254 -317T324 -221T376 -98L412 0L150 956H308L496 196L772 956H916L486 -190Q449 -287 403 -354T301 -457T174 -492ZM417 1109L384
1209L832 1475L879 1335L417 1109Z" />
<glyph unicode="&#xfe;" horiz-adv-x="1070" d="M136 -470L302 1272H445L398 779H373Q424 879 501 929T668 980Q769 980 851 920T977 749T1006 480Q992 323 927 211T766 38T567 -22Q487 -22 427 13T334 116L278 -470H136ZM569 118Q632 118 694 158T802 279T860
480Q871 595 844 675T763 797T637 840Q576 840 519 808T423 713T375 556L359 388Q351 302 378 242T456 150T569 118Z" />
<glyph unicode="&#xff;" horiz-adv-x="872" d="M174 -492Q119 -492 70 -474T-30 -422L-16 -278Q26 -318 69 -336T160 -354Q214 -354 254 -317T324 -221T376 -98L412 0L150 956H308L496 196L772 956H916L486 -190Q449 -287 403 -354T301 -457T174 -492ZM391 1210Q349
1210 327 1239T308 1308Q311 1346 338 1378T411 1410Q448 1410 474 1384T498 1314Q495 1265 462 1238T391 1210ZM692 1210Q652 1210 629 1239T610 1308Q613 1346 641 1378T713 1410Q747 1410 774 1386T800 1314Q797 1261 762 1236T692 1210Z" />
<glyph unicode="&#x2013;" horiz-adv-x="854" d="M148 514L160 650H816L802 514H148Z" />
<glyph unicode="&#x2014;" horiz-adv-x="1306" d="M148 514L160 650H1268L1256 514H148Z" />
<glyph unicode="&#x2018;" horiz-adv-x="386" d="M266 836Q212 836 182 882T158 994Q163 1042 187 1090T251 1181T348 1252L442 1194Q388 1164 350 1127T294 1042Q335 1038 360 1012T380 942Q376 899 345 868T266 836Z" />
<glyph unicode="&#x2019;" horiz-adv-x="386" d="M206 836L112 896Q166 926 205 963T260 1048Q220 1053 195 1079T172 1148Q176 1191 208 1221T286 1252Q323 1252 349 1232T387 1176T394 1094Q390 1047 367 1000T302 910T206 836Z" />
<glyph unicode="&#x201a;" horiz-adv-x="419" d="M351 -218L251 -160Q305 -133 345 -96T401 -10Q360 -5 334 21T313 92Q318 134 349 164T427 194Q465 194 490 173T527 117T535 38Q531 -6 510 -54T449 -145T351 -218Z" />
<glyph unicode="&#x201c;" horiz-adv-x="723" d="M570 836Q516 836 486 882T462 994Q467 1042 491 1090T555 1181T652 1252L746 1194Q692 1164 654 1127T598 1042Q639 1038 664 1012T684 942Q680 899 649 868T570 836ZM266 836Q212 836 182 882T158 994Q163 1042
187 1090T251 1181T348 1252L442 1194Q388 1164 350 1127T294 1042Q335 1038 360 1012T380 942Q376 899 345 868T266 836Z" />
<glyph unicode="&#x201d;" horiz-adv-x="728" d="M549 836L455 896Q509 926 548 963T603 1048Q563 1053 538 1079T515 1148Q519 1191 551 1221T629 1252Q666 1252 692 1232T730 1176T737 1094Q733 1047 710 1000T645 910T549 836ZM238 836L144 896Q198 926 237
963T292 1048Q252 1053 227 1079T204 1148Q208 1191 240 1221T318 1252Q355 1252 381 1232T419 1176T426 1094Q422 1047 399 1000T334 910T238 836Z" />
<glyph unicode="&#x201e;" horiz-adv-x="734" d="M410 -218L310 -160Q364 -133 404 -96T460 -10Q419 -5 393 21T372 92Q377 134 408 164T486 194Q524 194 549 173T586 117T594 38Q590 -6 569 -54T508 -145T410 -218ZM351 -218L251 -160Q305 -133 345 -96T401 -10Q360
-5 334 21T313 92Q318 134 349 164T427 194Q465 194 490 173T527 117T535 38Q531 -6 510 -54T449 -145T351 -218Z" />
<glyph unicode="&#x2022;" horiz-adv-x="499" d="M300 357Q216 357 168 418T129 565Q138 651 198 710T342 769Q424 769 475 713T517 565Q510 478 448 418T300 357Z" />
<glyph unicode="&#x2039;" horiz-adv-x="702" d="M489 101L140 530L610 959L716 881L283 499L284 558L610 175L489 101Z" />
<glyph unicode="&#x203a;" horiz-adv-x="702" d="M197 101L90 175L523 558V502L196 885L317 959L666 530L197 101Z" />
</font>
</defs>
</svg>
