<?xml version="1.0" standalone="no"?>
<!DOCTYPE svg PUBLIC "-//W3C//DTD SVG 1.1//EN" "http://www.w3.org/Graphics/SVG/1.1/DTD/svg11.dtd">
<svg xmlns="http://www.w3.org/2000/svg">
<defs >
<font id="LibreCaslonText" horiz-adv-x="585" ><font-face
    font-family="Libre Caslon Text"
    units-per-em="1000"
    panose-1="0 0 5 0 0 0 0 0 0 0"
    ascent="970"
    descent="-260"
    alphabetic="0" />
<glyph unicode=" " glyph-name="space" horiz-adv-x="272" />
<glyph unicode="!" glyph-name="exclam" horiz-adv-x="301" d="M125 380T110 516L103 575Q100 599 95 647T90 711Q90 741 106 760T151 780Q181 780 196 762T211 714Q211 694 197 568L191 520Q173 357 166 230H135Q125 380 110 516ZM86 83T103 101T150 120Q180
120 198 102T216 54Q216 27 198 9T150 -10Q121 -10 104 8T86 54Q86 83 103 101Z" />
<glyph unicode="&quot;" glyph-name="quotedbl" horiz-adv-x="370" d="M93 552T87 593T69 690Q56 751 56 770Q56 798 70 814T109 830Q134 830 148 815T162 774Q162 760 158 737T149 688Q138 632 132 592T124 505H94Q93 552 87 593ZM245 552T239 593T221 690Q208
751 208 770Q208 798 222 814T261 830Q286 830 300 815T314 774Q314 760 310 737T301 688Q290 632 284 592T276 505H246Q245 552 239 593Z" />
<glyph unicode="#" glyph-name="numbersign" horiz-adv-x="674" d="M481 469L458 318H597L583 262H449L422 92H365L392 262H243L216 92H158L185 262H39L53 318H194L217 469H77L89 525H226L253 696H311L284 525H433L460 696H517L490 525H633L621 469H481ZM424 469H275L252
318H401L424 469Z" />
<glyph unicode="$" glyph-name="dollar" horiz-adv-x="537" d="M486 134T434 74T299 -4V-102H257V-9H246Q193 -9 149 8T78 56T52 121Q52 148 66 164T106 180Q152 180 167 112Q183 36 257 32V332L239 343Q181 376 146 403T86 470T61 568Q61 652 115 709T257 778V888H299V780Q348
779 388 761T451 714T475 650Q475 623 461 607T421 591Q397 591 382 607T360 659Q345 723 299 736V451Q366 411 400 387T460 321T486 218Q486 134 434 74ZM166 575T189 542T257 478V738Q216 732 191 701T166 623Q166 575 189 542ZM343 45T368 78T394 159Q394 207
370 241T299 306V35Q343 45 368 78Z" />
<glyph unicode="%" glyph-name="percent" horiz-adv-x="807" d="M236 779T272 751T330 673T351 564Q351 506 330 458T273 382T193 354Q149 354 113 382T57 458T36 564Q36 624 57 673T114 750T193 779Q236 779 272 751ZM605 770H675L205 0H136L605 770ZM170 744T157
729T137 675T131 565Q131 494 137 457T156 405T193 390Q217 390 230 404T250 456T256 565Q256 636 250 674T230 728T193 744Q170 744 157 729ZM657 415T693 387T751 309T772 200Q772 142 751 94T694 18T614 -10Q570 -10 534 18T478 94T457 200Q457 260 478 309T535
386T614 415Q657 415 693 387ZM591 380T578 365T558 311T552 201Q552 130 558 93T577 41T614 26Q638 26 651 40T671 92T677 201Q677 272 671 310T651 364T614 380Q591 380 578 365Z" />
<glyph unicode="&amp;" glyph-name="ampersand" horiz-adv-x="812" d="M751 437T731 431T702 414T687 377Q661 269 608 178L711 51L797 23V0H623L547 95Q492 35 432 13T307 -10Q200 -10 145 41T90 180Q90 251 131 306T277 431L274 435Q202 526 202 607Q202 658
227 697T294 758T385 780Q445 780 487 748T529 662Q529 567 380 460L584 208Q610 253 624 301T639 392Q639 410 634 418T609 431T542 441V465H797V441Q751 437 731 431ZM272 622T288 588T346 502L360 485Q416 525 438 559T461 637Q461 688 435 716T364 744Q324
744 298 721T272 652Q272 622 288 588ZM446 47T523 125L299 404Q238 359 216 316T194 224Q194 149 233 98T351 47Q446 47 523 125Z" />
<glyph unicode="&apos;" glyph-name="quotesingle" horiz-adv-x="218" d="M93 552T87 593T69 690Q56 751 56 770Q56 798 70 814T109 830Q134 830 148 815T162 774Q162 760 158 737T149 688Q138 632 132 592T124 505H94Q93 552 87 593Z" />
<glyph unicode="(" glyph-name="parenleft" horiz-adv-x="305" d="M139 23T139 304Q139 404 162 507T217 693T279 820L268 830Q216 787 165 706T81 519T47 305Q47 9 251 -200L267 -187Q139 23 139 304Z" />
<glyph unicode=")" glyph-name="parenright" horiz-adv-x="305" d="M258 9T258 305Q258 413 225 518T140 705T37 830L26 820Q55 776 87 694T143 508T166 304Q166 23 38 -187L54 -200Q258 9 258 305Z" />
<glyph unicode="*" glyph-name="asterisk" horiz-adv-x="481" d="M290 583T316 555Q333 535 346 525T377 515Q395 515 406 525T418 554Q418 574 403 583T354 599Q309 611 291 619L262 632L293 645Q310 652 350 661Q387 670 402 678T418 708Q418 725 408 736T377
748Q361 748 350 740T320 712Q293 683 277 670L252 650L255 682Q257 705 268 741Q278 769 278 784Q278 807 268 818T241 830Q224 830 214 819T203 784Q203 769 213 737Q224 704 226 684L230 650L204 669Q187 682 162 709Q145 729 133 738T104 747Q85 747 74 736T63
707Q63 686 78 678T131 660Q171 651 188 644L219 631L190 618Q174 611 129 599Q94 590 79 582T63 553Q63 536 74 525T104 514Q121 514 134 524T165 554Q191 582 203 591L231 612L227 579Q226 566 222 550T215 527Q204 494 204 476Q204 456 214 444T242 432Q260
432 269 443T279 472Q279 486 270 520Q261 552 257 578L252 612L278 592Q290 583 316 555Z" />
<glyph unicode="+" glyph-name="plus" horiz-adv-x="502" d="M456 315H277V134H226V315H46V364H226V544H277V364H456V315Z" />
<glyph unicode="," glyph-name="comma" horiz-adv-x="263" d="M103 -101T120 -77T137 -36Q137 -21 129 -13T103 5Q83 16 73 28T62 61Q62 90 81 109T129 128Q160 128 180 103T200 43Q200 -75 95 -151L75 -122Q103 -101 120 -77Z" />
<glyph unicode="-" glyph-name="hyphen" horiz-adv-x="465" d="M73 294H392V210H73V294Z" />
<glyph unicode="." glyph-name="period" horiz-adv-x="262" d="M62 88T81 108T130 128Q162 128 181 109T200 58Q200 29 181 10T130 -10Q100 -10 81 10T62 58Q62 88 81 108Z" />
<glyph unicode="/" glyph-name="slash" horiz-adv-x="363" d="M247 819H316L115 -169H47L247 819Z" />
<glyph unicode="0" glyph-name="zero" horiz-adv-x="640" d="M391 780T451 727T546 583T581 381Q581 272 547 183T452 42T319 -10Q247 -10 188 41T94 182T59 381Q59 491 93 582T187 727T319 780Q391 780 451 727ZM269 739T239 704T195 590T181 382Q181 252 194
176T238 65T319 31Q371 31 401 65T445 176T459 382Q459 511 445 589T401 703T319 739Q269 739 239 704Z" />
<glyph unicode="1" glyph-name="one" horiz-adv-x="420" d="M276 42L405 22V0H39V22L171 42V629H43V650Q155 686 255 780L276 772V42Z" />
<glyph unicode="2" glyph-name="two" horiz-adv-x="579" d="M23 23Q157 152 235 244T348 409T384 545Q384 615 348 659T255 704Q206 704 160 672T85 588L64 599Q94 680 158 730T299 780Q355 780 401 752T473 675T499 566Q499 468 418 358T148 90H435Q451 107 474
141T515 207L537 199L461 -20H439L426 0H32L23 23Z" />
<glyph unicode="3" glyph-name="three" horiz-adv-x="554" d="M249 434T293 487T338 602Q338 650 313 680T248 710Q199 710 157 678T92 591L68 597Q84 678 145 729T287 780Q358 780 403 740T449 637Q449 586 416 540T323 460V456Q402 449 449 395T497 255Q497
183 462 122T367 26T234 -10Q182 -10 139 8T70 58T44 126Q44 154 59 170T100 187Q127 187 140 170T166 118Q176 90 185 74T211 47T256 35Q295 35 329 58T383 120T404 204Q404 251 381 290T319 353T232 376Q215 376 175 371L169 398Q249 434 293 487Z" />
<glyph unicode="4" glyph-name="four" horiz-adv-x="582" d="M18 213L10 230L413 780L439 770V289H532V213H439V42L528 23V0H218V23L338 42V213H18ZM334 606L107 293L108 289H338V606H334Z" />
<glyph unicode="5" glyph-name="five" horiz-adv-x="547" d="M201 510T244 510Q317 510 374 479T462 393T494 267Q494 190 457 127T357 27T217 -10Q166 -10 125 6T59 52T35 116Q35 144 49 159T88 174Q115 174 127 159T153 111Q163 86 172 71T198 46T243 35Q286
35 322 60T379 129T400 226Q400 281 377 324T313 392T219 417Q187 417 161 408T111 378L96 380L148 757H429Q441 770 455 797L476 790L439 667H182L157 494Q201 510 244 510Z" />
<glyph unicode="6" glyph-name="six" horiz-adv-x="590" d="M185 -10T120 65T55 271Q55 381 101 481T233 658T432 777L440 752Q382 721 326 663T232 538T186 412Q208 435 249 449T336 464Q399 464 448 435T525 355T553 236Q553 164 521 108T432 21T300 -10Q185
-10 120 65ZM364 35T399 85T434 219Q434 306 397 356T297 407Q263 407 233 393T184 353Q172 302 172 241Q172 146 208 91T306 35Q364 35 399 85Z" />
<glyph unicode="7" glyph-name="seven" horiz-adv-x="493" d="M483 745Q392 535 354 431T226 48Q208 -10 162 -10Q139 -10 127 3T114 41Q114 60 123 85T154 154L401 667H107Q89 652 75 636T43 591L22 602L97 792L120 785Q120 768 124 757H475L483 745Z" />
<glyph unicode="8" glyph-name="eight" horiz-adv-x="595" d="M461 388T500 334T540 215Q540 152 507 101T417 20T291 -10Q225 -10 172 16T88 90T58 195Q58 258 96 307T213 398Q145 442 114 488T82 589Q82 644 110 687T188 755T300 780Q359 780 405 759T478 699T505
612Q505 559 472 516T375 440Q461 388 500 334ZM417 525T417 612Q417 668 384 701T294 735Q241 735 209 705T176 623Q176 574 212 535T328 460Q417 525 417 612ZM208 347T183 301T158 196Q158 121 197 78T306 35Q371 35 410 72T449 171Q449 234 404 282T255 376Q208
347 183 301Z" />
<glyph unicode="9" glyph-name="nine" horiz-adv-x="591" d="M405 777T470 702T535 496Q535 386 489 286T357 109T158 -10L150 15Q208 46 264 104T358 229T404 355Q382 332 341 318T254 303Q191 303 142 332T65 412T37 531Q37 603 69 659T158 746T290 777Q405
777 470 702ZM226 732T191 682T156 548Q156 461 193 411T293 360Q327 360 357 374T406 414Q418 465 418 526Q418 621 382 676T284 732Q226 732 191 682Z" />
<glyph unicode=":" glyph-name="colon" horiz-adv-x="284" d="M73 431T92 451T141 471Q173 471 192 452T211 401Q211 372 192 353T141 333Q111 333 92 353T73 401Q73 431 92 451ZM73 88T92 108T141 128Q173 128 192 109T211 58Q211 29 192 10T141 -10Q111 -10
92 10T73 58Q73 88 92 108Z" />
<glyph unicode=";" glyph-name="semicolon" horiz-adv-x="286" d="M74 431T93 451T142 471Q174 471 193 452T212 401Q212 372 193 353T142 333Q112 333 93 353T74 401Q74 431 93 451ZM115 -101T132 -77T149 -36Q149 -24 141 -17T117 1Q96 13 85 25T73 61Q73 89
92 108T141 128Q173 128 193 101T213 30Q213 -21 186 -67T107 -151L87 -122Q115 -101 132 -77Z" />
<glyph unicode="&lt;" glyph-name="less" horiz-adv-x="519" d="M38 361L447 556V495L110 341V337L447 181V116L38 310V361Z" />
<glyph unicode="=" glyph-name="equal" horiz-adv-x="566" d="M78 445H488V401H78V445ZM78 284H488V240H78V284Z" />
<glyph unicode="&gt;" glyph-name="greater" horiz-adv-x="520" d="M72 181L409 337V341L72 495V561L481 366V315L72 121V181Z" />
<glyph unicode="?" glyph-name="question" horiz-adv-x="411" d="M134 352L164 353Q262 356 314 401T366 529Q366 596 334 653T248 745T132 780Q104 780 92 772T79 745Q79 730 87 720T120 698T199 666Q332 614 332 538Q332 442 137 442H98V230H134V352ZM50 84T68
102T115 120Q144 120 162 102T180 55Q180 26 162 8T114 -10Q85 -10 68 8T50 55Q50 84 68 102Z" />
<glyph unicode="@" glyph-name="at" horiz-adv-x="875" d="M531 -143T631 -93L620 -64Q553 -104 443 -104Q261 -104 187 -15T113 202Q113 306 156 396T281 540T471 595Q548 595 614 566T720 475T761 325Q761 257 738 201T677 113T596 81Q576 81 566 89T555 120Q555
141 564 170L645 460H565L554 421H550Q525 460 472 460Q413 460 355 415T259 300T222 163Q222 109 248 77T324 44Q407 44 478 138L482 137Q479 134 478 128T477 113Q477 78 504 55T580 31Q642 31 695 72T779 182T811 328Q811 414 771 485T655 598T481 640Q367 640
270 585T115 430T57 203Q57 85 107 7T238 -107T418 -143Q531 -143 631 -93ZM329 99T319 114T309 165Q309 225 335 283T400 379T477 417Q521 417 521 358Q521 318 508 276T474 200Q448 153 415 126T351 99Q329 99 319 114Z" />
<glyph unicode="A" glyph-name="A" horiz-adv-x="744" d="M660 60T670 48T698 31T753 23V0H435V23Q481 25 502 28T531 38T538 56Q538 71 527 100L461 283H219L165 132Q154 101 154 85Q154 59 179 45T257 23V0H-24V23Q28 31 54 43T94 74T121 134L315 677L289 736L387
790L651 84Q660 60 670 48ZM446 323L341 614H337L233 323H446Z" />
<glyph unicode="B" glyph-name="B" horiz-adv-x="699" d="M414 770T459 760T536 729Q571 704 591 666T611 583Q611 518 568 473T446 412V408Q536 398 590 342T645 204Q645 158 628 118T578 52Q543 24 493 12T362 0H49V23L134 42V728L49 747V770H345Q414 770 459
760ZM301 429Q352 429 385 432Q440 438 469 478T499 586Q499 621 491 645T462 690Q440 712 410 721T325 730H239V429H301ZM239 98Q239 63 257 51T327 38Q431 38 480 80T529 213Q529 303 479 346T324 389H239V98Z" />
<glyph unicode="C" glyph-name="C" horiz-adv-x="774" d="M56 496T103 587T233 729T422 780Q480 780 536 764T637 719H641L690 770H708V540H678Q662 589 637 630Q602 686 555 711T439 736Q315 736 249 645T182 387Q182 220 249 128T440 35Q500 35 548 59T628 129Q666
182 681 262H708V0H684L638 66Q585 26 533 8T418 -10Q312 -10 230 39T102 177T56 380Q56 496 103 587Z" />
<glyph unicode="D" glyph-name="D" horiz-adv-x="810" d="M49 23L134 42V728L49 747V770H298Q417 770 488 754T612 697Q679 645 716 563T753 383Q753 281 714 196T605 59Q561 27 510 14T384 0H49V23ZM416 38T463 56T546 119Q586 168 607 239T628 395Q628 480 607
546T543 657Q505 697 454 713T318 730H239V98Q239 64 261 51T343 38Q416 38 463 56Z" />
<glyph unicode="E" glyph-name="E" horiz-adv-x="692" d="M638 234L601 0H49V23L134 42V728L49 747V770H605L622 550H598Q568 658 526 730H239V426H418Q443 479 455 546H479V266H455Q446 328 418 386H239V40H521Q548 84 565 127T605 234H638Z" />
<glyph unicode="F" glyph-name="F" horiz-adv-x="650" d="M622 550H598Q568 658 526 730H239V426H418Q443 479 455 546H479V266H455Q446 328 418 386H239V42L353 23V0H49V23L134 42V728L49 747V770H605L622 550Z" />
<glyph unicode="G" glyph-name="G" horiz-adv-x="808" d="M650 41T573 16T418 -10Q313 -10 231 39T102 176T55 376Q55 490 103 582T237 727T430 780Q489 780 539 764T622 719H626L680 770H702V540H679Q647 614 614 656T541 716T444 735Q315 735 249 644T183 376Q183
206 245 121T435 36Q485 36 522 51T578 97Q583 105 584 115T586 149V344L496 363V386H780V363L691 344V81Q650 41 573 16Z" />
<glyph unicode="H" glyph-name="H" horiz-adv-x="857" d="M723 728V42L812 21V0H528V23L618 42V385H240V42L329 23V0H45V23L135 42V728L45 747V770H329V747L240 728V425H618V728L528 747V770H812V745L723 728Z" />
<glyph unicode="I" glyph-name="I" horiz-adv-x="374" d="M45 747V770H329V747L240 728V42L329 23V0H45V23L135 42V728L45 747Z" />
<glyph unicode="J" glyph-name="J" horiz-adv-x="362" d="M233 53T231 3T221 -75T199 -131Q164 -193 109 -226T-9 -260Q-65 -260 -97 -237T-129 -173Q-129 -143 -113 -126T-70 -108Q-50 -108 -37 -119T-15 -154Q5 -208 46 -208Q82 -208 105 -167T128 -48V728L38
747V770H322V747L233 728V155Q233 53 231 3Z" />
<glyph unicode="K" glyph-name="K" horiz-adv-x="783" d="M135 42V728L45 747V770H329V747L240 728V370L523 687Q539 704 539 717Q539 730 519 737T455 747V770H719V747Q650 735 624 724T573 685L375 459L696 42L807 23V0H590L305 379L240 305V42L329 23V0H45V23L135 42Z" />
<glyph unicode="L" glyph-name="L" horiz-adv-x="656" d="M239 40H528Q555 84 572 127T612 239H638L601 0H49V23L134 42V728L49 747V770H334V747L239 728V40Z" />
<glyph unicode="M" glyph-name="M" horiz-adv-x="1012" d="M45 747V770H255L504 177H509L758 770H967V747L878 728V42L967 23V0H683V23L773 42V656H769L485 -10H458L179 660H175V42L264 23V0H45V23L135 42V728L45 747Z" />
<glyph unicode="N" glyph-name="N" horiz-adv-x="828" d="M668 -20L175 667V42L264 23V0H45V23L135 42V728L45 747V770H247L659 204V728L570 747V770H789V747L699 728V-20H668Z" />
<glyph unicode="O" glyph-name="O" horiz-adv-x="836" d="M520 780T603 729T733 587T781 385Q781 274 734 184T603 42T418 -10Q316 -10 233 41T103 183T55 385Q55 496 102 586T233 728T418 780Q520 780 603 729ZM181 277T209 198T291 77T418 35Q492 35 545 77T626
198T655 388Q655 551 593 643T419 735Q345 735 292 694T210 574T181 386Q181 277 209 198Z" />
<glyph unicode="P" glyph-name="P" horiz-adv-x="663" d="M360 770Q481 770 554 710T627 541Q627 439 552 385T345 330H239V42L353 23V0H49V23L134 42V728L49 747V770H360ZM314 369Q375 369 412 382T472 423Q512 470 512 551Q512 615 488 658T420 718Q391 730
331 730H239V369H314Z" />
<glyph unicode="Q" glyph-name="Q" horiz-adv-x="836" d="M520 780T603 729T733 587T781 385Q781 286 742 203T631 67T469 7V3Q497 -3 548 -28Q590 -47 619 -57T683 -67Q716 -67 738 -55T781 -14L808 -24Q778 -92 731 -128T630 -164Q588 -164 557 -144T487 -86Q447
-49 419 -31T352 -12Q321 -12 306 -24T290 -57Q290 -68 298 -82Q307 -96 307 -110Q307 -132 293 -146T256 -160Q234 -160 220 -145T206 -105Q206 -69 235 -38T316 13V17Q239 34 180 86T88 217T55 385Q55 496 102 586T233 728T418 780Q520 780 603 729ZM181 277T209
198T291 77T418 35Q492 35 545 77T626 198T655 387Q655 551 593 643T419 735Q345 735 292 694T210 574T181 386Q181 277 209 198Z" />
<glyph unicode="R" glyph-name="R" horiz-adv-x="733" d="M134 42V728L49 747V770H350Q471 770 544 713T617 551Q617 477 574 429T449 362L662 42L776 23V0H559L335 350H239V42L353 23V0H49V23L134 42ZM364 389T401 402T462 443Q502 489 502 561Q502 621 478 660T410
718Q379 730 321 730H239V389H304Q364 389 401 402Z" />
<glyph unicode="S" glyph-name="S" horiz-adv-x="599" d="M347 780T383 765T453 718L485 770H505L514 550H488Q464 645 420 691T307 737Q250 737 217 707T184 623Q184 580 206 548T260 495T348 443Q410 410 448 384T512 317T539 217Q539 154 508 103T422 21T301
-9Q260 -9 222 3T141 41L101 0H81L63 256L88 262Q118 141 167 88T298 34Q367 34 407 67T447 158Q447 202 424 234T367 289T275 342Q210 376 172 403T106 471T79 569Q79 629 108 677T188 752T302 780Q347 780 383 765Z" />
<glyph unicode="T" glyph-name="T" horiz-adv-x="754" d="M326 42V730H125Q71 659 33 550H9L46 770H708L745 550H721Q683 659 629 730H431V42L540 23V0H216V23L326 42Z" />
<glyph unicode="U" glyph-name="U" horiz-adv-x="774" d="M228 134T277 85T414 35Q468 35 509 51T572 97Q592 124 601 172T610 300V728L521 747V770H740V747L650 728V258Q650 195 641 152T612 80Q583 37 526 14T393 -10Q316 -10 256 14T162 82Q142 109 133 145T123
242V728L33 747V770H317V747L228 728V227Q228 134 277 85Z" />
<glyph unicode="V" glyph-name="V" horiz-adv-x="721" d="M94 686Q85 710 75 722T47 739T-8 747V770H317V747Q270 744 249 742T220 733T212 716Q212 708 217 692T225 670L394 183H399L557 638Q567 668 567 685Q567 711 544 725T465 747V770H746V747Q693 739 667
727T628 696T601 636L372 -10H355L94 686Z" />
<glyph unicode="W" glyph-name="W" horiz-adv-x="1090" d="M89 686Q80 710 70 722T42 739T-13 747V770H312V747Q264 743 243 740T214 732T207 717Q207 710 210 699T220 670L389 183H394L516 576L475 686Q466 710 456 722T428 739T373 747V770H698V747Q650 744
629 740T601 731T595 714Q595 700 606 670L775 183H780L921 638Q930 667 930 686Q930 712 908 725T829 747V770H1110V747Q1057 739 1031 727T991 696T965 636L759 -10H736L540 513L373 -10H350L89 686Z" />
<glyph unicode="X" glyph-name="X" horiz-adv-x="787" d="M50 28T83 43T141 91L353 377L139 704Q126 724 105 732T24 747V770H326V747Q284 745 271 741T257 727Q257 714 270 693L425 456L586 675Q602 697 602 711Q602 738 528 747V770H776V747Q720 737 694 724T639
678L448 421L681 65Q696 43 718 35T789 22V0H489V22Q536 26 551 30T567 42Q567 52 551 76L378 339L194 92Q177 69 177 53Q177 40 197 33T261 20V0H-10V20Q50 28 83 43Z" />
<glyph unicode="Y" glyph-name="Y" horiz-adv-x="709" d="M300 42V327L97 686Q83 710 73 721T45 738T-8 747V770H320V747Q258 743 237 735T215 710Q215 694 228 670L393 375H397L536 638Q548 662 548 681Q548 709 522 726T444 747V770H726V747Q681 740 657 729T621
703T592 657Q589 650 581 636L405 309V42L494 23V0H210V23L300 42Z" />
<glyph unicode="Z" glyph-name="Z" horiz-adv-x="676" d="M623 743L163 40H497L509 58Q563 140 606 247L632 244L580 0H31V28L489 730H171L159 708Q109 617 87 551L61 552L103 770H623V743Z" />
<glyph unicode="[" glyph-name="bracketleft" horiz-adv-x="324" d="M300 -156H182V788H300V820H101V-187H300V-156Z" />
<glyph unicode="\" glyph-name="backslash" horiz-adv-x="364" d="M47 819H117L317 -169H248L47 819Z" />
<glyph unicode="]" glyph-name="bracketright" horiz-adv-x="324" d="M223 820H24V788H142V-156H24V-187H223V820Z" />
<glyph unicode="^" glyph-name="asciicircum" horiz-adv-x="499" d="M247 649H251L410 332H452L268 711H232L47 332H90L247 649Z" />
<glyph unicode="_" glyph-name="underscore" horiz-adv-x="696" d="M73 -30H623V-74H73V-30Z" />
<glyph unicode="`" glyph-name="grave" horiz-adv-x="170" d="M104 812Q88 859 49 859Q33 859 22 847T10 816Q10 803 17 789T40 755L139 631L160 642L104 812Z" />
<glyph unicode="a" glyph-name="a" horiz-adv-x="525" d="M116 -10T83 24T49 112Q49 156 75 187T161 243T323 289V387Q323 450 305 476T243 502Q200 502 175 482T150 426Q150 417 151 409T152 391Q152 366 138 350T100 333Q80 333 67 346T54 381Q54 414 83 449T162
509Q222 540 289 540Q332 540 362 526T405 487Q413 470 415 445T418 356V127Q418 78 425 61T455 43Q469 43 480 49T504 72L521 57Q498 21 474 6T417 -10Q377 -10 355 12T328 80L325 82Q296 39 254 15T169 -10Q116 -10 83 24ZM245 49T274 66T323 116V260Q251 246
212 230T155 191T138 133Q138 93 157 71T213 49Q245 49 274 66Z" />
<glyph unicode="b" glyph-name="b" horiz-adv-x="602" d="M215 -10T154 36H149L103 2H87V741L14 768V781L173 830H183V472Q246 540 335 540Q400 540 450 508T528 419T556 287Q556 204 522 136T427 29T292 -10Q215 -10 154 36ZM339 24T374 53T429 136T449 259Q449
365 408 425T293 486Q260 486 232 472T183 434V150Q183 93 213 59T292 24Q339 24 374 53Z" />
<glyph unicode="c" glyph-name="c" horiz-adv-x="535" d="M219 -10T164 24T77 119T46 258Q46 340 80 404T174 504T312 540Q362 540 403 524T468 481T492 422Q492 396 480 381T446 365Q394 365 387 428Q381 476 366 492T315 508Q236 508 192 446T148 278Q148 176
193 120T320 63Q366 63 405 81T471 136L482 151L501 141L496 128Q471 62 417 26T290 -10Q219 -10 164 24Z" />
<glyph unicode="d" glyph-name="d" horiz-adv-x="607" d="M196 -10T149 24T74 120T47 256Q47 339 80 403T173 504T310 540Q366 540 418 525V740L345 768V781L502 830H512V78L580 63V52L432 -10H425V76L421 78Q390 34 347 12T254 -10Q196 -10 149 24ZM335 55T368
71T418 114V400Q418 454 390 482T308 510Q262 510 227 481T172 397T152 272Q152 171 190 113T296 55Q335 55 368 71Z" />
<glyph unicode="e" glyph-name="e" horiz-adv-x="560" d="M148 308Q147 301 147 285Q147 175 191 119T320 63Q369 63 411 80T479 130L491 145L508 135L502 121Q476 60 418 25T287 -10Q216 -10 162 23T77 117T47 257Q47 340 80 404T174 504T314 540Q412 540 464
483T519 314L512 308H148ZM239 509T199 464T150 336L411 345Q414 357 414 386Q414 509 305 509Q239 509 199 464Z" />
<glyph unicode="f" glyph-name="f" horiz-adv-x="351" d="M374 830T411 806T449 745Q449 723 436 710T400 696Q361 696 351 747Q346 775 335 787T301 799Q277 799 258 787T227 750Q206 705 206 585V530H335L323 498H206V34L312 19V0H36V19L111 34V498H23L35 530H111Q111
605 114 643T126 707Q146 762 201 796T320 830Q374 830 411 806Z" />
<glyph unicode="g" glyph-name="g" horiz-adv-x="514" d="M179 -260T138 -252T65 -225Q7 -190 7 -129Q7 -88 35 -57T131 4Q98 19 81 40T63 86Q63 117 92 149T195 205Q135 221 98 265T60 369Q60 418 85 457T155 518T254 540Q320 540 371 508Q386 553 410 584T470
616Q494 616 511 602T528 566Q528 546 515 533T481 519Q471 519 466 522T453 533Q443 545 430 545Q418 545 408 530T392 494Q421 470 437 437T454 369Q454 325 429 286T358 222T255 192Q214 189 181 171T147 129Q147 100 190 85T312 56L362 46Q436 29 462 -5T489
-82Q489 -151 434 -196Q394 -228 336 -244T220 -260Q179 -260 138 -252ZM307 224T329 268T352 371Q352 425 332 468T260 512Q207 512 185 465T163 361Q163 308 183 266T255 224Q307 224 329 268ZM201 -17T164 -6Q129 -22 109 -52T88 -117Q88 -171 134 -201Q175
-228 239 -228Q306 -228 354 -204Q412 -176 412 -120Q412 -96 399 -81T353 -53T261 -29Q201 -17 164 -6Z" />
<glyph unicode="h" glyph-name="h" horiz-adv-x="619" d="M598 20V0H353V20L428 34V328Q428 372 426 397T416 439Q397 485 338 485Q297 485 260 469T194 420V35L269 20V0H23V20L99 35V741L25 768V782L184 830H194V457Q240 497 292 518T394 540Q434 540 465 524T510
480Q518 464 520 438T523 338V34L598 20Z" />
<glyph unicode="i" glyph-name="i" horiz-adv-x="300" d="M90 743T107 761T154 780Q183 780 201 762T219 715Q219 688 201 670T154 651Q125 651 108 669T90 715Q90 743 107 761ZM277 0H31V20L107 35V451L33 478V492L193 540H202V35L277 20V0Z" />
<glyph unicode="j" glyph-name="j" horiz-adv-x="280" d="M82 744T100 762T146 780Q174 780 192 762T211 716Q211 688 193 670T146 651Q118 651 100 669T82 716Q82 744 100 762ZM25 478V492L185 540H194V155Q194 52 192 3T183 -75T161 -131Q127 -194 77 -227T-33
-260Q-84 -260 -113 -238T-143 -178Q-143 -150 -129 -134T-89 -118Q-69 -118 -56 -129T-34 -164Q-23 -193 -13 -203T16 -213Q58 -213 78 -172T99 -48V451L25 478Z" />
<glyph unicode="k" glyph-name="k" horiz-adv-x="591" d="M612 20V0H437L230 252L191 207V35L266 20V0H23V20L99 35V741L26 768V781L181 830H191V261L358 450Q379 474 379 486Q379 495 364 500T305 510V530H529V510Q468 499 447 489T403 453L290 321L528 35L612 20Z" />
<glyph unicode="l" glyph-name="l" horiz-adv-x="289" d="M260 0H29V19L99 34V742L29 768V781L182 830H191V34L260 19V0Z" />
<glyph unicode="m" glyph-name="m" horiz-adv-x="907" d="M883 20V0H638V20L713 34V328Q713 401 701 439Q686 485 633 485Q596 485 563 469T503 421Q505 381 505 338V34L580 20V0H335V20L410 34V328Q410 395 398 439Q382 485 330 485Q294 485 261 469T202 423V35L277
20V0H31V20L107 35V450L33 478V491L188 540H198V455Q241 496 289 518T386 540Q422 540 450 524T492 480Q498 468 500 454Q543 495 592 517T689 540Q725 540 753 524T795 480Q803 464 805 436T808 338V34L883 20Z" />
<glyph unicode="n" glyph-name="n" horiz-adv-x="611" d="M590 20V0H345V20L420 34V328Q420 372 418 397T408 439Q389 485 330 485Q294 485 261 469T202 423V35L277 20V0H31V20L107 35V450L33 478V491L188 540H198V455Q241 496 289 518T386 540Q426 540 457 524T502
480Q510 464 512 438T515 338V34L590 20Z" />
<glyph unicode="o" glyph-name="o" horiz-adv-x="616" d="M382 540T442 505T537 406T571 265Q571 187 537 124T443 26T308 -10Q234 -10 174 25T79 124T45 265Q45 343 79 406T173 504T308 540Q382 540 442 505ZM151 157T192 96T307 35Q381 35 423 96T465 266Q465
373 424 434T308 495Q234 495 193 434T151 265Q151 157 192 96Z" />
<glyph unicode="p" glyph-name="p" horiz-adv-x="615" d="M292 -231V-250H23V-231L98 -216V451L25 478V492L179 540H190V452H194Q223 496 266 518T357 540Q419 540 467 506T541 410T568 273Q568 190 533 126T435 26T290 -10Q238 -10 193 5V-216L292 -231ZM344
20T383 50T443 134T464 257Q464 358 422 416T307 475Q276 475 243 458T198 417V118Q198 75 225 48T294 20Q344 20 383 50Z" />
<glyph unicode="q" glyph-name="q" horiz-adv-x="602" d="M420 58Q357 -10 268 -10Q203 -10 153 22T75 111T47 243Q47 333 80 400T172 504T311 540Q388 540 449 494H454L499 528H515V-216L590 -231V-250H321V-231L420 -216V58ZM239 508T197 447T154 271Q154 165
195 105T310 44Q343 44 371 58T420 96V382Q420 439 390 473T311 508Q239 508 197 447Z" />
<glyph unicode="r" glyph-name="r" horiz-adv-x="415" d="M362 541T380 523T399 478Q399 454 383 438T341 421Q317 421 303 440Q294 451 288 455T272 459Q260 459 251 454T232 434Q215 411 210 403T203 385V35L303 20V0H32V20L108 35V451L34 479V492L189 541H199V432Q234
485 269 513T336 541Q362 541 380 523Z" />
<glyph unicode="s" glyph-name="s" horiz-adv-x="435" d="M278 540T310 536T362 523V384H341Q326 510 224 510Q184 510 161 488T137 429Q137 401 151 382T187 349T245 319Q291 298 318 280T366 231T386 152Q386 78 337 34T202 -10Q170 -10 132 -4T64 12L58 174H82Q89
98 121 59T210 20Q255 20 282 45T309 112Q309 143 294 164T257 199T195 233Q150 255 123 272T77 320T58 394Q58 464 106 502T244 540Q278 540 310 536Z" />
<glyph unicode="t" glyph-name="t" horiz-adv-x="350" d="M159 -10T129 18Q111 35 104 60T96 132V495H31L29 511L173 661L191 659V530H334L326 495H191V141Q191 105 193 90T200 65Q216 37 250 37Q270 37 290 48T326 78L343 65Q320 30 284 10T207 -10Q159 -10 129 18Z" />
<glyph unicode="u" glyph-name="u" horiz-adv-x="598" d="M565 51V39L415 -10H408V81L404 82Q368 38 322 14T225 -10Q185 -10 155 6T111 51Q103 69 100 97T97 193V495L22 510V530H192V193Q192 146 194 121T204 81Q212 64 230 54T274 44Q309 44 342 62T402 114V495L327
510V530H497V75L565 51Z" />
<glyph unicode="v" glyph-name="v" horiz-adv-x="566" d="M84 467Q75 491 62 499T12 510V530H260V510Q219 509 205 504T191 486Q191 474 197 456L312 124H316L424 434Q433 461 433 474Q433 489 420 496T362 510V530H565V510Q528 504 510 496T482 474T463 433L307
-10H263L84 467Z" />
<glyph unicode="w" glyph-name="w" horiz-adv-x="849" d="M851 530V510Q814 504 796 496T768 474T749 433L593 -10H549L428 365L296 -10H252L88 467Q80 491 67 499T16 510V530H264V510Q218 507 205 503T192 488Q192 483 195 473T201 456L301 124H305L409 423L395
467Q389 490 376 498T333 510V530H561V510Q515 507 502 503T489 488Q489 483 492 473T498 456L598 124H602L710 434Q719 458 719 473Q719 489 704 496T648 510V530H851Z" />
<glyph unicode="x" glyph-name="x" horiz-adv-x="579" d="M506 42T523 33T578 20V0H329V20Q366 24 377 27T388 41Q388 49 372 74L275 224L174 92Q156 69 156 56Q156 28 221 20V0H0V20Q50 28 78 43T131 91L253 258L117 467Q104 487 86 495T24 510V530H275V510Q246
508 234 503T222 489Q222 479 237 456L316 335L395 438Q407 453 410 460T413 476Q413 500 355 510V530H561V510Q513 500 491 488T443 442L336 303L492 63Q506 42 523 33Z" />
<glyph unicode="y" glyph-name="y" horiz-adv-x="572" d="M419 431Q426 451 426 467Q426 506 349 510V530H574V510Q534 503 514 495T483 473T462 430L267 -141Q248 -198 220 -226Q205 -242 183 -251T135 -260Q98 -260 76 -242T53 -193Q53 -170 68 -156T109 -141Q129
-141 140 -151T155 -187Q157 -205 161 -211T175 -217Q191 -217 205 -198T234 -134L275 -8L80 470Q71 489 55 498T9 510V530H256V510Q216 508 203 504T190 490Q190 481 198 460L320 144H325L419 431Z" />
<glyph unicode="z" glyph-name="z" horiz-adv-x="513" d="M471 503L155 32H387Q403 73 416 117T436 194L457 191L450 0H39V28L351 498H130Q90 384 80 331L59 332L71 530H471V503Z" />
<glyph unicode="{" glyph-name="braceleft" horiz-adv-x="327" d="M273 -157T251 -157Q216 -157 201 -136T185 -65Q185 -31 196 53Q210 157 210 202Q210 255 194 284T138 328V332Q175 346 192 378T210 464Q210 508 196 598Q185 670 185 699Q185 743 202 768T251
794Q265 794 292 789L298 815Q266 828 234 828Q169 828 134 795T99 701Q99 674 111 596Q125 506 125 463Q125 400 103 372T29 343V320Q82 320 103 292T125 194Q125 145 111 49Q99 -37 99 -70Q99 -136 129 -165T227 -194Q261 -194 298 -180L292 -151Q273 -157 251
-157Z" />
<glyph unicode="|" glyph-name="bar" horiz-adv-x="272" d="M101 819H171V-170H101V819Z" />
<glyph unicode="}" glyph-name="braceright" horiz-adv-x="327" d="M66 -194T100 -194Q167 -194 197 -165T228 -70Q228 -37 216 49Q202 145 202 194Q202 263 223 291T298 320V343Q247 343 225 371T202 463Q202 506 216 596Q228 674 228 701Q228 762 193 795T93
828Q62 828 29 815L35 789Q63 794 76 794Q108 794 125 769T142 699Q142 670 131 598Q117 508 117 464Q117 411 134 379T189 332V328Q150 313 134 284T117 202Q117 157 131 53Q142 -31 142 -65Q142 -114 127 -135T76 -157Q55 -157 35 -151L29 -180Q66 -194 100 -194Z"
/>
<glyph unicode="~" glyph-name="asciitilde" horiz-adv-x="588" d="M118 249T132 262T178 276Q203 276 228 269T286 249Q323 236 346 230T392 223Q454 223 482 266T510 359H480Q472 333 458 320T412 307Q387 307 363 313T304 333Q269 346 246 352T198 359Q136
359 108 316T80 223H110Q118 249 132 262Z" />
<glyph unicode="&#xa0;" glyph-name="uni00A0" horiz-adv-x="272" />
<glyph unicode="&#xa1;" glyph-name="exclamdown" horiz-adv-x="273" d="M201 447T184 429T137 410Q107 410 89 428T71 476Q71 503 89 521T137 540Q166 540 183 522T201 476Q201 447 184 429ZM162 150T177 14L184 -45Q187 -69 192 -117T197 -181Q197 -211 181
-230T136 -250Q106 -250 91 -232T76 -184Q76 -164 90 -38L96 10Q114 173 121 300H152Q162 150 177 14Z" />
<glyph unicode="&#xa2;" glyph-name="cent" horiz-adv-x="554" d="M488 151L507 141L502 128Q479 69 433 34T324 -9V-130H282V-10Q215 -7 163 28T81 122T52 258Q52 333 81 393T162 492T282 538V670H324V540Q375 539 417 523T484 480T508 422Q508 396 496 381T462
365Q436 365 422 380T403 428Q397 466 378 484T324 507V63H326Q372 63 411 81T477 136L488 151ZM154 191T187 137T282 68V506Q247 499 218 469T172 390T154 278Q154 191 187 137Z" />
<glyph unicode="&#xa3;" glyph-name="sterling" horiz-adv-x="678" d="M223 216T203 139Q169 148 141 148Q93 148 63 124T32 61Q32 29 55 10T120 -9Q158 -9 194 10T263 67Q319 24 359 7T445 -10Q522 -10 564 35T606 163H571Q549 87 430 87Q355 87 292 116Q331
198 359 322H548V366H368L379 430Q400 558 413 619T437 704T464 727Q479 727 487 718T505 688Q518 664 529 653T562 641Q586 641 603 657T620 699Q620 732 586 753T498 775Q413 775 358 704T273 483L249 366H130V322H240Q223 216 203 139ZM180 66T160 50T117 33Q101
33 92 41T82 65Q82 84 97 95T141 106Q166 106 191 94Q180 66 160 50Z" />
<glyph unicode="&#xa4;" glyph-name="currency" horiz-adv-x="634" d="M245 152T317 152Q391 152 443 194L509 127L557 175L491 241Q532 297 532 368Q532 441 490 493L557 559L509 607L444 541Q386 582 317 582Q244 582 191 540L125 607L77 559L144 494Q102 440
102 368Q102 292 144 241L77 175L125 127L191 194Q245 152 317 152ZM278 216T245 236T192 292T172 368Q172 408 191 442T244 497T317 518Q356 518 389 498T442 443T462 367Q462 326 443 292T390 237T317 216Q278 216 245 236Z" />
<glyph unicode="&#xa5;" glyph-name="yen" horiz-adv-x="650" d="M618 770V747Q584 741 567 732T536 702T503 636L395 374H536V330H377V253H536V209H377V42L466 23V0H182V23L272 42V209H105V253H272V330H105V374H254L119 686Q103 721 88 732T34 747V770H312V747Q273
740 257 731T241 705Q241 691 250 670L359 405H363L472 671Q478 688 478 700Q478 720 459 731T396 747V770H618Z" />
<glyph unicode="&#xa6;" glyph-name="brokenbar" horiz-adv-x="275" d="M104 819H171V432H104V819ZM104 216H171V-171H104V216Z" />
<glyph unicode="&#xa7;" glyph-name="section" horiz-adv-x="540" d="M367 830T419 802T471 728Q471 705 457 690T421 675Q400 675 390 689T365 738Q351 772 333 785T276 798Q215 798 182 771T148 694Q148 656 168 630T217 587T298 547Q357 521 392 500T452 444T477
354Q477 299 451 256T377 188Q422 160 447 122T472 28Q472 -58 414 -108T252 -158Q169 -158 117 -127T64 -47Q64 -23 77 -8T114 7Q134 7 145 -6T169 -56Q183 -92 202 -109T268 -126Q327 -126 361 -97T395 -15Q395 27 374 55T321 102T237 143Q180 168 146 188T88
241T64 325Q64 382 97 424T189 487Q133 516 101 555T69 656Q69 737 127 783T286 830Q367 830 419 802ZM400 350T378 377T322 422T230 467Q191 456 167 427T143 361Q143 327 161 304T207 267T285 231Q315 219 337 209Q366 225 383 252T400 313Q400 350 378 377Z"
/>
<glyph unicode="&#xa8;" glyph-name="dieresis" horiz-adv-x="317" d="M10 749T25 764T65 780Q90 780 105 765T120 725Q120 702 105 686T65 670Q41 670 26 686T10 725Q10 749 25 764ZM197 749T212 764T252 780Q277 780 292 765T307 725Q307 702 292 686T252 670Q228
670 213 686T197 725Q197 749 212 764Z" />
<glyph unicode="&#xa9;" glyph-name="copyright" horiz-adv-x="902" d="M54 492T107 582T252 726T451 780Q559 780 650 727T794 583T848 385Q848 278 795 188T650 44T451 -10Q343 -10 252 43T108 187T54 385Q54 492 107 582ZM106 291T152 211T277 83T451 35Q546
35 624 82T749 210T795 385Q795 479 749 559T625 687T451 735Q356 735 277 688T152 560T106 385Q106 291 152 211ZM230 451T258 504T336 587T448 617Q517 617 571 577H575L599 615H613V472H591Q582 500 569 522Q550 553 525 567T464 582Q396 582 361 533T325 391Q325
297 361 246T462 195Q526 195 563 248Q585 280 593 323H613V162H599L573 208Q543 183 514 172T447 161Q384 161 335 189T258 269T230 385Q230 451 258 504Z" />
<glyph unicode="&#xaa;" glyph-name="ordfeminine" horiz-adv-x="417" d="M105 422T82 444T58 502Q58 545 99 572T237 622V680Q237 715 226 730T189 745Q163 745 147 734T130 705Q130 700 131 694T132 682Q132 666 122 656T98 645Q85 645 77 653T68 676Q68 698
87 721T138 760Q175 780 221 780Q249 780 271 771T301 745Q306 734 307 719T309 660V521Q309 489 314 478T333 467Q346 467 360 481L376 466Q347 422 304 422Q278 422 262 436T242 476L238 477Q197 422 143 422Q105 422 82 444ZM214 471T237 514V593Q178 580 155
563T132 515Q132 494 144 483T180 471Q214 471 237 514Z" />
<glyph unicode="&#xab;" glyph-name="guillemotleft" horiz-adv-x="436" d="M141 246L207 431L195 436L58 255V236L197 53L209 61L141 246ZM297 246L363 431L351 436L214 255V236L353 53L365 61L297 246Z" />
<glyph unicode="&#xac;" glyph-name="logicalnot" horiz-adv-x="572" d="M494 308V147H443V264H84V308H494Z" />
<glyph unicode="&#xad;" glyph-name="uni00AD" horiz-adv-x="465" d="M73 294H392V210H73V294Z" />
<glyph unicode="&#xae;" glyph-name="registered" horiz-adv-x="690" d="M67 579T104 642T206 743T345 780Q420 780 484 743T585 643T623 504Q623 429 586 366T484 265T345 227Q270 227 206 264T105 365T67 504Q67 579 104 642ZM103 438T135 382T223 292T345 258Q411
258 466 291T553 381T586 504Q586 570 554 626T466 716T345 750Q279 750 224 717T136 627T103 504Q103 438 135 382ZM346 663Q397 663 428 640T460 577Q460 547 442 528T390 500L458 375L488 367V355H402L331 495H308V375L344 367V355H228V367L254 375V642L228
650V663H346ZM350 516T375 531T400 579Q400 611 378 626T308 642V516Q350 516 375 531Z" />
<glyph unicode="&#xaf;" glyph-name="overscore" horiz-adv-x="307" d="M10 780H297V709H10V780Z" />
<glyph unicode="&#xb0;" glyph-name="degree" horiz-adv-x="340" d="M221 587T256 622T291 708Q291 758 256 794T170 830Q119 830 84 795T49 708Q49 657 84 622T170 587Q221 587 256 622ZM90 744T112 767T170 790Q206 790 228 767T250 708Q250 673 228 651T170
628Q136 628 113 651T90 708Q90 744 112 767Z" />
<glyph unicode="&#xb1;" glyph-name="plusminus" horiz-adv-x="576" d="M493 471V422H314V241H263V422H83V471H263V651H314V471H493ZM83 155H493V106H83V155Z" />
<glyph unicode="&#xb2;" glyph-name="uni00B2" horiz-adv-x="405" d="M28 454Q151 569 202 641T253 771Q253 813 231 838T174 863Q143 863 114 842T66 787L44 801Q66 859 109 892T207 926Q269 926 310 886T351 784Q351 724 302 661T130 502H295Q321 528 343 568L367
563L315 394H296L284 416H34L28 454Z" />
<glyph unicode="&#xb3;" glyph-name="uni00B3" horiz-adv-x="389" d="M163 703T193 737T224 808Q224 834 209 849T168 865Q140 865 114 848T74 803L53 812Q64 863 104 894T200 926Q251 926 283 898T316 824Q316 786 291 758T227 720V716Q281 711 313 675T346 583Q346
536 322 496T257 433T165 409Q110 409 72 435T34 500Q34 521 46 534T77 548Q96 548 105 537T124 502Q134 477 145 464T180 451Q214 451 235 476T256 544Q256 596 228 626T155 657Q137 657 120 654L111 683Q163 703 193 737Z" />
<glyph unicode="&#xb4;" glyph-name="acute" horiz-adv-x="170" d="M130 755Q146 775 153 789T160 816Q160 834 149 846T121 859Q82 859 66 812L10 642L31 631L130 755Z" />
<glyph unicode="&#xb5;" glyph-name="uni00B5" horiz-adv-x="624" d="M413 82Q343 -10 261 -10Q218 -10 188 12T150 72L147 70Q147 16 172 -103Q174 -113 181 -150T188 -206Q188 -232 176 -246T140 -260Q114 -260 103 -240T91 -173Q91 -151 97 -57Q106 78 106
127V530H201V193Q201 145 203 120T213 81Q230 39 279 39Q314 39 349 59T411 114V530H506V75L574 51V39L424 -10H417V81L413 82Z" />
<glyph unicode="&#xb6;" glyph-name="paragraph" horiz-adv-x="583" d="M294 340H238Q176 340 129 369T57 447T31 554Q31 653 93 711T263 770H524V745L446 728V-108H400V730H340V-108H294V340Z" />
<glyph unicode="&#xb7;" glyph-name="middot" horiz-adv-x="282" d="M72 317T91 337T140 357Q172 357 191 338T210 287Q210 258 191 239T140 219Q110 219 91 239T72 287Q72 317 91 337Z" />
<glyph unicode="&#xb8;" glyph-name="cedilla" horiz-adv-x="230" d="M41 -213T53 -216T80 -220Q110 -220 127 -206T145 -168Q145 -148 133 -137T97 -125Q72 -125 46 -133L37 -124L97 17H134L105 -58Q157 -58 188 -85T220 -156Q220 -200 184 -228T88 -257Q65 -257
44 -251T10 -233L24 -203Q41 -213 53 -216Z" />
<glyph unicode="&#xb9;" glyph-name="uni00B9" horiz-adv-x="351" d="M230 457L313 440V416H58V440L140 457V818H59V846Q138 862 206 926L230 921V457Z" />
<glyph unicode="&#xba;" glyph-name="ordmasculine" horiz-adv-x="442" d="M269 780T308 757T369 693T392 601Q392 550 370 509T308 445T221 422Q173 422 134 445T73 509T50 601Q50 652 72 693T134 757T221 780Q269 780 308 757ZM129 533T153 495T220 456Q263
456 288 495T313 602Q313 670 289 707T221 745Q177 745 153 707T129 601Q129 533 153 495Z" />
<glyph unicode="&#xbb;" glyph-name="guillemotright" horiz-adv-x="436" d="M222 236V255L85 436L73 431L139 246L71 61L83 53L222 236ZM378 236V255L241 436L229 431L295 246L227 61L239 53L378 236Z" />
<glyph unicode="&#xbc;" glyph-name="onequarter" horiz-adv-x="808" d="M634 770H704L234 0H165L634 770ZM203 357L277 342V320H48V342L122 357V682H49V707Q119 722 181 779L203 775V357ZM453 114L444 148L669 459L705 454V171H759V114H705V36L757 22V0H554V22L624
36V114H453ZM620 335L504 175L506 171H624V335H620Z" />
<glyph unicode="&#xbd;" glyph-name="onehalf" horiz-adv-x="834" d="M604 770H674L204 0H135L604 770ZM203 357L277 342V320H48V342L122 357V682H49V707Q119 722 181 779L203 775V357ZM486 35Q596 138 642 203T688 320Q688 358 669 380T617 403Q589 403 563 384T520
334L500 347Q519 399 558 429T647 459Q702 459 739 423T777 332Q777 278 732 221T578 78H726Q748 99 769 137L791 133L744 -19H727L716 0H491L486 35Z" />
<glyph unicode="&#xbe;" glyph-name="threequarters" horiz-adv-x="817" d="M617 770H687L217 0H148L617 770ZM466 114L457 148L682 459L718 454V171H772V114H718V36L770 22V0H567V22L637 36V114H466ZM633 335L517 175L519 171H637V335H633ZM157 580T184 610T212
674Q212 697 198 711T161 725Q135 725 113 710T77 669L58 678Q68 724 104 752T190 780Q236 780 265 755T294 688Q294 654 272 629T214 595V591Q263 586 292 554T321 471Q321 429 299 393T240 336T158 315Q109 315 75 339T41 397Q41 416 51 428T79 440Q96 440 104
430T121 399Q130 377 140 365T172 353Q202 353 221 375T240 436Q240 483 215 510T149 538Q133 538 118 535L110 561Q157 580 184 610Z" />
<glyph unicode="&#xbf;" glyph-name="questiondown" horiz-adv-x="404" d="M357 446T339 428T292 410Q264 410 246 428T227 475Q227 504 245 522T293 540Q322 540 339 522T357 475Q357 446 339 428ZM273 178L243 177Q145 174 93 129T41 1Q41 -69 73 -128T159 -221T275
-256Q303 -256 315 -248T328 -221Q328 -206 320 -196T287 -175T208 -142Q142 -116 109 -82T75 -8Q75 88 270 88H309V300H273V178Z" />
<glyph unicode="&#xc0;" glyph-name="Agrave" horiz-adv-x="744" d="M660 60T670 48T698 31T753 23V0H435V23Q481 25 502 28T531 38T538 56Q538 71 527 100L461 283H219L165 132Q154 101 154 85Q154 59 179 45T257 23V0H-24V23Q28 31 54 43T94 74T121 134L315
677L289 736L387 790L651 84Q660 60 670 48ZM446 323L341 614H337L233 323H446ZM294 944Q272 960 250 960Q233 960 220 948T207 917Q207 899 222 885T275 860L427 816L438 837L294 944Z" />
<glyph unicode="&#xc1;" glyph-name="Aacute" horiz-adv-x="744" d="M660 60T670 48T698 31T753 23V0H435V23Q481 25 502 28T531 38T538 56Q538 71 527 100L461 283H219L165 132Q154 101 154 85Q154 59 179 45T257 23V0H-24V23Q28 31 54 43T94 74T121 134L315
677L289 736L387 790L651 84Q660 60 670 48ZM446 323L341 614H337L233 323H446ZM428 860Q465 871 480 885T496 917Q496 935 483 947T453 960Q431 960 409 944L265 837L276 816L428 860Z" />
<glyph unicode="&#xc2;" glyph-name="Acircumflex" horiz-adv-x="744" d="M660 60T670 48T698 31T753 23V0H435V23Q481 25 502 28T531 38T538 56Q538 71 527 100L461 283H219L165 132Q154 101 154 85Q154 59 179 45T257 23V0H-24V23Q28 31 54 43T94 74T121 134L315
677L289 736L387 790L651 84Q660 60 670 48ZM446 323L341 614H337L233 323H446ZM371 960T382 954T409 933L502 837L483 820L354 878L227 820L207 837L301 933Q316 948 326 954T354 960Q371 960 382 954Z" />
<glyph unicode="&#xc3;" glyph-name="Atilde" horiz-adv-x="744" d="M660 60T670 48T698 31T753 23V0H435V23Q481 25 502 28T531 38T538 56Q538 71 527 100L461 283H219L165 132Q154 101 154 85Q154 59 179 45T257 23V0H-24V23Q28 31 54 43T94 74T121 134L315
677L289 736L387 790L651 84Q660 60 670 48ZM446 323L341 614H337L233 323H446ZM226 861T239 871T275 881Q291 881 305 877T349 862Q373 852 390 847T423 842Q460 842 483 875T507 960H483Q475 922 433 922Q414 922 389 930T359 939Q333 948 316 952T284 957Q247
957 224 925T200 843H224Q226 861 239 871Z" />
<glyph unicode="&#xc4;" glyph-name="Adieresis" horiz-adv-x="744" d="M660 60T670 48T698 31T753 23V0H435V23Q481 25 502 28T531 38T538 56Q538 71 527 100L461 283H219L165 132Q154 101 154 85Q154 59 179 45T257 23V0H-24V23Q28 31 54 43T94 74T121 134L315
677L289 736L387 790L651 84Q660 60 670 48ZM446 323L341 614H337L233 323H446ZM217 909T232 924T272 940Q297 940 312 925T327 885Q327 862 312 846T272 830Q248 830 233 846T217 885Q217 909 232 924ZM404 909T419 924T459 940Q484 940 499 925T514 885Q514 862
499 846T459 830Q435 830 420 846T404 885Q404 909 419 924Z" />
<glyph unicode="&#xc5;" glyph-name="Aring" horiz-adv-x="744" d="M660 60T670 48T698 31T753 23V0H435V23Q481 25 502 28T531 38T538 56Q538 71 527 100L461 283H219L165 132Q154 101 154 85Q154 59 179 45T257 23V0H-24V23Q28 31 54 43T94 74T121 134L315 677L289
736L387 790L651 84Q660 60 670 48ZM446 323L341 614H337L233 323H446ZM375 830T395 850T415 900Q415 930 395 950T345 970Q315 970 295 950T275 900Q275 870 294 850T345 830Q375 830 395 850ZM310 916T319 925T345 935Q361 935 370 926T380 900Q380 884 371 875T345
865Q329 865 320 874T310 900Q310 916 319 925Z" />
<glyph unicode="&#xc6;" glyph-name="AE" horiz-adv-x="1029" d="M32 31T61 43T108 75T147 134L461 730L376 747V770H942L959 550H935Q905 658 863 730H576V407H755Q780 460 792 527H816V247H792Q783 309 755 367H576V40H858Q885 84 902 127T942 234H975L938 0H386V23L471
42V292H273L190 132Q169 93 169 72Q169 52 189 42T258 23V0H-22V23Q32 31 61 43ZM470 667H466L294 332H470V667Z" />
<glyph unicode="&#xc7;" glyph-name="Ccedilla" horiz-adv-x="774" d="M56 496T103 587T233 729T422 780Q480 780 536 764T637 719H641L690 770H708V540H678Q662 589 637 630Q602 686 555 711T439 736Q315 736 249 645T182 387Q182 220 249 128T440 35Q500 35
548 59T628 129Q666 182 681 262H708V0H684L638 66Q585 26 533 8T418 -10Q312 -10 230 39T102 177T56 380Q56 496 103 587ZM344 -213T356 -216T383 -220Q413 -220 430 -206T448 -168Q448 -148 436 -137T400 -125Q375 -125 349 -133L340 -124L400 17H437L408 -58Q460
-58 491 -85T523 -156Q523 -200 487 -228T391 -257Q368 -257 347 -251T313 -233L327 -203Q344 -213 356 -216Z" />
<glyph unicode="&#xc8;" glyph-name="Egrave" horiz-adv-x="692" d="M638 234L601 0H49V23L134 42V728L49 747V770H605L622 550H598Q568 658 526 730H239V426H418Q443 479 455 546H479V266H455Q446 328 418 386H239V40H521Q548 84 565 127T605 234H638ZM308 944Q286
960 264 960Q247 960 234 948T221 917Q221 899 236 885T289 860L441 816L452 837L308 944Z" />
<glyph unicode="&#xc9;" glyph-name="Eacute" horiz-adv-x="692" d="M638 234L601 0H49V23L134 42V728L49 747V770H605L622 550H598Q568 658 526 730H239V426H418Q443 479 455 546H479V266H455Q446 328 418 386H239V40H521Q548 84 565 127T605 234H638ZM417 860Q454
871 469 885T485 917Q485 935 472 947T442 960Q420 960 398 944L254 837L265 816L417 860Z" />
<glyph unicode="&#xca;" glyph-name="Ecircumflex" horiz-adv-x="692" d="M638 234L601 0H49V23L134 42V728L49 747V770H605L622 550H598Q568 658 526 730H239V426H418Q443 479 455 546H479V266H455Q446 328 418 386H239V40H521Q548 84 565 127T605 234H638ZM381
960T392 954T419 933L512 837L493 820L364 878L237 820L217 837L311 933Q326 948 336 954T364 960Q381 960 392 954Z" />
<glyph unicode="&#xcb;" glyph-name="Edieresis" horiz-adv-x="692" d="M638 234L601 0H49V23L134 42V728L49 747V770H605L622 550H598Q568 658 526 730H239V426H418Q443 479 455 546H479V266H455Q446 328 418 386H239V40H521Q548 84 565 127T605 234H638ZM208
909T223 924T263 940Q288 940 303 925T318 885Q318 862 303 846T263 830Q239 830 224 846T208 885Q208 909 223 924ZM395 909T410 924T450 940Q475 940 490 925T505 885Q505 862 490 846T450 830Q426 830 411 846T395 885Q395 909 410 924Z" />
<glyph unicode="&#xcc;" glyph-name="Igrave" horiz-adv-x="374" d="M45 747V770H329V747L240 728V42L329 23V0H45V23L135 42V728L45 747ZM160 944Q138 960 116 960Q99 960 86 948T73 917Q73 899 88 885T141 860L293 816L304 837L160 944Z" />
<glyph unicode="&#xcd;" glyph-name="Iacute" horiz-adv-x="374" d="M45 747V770H329V747L240 728V42L329 23V0H45V23L135 42V728L45 747ZM237 870Q274 881 289 895T305 927Q305 945 292 957T262 970Q240 970 218 954L74 847L85 826L237 870Z" />
<glyph unicode="&#xce;" glyph-name="Icircumflex" horiz-adv-x="374" d="M45 747V770H329V747L240 728V42L329 23V0H45V23L135 42V728L45 747ZM205 961T216 955T243 934L336 838L317 821L188 879L61 821L41 838L135 934Q150 949 160 955T188 961Q205 961 216 955Z" />
<glyph unicode="&#xcf;" glyph-name="Idieresis" horiz-adv-x="374" d="M45 747V770H329V747L240 728V42L329 23V0H45V23L135 42V728L45 747ZM40 936T55 951T95 967Q120 967 135 952T150 912Q150 889 135 873T95 857Q71 857 56 873T40 912Q40 936 55 951ZM227
936T242 951T282 967Q307 967 322 952T337 912Q337 889 322 873T282 857Q258 857 243 873T227 912Q227 936 242 951Z" />
<glyph unicode="&#xd0;" glyph-name="Eth" horiz-adv-x="811" d="M50 23L135 42V364H56V429H135V728L50 747V770H299Q418 770 489 754T613 697Q680 645 717 563T754 383Q754 281 715 196T606 59Q562 27 511 14T385 0H50V23ZM417 38T464 56T547 119Q587 168 608
239T629 395Q629 480 608 546T544 657Q506 697 455 713T319 730H240V429H363V364H240V98Q240 64 262 51T344 38Q417 38 464 56Z" />
<glyph unicode="&#xd1;" glyph-name="Ntilde" horiz-adv-x="828" d="M668 -20L175 667V42L264 23V0H45V23L135 42V728L45 747V770H247L659 204V728L570 747V770H789V747L699 728V-20H668ZM299 861T312 871T348 881Q364 881 378 877T422 862Q446 852 463 847T496
842Q533 842 556 875T580 960H556Q548 922 506 922Q487 922 462 930T432 939Q406 948 389 952T357 957Q320 957 297 925T273 843H297Q299 861 312 871Z" />
<glyph unicode="&#xd2;" glyph-name="Ograve" horiz-adv-x="836" d="M520 780T603 729T733 587T781 385Q781 274 734 184T603 42T418 -10Q316 -10 233 41T103 183T55 385Q55 496 102 586T233 728T418 780Q520 780 603 729ZM181 277T209 198T291 77T418 35Q492
35 545 77T626 198T655 388Q655 551 593 643T419 735Q345 735 292 694T210 574T181 386Q181 277 209 198ZM385 944Q363 960 341 960Q324 960 311 948T298 917Q298 899 313 885T366 860L518 816L529 837L385 944Z" />
<glyph unicode="&#xd3;" glyph-name="Oacute" horiz-adv-x="836" d="M520 780T603 729T733 587T781 385Q781 274 734 184T603 42T418 -10Q316 -10 233 41T103 183T55 385Q55 496 102 586T233 728T418 780Q520 780 603 729ZM181 277T209 198T291 77T418 35Q492
35 545 77T626 198T655 388Q655 551 593 643T419 735Q345 735 292 694T210 574T181 386Q181 277 209 198ZM473 860Q510 871 525 885T541 917Q541 935 528 947T498 960Q476 960 454 944L310 837L321 816L473 860Z" />
<glyph unicode="&#xd4;" glyph-name="Ocircumflex" horiz-adv-x="836" d="M520 780T603 729T733 587T781 385Q781 274 734 184T603 42T418 -10Q316 -10 233 41T103 183T55 385Q55 496 102 586T233 728T418 780Q520 780 603 729ZM181 277T209 198T291 77T418 35Q492
35 545 77T626 198T655 388Q655 551 593 643T419 735Q345 735 292 694T210 574T181 386Q181 277 209 198ZM441 960T452 954T479 933L572 837L553 820L424 878L297 820L277 837L371 933Q386 948 396 954T424 960Q441 960 452 954Z" />
<glyph unicode="&#xd5;" glyph-name="Otilde" horiz-adv-x="836" d="M520 780T603 729T733 587T781 385Q781 274 734 184T603 42T418 -10Q316 -10 233 41T103 183T55 385Q55 496 102 586T233 728T418 780Q520 780 603 729ZM181 277T209 198T291 77T418 35Q492
35 545 77T626 198T655 388Q655 551 593 643T419 735Q345 735 292 694T210 574T181 386Q181 277 209 198ZM299 861T312 871T348 881Q364 881 378 877T422 862Q446 852 463 847T496 842Q533 842 556 875T580 960H556Q548 922 506 922Q487 922 462 930T432 939Q406
948 389 952T357 957Q320 957 297 925T273 843H297Q299 861 312 871Z" />
<glyph unicode="&#xd6;" glyph-name="Odieresis" horiz-adv-x="836" d="M520 780T603 729T733 587T781 385Q781 274 734 184T603 42T418 -10Q316 -10 233 41T103 183T55 385Q55 496 102 586T233 728T418 780Q520 780 603 729ZM181 277T209 198T291 77T418 35Q492
35 545 77T626 198T655 388Q655 551 593 643T419 735Q345 735 292 694T210 574T181 386Q181 277 209 198ZM276 909T291 924T331 940Q356 940 371 925T386 885Q386 862 371 846T331 830Q307 830 292 846T276 885Q276 909 291 924ZM463 909T478 924T518 940Q543 940
558 925T573 885Q573 862 558 846T518 830Q494 830 479 846T463 885Q463 909 478 924Z" />
<glyph unicode="&#xd7;" glyph-name="multiply" horiz-adv-x="491" d="M285 338L424 199L387 162L248 301L107 160L68 199L209 340L69 480L106 517L246 377L386 517L425 478L285 338Z" />
<glyph unicode="&#xd8;" glyph-name="Oslash" horiz-adv-x="837" d="M350 -10T290 13T182 81L112 0H57L152 111Q106 164 81 234T56 385Q56 496 103 586T234 728T419 780Q485 780 544 757T651 692L718 770H774L681 662Q729 609 755 538T782 385Q782 274 735 184T604
42T419 -10Q350 -10 290 13ZM569 683T524 709T420 735Q346 735 293 694T211 574T182 386Q182 266 215 185L600 633Q569 683 524 709ZM493 35T546 77T627 198T656 388Q656 508 621 592L235 144Q266 91 313 63T419 35Q493 35 546 77Z" />
<glyph unicode="&#xd9;" glyph-name="Ugrave" horiz-adv-x="774" d="M228 134T277 85T414 35Q468 35 509 51T572 97Q592 124 601 172T610 300V728L521 747V770H740V747L650 728V258Q650 195 641 152T612 80Q583 37 526 14T393 -10Q316 -10 256 14T162 82Q142 109
133 145T123 242V728L33 747V770H317V747L228 728V227Q228 134 277 85ZM394 944Q372 960 350 960Q333 960 320 948T307 917Q307 899 322 885T375 860L527 816L538 837L394 944Z" />
<glyph unicode="&#xda;" glyph-name="Uacute" horiz-adv-x="774" d="M228 134T277 85T414 35Q468 35 509 51T572 97Q592 124 601 172T610 300V728L521 747V770H740V747L650 728V258Q650 195 641 152T612 80Q583 37 526 14T393 -10Q316 -10 256 14T162 82Q142 109
133 145T123 242V728L33 747V770H317V747L228 728V227Q228 134 277 85ZM478 860Q515 871 530 885T546 917Q546 935 533 947T503 960Q481 960 459 944L315 837L326 816L478 860Z" />
<glyph unicode="&#xdb;" glyph-name="Ucircumflex" horiz-adv-x="774" d="M228 134T277 85T414 35Q468 35 509 51T572 97Q592 124 601 172T610 300V728L521 747V770H740V747L650 728V258Q650 195 641 152T612 80Q583 37 526 14T393 -10Q316 -10 256 14T162 82Q142
109 133 145T123 242V728L33 747V770H317V747L228 728V227Q228 134 277 85ZM443 960T454 954T481 933L574 837L555 820L426 878L299 820L279 837L373 933Q388 948 398 954T426 960Q443 960 454 954Z" />
<glyph unicode="&#xdc;" glyph-name="Udieresis" horiz-adv-x="774" d="M228 134T277 85T414 35Q468 35 509 51T572 97Q592 124 601 172T610 300V728L521 747V770H740V747L650 728V258Q650 195 641 152T612 80Q583 37 526 14T393 -10Q316 -10 256 14T162 82Q142
109 133 145T123 242V728L33 747V770H317V747L228 728V227Q228 134 277 85ZM278 909T293 924T333 940Q358 940 373 925T388 885Q388 862 373 846T333 830Q309 830 294 846T278 885Q278 909 293 924ZM465 909T480 924T520 940Q545 940 560 925T575 885Q575 862 560
846T520 830Q496 830 481 846T465 885Q465 909 480 924Z" />
<glyph unicode="&#xdd;" glyph-name="Yacute" horiz-adv-x="709" d="M300 42V327L97 686Q83 710 73 721T45 738T-8 747V770H320V747Q258 743 237 735T215 710Q215 694 228 670L393 375H397L536 638Q548 662 548 681Q548 709 522 726T444 747V770H726V747Q681 740
657 729T621 703T592 657Q589 650 581 636L405 309V42L494 23V0H210V23L300 42ZM451 860Q488 871 503 885T519 917Q519 935 506 947T476 960Q454 960 432 944L288 837L299 816L451 860Z" />
<glyph unicode="&#xde;" glyph-name="Thorn" horiz-adv-x="665" d="M239 607H360Q481 607 554 547T627 378Q627 276 552 222T345 167H239V42L353 23V0H49V23L134 42V728L49 747V770H353V747L239 728V607ZM314 206Q375 206 412 219T472 260Q512 307 512 388Q512
452 488 495T420 555Q391 567 331 567H239V206H314Z" />
<glyph unicode="&#xdf;" glyph-name="germandbls" horiz-adv-x="694" d="M419 388T445 366T527 319Q572 298 600 280T648 231T668 152Q668 78 619 34T484 -10Q452 -10 414 -4T346 12L340 174H364Q370 98 402 59T491 20Q537 20 564 45T591 111Q591 155 562 181T474
235Q429 257 403 274T359 319T340 388Q340 425 354 457T398 534Q427 578 441 609T455 678Q455 730 424 762T341 794Q277 794 243 741T209 585V34L295 19V0H39V19L114 34V478H26L38 510H114V516Q114 599 118 638T132 703Q156 761 217 795T360 830Q444 830 492 794T541
694Q541 655 524 623T475 547Q447 509 433 483T419 428Q419 388 445 366Z" />
<glyph unicode="&#xe0;" glyph-name="agrave" horiz-adv-x="525" d="M116 -10T83 24T49 112Q49 156 75 187T161 243T323 289V387Q323 450 305 476T243 502Q200 502 175 482T150 426Q150 417 151 409T152 391Q152 366 138 350T100 333Q80 333 67 346T54 381Q54
414 83 449T162 509Q222 540 289 540Q332 540 362 526T405 487Q413 470 415 445T418 356V127Q418 78 425 61T455 43Q469 43 480 49T504 72L521 57Q498 21 474 6T417 -10Q377 -10 355 12T328 80L325 82Q296 39 254 15T169 -10Q116 -10 83 24ZM245 49T274 66T323
116V260Q251 246 212 230T155 191T138 133Q138 93 157 71T213 49Q245 49 274 66ZM284 812Q268 859 229 859Q213 859 202 847T190 816Q190 803 197 789T220 755L319 631L340 642L284 812Z" />
<glyph unicode="&#xe1;" glyph-name="aacute" horiz-adv-x="525" d="M116 -10T83 24T49 112Q49 156 75 187T161 243T323 289V387Q323 450 305 476T243 502Q200 502 175 482T150 426Q150 417 151 409T152 391Q152 366 138 350T100 333Q80 333 67 346T54 381Q54
414 83 449T162 509Q222 540 289 540Q332 540 362 526T405 487Q413 470 415 445T418 356V127Q418 78 425 61T455 43Q469 43 480 49T504 72L521 57Q498 21 474 6T417 -10Q377 -10 355 12T328 80L325 82Q296 39 254 15T169 -10Q116 -10 83 24ZM245 49T274 66T323
116V260Q251 246 212 230T155 191T138 133Q138 93 157 71T213 49Q245 49 274 66ZM332 755Q348 775 355 789T362 816Q362 834 351 846T323 859Q284 859 268 812L212 642L233 631L332 755Z" />
<glyph unicode="&#xe2;" glyph-name="acircumflex" horiz-adv-x="525" d="M116 -10T83 24T49 112Q49 156 75 187T161 243T323 289V387Q323 450 305 476T243 502Q200 502 175 482T150 426Q150 417 151 409T152 391Q152 366 138 350T100 333Q80 333 67 346T54 381Q54
414 83 449T162 509Q222 540 289 540Q332 540 362 526T405 487Q413 470 415 445T418 356V127Q418 78 425 61T455 43Q469 43 480 49T504 72L521 57Q498 21 474 6T417 -10Q377 -10 355 12T328 80L325 82Q296 39 254 15T169 -10Q116 -10 83 24ZM245 49T274 66T323
116V260Q251 246 212 230T155 191T138 133Q138 93 157 71T213 49Q245 49 274 66ZM297 857T306 850T323 828L407 640L385 628L277 769L171 628L151 640L235 828Q241 843 252 850T281 857Q297 857 306 850Z" />
<glyph unicode="&#xe3;" glyph-name="atilde" horiz-adv-x="525" d="M116 -10T83 24T49 112Q49 156 75 187T161 243T323 289V387Q323 450 305 476T243 502Q200 502 175 482T150 426Q150 417 151 409T152 391Q152 366 138 350T100 333Q80 333 67 346T54 381Q54
414 83 449T162 509Q222 540 289 540Q332 540 362 526T405 487Q413 470 415 445T418 356V127Q418 78 425 61T455 43Q469 43 480 49T504 72L521 57Q498 21 474 6T417 -10Q377 -10 355 12T328 80L325 82Q296 39 254 15T169 -10Q116 -10 83 24ZM245 49T274 66T323
116V260Q251 246 212 230T155 191T138 133Q138 93 157 71T213 49Q245 49 274 66ZM137 701T150 711T186 721Q202 721 216 717T260 702Q284 692 301 687T334 682Q371 682 394 715T418 800H394Q386 762 344 762Q325 762 300 770T270 779Q244 788 227 792T195 797Q158
797 135 765T111 683H135Q137 701 150 711Z" />
<glyph unicode="&#xe4;" glyph-name="adieresis" horiz-adv-x="525" d="M116 -10T83 24T49 112Q49 156 75 187T161 243T323 289V387Q323 450 305 476T243 502Q200 502 175 482T150 426Q150 417 151 409T152 391Q152 366 138 350T100 333Q80 333 67 346T54 381Q54
414 83 449T162 509Q222 540 289 540Q332 540 362 526T405 487Q413 470 415 445T418 356V127Q418 78 425 61T455 43Q469 43 480 49T504 72L521 57Q498 21 474 6T417 -10Q377 -10 355 12T328 80L325 82Q296 39 254 15T169 -10Q116 -10 83 24ZM245 49T274 66T323
116V260Q251 246 212 230T155 191T138 133Q138 93 157 71T213 49Q245 49 274 66ZM116 749T131 764T171 780Q196 780 211 765T226 725Q226 702 211 686T171 670Q147 670 132 686T116 725Q116 749 131 764ZM303 749T318 764T358 780Q383 780 398 765T413 725Q413
702 398 686T358 670Q334 670 319 686T303 725Q303 749 318 764Z" />
<glyph unicode="&#xe5;" glyph-name="aring" horiz-adv-x="525" d="M116 -10T83 24T49 112Q49 156 75 187T161 243T323 289V387Q323 450 305 476T243 502Q200 502 175 482T150 426Q150 417 151 409T152 391Q152 366 138 350T100 333Q80 333 67 346T54 381Q54 414
83 449T162 509Q222 540 289 540Q332 540 362 526T405 487Q413 470 415 445T418 356V127Q418 78 425 61T455 43Q469 43 480 49T504 72L521 57Q498 21 474 6T417 -10Q377 -10 355 12T328 80L325 82Q296 39 254 15T169 -10Q116 -10 83 24ZM245 49T274 66T323 116V260Q251
246 212 230T155 191T138 133Q138 93 157 71T213 49Q245 49 274 66ZM308 651T332 675T356 734Q356 769 332 793T273 817Q238 817 214 793T190 734Q190 698 213 675T273 651Q308 651 332 675ZM225 756T238 769T273 782Q295 782 308 769T321 734Q321 712 308 699T273
686Q251 686 238 699T225 734Q225 756 238 769Z" />
<glyph unicode="&#xe6;" glyph-name="ae" horiz-adv-x="836" d="M117 -10T83 24T49 111Q49 156 75 187T161 243T323 289V387Q323 450 305 476T243 502Q200 502 175 482T150 426Q150 417 151 409T152 391Q152 366 138 350T100 333Q80 333 67 346T54 381Q54 414
83 449T162 509Q222 540 289 540Q334 540 366 524T410 474Q482 540 590 540Q688 540 740 483T795 314L788 308H423Q423 181 464 122T595 63Q644 63 687 81T755 130L767 145L784 135L778 121Q752 60 694 25T563 -10Q495 -10 442 21T358 108H354Q319 54 268 22T170
-10Q117 -10 83 24ZM515 509T475 464T425 336L687 345Q690 356 690 385Q690 509 581 509Q515 509 475 464ZM246 49T282 73T344 138Q323 191 323 260Q251 246 212 230T155 191T138 133Q138 93 157 71T212 49Q246 49 282 73Z" />
<glyph unicode="&#xe7;" glyph-name="ccedilla" horiz-adv-x="535" d="M219 -10T164 24T77 119T46 258Q46 340 80 404T174 504T312 540Q362 540 403 524T468 481T492 422Q492 396 480 381T446 365Q394 365 387 428Q381 476 366 492T315 508Q236 508 192 446T148
278Q148 176 193 120T320 63Q366 63 405 81T471 136L482 151L501 141L496 128Q471 62 417 26T290 -10Q219 -10 164 24ZM202 -213T214 -216T241 -220Q271 -220 288 -206T306 -168Q306 -148 294 -137T258 -125Q233 -125 207 -133L198 -124L258 17H295L266 -58Q318
-58 349 -85T381 -156Q381 -200 345 -228T249 -257Q226 -257 205 -251T171 -233L185 -203Q202 -213 214 -216Z" />
<glyph unicode="&#xe8;" glyph-name="egrave" horiz-adv-x="560" d="M148 308Q147 301 147 285Q147 175 191 119T320 63Q369 63 411 80T479 130L491 145L508 135L502 121Q476 60 418 25T287 -10Q216 -10 162 23T77 117T47 257Q47 340 80 404T174 504T314 540Q412
540 464 483T519 314L512 308H148ZM239 509T199 464T150 336L411 345Q414 357 414 386Q414 509 305 509Q239 509 199 464ZM296 812Q280 859 241 859Q225 859 214 847T202 816Q202 803 209 789T232 755L331 631L352 642L296 812Z" />
<glyph unicode="&#xe9;" glyph-name="eacute" horiz-adv-x="560" d="M148 308Q147 301 147 285Q147 175 191 119T320 63Q369 63 411 80T479 130L491 145L508 135L502 121Q476 60 418 25T287 -10Q216 -10 162 23T77 117T47 257Q47 340 80 404T174 504T314 540Q412
540 464 483T519 314L512 308H148ZM239 509T199 464T150 336L411 345Q414 357 414 386Q414 509 305 509Q239 509 199 464ZM365 755Q381 775 388 789T395 816Q395 834 384 846T356 859Q317 859 301 812L245 642L266 631L365 755Z" />
<glyph unicode="&#xea;" glyph-name="ecircumflex" horiz-adv-x="560" d="M148 308Q147 301 147 285Q147 175 191 119T320 63Q369 63 411 80T479 130L491 145L508 135L502 121Q476 60 418 25T287 -10Q216 -10 162 23T77 117T47 257Q47 340 80 404T174 504T314
540Q412 540 464 483T519 314L512 308H148ZM239 509T199 464T150 336L411 345Q414 357 414 386Q414 509 305 509Q239 509 199 464ZM337 857T346 850T363 828L447 640L425 628L317 769L211 628L191 640L275 828Q281 843 292 850T321 857Q337 857 346 850Z" />
<glyph unicode="&#xeb;" glyph-name="edieresis" horiz-adv-x="560" d="M148 308Q147 301 147 285Q147 175 191 119T320 63Q369 63 411 80T479 130L491 145L508 135L502 121Q476 60 418 25T287 -10Q216 -10 162 23T77 117T47 257Q47 340 80 404T174 504T314 540Q412
540 464 483T519 314L512 308H148ZM239 509T199 464T150 336L411 345Q414 357 414 386Q414 509 305 509Q239 509 199 464ZM163 749T178 764T218 780Q243 780 258 765T273 725Q273 702 258 686T218 670Q194 670 179 686T163 725Q163 749 178 764ZM350 749T365 764T405
780Q430 780 445 765T460 725Q460 702 445 686T405 670Q381 670 366 686T350 725Q350 749 365 764Z" />
<glyph unicode="&#xec;" glyph-name="igrave" horiz-adv-x="300" d="M277 0H31V20L107 35V451L33 478V492L193 540H202V35L277 20V0ZM141 812Q125 859 86 859Q70 859 59 847T47 816Q47 803 54 789T77 755L176 631L197 642L141 812Z" />
<glyph unicode="&#xed;" glyph-name="iacute" horiz-adv-x="300" d="M277 0H31V20L107 35V451L33 478V492L193 540H202V35L277 20V0ZM204 755Q220 775 227 789T234 816Q234 834 223 846T195 859Q156 859 140 812L84 642L105 631L204 755Z" />
<glyph unicode="&#xee;" glyph-name="icircumflex" horiz-adv-x="300" d="M277 0H31V20L107 35V451L33 478V492L193 540H202V35L277 20V0ZM172 857T181 850T198 828L282 640L260 628L152 769L46 628L26 640L110 828Q116 843 127 850T156 857Q172 857 181 850Z" />
<glyph unicode="&#xef;" glyph-name="idieresis" horiz-adv-x="300" d="M277 0H31V20L107 35V451L33 478V492L193 540H202V35L277 20V0ZM262 749T277 764T317 780Q342 780 357 765T372 725Q372 702 357 686T317 670Q293 670 278 686T262 725Q262 749 277 764ZM449
749T464 764T504 780Q529 780 544 765T559 725Q559 702 544 686T504 670Q480 670 465 686T449 725Q449 749 464 764Z" />
<glyph unicode="&#xf0;" glyph-name="eth" horiz-adv-x="590" d="M441 588T491 487T541 279Q541 194 509 129T418 27T284 -10Q216 -10 163 20T79 105T48 227Q48 291 78 345T159 432T270 464Q311 464 353 449T415 412Q408 461 375 518T294 627L184 556L155 602L254
667Q200 716 141 745L159 780Q237 753 308 702L412 769L442 723L353 666Q441 588 491 487ZM326 35T359 62T410 136T429 243Q429 269 426 300T417 353Q399 378 369 392T307 407Q245 407 206 353T167 211Q167 130 199 83T285 35Q326 35 359 62Z" />
<glyph unicode="&#xf1;" glyph-name="ntilde" horiz-adv-x="611" d="M590 20V0H345V20L420 34V328Q420 372 418 397T408 439Q389 485 330 485Q294 485 261 469T202 423V35L277 20V0H31V20L107 35V450L33 478V491L188 540H198V455Q241 496 289 518T386 540Q426
540 457 524T502 480Q510 464 512 438T515 338V34L590 20ZM195 701T208 711T244 721Q260 721 274 717T318 702Q342 692 359 687T392 682Q429 682 452 715T476 800H452Q444 762 402 762Q383 762 358 770T328 779Q302 788 285 792T253 797Q216 797 193 765T169 683H193Q195
701 208 711Z" />
<glyph unicode="&#xf2;" glyph-name="ograve" horiz-adv-x="616" d="M382 540T442 505T537 406T571 265Q571 187 537 124T443 26T308 -10Q234 -10 174 25T79 124T45 265Q45 343 79 406T173 504T308 540Q382 540 442 505ZM151 157T192 96T307 35Q381 35 423 96T465
266Q465 373 424 434T308 495Q234 495 193 434T151 265Q151 157 192 96ZM297 812Q281 859 242 859Q226 859 215 847T203 816Q203 803 210 789T233 755L332 631L353 642L297 812Z" />
<glyph unicode="&#xf3;" glyph-name="oacute" horiz-adv-x="616" d="M382 540T442 505T537 406T571 265Q571 187 537 124T443 26T308 -10Q234 -10 174 25T79 124T45 265Q45 343 79 406T173 504T308 540Q382 540 442 505ZM151 157T192 96T307 35Q381 35 423 96T465
266Q465 373 424 434T308 495Q234 495 193 434T151 265Q151 157 192 96ZM394 755Q410 775 417 789T424 816Q424 834 413 846T385 859Q346 859 330 812L274 642L295 631L394 755Z" />
<glyph unicode="&#xf4;" glyph-name="ocircumflex" horiz-adv-x="616" d="M382 540T442 505T537 406T571 265Q571 187 537 124T443 26T308 -10Q234 -10 174 25T79 124T45 265Q45 343 79 406T173 504T308 540Q382 540 442 505ZM151 157T192 96T307 35Q381 35 423
96T465 266Q465 373 424 434T308 495Q234 495 193 434T151 265Q151 157 192 96ZM337 857T346 850T363 828L447 640L425 628L317 769L211 628L191 640L275 828Q281 843 292 850T321 857Q337 857 346 850Z" />
<glyph unicode="&#xf5;" glyph-name="otilde" horiz-adv-x="616" d="M382 540T442 505T537 406T571 265Q571 187 537 124T443 26T308 -10Q234 -10 174 25T79 124T45 265Q45 343 79 406T173 504T308 540Q382 540 442 505ZM151 157T192 96T307 35Q381 35 423 96T465
266Q465 373 424 434T308 495Q234 495 193 434T151 265Q151 157 192 96ZM190 701T203 711T239 721Q255 721 269 717T313 702Q337 692 354 687T387 682Q424 682 447 715T471 800H447Q439 762 397 762Q378 762 353 770T323 779Q297 788 280 792T248 797Q211 797 188
765T164 683H188Q190 701 203 711Z" />
<glyph unicode="&#xf6;" glyph-name="odieresis" horiz-adv-x="616" d="M382 540T442 505T537 406T571 265Q571 187 537 124T443 26T308 -10Q234 -10 174 25T79 124T45 265Q45 343 79 406T173 504T308 540Q382 540 442 505ZM151 157T192 96T307 35Q381 35 423
96T465 266Q465 373 424 434T308 495Q234 495 193 434T151 265Q151 157 192 96ZM161 749T176 764T216 780Q241 780 256 765T271 725Q271 702 256 686T216 670Q192 670 177 686T161 725Q161 749 176 764ZM348 749T363 764T403 780Q428 780 443 765T458 725Q458 702
443 686T403 670Q379 670 364 686T348 725Q348 749 363 764Z" />
<glyph unicode="&#xf7;" glyph-name="divide" horiz-adv-x="525" d="M185 543T204 563T253 583Q285 583 304 564T323 513Q323 484 304 465T253 445Q223 445 204 465T185 513Q185 543 204 563ZM57 364H467V315H57V364ZM185 200T204 220T253 240Q285 240 304 221T323
170Q323 141 304 122T253 102Q223 102 204 122T185 170Q185 200 204 220Z" />
<glyph unicode="&#xf8;" glyph-name="oslash" horiz-adv-x="630" d="M264 -10T221 5T143 50L95 0H35L113 81Q50 157 50 265Q50 343 84 406T178 504T313 540Q365 540 410 523T490 472L546 530H607L520 440Q576 365 576 265Q576 187 542 124T448 26T313 -10Q264
-10 221 5ZM418 455T386 475T313 495Q239 495 198 434T156 265Q156 194 174 144L438 418Q418 455 386 475ZM386 35T428 96T470 266Q470 325 456 373L193 102Q234 35 312 35Q386 35 428 96Z" />
<glyph unicode="&#xf9;" glyph-name="ugrave" horiz-adv-x="598" d="M565 51V39L415 -10H408V81L404 82Q368 38 322 14T225 -10Q185 -10 155 6T111 51Q103 69 100 97T97 193V495L22 510V530H192V193Q192 146 194 121T204 81Q212 64 230 54T274 44Q309 44 342 62T402
114V495L327 510V530H497V75L565 51ZM272 812Q256 859 217 859Q201 859 190 847T178 816Q178 803 185 789T208 755L307 631L328 642L272 812Z" />
<glyph unicode="&#xfa;" glyph-name="uacute" horiz-adv-x="598" d="M565 51V39L415 -10H408V81L404 82Q368 38 322 14T225 -10Q185 -10 155 6T111 51Q103 69 100 97T97 193V495L22 510V530H192V193Q192 146 194 121T204 81Q212 64 230 54T274 44Q309 44 342 62T402
114V495L327 510V530H497V75L565 51ZM353 755Q369 775 376 789T383 816Q383 834 372 846T344 859Q305 859 289 812L233 642L254 631L353 755Z" />
<glyph unicode="&#xfb;" glyph-name="ucircumflex" horiz-adv-x="598" d="M565 51V39L415 -10H408V81L404 82Q368 38 322 14T225 -10Q185 -10 155 6T111 51Q103 69 100 97T97 193V495L22 510V530H192V193Q192 146 194 121T204 81Q212 64 230 54T274 44Q309 44
342 62T402 114V495L327 510V530H497V75L565 51ZM323 857T332 850T349 828L433 640L411 628L303 769L197 628L177 640L261 828Q267 843 278 850T307 857Q323 857 332 850Z" />
<glyph unicode="&#xfc;" glyph-name="udieresis" horiz-adv-x="598" d="M565 51V39L415 -10H408V81L404 82Q368 38 322 14T225 -10Q185 -10 155 6T111 51Q103 69 100 97T97 193V495L22 510V530H192V193Q192 146 194 121T204 81Q212 64 230 54T274 44Q309 44 342
62T402 114V495L327 510V530H497V75L565 51ZM152 749T167 764T207 780Q232 780 247 765T262 725Q262 702 247 686T207 670Q183 670 168 686T152 725Q152 749 167 764ZM339 749T354 764T394 780Q419 780 434 765T449 725Q449 702 434 686T394 670Q370 670 355 686T339
725Q339 749 354 764Z" />
<glyph unicode="&#xfd;" glyph-name="yacute" horiz-adv-x="572" d="M419 431Q426 451 426 467Q426 506 349 510V530H574V510Q534 503 514 495T483 473T462 430L267 -141Q248 -198 220 -226Q205 -242 183 -251T135 -260Q98 -260 76 -242T53 -193Q53 -170 68 -156T109
-141Q129 -141 140 -151T155 -187Q157 -205 161 -211T175 -217Q191 -217 205 -198T234 -134L275 -8L80 470Q71 489 55 498T9 510V530H256V510Q216 508 203 504T190 490Q190 481 198 460L320 144H325L419 431ZM423 755Q439 775 446 789T453 816Q453 834 442 846T414
859Q375 859 359 812L303 642L324 631L423 755Z" />
<glyph unicode="&#xfe;" glyph-name="thorn" horiz-adv-x="603" d="M358 -10T422 26T521 129T556 282Q556 358 529 416T452 507T337 540Q245 540 183 472V830H173L14 781V768L87 741V-216L12 -231V-250H277V-231L178 -216V5Q223 -10 274 -10Q358 -10 422 26ZM238
20T211 47T183 118V434Q203 459 232 472T294 486Q365 486 407 426T449 263Q449 192 428 137T369 51T283 20Q238 20 211 47Z" />
<glyph unicode="&#xff;" glyph-name="ydieresis" horiz-adv-x="572" d="M419 431Q426 451 426 467Q426 506 349 510V530H574V510Q534 503 514 495T483 473T462 430L267 -141Q248 -198 220 -226Q205 -242 183 -251T135 -260Q98 -260 76 -242T53 -193Q53 -170 68
-156T109 -141Q129 -141 140 -151T155 -187Q157 -205 161 -211T175 -217Q191 -217 205 -198T234 -134L275 -8L80 470Q71 489 55 498T9 510V530H256V510Q216 508 203 504T190 490Q190 481 198 460L320 144H325L419 431ZM175 749T190 764T230 780Q255 780 270 765T285
725Q285 702 270 686T230 670Q206 670 191 686T175 725Q175 749 190 764ZM362 749T377 764T417 780Q442 780 457 765T472 725Q472 702 457 686T417 670Q393 670 378 686T362 725Q362 749 377 764Z" />
<glyph unicode="&#x2013;" glyph-name="endash" horiz-adv-x="753" d="M77 282H676V221H77V282Z" />
<glyph unicode="&#x2014;" glyph-name="emdash" horiz-adv-x="1074" d="M77 282H997V222H77V282Z" />
<glyph unicode="&#x2018;" glyph-name="quoteleft" horiz-adv-x="245" d="M150 780T133 756T116 715Q116 700 124 692T150 674Q170 663 180 651T191 618Q191 590 172 571T124 551Q93 551 73 576T53 636Q53 754 158 830L178 801Q150 780 133 756Z" />
<glyph unicode="&#x2019;" glyph-name="quoteright" horiz-adv-x="242" d="M97 601T114 625T131 666Q131 681 123 689T97 707Q77 718 67 730T56 763Q56 792 75 811T123 830Q154 830 174 805T194 745Q194 627 89 551L69 580Q97 601 114 625Z" />
<glyph unicode="&#x201a;" glyph-name="quotesinglbase" horiz-adv-x="263" d="M103 -101T120 -77T137 -36Q137 -21 129 -13T103 5Q83 16 73 28T62 61Q62 90 81 109T129 128Q160 128 180 103T200 43Q200 -75 95 -151L75 -122Q103 -101 120 -77Z" />
<glyph unicode="&#x201c;" glyph-name="quotedblleft" horiz-adv-x="437" d="M150 780T133 756T116 715Q116 700 124 692T150 674Q170 663 180 651T191 618Q191 590 172 571T124 551Q93 551 73 576T53 636Q53 754 158 830L178 801Q150 780 133 756ZM342 780T325
756T308 715Q308 700 316 692T342 674Q362 663 372 651T383 618Q383 590 364 571T316 551Q285 551 265 576T245 636Q245 754 350 830L370 801Q342 780 325 756Z" />
<glyph unicode="&#x201d;" glyph-name="quotedblright" horiz-adv-x="434" d="M97 601T114 625T131 666Q131 681 123 689T97 707Q77 718 67 730T56 763Q56 792 75 811T123 830Q154 830 174 805T194 745Q194 627 89 551L69 580Q97 601 114 625ZM289 601T306 625T323
666Q323 681 315 689T289 707Q269 718 259 730T248 763Q248 792 267 811T315 830Q346 830 366 805T386 745Q386 627 281 551L261 580Q289 601 306 625Z" />
<glyph unicode="&#x201e;" glyph-name="quotedblbase" horiz-adv-x="455" d="M103 -101T120 -77T137 -36Q137 -21 129 -13T103 5Q83 16 73 28T62 61Q62 90 81 109T129 128Q160 128 180 103T200 43Q200 -75 95 -151L75 -122Q103 -101 120 -77ZM295 -101T312 -77T329
-36Q329 -21 321 -13T295 5Q275 16 265 28T254 61Q254 90 273 109T321 128Q352 128 372 103T392 43Q392 -75 287 -151L267 -122Q295 -101 312 -77Z" />
<glyph unicode="&#x2022;" glyph-name="bullet" horiz-adv-x="410" d="M85 421T120 455T205 489Q254 489 289 455T325 374Q325 327 290 293T205 259Q156 259 121 293T85 374Q85 421 120 455Z" />
<glyph unicode="&#x2039;" glyph-name="guilsinglleft" horiz-adv-x="280" d="M141 246L207 431L195 436L58 255V236L197 53L209 61L141 246Z" />
<glyph unicode="&#x203a;" glyph-name="guilsinglright" horiz-adv-x="280" d="M222 236V255L85 436L73 431L139 246L71 61L83 53L222 236Z" />
</font>
</defs>
</svg>
