<?xml version="1.0" standalone="no"?>
<!DOCTYPE svg PUBLIC "-//W3C//DTD SVG 1.1//EN" "http://www.w3.org/Graphics/SVG/1.1/DTD/svg11.dtd">
<svg xmlns="http://www.w3.org/2000/svg">
<defs >
<font id="Lora" horiz-adv-x="595" ><font-face
    font-family="Lora SemiBold"
    units-per-em="1000"
    panose-1="0 0 0 0 0 0 0 0 0 0"
    ascent="1006"
    descent="-274"
    alphabetic="0" />
<glyph unicode=" " horiz-adv-x="263" />
<glyph unicode="!" horiz-adv-x="261" d="M101 219L63 631Q60 661 77 688T130 716Q168 716 183 689T197 631L159 219H101ZM129 -16Q102 -16 82 5T62 57Q62 88 82 109T130 131Q159 131 178 110T198 57Q198 27 177 6T129 -16Z" />
<glyph unicode="&quot;" horiz-adv-x="333" d="M200 491L192 716H283L274 491H200ZM57 491L49 716H140L131 491H57Z" />
<glyph unicode="#" horiz-adv-x="857" d="M159 -16L202 162H36L55 241H218L270 450H102L121 529H287L331 716H421L378 529H564L608 716H697L654 529H821V528L803 450H637L588 241H755L736 162H572L531 -16H436L478 162H295L254 -16H159ZM311 241H495L546 450H360L311
241Z" />
<glyph unicode="$" horiz-adv-x="568" d="M257 -154L256 -14Q224 -10 190 1T126 31L129 -10H60V216H115Q126 129 173 87T293 45Q348 45 379 75T411 153Q411 191 390 215T333 257T257 293Q203 317 156 348T79 423T50 531Q50 559 59 590T91 648T151 695T246 716V836H327L326
709Q350 704 373 695T417 670L414 711H482V483H426Q419 537 401 575T351 635T267 655Q234 655 211 642T176 607T164 559Q164 525 180 502T230 458T315 412Q352 395 389 375T458 327T509 265T528 181Q528 131 506 89T442 21T336 -14L335 -154H257Z" />
<glyph unicode="%" horiz-adv-x="893" d="M184 -17L126 35L694 716L758 659L184 -17ZM226 328Q165 328 124 355T61 426T39 519Q39 566 61 610T124 685T224 716Q286 717 328 689T391 618T412 528Q412 476 387 430T320 356T226 328ZM227 395Q256 395 272 413T295
459T302 513Q302 534 299 558T286 604T262 639T225 653Q203 653 189 641T166 610T154 571T150 534Q150 514 153 490T165 444T188 409T227 395ZM669 -16Q608 -16 566 11T503 82T482 174Q482 222 505 267T570 341T668 372Q729 372 770 345T832 273T854 183Q854 133
831 88T766 13T669 -16ZM670 49Q692 49 706 60T729 90T741 129T744 167Q744 189 741 213T729 258T705 293T668 307Q639 307 623 287T599 240T592 189Q592 168 595 144T608 99T632 63T670 49Z" />
<glyph unicode="&amp;" horiz-adv-x="678" d="M264 -16Q221 -16 179 -5T102 28T48 87T27 173Q27 240 71 291T184 369Q151 406 134 437T110 496T104 554Q105 628 157 672T293 716Q345 716 383 695T443 640T464 565Q464 525 445 490T392 424T314 368Q325 356 352
328T414 266T483 200Q487 214 488 228T490 255Q490 281 484 299T465 327T429 339V392H600V329L535 332Q544 320 548 303T553 264Q553 238 549 210T534 155Q540 150 546 144T560 131Q601 96 633 76T684 55V0H582Q574 0 545 16T475 66Q439 29 386 7T264 -16ZM290
48Q336 47 371 63T430 105Q419 115 409 124T387 144Q326 201 285 242T212 321Q188 305 175 282T157 235T151 195Q151 147 169 114T218 65T290 48ZM276 412Q320 443 342 487T364 567Q364 607 344 633T288 659Q255 659 233 634T211 560Q211 525 230 485T276 412Z"
/>
<glyph unicode="&apos;" horiz-adv-x="195" d="M58 491L49 716H146L137 491H58Z" />
<glyph unicode="(" horiz-adv-x="299" d="M254 760L287 729Q256 688 233 638T195 533T170 425T156 324T152 239Q152 202 156 156T169 57T194 -47T233 -149T287 -240L254 -271Q217 -237 177 -185T104 -65T49 79T28 239Q28 322 49 401T103 549T177 672T254 760Z" />
<glyph unicode=")" horiz-adv-x="299" d="M46 -271L13 -240Q44 -199 66 -149T105 -44T130 64T143 165T148 250Q148 287 144 333T130 432T105 536T67 638T13 729L45 760Q83 726 122 674T195 554T250 410T271 250Q271 167 250 88T196 -60T123 -183T46 -271Z" />
<glyph unicode="*" horiz-adv-x="529" d="M128 298Q112 310 111 325T116 356T133 385Q149 405 173 428T231 474Q189 475 156 479T98 489Q82 495 68 502T46 524T45 557Q55 586 79 587T128 579Q152 570 181 554T244 515Q231 554 225 586T217 645Q217 661 220 677T234
705T265 716Q286 716 296 705T309 678T311 645Q310 619 304 587T285 515Q319 538 347 553T399 579Q416 585 433 587T464 583T483 557Q493 527 474 512T430 489Q405 483 373 479T298 474Q332 450 356 428T396 385Q406 372 413 357T419 326T400 298Q384 287 369 289T342
303T320 328Q306 350 292 380T265 450Q252 411 238 381T209 329Q199 315 187 304T161 290T128 298Z" />
<glyph unicode="+" horiz-adv-x="530" d="M42 396H488V327H42V396ZM299 583V137H231V583H299Z" />
<glyph unicode="," horiz-adv-x="251" d="M117 -184L82 -159Q93 -145 106 -119T128 -62T135 -1Q128 -3 123 -4T113 -5Q88 -5 70 10T51 56Q51 85 69 105T118 125Q160 126 181 97T203 25Q203 -5 193 -41T164 -114T117 -184Z" />
<glyph unicode="-" horiz-adv-x="477" d="M56 268V364H420V272L56 268Z" />
<glyph unicode="." horiz-adv-x="237" d="M119 -16Q90 -16 71 5T51 57Q51 88 71 109T119 131Q148 131 167 110T186 57Q186 27 167 6T119 -16Z" />
<glyph unicode="/" horiz-adv-x="696" d="M95 -271L24 -225L590 757L673 704L95 -271Z" />
<glyph unicode="0" horiz-adv-x="631" d="M316 -16Q240 -16 188 16T105 102T61 220T47 347Q47 410 63 475T114 594T199 682T320 716Q393 716 443 683T524 597T569 479T583 352Q583 290 568 225T520 106T437 18T316 -16ZM322 44Q359 44 384 68T422 132T442 224T448
331Q448 392 443 450T423 554T384 629T318 657Q279 657 254 633T212 568T190 476T183 368Q183 326 186 281T197 194T221 118T261 64T322 44Z" />
<glyph unicode="1" horiz-adv-x="392" d="M78 0V55Q105 56 121 64T146 92T154 151L153 576L41 507L10 556L228 716H279V146Q279 121 279 99T276 63Q294 64 317 65T354 66V0H78Z" />
<glyph unicode="2" horiz-adv-x="534" d="M41 0Q41 52 55 93T94 167T149 230T211 290Q281 356 311 410T341 517Q341 551 333 583T301 635T236 656Q205 656 180 641T144 604Q154 593 158 580T163 555Q163 544 157 530T138 506T101 496Q73 498 58 517T43 563Q43
586 57 612T98 662T166 701T258 716Q298 716 337 706T408 675T459 618T478 530Q478 505 469 477T435 416T370 343T266 250Q206 201 175 160T137 94L327 89Q358 88 381 91T418 109T432 155H485L478 0H41Z" />
<glyph unicode="3" horiz-adv-x="559" d="M253 -16Q179 -16 132 6T61 61T38 127Q38 155 54 175T99 196Q121 197 134 188T152 164T158 139Q158 129 154 117T143 95Q154 71 183 59T244 47Q310 47 345 85T381 185Q381 223 368 258T320 317T223 340Q216 340 201 339T176
337V400Q185 399 193 399T209 399Q256 399 286 418T332 466T349 530Q349 567 340 595T308 640T247 656Q214 656 189 640T155 604Q164 594 167 581T171 558Q171 547 166 534T147 510T111 501Q83 502 69 521T54 566Q54 595 77 630T146 691T262 716Q322 716 371 699T449
643T478 540Q478 512 463 480T414 421T323 379Q419 364 467 313T516 192Q516 124 481 78T387 8T253 -16Z" />
<glyph unicode="4" horiz-adv-x="545" d="M413 146Q413 121 412 99T409 62Q427 64 449 64T485 65V0H211V55H217Q244 56 260 64T285 94T294 155V185H12V264L361 716H413V265H512V185H413V146ZM293 529L96 269L294 267L295 529H293Z" />
<glyph unicode="5" horiz-adv-x="542" d="M251 -16Q187 -16 141 5T71 58T47 121Q47 148 63 168T107 190Q129 191 142 182T160 158T166 132Q166 123 163 112T155 92Q159 76 175 66T211 50T248 44Q291 45 317 67T356 124T368 195Q368 220 365 250T348 310T309 357T236
376Q221 376 201 373T157 361T112 340L74 371L71 700H330Q372 700 393 713T414 765H465L458 613L138 607V415Q161 425 196 432T267 440Q329 440 374 422T448 371T491 299T505 215Q505 139 469 88T374 10T251 -16Z" />
<glyph unicode="6" horiz-adv-x="576" d="M290 -16Q201 -16 148 25T72 143T49 324Q49 360 56 409T80 512T128 612T207 687T323 716Q385 716 425 695T484 644T503 584Q503 559 489 540T447 520Q414 519 401 538T388 576Q388 584 391 596T401 619Q394 633 374 645T323
657Q288 656 263 637T222 587T197 520T183 446T177 378Q190 394 212 408T262 432T319 443Q376 444 416 427T481 377T519 303T531 214Q531 152 500 100T414 16T290 -16ZM294 44Q333 44 355 64T387 119T397 190Q397 215 394 246T380 306T349 355T293 375Q269 375
246 364T205 334T178 294Q179 255 185 212T204 130T239 68T294 44Z" />
<glyph unicode="7" horiz-adv-x="466" d="M198 -16Q171 -15 160 1T149 37Q149 58 159 90T185 161T215 235Q233 277 256 334T309 460T374 610L146 611Q110 611 89 595T67 537H17L22 700H446V617Q411 546 386 480T341 348T303 210T264 55Q257 28 242 6T198 -16Z" />
<glyph unicode="8" horiz-adv-x="569" d="M281 -16Q245 -16 206 -7T133 21T78 74T57 155Q57 196 77 231T129 297T196 348Q126 390 98 438T69 528Q69 577 89 612T142 671T213 705T291 716Q343 716 389 697T464 641T493 549Q493 513 475 482T429 425T369 381Q418
352 452 318T505 247T524 170Q524 106 490 65T401 4T281 -16ZM282 44Q336 43 366 73T396 150Q396 192 365 235T254 317Q209 283 189 242T166 168Q164 115 196 80T282 44ZM314 415Q350 441 372 476T395 542Q397 597 369 626T297 656Q265 657 242 643T206 605T193
554Q193 510 228 472T314 415Z" />
<glyph unicode="9" horiz-adv-x="577" d="M256 -16Q190 -16 150 3T92 52T73 112Q73 138 88 158T132 179Q165 180 177 161T189 123Q189 114 186 102T175 81Q183 65 202 54T255 44Q289 45 314 62T356 108T382 173T395 247T398 323Q379 299 341 279T258 257Q201 256
161 274T95 324T57 398T45 486Q45 553 75 604T159 686T284 716Q352 716 398 691T473 619T513 509T526 372Q526 327 520 275T497 172T451 78T373 10T256 -16ZM283 325Q308 325 330 336T370 365T397 406Q396 453 390 498T371 579T336 636T281 657Q247 657 224 636T190
581T178 509Q178 485 182 454T196 393T228 344T283 325Z" />
<glyph unicode=":" horiz-adv-x="250" d="M125 -16Q96 -16 77 5T57 57Q57 88 77 109T125 131Q154 131 173 110T192 57Q192 27 173 6T125 -16ZM125 387Q96 387 77 408T57 460Q57 491 77 512T125 534Q154 534 173 513T192 460Q192 430 173 409T125 387Z" />
<glyph unicode=";" horiz-adv-x="266" d="M122 -184L87 -159Q98 -145 111 -119T133 -62T140 -1Q133 -3 128 -4T118 -5Q93 -5 75 10T56 56Q56 85 74 105T123 125Q165 126 186 97T208 25Q208 -5 198 -41T169 -114T122 -184ZM135 387Q106 387 87 408T67 460Q67 491
87 512T135 534Q164 534 183 513T202 460Q202 430 183 409T135 387Z" />
<glyph unicode="&lt;" horiz-adv-x="530" d="M486 76L38 272V353L486 553V465L147 315L486 165V76Z" />
<glyph unicode="=" horiz-adv-x="530" d="M42 484H488V415H42V484ZM42 315H488V246H42V315Z" />
<glyph unicode="&gt;" horiz-adv-x="530" d="M41 553L489 357V276L41 76V164L380 314L41 464V553Z" />
<glyph unicode="?" horiz-adv-x="493" d="M233 183Q202 183 176 199T149 252Q149 270 157 286T185 323T233 373Q269 407 295 444T322 539Q322 572 314 598T284 640T224 656Q204 656 186 649T155 632T137 611Q146 602 149 589T153 565Q153 554 147 540T127 515T92
506Q63 508 50 526T36 571Q36 605 62 638T134 694T242 716Q321 716 367 692T432 631T451 552Q450 510 428 476T375 414T312 361T259 316T238 276Q238 263 247 254T278 245Q285 245 293 246T311 250L325 204Q303 192 278 188T233 183ZM242 -16Q216 -16 196 4T176
56Q176 85 196 106T243 127Q271 127 290 106T309 56Q309 26 289 5T242 -16Z" />
<glyph unicode="@" horiz-adv-x="794" d="M416 -98Q325 -100 256 -72T141 5T71 119T48 256Q48 320 71 386T140 508T253 600T411 637Q496 638 559 611T665 536T729 429T749 308Q748 241 727 194T675 119T608 79T543 69Q520 72 503 82T475 109T461 153T461 214Q433
139 397 107T324 74Q282 74 250 108T218 217Q218 268 233 315T277 401T349 461T449 484Q472 484 503 480T565 466Q561 432 556 393T545 315T537 244T533 190Q533 172 535 155T546 126T570 113Q597 111 616 128T649 173T669 234T676 300Q677 401 641 467T544 564T405
594Q342 592 291 565T203 491T146 386T126 262Q126 185 150 127T215 29T310 -30T424 -51Q463 -51 505 -42T589 -10T664 50L687 24Q634 -36 564 -66T416 -98ZM347 133Q369 133 390 162T430 238T459 337T472 436Q463 439 451 440T426 441Q397 439 375 418T338 364T315
293T307 218Q307 178 318 156T347 133Z" />
<glyph unicode="A" horiz-adv-x="654" d="M1 0V57Q29 57 46 73T74 115T97 175L296 718H350L567 165Q573 148 583 117T594 63Q611 64 627 65T655 66V0H400V55Q431 55 442 68T452 102T441 145L416 213L184 209L162 142Q156 125 148 104T132 65Q150 66 171 67T206
68V0H1ZM206 273H394L340 420Q328 454 318 488T300 552H298Q292 532 284 500T260 427L206 273Z" />
<glyph unicode="B" horiz-adv-x="648" d="M52 0V55Q80 56 95 65T116 95T122 156V551Q122 578 123 601T126 637Q109 636 87 636T52 634V700Q116 701 181 701T312 702Q430 703 499 659T564 524Q563 494 546 465T496 413T413 378V377Q516 366 566 316T616 198Q616
134 585 90T500 23T376 0H52ZM244 61Q261 60 279 60T315 60T344 61Q410 63 444 99T479 198Q479 249 459 278T406 319T336 331Q309 331 289 331T248 329V145Q248 118 247 96T244 61ZM248 390L307 391Q354 392 381 411T420 462T432 531Q431 575 413 599T367 634T311
643Q290 643 276 637T255 612T248 555V390Z" />
<glyph unicode="C" horiz-adv-x="692" d="M580 476Q568 563 521 608T399 654Q346 654 305 631T235 567T191 473T176 358Q176 269 204 201T284 94T405 55Q469 55 531 86T635 176L676 139Q629 75 576 42T473 -4T381 -16Q304 -16 242 11T134 87T64 200T39 340Q39
409 60 476T125 597T235 683T388 716Q432 716 480 703T570 663L566 709H635V476H580Z" />
<glyph unicode="D" horiz-adv-x="754" d="M52 55Q80 56 95 64T116 94T122 154V553Q122 578 123 601T126 637Q109 636 87 636T52 634V700L324 701Q420 701 493 675T616 600T690 489T716 354Q716 291 694 228T625 114T505 31T330 0H52V55ZM248 149Q248 122 247 99T244
63Q260 63 279 63T316 62T343 61Q401 61 445 84T518 146T563 235T578 342Q578 441 548 507T460 608T319 644Q291 645 275 636T254 606T248 547V149Z" />
<glyph unicode="E" horiz-adv-x="623" d="M394 247Q394 290 382 308T346 331T289 335L248 333V148Q248 121 247 99T244 63L397 64Q432 64 461 77T508 123T526 212H581L576 0H52V55Q80 56 95 64T116 94T122 154V553Q122 578 123 601T126 637Q109 636 87 636T52
634V700H545L551 512H496Q496 569 478 597T430 636T370 645L318 644Q291 643 276 635T255 607T248 546V393L388 392L383 479H449V247H394Z" />
<glyph unicode="F" horiz-adv-x="563" d="M52 0V55Q80 56 95 64T116 94T122 154V553Q122 578 123 601T126 637Q109 636 87 636T52 634V700H540L545 512H490Q490 569 471 597T423 636T364 645L315 644Q289 643 275 634T254 604T248 545V371H374L369 457H435V225H381Q381
268 368 287T332 310T276 313L248 312V149Q248 122 247 99T244 63Q257 64 274 64T309 65T337 66V0H52Z" />
<glyph unicode="G" horiz-adv-x="756" d="M380 -16Q274 -16 198 29T81 155T40 338Q40 407 61 474T126 596T234 683T387 716Q417 716 452 710T521 693T583 665L579 709H649V477H594Q586 536 559 575T491 634T398 655Q346 655 305 631T235 566T191 472T176 359Q176
271 203 202T282 93T405 53Q427 53 454 56T508 68T556 87V190Q556 216 557 241T559 282Q542 281 520 281T485 279V345H738V290Q717 289 704 283T683 264T672 233T669 192V35H644Q620 35 591 28T528 9Q497 -1 459 -8T380 -16Z" />
<glyph unicode="H" horiz-adv-x="798" d="M52 0V55Q80 56 95 64T116 94T122 154V553Q122 578 123 601T126 637Q109 636 87 636T52 634V700H318V645Q291 644 276 636T254 606T248 546V387H550V553Q550 578 551 601T554 637Q537 636 515 636T480 634V700H746V645Q719
644 704 636T682 606T676 546V149Q676 122 675 99T672 63Q689 64 711 65T746 66V0H480V55Q508 56 523 64T544 94T550 154V323L248 319V149Q248 122 247 99T244 63Q261 64 283 65T318 66V0H52Z" />
<glyph unicode="I" horiz-adv-x="370" d="M318 645Q291 644 276 636T254 606T248 546V149Q248 122 247 99T244 63Q261 64 283 65T318 66V0H52V55Q80 56 95 64T116 94T122 154V553Q122 578 123 601T126 637Q109 636 87 636T52 634V700H318V645Z" />
<glyph unicode="J" horiz-adv-x="425" d="M131 -16Q95 -16 66 -4T18 29T0 79Q0 107 15 129T60 152Q94 154 108 135T123 94Q124 87 122 78T116 62Q121 52 132 49T149 46Q173 46 185 67T198 136V548Q198 573 199 597T201 637Q182 636 158 636T117 634V700H397V645Q371
644 355 637T332 610T324 554V251Q324 108 276 46T131 -16Z" />
<glyph unicode="K" horiz-adv-x="702" d="M52 0V55Q80 56 95 64T116 94T122 154V553Q122 578 123 601T126 637Q109 636 87 636T52 634V700H318V645Q291 644 276 636T254 606T248 546V390H321L414 543Q429 570 448 598T483 638Q467 637 450 637T420 635V700H655V645Q627
643 599 635T543 604T485 532L388 377Q411 363 427 346T458 310L564 163Q590 128 612 104T656 68T700 55V0H557Q548 1 531 17T494 56T458 101L352 251Q337 272 320 292T288 324L248 323V149Q248 122 247 99T244 63Q261 64 283 65T318 66V0H52Z" />
<glyph unicode="L" d="M52 0V55Q80 56 95 64T116 94T122 154V553Q122 578 123 601T126 637Q109 636 87 636T52 634V700H318V645Q291 644 276 636T254 606T248 546V148Q248 121 247 99T244 63L396 64Q456 65 489 105T522 229H578L572 0H52Z" />
<glyph unicode="M" horiz-adv-x="954" d="M416 -10Q379 79 342 166T267 343Q257 366 244 400T218 475T193 559Q195 518 195 482T195 411Q195 384 195 352T193 286T192 218T191 151Q190 126 189 102T186 63Q204 64 226 65T262 66V0H46V55Q72 56 87 63T109 90T116
144L127 551Q128 576 128 599T130 637Q114 636 92 636T56 634V700H255L413 310Q423 284 434 254T457 195T476 144H477Q490 176 502 210T526 275Q566 381 607 486T691 700H894V645Q871 645 855 638T830 612T823 551L842 144Q844 120 843 98T840 63Q857 65 879 65T915
66V0H655V55Q680 56 696 64T719 92T724 153L712 404Q712 417 710 442T707 496T705 551Q702 544 699 537T693 523L488 -10H416Z" />
<glyph unicode="N" horiz-adv-x="769" d="M589 -12L242 439Q231 455 219 471T194 505H193L195 156Q195 129 195 104T192 63Q209 64 231 65T266 66V0H53V55Q79 56 93 63T115 89T122 139L121 555Q121 579 122 601T124 637Q108 636 86 636T51 634V700H195L524 275Q545
248 560 227T588 189H589V553Q589 578 590 601T592 637Q576 636 554 636T518 634V700H732V645Q705 644 690 636T668 606T662 546L661 -12H589Z" />
<glyph unicode="O" horiz-adv-x="777" d="M389 -16Q294 -16 227 16T119 101T58 220T39 350Q39 413 60 477T124 596T234 683T389 716Q480 716 546 683T655 596T718 477T739 350Q739 288 718 224T654 106T544 18T389 -16ZM397 46Q453 46 491 72T554 140T589 232T601
332Q601 399 587 457T546 560T476 629T379 654Q324 653 286 627T223 558T187 464T176 364Q176 314 188 259T226 155T294 76T397 46Z" />
<glyph unicode="P" horiz-adv-x="628" d="M52 55Q80 56 95 64T116 94T122 154V553Q122 578 123 601T126 637Q109 636 87 636T52 634V700Q117 701 183 701T315 702Q406 703 472 680T573 609T608 486Q608 446 592 407T540 334T447 279T308 256Q292 256 277 256T248
257V150Q248 122 247 99T244 63Q257 64 273 64T305 65T331 66V0H52V55ZM248 320Q261 319 273 318T299 317Q355 317 393 337T452 394T472 486Q472 535 458 566T421 613T370 636T314 642Q288 642 274 634T254 606T248 550V320Z" />
<glyph unicode="Q" horiz-adv-x="779" d="M752 -218Q709 -218 682 -215T633 -201T581 -163Q538 -124 508 -91T449 -37T381 -16Q289 -15 224 17T118 103T58 221T39 350Q39 413 60 477T125 596T235 683T389 716Q481 716 547 683T655 596T718 477T739 350Q739 298
725 245T680 144T605 58T500 1Q528 1 550 -3T594 -19T644 -58Q679 -90 700 -110T736 -142T763 -158T791 -162V-218H752ZM397 46Q453 46 491 72T554 140T589 232T601 332Q601 399 588 457T547 560T477 629T380 654Q324 653 286 627T223 558T188 464T177 364Q177
314 189 259T227 155T295 76T397 46Z" />
<glyph unicode="R" horiz-adv-x="667" d="M52 0V55Q80 56 95 64T116 94T122 154V553Q122 578 123 601T126 637Q109 636 87 636T52 634V700Q118 701 184 701T317 702Q408 702 471 681T567 616T599 499Q598 458 580 419T523 350T419 303Q438 293 455 274T488 232L542
149Q562 118 579 98T614 67T657 55V0H505Q484 17 466 42T427 100L355 215Q342 236 331 254T305 286Q289 285 276 285T248 286V150Q248 122 247 99T244 63Q255 64 270 64T301 65T325 66V0H52ZM300 346Q356 347 392 363T447 413T466 500Q466 545 453 573T417 616T368
636T315 642Q289 642 274 634T254 606T248 550V349Q260 348 273 347T300 346Z" />
<glyph unicode="S" horiz-adv-x="588" d="M452 480Q445 533 423 572T365 633T277 655Q228 655 196 627T163 558Q163 524 182 499T239 454T327 411Q365 395 404 376T476 329T529 267T550 182Q550 124 520 79T433 9T301 -16Q259 -16 212 -4T126 34L129 -9H61L59
218H116Q127 133 179 90T304 46Q341 46 370 59T415 96T432 150Q432 189 408 214T347 257T270 292Q225 311 185 332T115 381T67 445T49 530Q49 559 60 591T96 652T165 698T272 716Q312 716 359 705T443 667L439 709H508V480H452Z" />
<glyph unicode="T" horiz-adv-x="647" d="M571 479Q571 535 557 571T516 626T446 643H385V149Q385 122 384 99T381 63Q400 64 424 65T462 66V0H189V55Q217 56 232 65T253 95T259 154L260 642H195Q136 641 105 602T74 479H18L23 700H622L628 479H571Z" />
<glyph unicode="U" horiz-adv-x="757" d="M294 645Q268 644 253 636T231 611T224 561V293Q224 233 235 189T269 114T323 69T399 54Q459 52 500 79T563 158T584 285L585 553Q585 578 586 601T589 637Q572 636 550 636T515 634V700H731V645Q704 644 689 636T667
606T661 546L660 302Q660 223 642 164T587 64T500 4T384 -16Q301 -16 246 7T158 73T112 176T98 310V539Q98 565 99 593T102 637Q85 636 63 636T28 634V700H294V645Z" />
<glyph unicode="V" horiz-adv-x="690" d="M321 -7L92 528Q78 562 69 590T59 637Q43 636 30 636T4 634V700H278V645Q236 644 220 624T222 557Q246 500 268 444T315 329Q335 282 350 244T380 169H382Q393 201 405 236T430 309Q449 360 464 403T493 482T518 552Q524
572 534 597T555 637Q538 636 515 636T478 634V700H696V645Q658 644 634 621T588 541Q576 510 564 478T539 409T510 331T476 239T435 128T385 -7H321Z" />
<glyph unicode="W" horiz-adv-x="1009" d="M277 -7L98 529Q86 566 79 592T70 637Q53 636 39 636T11 634V700H289V645Q245 645 230 627T228 559Q243 499 260 443T293 329Q304 291 313 259T334 178H336Q340 193 347 219T362 273T377 324T387 359Q407 423 426 484T463
601T494 701H564Q577 659 592 612T623 515T654 418T682 330Q694 292 704 253T725 174H727Q736 205 745 239T766 309Q779 351 789 385T807 447T823 501T837 552Q843 574 852 597T875 637Q858 636 835 636T797 634V700H1015V645Q989 643 970 633T934 597T903 524Q861
390 819 258T734 -7H665L535 376Q524 411 516 444T498 508Q492 477 485 448T468 388L344 -7H277Z" />
<glyph unicode="X" horiz-adv-x="682" d="M27 0V55Q63 63 91 90T156 166L276 332Q227 398 187 450T113 547Q96 570 84 593T64 637Q49 636 37 636T12 634V700H301V645L280 644Q247 644 237 634T231 608T250 572Q272 543 297 509T351 437L434 553Q456 585 472 605T503
637Q485 636 462 636T425 634V700H642V645Q616 642 592 626T544 584T495 523L394 383Q427 340 459 298T521 218T578 145Q595 123 610 103T635 63Q651 65 661 65T682 66V0H401V55Q439 55 450 64T456 90T437 125Q413 156 383 194T320 275Q297 243 274 211T228 146Q208
118 195 99T164 62Q183 64 204 65T239 66V0H27Z" />
<glyph unicode="Y" horiz-adv-x="656" d="M207 0V55Q235 56 250 65T271 95T277 154V250L97 536Q79 564 67 592T53 637Q37 636 25 636T0 634V700H283V645Q248 646 230 636T210 607T226 557L303 432Q309 422 319 406T339 371T358 337H359Q366 352 377 375T405 429L468
551Q473 562 481 578T500 610T519 638Q502 637 479 636T441 634V700H657V645Q617 641 590 615T532 531Q499 468 467 407T403 285Q403 269 403 250T403 211T403 175T403 149Q403 122 402 99T399 63Q417 64 441 65T480 66V0H207Z" />
<glyph unicode="Z" horiz-adv-x="606" d="M41 0V65Q110 168 188 285T359 545Q376 572 392 595T427 640L228 643Q171 644 138 608T104 489H48L54 700H559V638L247 166Q226 135 207 109T167 59L370 58Q430 57 468 92T506 211H561L555 0H41Z" />
<glyph unicode="[" horiz-adv-x="377" d="M68 -255L69 755H370V688L180 685L175 -185L372 -188V-255H68Z" />
<glyph unicode="\" horiz-adv-x="696" d="M601 -271L24 704L106 757L673 -225L601 -271Z" />
<glyph unicode="]" horiz-adv-x="377" d="M309 755L308 -255H7V-188L197 -185L202 685L5 688V755H309Z" />
<glyph unicode="^" horiz-adv-x="823" d="M642 437L408 656L175 441H60L368 716H457L763 437H642Z" />
<glyph unicode="_" horiz-adv-x="798" d="M91 -140V-50L706 -54V-140H91Z" />
<glyph unicode="`" horiz-adv-x="272" d="M188 570L70 676Q55 691 49 707T46 739T61 766Q73 775 88 776T118 770T145 743L228 605L188 570Z" />
<glyph unicode="a" horiz-adv-x="521" d="M329 0Q326 15 326 25T324 50Q290 16 252 0T172 -16Q104 -16 68 21T31 112Q31 160 57 193T125 248T218 281T319 294V349Q319 378 313 402T289 441T239 456Q217 455 195 447T159 420Q167 411 169 401T171 382Q171 364 157
345T112 326Q85 327 71 345T56 388Q56 426 83 454T158 499T263 516Q349 516 395 471T440 327Q440 292 440 264T440 207T439 143Q439 128 438 106T435 61Q453 63 471 63T502 65V0H329ZM318 235Q288 233 259 226T207 205T171 173T158 128Q159 97 178 83T222 68Q251
68 274 80T318 112Q318 122 318 133T318 155Q318 169 318 190T318 235Z" />
<glyph unicode="b" horiz-adv-x="576" d="M67 585Q67 602 67 622T70 665Q54 664 34 663T0 661V726Q46 726 75 730T120 742T144 755H190V460Q222 490 258 503T330 516Q392 516 439 485T514 397T541 263Q541 181 509 118T421 20T292 -16Q263 -16 222 -4T146 44L118
0H67V585ZM190 152Q190 112 203 89T236 57T278 46Q324 46 352 73T394 145T408 244Q408 298 395 342T355 413T284 440Q257 439 232 426T190 392V152Z" />
<glyph unicode="c" horiz-adv-x="523" d="M281 -16Q214 -16 158 14T68 101T34 240Q34 295 53 344T106 432T189 493T295 516Q356 516 398 498T462 449T484 384Q484 357 469 337T424 316Q390 315 377 335T363 374Q363 384 366 395T376 417Q369 435 353 443T320 455T293
457Q238 455 202 407T166 267Q166 212 181 166T229 91T311 61Q355 60 396 82T463 141L503 104Q470 57 432 31T356 -5T281 -16Z" />
<glyph unicode="d" horiz-adv-x="597" d="M242 -16Q182 -16 135 15T62 103T35 237Q35 318 67 381T155 480T286 516Q315 516 340 510T385 495V584Q385 599 385 621T388 665Q372 664 352 663T317 661V726Q363 726 392 730T437 742T461 755H507V143Q507 128 506 106T503
61Q520 63 538 63T570 65V0H396Q394 12 393 24T389 48Q358 15 321 0T242 -16ZM289 61Q317 61 343 76T385 115Q384 129 384 143T384 173L385 429Q370 441 347 447T300 454Q253 453 224 425T181 350T168 250Q168 201 181 158T220 88T289 61Z" />
<glyph unicode="e" horiz-adv-x="539" d="M281 -16Q209 -16 153 16T66 108T35 249Q35 319 66 380T153 478T285 516Q327 516 366 504T436 464T485 390T503 278L167 272Q167 210 181 163T229 88T316 60Q340 60 367 68T422 94T470 138L508 103Q475 55 435 29T355
-6T281 -16ZM172 332H380Q379 372 369 399T338 441T289 456Q240 456 211 424T172 332Z" />
<glyph unicode="f" horiz-adv-x="359" d="M104 526Q104 644 153 700T295 757Q334 757 360 746T401 715T415 673Q415 650 401 632T360 614Q333 613 319 629T305 665Q305 671 306 676T308 687Q303 693 295 695T279 698Q258 698 246 686T230 655T226 617V500H345V436L226
433L227 144Q227 128 227 105T223 61Q240 63 259 63T291 64V0H45V53Q74 53 86 65T102 101T105 153L104 431L28 430V500H104V526Z" />
<glyph unicode="g" horiz-adv-x="556" d="M266 -271Q178 -271 127 -252T53 -203T30 -139Q30 -114 41 -93T73 -52T124 -22Q86 -11 69 11T52 63Q52 92 75 124T150 169Q107 188 80 225T51 313Q50 373 81 419T164 490T270 516Q298 516 332 508T392 483Q402 513 420
538T462 580T517 596Q548 596 564 580T580 537Q580 526 575 513T558 491T525 482Q509 482 496 493T479 520Q462 516 449 495T432 455Q459 431 474 399T489 329Q489 272 458 228T376 158T267 133Q252 133 237 134T205 136Q178 136 161 125T145 96Q148 75 181 69T283
58Q360 54 417 39T505 -8T536 -98Q536 -140 512 -172T449 -226T362 -259T266 -271ZM285 -212Q361 -212 401 -184T441 -123Q441 -97 422 -82T368 -58T281 -48Q258 -47 230 -46T179 -40Q160 -54 150 -75T139 -117Q137 -160 177 -186T285 -212ZM271 189Q301 189 321
206T352 251T363 310Q363 348 353 382T322 438T269 460Q224 460 200 423T175 334Q175 295 186 262T219 209T271 189Z" />
<glyph unicode="h" horiz-adv-x="614" d="M348 53Q377 53 389 65T404 101T407 153V295Q407 367 385 402T315 437Q286 437 258 424T211 392V143Q211 127 210 105T206 61Q223 63 241 63T271 64V0H28V53Q57 53 69 65T84 101T87 153V585Q87 602 88 622T91 665Q74 664
54 663T21 661V726Q67 726 96 730T141 742T165 755H211V457Q231 474 257 487T312 508T363 516Q453 516 491 463T530 294L531 143Q531 127 530 105T527 61Q543 63 560 63T591 64V0H348V53Z" />
<glyph unicode="i" horiz-adv-x="312" d="M42 53Q71 53 83 65T98 101T101 153V340Q101 357 102 377T105 420Q88 419 68 418T35 416V481Q80 481 109 485T155 497T179 510H224V143Q224 127 224 105T220 61Q236 63 254 63T285 64V0H42V53ZM157 596Q128 596 108 617T88
670Q88 701 108 723T157 745Q186 745 205 723T225 670Q225 639 206 618T157 596Z" />
<glyph unicode="j" horiz-adv-x="260" d="M11 -271Q-40 -271 -64 -249T-88 -198Q-88 -174 -73 -156T-32 -137Q-5 -136 9 -152T24 -190Q24 -193 24 -196T22 -204Q31 -209 42 -209Q64 -209 75 -194T89 -156T93 -113L92 340Q92 357 92 377T95 420Q79 419 59 418T25
416V481Q71 481 100 485T145 497T169 510H215V0Q215 -92 189 -152T116 -242T11 -271ZM151 596Q122 596 102 617T82 670Q82 701 102 723T151 745Q180 745 199 723T219 670Q219 639 200 618T151 596Z" />
<glyph unicode="k" horiz-adv-x="575" d="M28 0V53Q57 53 69 65T85 101T88 153V585Q88 602 89 622T92 665Q75 664 55 663T21 661V726Q67 726 96 730T141 742T165 755H211V293H256L345 391Q359 406 369 417T391 437L333 436V500H543V447Q509 444 481 430T432 396T395
360L327 284Q343 277 357 263T391 225L459 136Q465 129 475 116T499 88T529 63T561 53V0H454Q423 0 399 24T344 89Q324 117 304 145T268 197T240 234L211 233V143Q211 127 210 105T207 61Q223 63 241 63T272 64V0H28Z" />
<glyph unicode="l" horiz-adv-x="299" d="M28 53Q57 53 69 65T84 101T87 153V585Q87 602 88 622T91 665Q74 664 54 663T20 661V726Q66 726 95 730T141 742T165 755H210L211 143Q211 127 210 105T206 61Q223 63 241 63T271 64V0H28V53Z" />
<glyph unicode="m" horiz-adv-x="911" d="M42 0V53Q71 53 83 65T98 101T101 153V341Q101 359 102 379T105 420Q88 419 68 418T35 416V481Q80 481 109 485T154 497T177 510H219Q221 500 221 486T223 459Q256 485 295 500T371 516Q418 516 449 499T499 450Q534 479
578 497T663 516Q746 516 787 468T828 303V143Q828 127 827 105T824 61Q840 63 858 63T888 64V0H651V53Q677 53 688 65T701 101T704 153V302Q704 374 681 405T616 436Q588 437 563 426T518 398Q523 379 525 357T527 310Q527 268 527 227T526 143Q526 127 526 105T522
61Q538 63 556 63T587 64V0H347V53Q374 53 385 65T400 101T403 153V304Q403 376 382 406T318 438Q291 438 267 426T224 397Q224 384 224 372T224 346V143Q224 127 224 105T220 61Q236 63 252 63T281 64V0H42Z" />
<glyph unicode="n" horiz-adv-x="626" d="M42 0V53Q71 53 83 65T98 101T101 153V341Q101 359 102 379T105 420Q89 419 69 418T35 416V481Q80 481 109 485T154 497T177 510H219Q221 499 221 492T222 478T225 456Q245 473 271 486T325 508T375 516Q465 516 504 463T543
294V143Q543 127 543 105T539 61Q556 63 574 63T604 64V0H361V53Q390 53 402 65T418 101T421 153L420 295Q420 367 399 402T328 438Q299 437 271 424T224 391Q225 379 225 366T225 340L224 143Q224 127 224 105T220 61Q236 63 254 63T285 64V0H42Z" />
<glyph unicode="o" horiz-adv-x="572" d="M288 -16Q217 -16 159 15T68 104T34 239Q34 320 68 383T159 481T286 516Q357 516 414 484T504 395T538 260Q538 178 506 116T417 19T288 -16ZM293 45Q338 45 362 73T395 144T405 234Q405 273 399 313T378 385T341 437T285
457Q241 456 215 428T178 357T166 266Q166 212 179 161T220 77T293 45Z" />
<glyph unicode="p" horiz-adv-x="600" d="M32 -255V-202Q61 -202 73 -190T89 -154T92 -102L93 341Q93 359 93 379T97 420Q80 419 60 418T26 416V481Q72 481 100 485T144 497T167 510H210Q212 500 213 486T215 460Q248 489 285 502T356 516Q416 516 463 486T537
399T564 265Q564 183 532 120T443 20T314 -16Q284 -16 260 -10T215 7V-112Q215 -128 215 -150T211 -194Q227 -192 245 -192T275 -191V-255H32ZM303 47Q349 48 377 75T419 149T432 249Q432 298 420 342T380 413T308 440Q280 439 256 426T215 392Q215 370 215 347T215
298T215 240T215 166T215 72Q231 61 254 54T303 47Z" />
<glyph unicode="q" horiz-adv-x="574" d="M326 -255V-202Q355 -202 367 -190T382 -154T385 -102V42Q355 12 320 -2T245 -16Q184 -16 137 15T62 103T35 238Q35 320 67 382T157 480T288 516Q339 516 372 505T426 494Q435 494 445 498T462 510H508V-112Q508 -128
507 -150T504 -194Q520 -192 538 -192T568 -191V-255H326ZM291 60Q319 60 344 75T385 113V356Q385 395 373 416T341 446T295 455Q250 455 222 427T180 354T168 256Q168 206 181 162T222 89T291 60Z" />
<glyph unicode="r" horiz-adv-x="464" d="M42 53Q71 53 83 65T98 101T101 153V341Q101 359 102 379T105 420Q88 419 68 419T35 417V481H72Q112 481 139 490T177 510H219Q221 498 222 472T223 420Q246 450 271 471T322 504T377 516Q409 516 433 498T458 440Q458
427 452 412T432 387T395 377Q374 377 356 390T336 434Q315 435 293 419T252 380T224 333L225 143Q225 127 224 105T221 61Q237 63 255 63T285 64V0H42V53Z" />
<glyph unicode="s" horiz-adv-x="478" d="M264 -16Q218 -16 178 -4T114 25L117 -7H52L47 165H101Q104 131 125 104T179 61T254 45Q274 45 292 51T323 70T336 105Q336 127 322 141T281 167T220 192Q189 204 158 217T101 248T59 294T43 360Q43 387 53 414T85 464T141
502T226 516Q253 516 287 508T347 479L346 511H411V335H357Q352 370 335 397T290 441T223 457Q191 457 169 442T147 396Q147 371 164 355T210 328T273 304Q320 288 358 266T420 213T443 136Q443 84 417 51T350 1T264 -16Z" />
<glyph unicode="t" horiz-adv-x="404" d="M237 -16Q209 -16 183 -9T135 17T100 73T87 173L89 431L18 430V500Q48 501 76 520T125 572T153 640H214L213 500H354V436L213 433L212 176Q212 146 217 121T237 80T277 65Q296 65 320 77T370 125L411 88Q386 50 360 29T309
-2T265 -14T237 -16Z" />
<glyph unicode="u" horiz-adv-x="611" d="M250 -16Q192 -16 156 6T102 76T85 204V340Q85 357 86 378T88 420Q72 419 52 419T19 417V481H36Q91 481 121 490T163 510H209V204Q209 132 228 97T292 62Q322 63 351 80T399 120V336Q399 356 400 377T403 420Q387 419
367 419T333 417V481H359Q405 481 435 491T476 510H522V151Q522 137 521 110T518 61Q535 63 554 63T585 65V0H411Q409 14 408 28T405 55Q374 27 336 6T250 -16Z" />
<glyph unicode="v" horiz-adv-x="527" d="M229 -3L76 337Q64 366 58 384T50 414T45 438L6 436V500H223V447Q199 447 192 435T187 402T200 358L260 214Q268 196 276 177T291 137H292Q299 156 306 175T320 215L375 369Q384 394 392 410T407 439L345 436V500H524V447Q501
445 484 426T454 379T430 322L301 -3H229Z" />
<glyph unicode="w" horiz-adv-x="808" d="M201 -3L76 356Q68 381 63 394T56 417T51 438L7 436V500H238V447Q202 446 198 421T203 359L241 231Q248 209 254 185T266 136Q272 159 279 184T296 244L375 500H461L548 219Q555 198 562 174T575 129Q580 149 587 172T601
216L649 364Q656 388 662 406T678 439L621 436V500H805V447Q783 447 768 437T741 410T723 378T712 349L588 -3H504L426 230Q422 243 416 263T403 305T391 347Q385 323 377 293T360 237T347 198L279 -3H201Z" />
<glyph unicode="x" horiz-adv-x="542" d="M35 0V53Q58 61 76 78T117 123L208 233Q193 252 176 274T142 316T110 354Q94 375 78 398T55 438L21 436V500H237V447Q204 446 204 429T229 380L279 318L335 385Q348 401 359 414T383 440L327 436V500H499V447Q477 439
459 427T425 399T390 358L319 273L443 126Q456 110 467 95T489 62L527 64V0H305V53Q335 54 339 67T325 102L250 187L190 111Q182 100 169 86T145 61L201 64V0H35Z" />
<glyph unicode="y" horiz-adv-x="543" d="M139 -271Q103 -271 78 -251T53 -196Q53 -172 69 -154T110 -134Q132 -133 145 -148T159 -186Q159 -189 159 -192T158 -200Q160 -200 165 -200Q175 -198 186 -186T208 -152Q220 -129 233 -96T258 -21L101 302Q74 358 65
388T51 438L5 436V500H240V447H238Q200 444 196 419T209 356L314 123Q328 162 345 219T385 339Q390 355 397 374T413 412T429 439L368 436V500H539V447Q506 438 487 407T450 328L325 -26Q296 -108 271 -162T216 -244T139 -271Z" />
<glyph unicode="z" horiz-adv-x="513" d="M37 0V62L283 383Q300 405 315 422T336 445L183 443Q156 443 140 425T114 377T99 312H48L61 500H462V447L219 122Q205 104 193 90T164 62L323 59Q358 58 378 75T409 124T425 191H476L462 0H37Z" />
<glyph unicode="{" horiz-adv-x="357" d="M320 -271Q247 -271 200 -247T131 -175T109 -57Q109 -28 111 7T116 76T119 136Q119 187 99 209T23 231H0V296H23Q79 296 99 315T119 386Q119 425 114 467T109 554Q109 625 131 670T200 738T320 760H348V701Q303 703 276
694T237 655T225 568Q225 551 227 528T232 480T236 434Q239 385 220 349T167 291T87 264V262Q131 257 166 235T220 177T237 90Q235 66 233 35T228 -24T225 -71Q225 -128 237 -159T276 -203T348 -214V-271H320Z" />
<glyph unicode="|" horiz-adv-x="250" d="M69 -271L67 760H184L180 -271H69Z" />
<glyph unicode="}" horiz-adv-x="357" d="M37 -271H9V-214Q54 -215 81 -203T120 -160T132 -71Q132 -53 130 -25T124 35T120 90Q117 140 136 176T191 235T269 262V264Q225 269 190 290T136 348T121 434Q122 456 125 480T130 527T132 568Q132 625 120 654T81 693T9
701V760H37Q110 760 156 738T225 671T247 554Q247 510 242 468T237 386Q237 335 257 316T333 296H356V231H333Q278 231 258 209T237 136Q237 110 239 76T244 7T247 -57Q247 -127 225 -175T157 -247T37 -271Z" />
<glyph unicode="~" horiz-adv-x="530" d="M369 211Q331 211 306 222T260 248T218 274T166 286Q126 286 98 272T43 238V338Q75 364 103 377T170 391Q209 391 233 381T277 356T314 330T361 316Q397 313 429 326T488 363V263Q467 241 438 226T369 211Z" />
<glyph unicode="&#xa0;" horiz-adv-x="263" />
<glyph unicode="&#xa1;" horiz-adv-x="239" d="M148 281L186 -131Q189 -161 172 -188T119 -216Q82 -216 66 -189T53 -131L90 281H148ZM120 516Q147 516 167 495T187 443Q187 412 167 391T119 369Q90 369 71 390T52 443Q52 473 73 494T120 516Z" />
<glyph unicode="&#xa2;" horiz-adv-x="554" d="M254 -136V-14Q196 -5 149 26T74 112T46 240Q46 305 72 362T145 460T257 513L256 625H337L336 515Q414 508 455 470T496 384Q496 357 481 337T436 316Q402 315 389 335T375 375Q375 384 378 396T388 417Q381 435
365 443T332 455T304 457Q250 455 214 407T177 267Q177 212 192 166T240 91T323 60Q366 60 407 82T475 141L514 104Q473 45 425 19T330 -14L329 -136H254Z" />
<glyph unicode="&#xa3;" horiz-adv-x="565" d="M124 370Q118 394 114 421T110 482Q110 556 137 608T211 688T311 716Q372 716 408 696T460 648T476 595Q476 569 462 551T420 531Q399 530 386 539T367 561T361 584Q361 595 364 607T377 630Q372 641 358 649T321
657Q285 657 263 636T231 584T221 520Q221 477 226 441T238 370H394V303L252 301Q258 267 255 237T237 180T193 128Q213 135 230 137T264 140Q303 140 333 127T386 100T430 86Q445 86 457 100T471 145H525Q523 77 496 31T414 -16Q393 -16 373 -9T334 10T295 31T255
48Q238 57 218 65T178 74Q171 37 149 11T99 -16Q73 -16 62 -1T50 34Q50 62 74 87T137 125Q145 139 151 160T157 202Q157 230 153 253T143 299H64V370H124Z" />
<glyph unicode="&#xa4;" horiz-adv-x="556" d="M124 31L62 81L120 147Q90 196 90 254Q90 283 98 311T123 365L62 435L124 484L175 420Q196 434 222 442T278 451Q309 451 334 443T382 420L433 484L494 435L433 365Q450 340 458 312T466 254Q466 194 436 147L494
81L433 31L384 93Q363 79 336 72T278 64Q247 64 221 71T173 93L124 31ZM278 127Q301 127 316 141T341 178T353 224T357 270Q357 285 353 306T340 346T316 377T278 390Q256 390 241 378T217 346T204 306T200 270Q200 249 203 225T215 178T239 142T278 127Z" />
<glyph unicode="&#xa5;" horiz-adv-x="716" d="M237 0V55Q261 56 276 62T299 88T307 146H192V213H308V267H192V334L257 333L127 536Q108 564 97 592T83 637Q67 636 55 636T31 634V700H313V645Q278 646 260 636T240 606T256 557L335 430Q342 420 350 405T369 372T388
337Q400 360 405 370T411 384T414 391T420 402T435 431L498 551Q503 562 511 578T530 610T549 638Q532 637 509 636T471 634V700H687V645Q648 641 621 615T562 531L457 332H543V269L433 268L432 212L543 211V148L432 147Q433 126 432 110T431 83T429 63Q447 64
471 65T510 66V0H237Z" />
<glyph unicode="&#xa6;" horiz-adv-x="246" d="M76 378L73 760H173L169 378H76ZM76 -271L73 109H173L169 -271H76Z" />
<glyph unicode="&#xa7;" horiz-adv-x="544" d="M265 -228Q209 -228 168 -208T105 -158T82 -95Q82 -70 96 -51T136 -31Q158 -30 170 -39T188 -61T194 -85Q194 -93 192 -103T183 -123Q189 -142 212 -155T263 -168Q299 -168 321 -154T353 -120T364 -79Q364 -48 347
-24T302 21T245 59T188 94Q151 118 118 146T63 212T42 299Q42 340 64 381T123 457Q102 484 93 513T83 573Q82 601 92 633T125 695T185 742T277 760Q332 760 373 741T437 691T460 629Q460 604 447 586T407 566Q385 566 373 574T355 595T349 618Q349 627 351 638T361
657Q353 676 331 687T281 699Q246 699 224 685T191 650T180 608Q181 575 198 550T242 504T301 465T361 429Q398 406 430 377T482 311T502 226Q502 185 480 143T421 67Q436 46 449 20T462 -43Q462 -70 452 -102T418 -162T357 -209T265 -228ZM380 112Q391 128 396
149T401 191Q401 224 385 250T342 297T283 338T220 375T165 412Q155 395 150 375T144 334Q144 301 160 275T204 228T262 187T325 150T380 112Z" />
<glyph unicode="&#xa8;" horiz-adv-x="414" d="M292 604Q268 604 250 624T232 673Q232 702 250 723T293 744Q320 744 337 723T354 673Q354 644 336 624T292 604ZM121 604Q96 604 78 624T60 673Q60 702 78 723T121 744Q148 744 165 723T182 673Q182 644 164 624T121 604Z" />
<glyph unicode="&#xa9;" horiz-adv-x="902" d="M452 -64Q361 -64 287 -34T158 51T75 180T45 343Q45 428 75 502T161 632T291 721T454 753Q543 753 617 721T745 632T828 501T858 342Q858 258 827 185T740 55T611 -32T452 -64ZM455 -9Q532 -9 593 19T698 96T765
208T789 343Q789 414 765 478T697 591T591 669T452 698Q377 698 315 670T208 592T139 478T115 343Q115 272 138 209T206 96T314 19T455 -9ZM459 97Q390 97 336 129T250 217T219 341Q219 385 233 430T278 512T354 572T460 593Q493 592 522 584T577 556L575 589H643V416H585Q577
478 544 503T466 529Q430 529 399 508T348 446T329 352Q329 304 348 264T403 200T487 176Q522 175 560 194T626 249L668 207Q637 164 599 140T524 107T459 97Z" />
<glyph unicode="&#xaa;" horiz-adv-x="394" d="M139 371Q92 371 67 392T41 450Q41 479 58 500T102 535T162 556T227 564V605Q227 620 225 634T213 657T183 668Q170 669 157 663T136 646Q140 641 142 634T144 619Q144 607 134 591T99 576Q79 576 68 588T57 620Q57
645 74 666T123 702T193 716Q251 716 282 686T313 590Q313 564 313 534T312 476Q312 459 316 447T332 434Q336 434 340 435T350 440L367 414Q354 396 333 384T291 372Q269 372 253 386T232 424Q217 399 191 385T139 371ZM164 435Q180 434 195 441T226 464Q226 476
226 491T227 522Q203 521 181 514T146 495T134 463Q135 451 143 444T164 435Z" />
<glyph unicode="&#xab;" horiz-adv-x="505" d="M293 -14L24 265V282L290 552L332 511L143 276V275L335 29L293 -14ZM421 66L242 263V279L420 472L461 436L356 269V268L463 101L421 66Z" />
<glyph unicode="&#xac;" horiz-adv-x="530" d="M409 152L406 272L36 270V356L485 353V152H409Z" />
<glyph unicode="&#xad;" horiz-adv-x="293" d="M56 268V364H420V272L56 268Z" />
<glyph unicode="&#xae;" horiz-adv-x="903" d="M452 -64Q361 -64 287 -34T158 51T75 180T45 343Q45 428 75 502T161 632T291 721T454 753Q543 753 617 721T745 633T828 502T858 342Q858 258 827 184T740 55T611 -32T452 -64ZM455 -9Q532 -9 593 19T698 96T765
208T789 343Q789 414 765 478T697 591T591 669T452 698Q377 698 315 670T208 592T139 478T115 343Q115 272 138 209T206 96T314 19T455 -9ZM258 124V165Q285 166 295 179T306 231V486Q306 504 306 519T308 543L258 540V589Q287 589 319 589T384 590T445 591Q536
590 586 556T634 450Q634 424 623 398T586 351T519 318Q531 314 540 303T560 276Q593 226 610 202T639 171T667 163V123H568Q555 130 541 147T509 191Q484 231 471 253T452 286T439 306Q429 305 418 305T396 306V228Q396 210 396 194T394 170L448 172V124H258ZM431
357Q461 358 485 368T524 400T538 453Q538 490 522 508T482 533T439 539Q412 538 404 524T396 475V360Q405 358 413 358T431 357Z" />
<glyph unicode="&#xaf;" horiz-adv-x="368" d="M45 631V715H323V635L45 631Z" />
<glyph unicode="&#xb0;" horiz-adv-x="390" d="M194 398Q145 398 110 419T54 477T34 558Q34 603 56 638T116 695T196 716Q245 716 281 695T336 639T355 558Q355 513 333 477T275 420T194 398ZM195 463Q232 463 255 491T278 558Q278 595 255 624T195 653Q158 653
135 624T112 558Q112 520 135 492T195 463Z" />
<glyph unicode="&#xb1;" horiz-adv-x="530" d="M42 396H488V327H42V396ZM299 583V137H231V583H299ZM42 56H488V-13H42V56Z" />
<glyph unicode="&#xb2;" horiz-adv-x="378" d="M51 303Q52 348 66 380T105 439T157 489Q197 524 208 554T219 604Q219 635 205 650T167 665Q152 665 140 658T124 641Q131 635 133 627T136 613Q136 602 126 587T92 571Q73 572 62 585T51 618Q51 639 66 661T111
700T183 716Q217 716 247 705T296 671T315 609Q315 580 298 554T249 501T175 439Q154 423 144 409T126 378L236 376Q252 376 263 377T281 387T287 414H328L322 303H51Z" />
<glyph unicode="&#xb3;" horiz-adv-x="367" d="M169 296Q109 297 76 326T42 391Q42 410 54 425T85 441Q110 442 119 428T128 397Q128 392 126 383T116 366Q122 353 138 349T167 344Q199 344 217 365T235 416Q235 436 227 453T201 482T154 493Q148 493 139 493T122
492V539Q129 539 136 539T149 538Q179 538 194 550T215 578T220 608Q220 634 207 652T164 669Q148 669 137 662T122 648Q129 642 131 634T134 620Q134 608 125 593T91 579Q72 579 61 592T49 624Q49 642 63 663T106 700T180 716Q235 716 271 690T308 614Q308 587
286 561T229 525Q278 517 302 490T327 423Q328 370 288 333T169 296Z" />
<glyph unicode="&#xb4;" horiz-adv-x="272" d="M84 570L44 605L127 743Q139 762 154 769T184 776T211 766Q223 755 226 740T224 708T202 676L84 570Z" />
<glyph unicode="&#xb5;" horiz-adv-x="613" d="M151 -267Q117 -267 102 -240T87 -169L88 500H199V201Q199 162 209 131T239 82T289 64Q314 64 337 76T379 113V500H491L490 142Q490 125 492 110T501 86T521 77Q529 77 538 80T560 94L585 61Q570 39 539 17T471 -5Q439
-5 418 9T390 48Q362 18 332 4T267 -10Q233 -10 204 10T153 76L148 73Q164 4 175 -39T194 -111T205 -159T209 -199Q209 -224 197 -245T151 -267Z" />
<glyph unicode="&#xb6;" horiz-adv-x="549" d="M168 -255L170 404Q138 409 108 424T58 470T38 551Q38 602 59 634T115 683T187 700H457L455 -255H358L360 640L268 639L266 -255H168Z" />
<glyph unicode="&#xb7;" horiz-adv-x="234" d="M118 264Q89 264 70 285T50 337Q50 368 70 389T118 411Q147 411 166 390T185 337Q185 307 166 286T118 264Z" />
<glyph unicode="&#xb8;" horiz-adv-x="314" d="M52 -253L45 -207Q62 -204 82 -199T121 -186T152 -166T165 -140Q165 -122 152 -117T122 -115T94 -127L58 -111L88 9H158L130 -71Q143 -63 163 -59T198 -54Q230 -55 249 -72T269 -123Q269 -156 246 -179T189 -217T117
-240T52 -253Z" />
<glyph unicode="&#xb9;" horiz-adv-x="280" d="M68 301V336Q92 336 101 348T111 394V627L48 590L29 626L163 716H195V387Q195 374 195 361T193 340Q204 341 217 341T239 342V301H68Z" />
<glyph unicode="&#xba;" horiz-adv-x="392" d="M195 369Q148 369 112 390T56 449T36 536Q36 587 56 628T113 692T198 716Q246 716 281 695T336 636T356 548Q357 496 337 456T281 392T195 369ZM201 419Q231 420 247 450T263 533Q263 572 257 603T235 652T195 669Q165
668 149 638T132 553Q132 513 139 483T162 435T201 419Z" />
<glyph unicode="&#xbb;" horiz-adv-x="505" d="M212 -14L170 29L362 275V276L173 511L215 552L481 282V265L212 -14ZM84 66L42 101L149 268V269L44 436L86 472L264 279V263L84 66Z" />
<glyph unicode="&#xbc;" horiz-adv-x="770" d="M68 301V336Q92 336 101 348T111 394V627L48 590L29 626L163 716H195V387Q195 374 195 361T193 340Q204 341 217 341T239 342V301H68ZM180 -16L124 25L575 716L635 670L180 -16ZM544 -3V32Q567 33 577 44T587 88V100H430V149L639
411H671V149L729 148V99H671Q671 82 671 66T670 37Q679 38 691 38T712 38V-3H544ZM589 150L591 287L491 152L589 150Z" />
<glyph unicode="&#xbd;" horiz-adv-x="792" d="M68 301V336Q92 336 101 348T111 394V627L48 590L29 626L163 716H195V387Q195 374 195 361T193 340Q204 341 217 341T239 342V301H68ZM180 -16L124 25L575 716L635 670L180 -16ZM474 -2Q475 43 489 75T528 134T580
184Q620 219 631 249T642 299Q642 330 628 345T590 360Q575 360 563 353T547 336Q554 330 556 322T559 308Q559 297 549 282T515 266Q496 267 485 280T474 313Q474 334 489 356T534 395T606 411Q640 411 670 400T719 366T738 304Q738 275 721 249T672 196T598 134Q577
118 567 104T549 73L659 71Q675 71 686 72T704 82T710 109H751L745 -2H474Z" />
<glyph unicode="&#xbe;" horiz-adv-x="809" d="M169 296Q109 297 76 326T42 391Q42 410 54 425T85 441Q110 442 119 428T128 397Q128 392 126 383T116 366Q122 353 138 349T167 344Q199 344 217 365T235 416Q235 436 227 453T201 482T154 493Q148 493 139 493T122
492V539Q129 539 136 539T149 538Q179 538 194 550T215 578T220 608Q220 634 207 652T164 669Q148 669 137 662T122 648Q129 642 131 634T134 620Q134 608 125 593T91 579Q72 579 61 592T49 624Q49 642 63 663T106 700T180 716Q235 716 271 690T308 614Q308 587
286 561T229 525Q278 517 302 490T327 423Q328 370 288 333T169 296ZM219 -16L163 25L614 716L674 670L219 -16ZM583 -3V32Q606 33 616 44T626 88V100H469V149L678 411H710V149L768 148V99H710Q710 82 710 66T709 37Q718 38 730 38T751 38V-3H583ZM628 150L630
287L530 152L628 150Z" />
<glyph unicode="&#xbf;" horiz-adv-x="484" d="M255 317Q286 317 313 302T340 248Q340 230 332 214T305 177T255 127Q220 94 194 56T167 -39Q166 -72 175 -98T205 -140T265 -156Q286 -156 303 -149T334 -132T352 -111Q344 -102 340 -89T336 -65Q336 -53 342 -39T362
-15T397 -6Q425 -7 439 -25T453 -71Q453 -104 427 -138T355 -194T247 -216Q169 -216 123 -192T57 -130T38 -52Q39 -10 60 24T114 86T177 139T229 184T251 224Q251 237 242 246T210 255Q204 255 196 254T178 250L164 296Q186 308 211 312T255 317ZM247 516Q273 516
293 496T313 444Q313 415 293 394T246 373Q218 373 199 394T180 444Q180 474 200 495T247 516Z" />
<glyph unicode="&#xc0;" horiz-adv-x="654" d="M1 0V57Q29 57 46 73T74 115T97 175L296 718H350L567 165Q573 148 583 117T594 63Q611 64 627 65T655 66V0H400V55Q431 55 442 68T452 102T441 145L416 213L184 209L162 142Q156 125 148 104T132 65Q150 66 171 67T206
68V0H1ZM206 273H394L340 420Q328 454 318 488T300 552H298Q292 532 284 500T260 427L206 273ZM350 753L207 833Q189 844 180 859T171 889T178 917Q187 930 201 934T232 934T265 914L381 796L350 753Z" />
<glyph unicode="&#xc1;" horiz-adv-x="654" d="M295 753L264 796L380 914Q396 929 412 933T443 934T467 917Q476 905 476 890T466 859T438 833L295 753ZM1 0V57Q29 57 46 73T74 115T97 175L296 718H350L567 165Q573 148 583 117T594 63Q611 64 627 65T655 66V0H400V55Q431
55 442 68T452 102T441 145L416 213L184 209L162 142Q156 125 148 104T132 65Q150 66 171 67T206 68V0H1ZM206 273H394L340 420Q328 454 318 488T300 552H298Q292 532 284 500T260 427L206 273Z" />
<glyph unicode="&#xc2;" horiz-adv-x="654" d="M1 0V57Q29 57 46 73T74 115T97 175L296 718H350L567 165Q573 148 583 117T594 63Q611 64 627 65T655 66V0H400V55Q431 55 442 68T452 102T441 145L416 213L184 209L162 142Q156 125 148 104T132 65Q150 66 171 67T206
68V0H1ZM206 273H394L340 420Q328 454 318 488T300 552H298Q292 532 284 500T260 427L206 273ZM459 769L324 855L186 771L160 810L321 958H335L488 811L459 769Z" />
<glyph unicode="&#xc3;" horiz-adv-x="654" d="M1 0V57Q29 57 46 73T74 115T97 175L296 718H350L567 165Q573 148 583 117T594 63Q611 64 627 65T655 66V0H400V55Q431 55 442 68T452 102T441 145L416 213L184 209L162 142Q156 125 148 104T132 65Q150 66 171 67T206
68V0H1ZM206 273H394L340 420Q328 454 318 488T300 552H298Q292 532 284 500T260 427L206 273ZM526 911Q510 863 488 837T443 800T398 790Q373 790 354 798T317 818T283 838T246 847Q226 847 206 834T166 792L117 823Q138 875 174 901T245 929Q272 929 291 921T327
901T360 882T397 873Q419 873 441 891T478 938L526 911Z" />
<glyph unicode="&#xc4;" horiz-adv-x="654" d="M1 0V57Q29 57 46 73T74 115T97 175L296 718H350L567 165Q573 148 583 117T594 63Q611 64 627 65T655 66V0H400V55Q431 55 442 68T452 102T441 145L416 213L184 209L162 142Q156 125 148 104T132 65Q150 66 171 67T206
68V0H1ZM206 273H394L340 420Q328 454 318 488T300 552H298Q292 532 284 500T260 427L206 273ZM234 790Q209 790 191 811T172 861Q172 891 191 912T235 934Q262 934 279 913T297 861Q297 832 278 811T234 790ZM410 790Q386 790 367 811T348 861Q348 891 367 912T411
934Q438 934 455 913T473 861Q473 832 455 811T410 790Z" />
<glyph unicode="&#xc5;" horiz-adv-x="654" d="M1 0V57Q29 57 46 73T74 115T97 175L296 718H350L567 165Q573 148 583 117T594 63Q611 64 627 65T655 66V0H400V55Q431 55 442 68T452 102T441 145L416 213L184 209L162 142Q156 125 148 104T132 65Q150 66 171 67T206
68V0H1ZM206 273H394L340 420Q328 454 318 488T300 552H298Q292 532 284 500T260 427L206 273ZM323 739Q293 739 264 751T217 789T196 855Q195 893 213 921T261 966T322 983Q352 983 380 971T428 933T450 867Q451 827 432 799T384 755T323 739ZM329 787Q347 788
359 804T371 851Q371 894 357 916T318 936Q299 935 287 917T274 867Q274 828 289 807T329 787Z" />
<glyph unicode="&#xc6;" horiz-adv-x="940" d="M-11 0V55Q14 55 34 71T73 110T106 156L441 637L361 634V700H862L867 512H812Q812 569 794 597T746 636T687 645L634 644Q608 643 593 635T571 607T564 546V393L705 392L700 479H766V247H711Q711 290 698 308T662
331T606 335L564 333V149Q564 122 563 100T560 64L715 63Q750 63 778 77T825 123T843 212H898L892 0H368V56Q393 57 408 63T430 87T438 145V212L227 207L187 148Q171 125 155 103T122 63L201 66V0H-11ZM269 270H438V527L269 270Z" />
<glyph unicode="&#xc7;" horiz-adv-x="692" d="M580 476Q568 563 521 608T399 654Q346 654 305 631T235 567T191 473T176 358Q176 269 204 201T284 94T405 55Q469 55 531 86T635 176L676 139Q629 75 576 42T473 -4T381 -16Q304 -16 242 11T134 87T64 200T39 340Q39
409 60 476T125 597T235 683T388 716Q432 716 480 703T570 663L566 709H635V476H580ZM308 -270L301 -221Q318 -218 338 -212T378 -195T409 -172T422 -144Q422 -125 409 -120T380 -119T351 -132L312 -116L341 9H415L387 -70Q400 -63 420 -59T454 -55Q488 -56 509
-75T530 -127Q530 -161 507 -186T447 -228T374 -255T308 -270Z" />
<glyph unicode="&#xc8;" horiz-adv-x="623" d="M394 247Q394 290 382 308T346 331T289 335L248 333V148Q248 121 247 99T244 63L397 64Q432 64 461 77T508 123T526 212H581L576 0H52V55Q80 56 95 64T116 94T122 154V553Q122 578 123 601T126 637Q109 636 87 636T52
634V700H545L551 512H496Q496 569 478 597T430 636T370 645L318 644Q291 643 276 635T255 607T248 546V393L388 392L383 479H449V247H394ZM353 753L210 833Q192 844 183 859T174 889T181 917Q190 930 204 934T235 934T268 914L384 796L353 753Z" />
<glyph unicode="&#xc9;" horiz-adv-x="623" d="M287 753L255 796L371 914Q387 929 404 933T435 934T458 917Q467 905 467 890T457 859T430 833L287 753ZM394 247Q394 290 382 308T346 331T289 335L248 333V148Q248 121 247 99T244 63L397 64Q432 64 461 77T508
123T526 212H581L576 0H52V55Q80 56 95 64T116 94T122 154V553Q122 578 123 601T126 637Q109 636 87 636T52 634V700H545L551 512H496Q496 569 478 597T430 636T370 645L318 644Q291 643 276 635T255 607T248 546V393L388 392L383 479H449V247H394Z" />
<glyph unicode="&#xca;" horiz-adv-x="623" d="M394 247Q394 290 382 308T346 331T289 335L248 333V148Q248 121 247 99T244 63L397 64Q432 64 461 77T508 123T526 212H581L576 0H52V55Q80 56 95 64T116 94T122 154V553Q122 578 123 601T126 637Q109 636 87 636T52
634V700H545L551 512H496Q496 569 478 597T430 636T370 645L318 644Q291 643 276 635T255 607T248 546V393L388 392L383 479H449V247H394ZM461 769L326 855L188 771L162 810L323 958H337L490 811L461 769Z" />
<glyph unicode="&#xcb;" horiz-adv-x="623" d="M394 247Q394 290 382 308T346 331T289 335L248 333V148Q248 121 247 99T244 63L397 64Q432 64 461 77T508 123T526 212H581L576 0H52V55Q80 56 95 64T116 94T122 154V553Q122 578 123 601T126 637Q109 636 87 636T52
634V700H545L551 512H496Q496 569 478 597T430 636T370 645L318 644Q291 643 276 635T255 607T248 546V393L388 392L383 479H449V247H394ZM237 790Q212 790 194 811T175 861Q175 891 194 912T238 934Q265 934 282 913T300 861Q300 832 281 811T237 790ZM413 790Q389
790 370 811T351 861Q351 891 370 912T414 934Q441 934 458 913T476 861Q476 832 458 811T413 790Z" />
<glyph unicode="&#xcc;" horiz-adv-x="370" d="M318 645Q291 644 276 636T254 606T248 546V149Q248 122 247 99T244 63Q261 64 283 65T318 66V0H52V55Q80 56 95 64T116 94T122 154V553Q122 578 123 601T126 637Q109 636 87 636T52 634V700H318V645ZM469 753L326
833Q308 844 299 859T290 889T297 917Q306 930 320 934T351 934T384 914L500 796L469 753Z" />
<glyph unicode="&#xcd;" horiz-adv-x="370" d="M147 753L115 796L231 914Q247 929 264 933T295 934T318 917Q327 905 327 890T317 859T290 833L147 753ZM318 645Q291 644 276 636T254 606T248 546V149Q248 122 247 99T244 63Q261 64 283 65T318 66V0H52V55Q80
56 95 64T116 94T122 154V553Q122 578 123 601T126 637Q109 636 87 636T52 634V700H318V645Z" />
<glyph unicode="&#xce;" horiz-adv-x="370" d="M318 645Q291 644 276 636T254 606T248 546V149Q248 122 247 99T244 63Q261 64 283 65T318 66V0H52V55Q80 56 95 64T116 94T122 154V553Q122 578 123 601T126 637Q109 636 87 636T52 634V700H318V645ZM577 769L442
855L304 771L278 810L439 958H453L606 811L577 769Z" />
<glyph unicode="&#xcf;" horiz-adv-x="370" d="M318 645Q291 644 276 636T254 606T248 546V149Q248 122 247 99T244 63Q261 64 283 65T318 66V0H52V55Q80 56 95 64T116 94T122 154V553Q122 578 123 601T126 637Q109 636 87 636T52 634V700H318V645ZM353 790Q328
790 310 811T291 861Q291 891 310 912T354 934Q381 934 398 913T416 861Q416 832 397 811T353 790ZM529 790Q505 790 486 811T467 861Q467 891 486 912T530 934Q557 934 574 913T592 861Q592 832 574 811T529 790Z" />
<glyph unicode="&#xd0;" horiz-adv-x="755" d="M26 320V386H412V322L26 320ZM53 55Q81 56 96 64T117 94T123 154V553Q123 578 124 601T127 637Q110 636 88 636T53 634V700L325 701Q421 701 494 675T617 600T691 489T717 354Q717 291 695 228T626 114T506 31T331
0H53V55ZM249 149Q249 122 248 99T245 63Q261 63 280 63T317 62T344 61Q402 61 446 84T519 146T564 235T579 342Q579 441 549 507T461 608T320 644Q292 645 276 636T255 606T249 547V149Z" />
<glyph unicode="&#xd1;" horiz-adv-x="769" d="M589 -12L242 439Q231 455 219 471T194 505H193L195 156Q195 129 195 104T192 63Q209 64 231 65T266 66V0H53V55Q79 56 93 63T115 89T122 139L121 555Q121 579 122 601T124 637Q108 636 86 636T51 634V700H195L524
275Q545 248 560 227T588 189H589V553Q589 578 590 601T592 637Q576 636 554 636T518 634V700H732V645Q705 644 690 636T668 606T662 546L661 -12H589ZM594 911Q578 863 556 837T511 800T466 790Q441 790 422 798T385 818T351 838T314 847Q294 847 274 834T234
792L185 823Q206 875 242 901T313 929Q340 929 359 921T395 901T428 882T465 873Q487 873 509 891T546 938L594 911Z" />
<glyph unicode="&#xd2;" horiz-adv-x="777" d="M389 -16Q294 -16 227 16T119 101T58 220T39 350Q39 413 60 477T124 596T234 683T389 716Q480 716 546 683T655 596T718 477T739 350Q739 288 718 224T654 106T544 18T389 -16ZM397 46Q453 46 491 72T554 140T589
232T601 332Q601 399 587 457T546 560T476 629T379 654Q324 653 286 627T223 558T187 464T176 364Q176 314 188 259T226 155T294 76T397 46ZM413 753L270 833Q252 844 243 859T234 889T241 917Q250 930 264 934T295 934T328 914L444 796L413 753Z" />
<glyph unicode="&#xd3;" horiz-adv-x="777" d="M347 753L316 796L432 914Q448 929 465 933T496 934T519 917Q528 905 528 890T518 859T490 833L347 753ZM389 -16Q294 -16 227 16T119 101T58 220T39 350Q39 413 60 477T124 596T234 683T389 716Q480 716 546 683T655
596T718 477T739 350Q739 288 718 224T654 106T544 18T389 -16ZM397 46Q453 46 491 72T554 140T589 232T601 332Q601 399 587 457T546 560T476 629T379 654Q324 653 286 627T223 558T187 464T176 364Q176 314 188 259T226 155T294 76T397 46Z" />
<glyph unicode="&#xd4;" horiz-adv-x="777" d="M389 -16Q294 -16 227 16T119 101T58 220T39 350Q39 413 60 477T124 596T234 683T389 716Q480 716 546 683T655 596T718 477T739 350Q739 288 718 224T654 106T544 18T389 -16ZM397 46Q453 46 491 72T554 140T589
232T601 332Q601 399 587 457T546 560T476 629T379 654Q324 653 286 627T223 558T187 464T176 364Q176 314 188 259T226 155T294 76T397 46ZM522 769L387 855L249 771L223 810L384 958H398L551 811L522 769Z" />
<glyph unicode="&#xd5;" horiz-adv-x="777" d="M389 -16Q294 -16 227 16T119 101T58 220T39 350Q39 413 60 477T124 596T234 683T389 716Q480 716 546 683T655 596T718 477T739 350Q739 288 718 224T654 106T544 18T389 -16ZM397 46Q453 46 491 72T554 140T589
232T601 332Q601 399 587 457T546 560T476 629T379 654Q324 653 286 627T223 558T187 464T176 364Q176 314 188 259T226 155T294 76T397 46ZM590 911Q574 863 552 837T507 800T462 790Q437 790 418 798T381 818T347 838T310 847Q290 847 270 834T230 792L181 823Q202
875 238 901T309 929Q336 929 355 921T391 901T424 882T461 873Q483 873 505 891T542 938L590 911Z" />
<glyph unicode="&#xd6;" horiz-adv-x="777" d="M389 -16Q294 -16 227 16T119 101T58 220T39 350Q39 413 60 477T124 596T234 683T389 716Q480 716 546 683T655 596T718 477T739 350Q739 288 718 224T654 106T544 18T389 -16ZM397 46Q453 46 491 72T554 140T589
232T601 332Q601 399 587 457T546 560T476 629T379 654Q324 653 286 627T223 558T187 464T176 364Q176 314 188 259T226 155T294 76T397 46ZM297 790Q272 790 254 811T235 861Q235 891 254 912T298 934Q325 934 342 913T360 861Q360 832 341 811T297 790ZM473 790Q449
790 430 811T411 861Q411 891 430 912T474 934Q501 934 518 913T536 861Q536 832 518 811T473 790Z" />
<glyph unicode="&#xd7;" horiz-adv-x="530" d="M133 543L448 228L400 179L84 495L133 543ZM447 494L131 178L83 226L399 542L447 494Z" />
<glyph unicode="&#xd8;" horiz-adv-x="777" d="M600 776L672 732L187 -93L121 -49L600 776ZM389 -16Q294 -16 227 16T119 101T58 220T38 350Q38 413 59 477T124 596T234 683T388 716Q480 716 546 683T654 596T718 477T739 350Q739 288 718 224T653 106T544 18T389
-16ZM397 46Q452 46 491 72T554 140T589 232T600 332Q600 399 587 457T546 560T476 629T379 654Q324 653 285 627T222 558T187 464T176 364Q176 314 188 259T226 155T294 76T397 46Z" />
<glyph unicode="&#xd9;" horiz-adv-x="757" d="M294 645Q268 644 253 636T231 611T224 561V293Q224 233 235 189T269 114T323 69T399 54Q459 52 500 79T563 158T584 285L585 553Q585 578 586 601T589 637Q572 636 550 636T515 634V700H731V645Q704 644 689 636T667
606T661 546L660 302Q660 223 642 164T587 64T500 4T384 -16Q301 -16 246 7T158 73T112 176T98 310V539Q98 565 99 593T102 637Q85 636 63 636T28 634V700H294V645ZM414 753L271 833Q253 844 244 859T235 889T242 917Q251 930 265 934T296 934T329 914L445 796L414
753Z" />
<glyph unicode="&#xda;" horiz-adv-x="757" d="M348 753L316 796L432 914Q448 929 465 933T496 934T519 917Q528 905 528 890T518 859T491 833L348 753ZM294 645Q268 644 253 636T231 611T224 561V293Q224 233 235 189T269 114T323 69T399 54Q459 52 500 79T563
158T584 285L585 553Q585 578 586 601T589 637Q572 636 550 636T515 634V700H731V645Q704 644 689 636T667 606T661 546L660 302Q660 223 642 164T587 64T500 4T384 -16Q301 -16 246 7T158 73T112 176T98 310V539Q98 565 99 593T102 637Q85 636 63 636T28 634V700H294V645Z"
/>
<glyph unicode="&#xdb;" horiz-adv-x="757" d="M294 645Q268 644 253 636T231 611T224 561V293Q224 233 235 189T269 114T323 69T399 54Q459 52 500 79T563 158T584 285L585 553Q585 578 586 601T589 637Q572 636 550 636T515 634V700H731V645Q704 644 689 636T667
606T661 546L660 302Q660 223 642 164T587 64T500 4T384 -16Q301 -16 246 7T158 73T112 176T98 310V539Q98 565 99 593T102 637Q85 636 63 636T28 634V700H294V645ZM522 769L387 855L249 771L223 810L384 958H398L551 811L522 769Z" />
<glyph unicode="&#xdc;" horiz-adv-x="757" d="M294 645Q268 644 253 636T231 611T224 561V293Q224 233 235 189T269 114T323 69T399 54Q459 52 500 79T563 158T584 285L585 553Q585 578 586 601T589 637Q572 636 550 636T515 634V700H731V645Q704 644 689 636T667
606T661 546L660 302Q660 223 642 164T587 64T500 4T384 -16Q301 -16 246 7T158 73T112 176T98 310V539Q98 565 99 593T102 637Q85 636 63 636T28 634V700H294V645ZM298 790Q273 790 255 811T236 861Q236 891 255 912T299 934Q326 934 343 913T361 861Q361 832
342 811T298 790ZM474 790Q450 790 431 811T412 861Q412 891 431 912T475 934Q502 934 519 913T537 861Q537 832 519 811T474 790Z" />
<glyph unicode="&#xdd;" horiz-adv-x="656" d="M302 753L271 796L387 914Q403 929 419 933T450 934T474 917Q483 905 483 890T473 859T445 833L302 753ZM207 0V55Q235 56 250 65T271 95T277 154V250L97 536Q79 564 67 592T53 637Q37 636 25 636T0 634V700H283V645Q248
646 230 636T210 607T226 557L303 432Q309 422 319 406T339 371T358 337H359Q366 352 377 375T405 429L468 551Q473 562 481 578T500 610T519 638Q502 637 479 636T441 634V700H657V645Q617 641 590 615T532 531Q499 468 467 407T403 285Q403 269 403 250T403 211T403
175T403 149Q403 122 402 99T399 63Q417 64 441 65T480 66V0H207Z" />
<glyph unicode="&#xde;" horiz-adv-x="621" d="M52 0V55Q80 56 95 64T116 94T122 154V553Q122 578 123 601T126 637Q109 636 87 636T52 634V700H318V645Q283 644 267 630T248 573L306 574Q397 574 463 554T565 490T601 370Q602 330 585 293T532 225T439 175T300
155Q283 154 272 154T248 154Q247 121 247 98T244 63Q261 64 283 65T318 66V0H52ZM294 215Q383 216 424 257T466 371Q466 416 452 444T414 488T362 508T307 514Q289 514 275 514T248 513V218Q259 216 270 216T294 215Z" />
<glyph unicode="&#xdf;" horiz-adv-x="741" d="M548 -16Q512 -16 480 -6T424 21L426 -7H362L357 165H410Q415 113 448 79T543 45Q569 45 592 60T615 105Q615 138 586 156T505 196Q466 212 430 231T371 282T348 364Q348 420 383 462T494 513Q494 575 481 611T446
665T402 687T360 692Q319 691 289 669T243 599T227 477V144Q227 128 227 105T223 61Q239 63 258 63T291 64V0H44V53Q73 53 85 65T101 101T104 153V432L28 430V500H105Q110 592 144 648T235 730T366 757Q394 757 427 751T492 729T552 685T595 614T612 509Q612 496
611 483T608 455Q584 457 557 457T506 452T467 434T452 396Q452 374 465 359T502 332T559 307Q605 289 642 267T700 213T722 136Q722 85 699 51T636 1T548 -16Z" />
<glyph unicode="&#xe0;" horiz-adv-x="521" d="M329 0Q326 15 326 25T324 50Q290 16 252 0T172 -16Q104 -16 68 21T31 112Q31 160 57 193T125 248T218 281T319 294V349Q319 378 313 402T289 441T239 456Q217 455 195 447T159 420Q167 411 169 401T171 382Q171
364 157 345T112 326Q85 327 71 345T56 388Q56 426 83 454T158 499T263 516Q349 516 395 471T440 327Q440 292 440 264T440 207T439 143Q439 128 438 106T435 61Q453 63 471 63T502 65V0H329ZM318 235Q288 233 259 226T207 205T171 173T158 128Q159 97 178 83T222
68Q251 68 274 80T318 112Q318 122 318 133T318 155Q318 169 318 190T318 235ZM304 581L186 687Q171 702 165 718T162 750T177 777Q189 786 204 787T234 781T261 754L344 616L304 581Z" />
<glyph unicode="&#xe1;" horiz-adv-x="521" d="M329 0Q326 15 326 25T324 50Q290 16 252 0T172 -16Q104 -16 68 21T31 112Q31 160 57 193T125 248T218 281T319 294V349Q319 378 313 402T289 441T239 456Q217 455 195 447T159 420Q167 411 169 401T171 382Q171
364 157 345T112 326Q85 327 71 345T56 388Q56 426 83 454T158 499T263 516Q349 516 395 471T440 327Q440 292 440 264T440 207T439 143Q439 128 438 106T435 61Q453 63 471 63T502 65V0H329ZM318 235Q288 233 259 226T207 205T171 173T158 128Q159 97 178 83T222
68Q251 68 274 80T318 112Q318 122 318 133T318 155Q318 169 318 190T318 235ZM200 581L160 616L243 754Q255 773 270 780T300 787T327 777Q339 766 342 751T340 719T318 687L200 581Z" />
<glyph unicode="&#xe2;" horiz-adv-x="521" d="M329 0Q326 15 326 25T324 50Q290 16 252 0T172 -16Q104 -16 68 21T31 112Q31 160 57 193T125 248T218 281T319 294V349Q319 378 313 402T289 441T239 456Q217 455 195 447T159 420Q167 411 169 401T171 382Q171
364 157 345T112 326Q85 327 71 345T56 388Q56 426 83 454T158 499T263 516Q349 516 395 471T440 327Q440 292 440 264T440 207T439 143Q439 128 438 106T435 61Q453 63 471 63T502 65V0H329ZM318 235Q288 233 259 226T207 205T171 173T158 128Q159 97 178 83T222
68Q251 68 274 80T318 112Q318 122 318 133T318 155Q318 169 318 190T318 235ZM379 580L252 686H251L123 587L86 629L253 792H261L417 625L379 580Z" />
<glyph unicode="&#xe3;" horiz-adv-x="521" d="M329 0Q326 15 326 25T324 50Q290 16 252 0T172 -16Q104 -16 68 21T31 112Q31 160 57 193T125 248T218 281T319 294V349Q319 378 313 402T289 441T239 456Q217 455 195 447T159 420Q167 411 169 401T171 382Q171
364 157 345T112 326Q85 327 71 345T56 388Q56 426 83 454T158 499T263 516Q349 516 395 471T440 327Q440 292 440 264T440 207T439 143Q439 128 438 106T435 61Q453 63 471 63T502 65V0H329ZM318 235Q288 233 259 226T207 205T171 173T158 128Q159 97 178 83T222
68Q251 68 274 80T318 112Q318 122 318 133T318 155Q318 169 318 190T318 235ZM427 729Q408 672 375 646T314 620Q285 620 265 631T227 653T189 664Q175 664 157 655T124 622L76 650Q92 692 124 719T188 747Q220 748 239 737T274 715T314 704Q332 704 349 717T379
754L427 729Z" />
<glyph unicode="&#xe4;" horiz-adv-x="521" d="M329 0Q326 15 326 25T324 50Q290 16 252 0T172 -16Q104 -16 68 21T31 112Q31 160 57 193T125 248T218 281T319 294V349Q319 378 313 402T289 441T239 456Q217 455 195 447T159 420Q167 411 169 401T171 382Q171
364 157 345T112 326Q85 327 71 345T56 388Q56 426 83 454T158 499T263 516Q349 516 395 471T440 327Q440 292 440 264T440 207T439 143Q439 128 438 106T435 61Q453 63 471 63T502 65V0H329ZM318 235Q288 233 259 226T207 205T171 173T158 128Q159 97 178 83T222
68Q251 68 274 80T318 112Q318 122 318 133T318 155Q318 169 318 190T318 235ZM337 615Q313 615 295 635T277 684Q277 713 295 734T338 755Q365 755 382 734T399 684Q399 655 381 635T337 615ZM166 615Q141 615 123 635T105 684Q105 713 123 734T166 755Q193 755
210 734T227 684Q227 655 209 635T166 615Z" />
<glyph unicode="&#xe5;" horiz-adv-x="521" d="M329 0Q326 15 326 25T324 50Q290 16 252 0T172 -16Q104 -16 68 21T31 112Q31 160 57 193T125 248T218 281T319 294V349Q319 378 313 402T289 441T239 456Q217 455 195 447T159 420Q167 411 169 401T171 382Q171
364 157 345T112 326Q85 327 71 345T56 388Q56 426 83 454T158 499T263 516Q349 516 395 471T440 327Q440 292 440 264T440 207T439 143Q439 128 438 106T435 61Q453 63 471 63T502 65V0H329ZM318 235Q288 233 259 226T207 205T171 173T158 128Q159 97 178 83T222
68Q251 68 274 80T318 112Q318 122 318 133T318 155Q318 169 318 190T318 235ZM252 576Q226 576 201 588T159 623T140 681Q139 714 154 739T196 780T251 795Q278 795 303 784T345 750T363 691Q364 656 348 631T306 591T252 576ZM257 627Q271 628 281 641T292 679Q292
712 281 728T250 744Q235 743 224 731T213 692Q213 662 225 645T257 627Z" />
<glyph unicode="&#xe6;" horiz-adv-x="772" d="M171 -16Q106 -16 69 20T31 111Q31 159 56 192T124 247T217 280T318 292V349Q318 378 312 403T288 442T239 456Q215 456 193 447T158 419Q166 411 168 400T171 381Q171 364 157 345T111 326Q86 326 71 344T56 387Q56
422 81 451T151 498T254 516Q305 516 340 496T391 431Q419 475 456 495T550 516Q597 516 638 493T705 418T730 278L440 272Q438 208 450 161T492 87T570 60Q606 60 641 79T708 138L745 103Q713 55 678 29T607 -6T537 -16Q480 -16 439 8T370 72Q327 20 275 2T171
-16ZM220 68Q251 67 277 80T324 116Q323 133 322 153T319 194T318 234Q288 231 259 224T206 204T170 172T157 127Q158 96 178 83T220 68ZM446 332H612Q611 372 603 399T578 441T538 456Q507 456 488 439T460 394T446 332Z" />
<glyph unicode="&#xe7;" horiz-adv-x="523" d="M281 -16Q214 -16 158 14T68 101T34 240Q34 295 53 344T106 432T189 493T295 516Q356 516 398 498T462 449T484 384Q484 357 469 337T424 316Q390 315 377 335T363 374Q363 384 366 395T376 417Q369 435 353 443T320
455T293 457Q238 455 202 407T166 267Q166 212 181 166T229 91T311 61Q355 60 396 82T463 141L503 104Q470 57 432 31T356 -5T281 -16ZM247 -253L240 -207Q257 -204 277 -199T316 -186T347 -166T360 -140Q360 -122 347 -117T317 -115T289 -127L253 -111L283 9H353L325
-71Q338 -63 358 -59T393 -54Q425 -55 444 -72T464 -123Q464 -156 441 -179T384 -217T312 -240T247 -253Z" />
<glyph unicode="&#xe8;" horiz-adv-x="539" d="M281 -16Q209 -16 153 16T66 108T35 249Q35 319 66 380T153 478T285 516Q327 516 366 504T436 464T485 390T503 278L167 272Q167 210 181 163T229 88T316 60Q340 60 367 68T422 94T470 138L508 103Q475 55 435 29T355
-6T281 -16ZM172 332H380Q379 372 369 399T338 441T289 456Q240 456 211 424T172 332ZM335 570L217 676Q202 691 196 707T193 739T208 766Q220 775 235 776T265 770T292 743L375 605L335 570Z" />
<glyph unicode="&#xe9;" horiz-adv-x="539" d="M281 -16Q209 -16 153 16T66 108T35 249Q35 319 66 380T153 478T285 516Q327 516 366 504T436 464T485 390T503 278L167 272Q167 210 181 163T229 88T316 60Q340 60 367 68T422 94T470 138L508 103Q475 55 435 29T355
-6T281 -16ZM172 332H380Q379 372 369 399T338 441T289 456Q240 456 211 424T172 332ZM231 570L191 605L274 743Q286 762 301 769T331 776T358 766Q370 755 373 740T371 708T349 676L231 570Z" />
<glyph unicode="&#xea;" horiz-adv-x="539" d="M281 -16Q209 -16 153 16T66 108T35 249Q35 319 66 380T153 478T285 516Q327 516 366 504T436 464T485 390T503 278L167 272Q167 210 181 163T229 88T316 60Q340 60 367 68T422 94T470 138L508 103Q475 55 435 29T355
-6T281 -16ZM172 332H380Q379 372 369 399T338 441T289 456Q240 456 211 424T172 332ZM410 569L283 675H282L154 576L117 618L284 781H292L448 614L410 569Z" />
<glyph unicode="&#xeb;" horiz-adv-x="539" d="M281 -16Q209 -16 153 16T66 108T35 249Q35 319 66 380T153 478T285 516Q327 516 366 504T436 464T485 390T503 278L167 272Q167 210 181 163T229 88T316 60Q340 60 367 68T422 94T470 138L508 103Q475 55 435 29T355
-6T281 -16ZM172 332H380Q379 372 369 399T338 441T289 456Q240 456 211 424T172 332ZM368 604Q344 604 326 624T308 673Q308 702 326 723T369 744Q396 744 413 723T430 673Q430 644 412 624T368 604ZM197 604Q172 604 154 624T136 673Q136 702 154 723T197 744Q224
744 241 723T258 673Q258 644 240 624T197 604Z" />
<glyph unicode="&#xec;" horiz-adv-x="312" d="M42 53Q71 53 83 65T98 101T101 153V340Q101 357 102 377T105 420Q88 419 68 418T35 416V481Q80 481 109 485T155 497T179 510H224V143Q224 127 224 105T220 61Q236 63 254 63T285 64V0H42V53ZM208 570L90 676Q75
691 69 707T66 739T81 766Q93 775 108 776T138 770T165 743L248 605L208 570Z" />
<glyph unicode="&#xed;" horiz-adv-x="312" d="M42 53Q71 53 83 65T98 101T101 153V340Q101 357 102 377T105 420Q88 419 68 418T35 416V481Q80 481 109 485T155 497T179 510H224V143Q224 127 224 105T220 61Q236 63 254 63T285 64V0H42V53ZM104 570L64 605L147
743Q159 762 174 769T204 776T231 766Q243 755 246 740T244 708T222 676L104 570Z" />
<glyph unicode="&#xee;" horiz-adv-x="312" d="M42 53Q71 53 83 65T98 101T101 153V340Q101 357 102 377T105 420Q88 419 68 418T35 416V481Q80 481 109 485T155 497T179 510H224V143Q224 127 224 105T220 61Q236 63 254 63T285 64V0H42V53ZM410 781H417L553 614L515
570L410 669H408L302 576L263 618L410 781Z" />
<glyph unicode="&#xef;" horiz-adv-x="312" d="M42 53Q71 53 83 65T98 101T101 153V340Q101 357 102 377T105 420Q88 419 68 418T35 416V481Q80 481 109 485T155 497T179 510H224V143Q224 127 224 105T220 61Q236 63 254 63T285 64V0H42V53ZM498 604Q474 604 456
624T438 673Q438 702 456 723T499 744Q526 744 543 723T560 673Q560 644 542 624T498 604ZM327 604Q302 604 284 624T266 673Q266 702 284 723T327 744Q354 744 371 723T388 673Q388 644 370 624T327 604Z" />
<glyph unicode="&#xf0;" horiz-adv-x="548" d="M261 -16Q198 -16 148 12T68 94T36 224Q36 274 49 322T91 410T162 472T260 496Q284 497 314 488T367 455H368Q360 486 341 519T294 583T238 633L179 560L127 606L179 667Q159 678 135 685T84 697L95 760Q136 757
169 747T228 725L280 791L329 747L286 695Q351 655 398 591T471 445T498 271Q498 192 473 127T395 23T261 -16ZM271 54Q301 54 326 74T367 135T382 236Q382 267 377 300T359 363T325 410T274 430Q238 430 213 405T175 337T162 246Q162 154 194 104T271 54Z" />
<glyph unicode="&#xf1;" horiz-adv-x="626" d="M42 0V53Q71 53 83 65T98 101T101 153V341Q101 359 102 379T105 420Q89 419 69 418T35 416V481Q80 481 109 485T154 497T177 510H219Q221 499 221 492T222 478T225 456Q245 473 271 486T325 508T375 516Q465 516
504 463T543 294V143Q543 127 543 105T539 61Q556 63 574 63T604 64V0H361V53Q390 53 402 65T418 101T421 153L420 295Q420 367 399 402T328 438Q299 437 271 424T224 391Q225 379 225 366T225 340L224 143Q224 127 224 105T220 61Q236 63 254 63T285 64V0H42ZM511
718Q492 661 459 635T398 609Q369 609 349 620T311 642T273 653Q259 653 241 644T208 611L160 639Q176 681 208 708T272 736Q304 737 323 726T358 704T398 693Q416 693 433 706T463 743L511 718Z" />
<glyph unicode="&#xf2;" horiz-adv-x="572" d="M288 -16Q217 -16 159 15T68 104T34 239Q34 320 68 383T159 481T286 516Q357 516 414 484T504 395T538 260Q538 178 506 116T417 19T288 -16ZM293 45Q338 45 362 73T395 144T405 234Q405 273 399 313T378 385T341
437T285 457Q241 456 215 428T178 357T166 266Q166 212 179 161T220 77T293 45ZM338 570L220 676Q205 691 199 707T196 739T211 766Q223 775 238 776T268 770T295 743L378 605L338 570Z" />
<glyph unicode="&#xf3;" horiz-adv-x="572" d="M288 -16Q217 -16 159 15T68 104T34 239Q34 320 68 383T159 481T286 516Q357 516 414 484T504 395T538 260Q538 178 506 116T417 19T288 -16ZM293 45Q338 45 362 73T395 144T405 234Q405 273 399 313T378 385T341
437T285 457Q241 456 215 428T178 357T166 266Q166 212 179 161T220 77T293 45ZM234 570L194 605L277 743Q289 762 304 769T334 776T361 766Q373 755 376 740T374 708T352 676L234 570Z" />
<glyph unicode="&#xf4;" horiz-adv-x="572" d="M288 -16Q217 -16 159 15T68 104T34 239Q34 320 68 383T159 481T286 516Q357 516 414 484T504 395T538 260Q538 178 506 116T417 19T288 -16ZM293 45Q338 45 362 73T395 144T405 234Q405 273 399 313T378 385T341
437T285 457Q241 456 215 428T178 357T166 266Q166 212 179 161T220 77T293 45ZM413 569L286 675H285L157 576L120 618L287 781H295L451 614L413 569Z" />
<glyph unicode="&#xf5;" horiz-adv-x="572" d="M288 -16Q217 -16 159 15T68 104T34 239Q34 320 68 383T159 481T286 516Q357 516 414 484T504 395T538 260Q538 178 506 116T417 19T288 -16ZM293 45Q338 45 362 73T395 144T405 234Q405 273 399 313T378 385T341
437T285 457Q241 456 215 428T178 357T166 266Q166 212 179 161T220 77T293 45ZM461 718Q442 661 409 635T348 609Q319 609 299 620T261 642T223 653Q209 653 191 644T158 611L110 639Q126 681 158 708T222 736Q254 737 273 726T308 704T348 693Q366 693 383 706T413
743L461 718Z" />
<glyph unicode="&#xf6;" horiz-adv-x="572" d="M288 -16Q217 -16 159 15T68 104T34 239Q34 320 68 383T159 481T286 516Q357 516 414 484T504 395T538 260Q538 178 506 116T417 19T288 -16ZM293 45Q338 45 362 73T395 144T405 234Q405 273 399 313T378 385T341
437T285 457Q241 456 215 428T178 357T166 266Q166 212 179 161T220 77T293 45ZM372 604Q348 604 330 624T312 673Q312 702 330 723T373 744Q400 744 417 723T434 673Q434 644 416 624T372 604ZM201 604Q176 604 158 624T140 673Q140 702 158 723T201 744Q228 744
245 723T262 673Q262 644 244 624T201 604Z" />
<glyph unicode="&#xf7;" horiz-adv-x="530" d="M266 125Q237 125 218 146T198 198Q198 229 218 250T266 272Q295 272 314 251T333 198Q333 168 314 147T266 125ZM266 451Q237 451 218 472T198 524Q198 555 218 576T266 598Q295 598 314 577T333 524Q333 494 314
473T266 451ZM42 396H488V327H42V396Z" />
<glyph unicode="&#xf8;" horiz-adv-x="572" d="M116 -80L63 -40L452 571L512 532L116 -80ZM288 -16Q217 -16 159 15T68 104T34 239Q34 320 68 383T159 481T286 516Q357 516 414 484T504 395T538 260Q538 178 506 116T417 19T288 -16ZM293 45Q338 45 362 73T395
144T405 234Q405 273 399 313T378 385T341 437T285 457Q241 456 215 428T178 357T166 266Q166 212 179 161T220 77T293 45Z" />
<glyph unicode="&#xf9;" horiz-adv-x="611" d="M250 -16Q192 -16 156 6T102 76T85 204V340Q85 357 86 378T88 420Q72 419 52 419T19 417V481H36Q91 481 121 490T163 510H209V204Q209 132 228 97T292 62Q322 63 351 80T399 120V336Q399 356 400 377T403 420Q387
419 367 419T333 417V481H359Q405 481 435 491T476 510H522V151Q522 137 521 110T518 61Q535 63 554 63T585 65V0H411Q409 14 408 28T405 55Q374 27 336 6T250 -16ZM361 570L243 676Q228 691 222 707T219 739T234 766Q246 775 261 776T291 770T318 743L401 605L361
570Z" />
<glyph unicode="&#xfa;" horiz-adv-x="611" d="M250 -16Q192 -16 156 6T102 76T85 204V340Q85 357 86 378T88 420Q72 419 52 419T19 417V481H36Q91 481 121 490T163 510H209V204Q209 132 228 97T292 62Q322 63 351 80T399 120V336Q399 356 400 377T403 420Q387
419 367 419T333 417V481H359Q405 481 435 491T476 510H522V151Q522 137 521 110T518 61Q535 63 554 63T585 65V0H411Q409 14 408 28T405 55Q374 27 336 6T250 -16ZM257 570L217 605L300 743Q312 762 327 769T357 776T384 766Q396 755 399 740T397 708T375 676L257
570Z" />
<glyph unicode="&#xfb;" horiz-adv-x="611" d="M250 -16Q192 -16 156 6T102 76T85 204V340Q85 357 86 378T88 420Q72 419 52 419T19 417V481H36Q91 481 121 490T163 510H209V204Q209 132 228 97T292 62Q322 63 351 80T399 120V336Q399 356 400 377T403 420Q387
419 367 419T333 417V481H359Q405 481 435 491T476 510H522V151Q522 137 521 110T518 61Q535 63 554 63T585 65V0H411Q409 14 408 28T405 55Q374 27 336 6T250 -16ZM436 569L309 675H308L180 576L143 618L310 781H318L474 614L436 569Z" />
<glyph unicode="&#xfc;" horiz-adv-x="611" d="M250 -16Q192 -16 156 6T102 76T85 204V340Q85 357 86 378T88 420Q72 419 52 419T19 417V481H36Q91 481 121 490T163 510H209V204Q209 132 228 97T292 62Q322 63 351 80T399 120V336Q399 356 400 377T403 420Q387
419 367 419T333 417V481H359Q405 481 435 491T476 510H522V151Q522 137 521 110T518 61Q535 63 554 63T585 65V0H411Q409 14 408 28T405 55Q374 27 336 6T250 -16ZM395 604Q371 604 353 624T335 673Q335 702 353 723T396 744Q423 744 440 723T457 673Q457 644
439 624T395 604ZM224 604Q199 604 181 624T163 673Q163 702 181 723T224 744Q251 744 268 723T285 673Q285 644 267 624T224 604Z" />
<glyph unicode="&#xfd;" horiz-adv-x="543" d="M139 -271Q103 -271 78 -251T53 -196Q53 -172 69 -154T110 -134Q132 -133 145 -148T159 -186Q159 -189 159 -192T158 -200Q160 -200 165 -200Q175 -198 186 -186T208 -152Q220 -129 233 -96T258 -21L101 302Q74 358
65 388T51 438L5 436V500H240V447H238Q200 444 196 419T209 356L314 123Q328 162 345 219T385 339Q390 355 397 374T413 412T429 439L368 436V500H539V447Q506 438 487 407T450 328L325 -26Q296 -108 271 -162T216 -244T139 -271ZM240 570L200 605L283 743Q295
762 310 769T340 776T367 766Q379 755 382 740T380 708T358 676L240 570Z" />
<glyph unicode="&#xfe;" horiz-adv-x="574" d="M7 -255V-202Q36 -202 48 -190T64 -154T67 -102V585Q67 602 67 623T71 665Q54 664 34 663T0 661V726Q46 726 75 730T120 742T144 755H190L189 462Q221 488 256 502T330 516Q390 516 437 485T511 398T539 263Q539
182 507 119T418 20T288 -16Q259 -16 235 -10T189 6V-112Q189 -128 189 -150T185 -194Q202 -192 220 -192T250 -191V-255H7ZM276 47Q324 48 352 75T393 148T406 248Q406 297 394 341T354 412T282 440Q254 439 230 427T189 393V72Q205 61 228 54T276 47Z" />
<glyph unicode="&#xff;" horiz-adv-x="543" d="M139 -271Q103 -271 78 -251T53 -196Q53 -172 69 -154T110 -134Q132 -133 145 -148T159 -186Q159 -189 159 -192T158 -200Q160 -200 165 -200Q175 -198 186 -186T208 -152Q220 -129 233 -96T258 -21L101 302Q74 358
65 388T51 438L5 436V500H240V447H238Q200 444 196 419T209 356L314 123Q328 162 345 219T385 339Q390 355 397 374T413 412T429 439L368 436V500H539V447Q506 438 487 407T450 328L325 -26Q296 -108 271 -162T216 -244T139 -271ZM378 604Q354 604 336 624T318
673Q318 702 336 723T379 744Q406 744 423 723T440 673Q440 644 422 624T378 604ZM207 604Q182 604 164 624T146 673Q146 702 164 723T207 744Q234 744 251 723T268 673Q268 644 250 624T207 604Z" />
<glyph unicode="&#x2013;" horiz-adv-x="572" d="M57 268V364H514V272L57 268Z" />
<glyph unicode="&#x2014;" horiz-adv-x="844" d="M57 268V364H786V272L57 268Z" />
<glyph unicode="&#x2018;" horiz-adv-x="223" d="M123 760L158 735Q148 721 135 695T112 638T105 576Q112 579 117 579T127 580Q152 580 170 565T189 520Q189 491 171 471T122 451Q80 450 59 479T37 551Q37 581 47 617T76 690T123 760Z" />
<glyph unicode="&#x2019;" horiz-adv-x="198" d="M88 451L53 476Q64 490 77 516T99 573T106 634Q99 632 94 631T84 630Q59 630 41 645T22 691Q22 720 40 740T89 760Q131 761 152 732T174 660Q174 630 164 594T135 521T88 451Z" />
<glyph unicode="&#x201a;" horiz-adv-x="251" d="M117 -184L82 -159Q93 -145 106 -119T128 -62T135 -1Q128 -3 123 -4T113 -5Q88 -5 70 10T51 56Q51 85 69 105T118 125Q160 126 181 97T203 25Q203 -5 193 -41T164 -114T117 -184Z" />
<glyph unicode="&#x201c;" horiz-adv-x="415" d="M123 760L158 735Q148 721 135 695T112 638T105 576Q112 579 117 579T127 580Q152 580 170 565T189 520Q189 491 171 471T122 451Q80 450 59 479T37 551Q37 581 47 617T76 690T123 760ZM315 760L350 735Q340 721
327 695T304 638T297 576Q304 579 309 579T319 580Q344 580 362 565T381 520Q381 491 363 471T314 451Q272 450 251 479T229 551Q229 581 239 617T268 690T315 760Z" />
<glyph unicode="&#x201d;" horiz-adv-x="390" d="M88 451L53 476Q64 490 77 516T99 573T106 634Q99 632 94 631T84 630Q59 630 41 645T22 691Q22 720 40 740T89 760Q131 761 152 732T174 660Q174 630 164 594T135 521T88 451ZM280 451L245 476Q256 490 269 516T291
573T298 634Q291 632 286 631T276 630Q251 630 233 645T214 691Q214 720 232 740T281 760Q323 761 344 732T366 660Q366 630 356 594T327 521T280 451Z" />
<glyph unicode="&#x201e;" horiz-adv-x="443" d="M117 -184L82 -159Q93 -145 106 -119T128 -62T135 -1Q128 -3 123 -4T113 -5Q88 -5 70 10T51 56Q51 85 69 105T118 125Q160 126 181 97T203 25Q203 -5 193 -41T164 -114T117 -184ZM309 -184L274 -159Q285 -145 298
-119T320 -62T327 -1Q320 -3 315 -4T305 -5Q280 -5 262 10T243 56Q243 85 261 105T310 125Q352 126 373 97T395 25Q395 -5 385 -41T356 -114T309 -184Z" />
<glyph unicode="&#x2022;" horiz-adv-x="388" d="M193 213Q150 213 115 233T58 289T37 367Q37 410 58 445T114 500T193 521Q237 521 272 501T329 445T351 367Q351 324 330 289T273 234T193 213Z" />
<glyph unicode="&#x2039;" horiz-adv-x="380" d="M295 -13L23 266V282L293 552L341 504L155 277V275L342 34L295 -13Z" />
<glyph unicode="&#x203a;" horiz-adv-x="380" d="M84 -13L37 34L224 275V277L38 504L87 552L356 282V266L84 -13Z" />
</font>
</defs>
</svg>
