<?xml version="1.0" standalone="no"?>
<!DOCTYPE svg PUBLIC "-//W3C//DTD SVG 1.1//EN" "http://www.w3.org/Graphics/SVG/1.1/DTD/svg11.dtd">
<svg xmlns="http://www.w3.org/2000/svg">
<defs >
<font id="MavenPro" horiz-adv-x="550" ><font-face
    font-family="Maven Pro Medium"
    units-per-em="1000"
    panose-1="0 0 0 0 0 0 0 0 0 0"
    ascent="965"
    descent="-210"
    alphabetic="0" />
<glyph unicode=" " horiz-adv-x="284" />
<glyph unicode="!" horiz-adv-x="390" d="M159 175L147 667H249L238 175H159ZM147 0V94H250V0H147Z" />
<glyph unicode="&quot;" horiz-adv-x="398" d="M238 475L220 676H316L298 475H238ZM99 475L81 676H176L159 475H99Z" />
<glyph unicode="#" horiz-adv-x="602" d="M132 19L151 125H72V194H162L187 341H100V409H200L219 523H290L271 409H395L415 523H487L466 409H535V341H455L429 194H507V125H418L400 19H328L346 125H222L203 19H132ZM234 194H358L384 341H259L234 194Z" />
<glyph unicode="$" horiz-adv-x="564" d="M246 633V754H336V633H246ZM246 -95V32H336V-95H246ZM283 -11Q233 -11 195 -6T126 12T62 41V151Q101 120 156 100T276 80Q338 80 368 105T399 176Q399 211 377 232T317 269T238 299Q206 311 175 324T119 358T79 411T64
490Q64 523 77 557T116 618T186 662T291 679Q331 679 360 674T416 659T474 633V525Q449 541 424 555T368 578T301 588Q259 589 232 578T191 547T177 501Q177 466 194 446T244 412T318 385Q355 373 390 358T452 322T495 268T512 189Q512 137 489 92T415 18T283 -11Z"
/>
<glyph unicode="%" horiz-adv-x="787" d="M190 310Q113 310 76 356T38 494Q38 586 75 632T190 678Q267 678 304 632T341 494Q341 403 304 357T190 310ZM190 375Q203 375 219 383T248 417T261 494Q261 546 249 571T220 605T190 614Q177 614 161 606T132 572T119
494Q119 443 131 418T160 384T190 375ZM598 -8Q521 -8 484 38T446 176Q446 268 483 314T598 360Q675 360 712 314T749 176Q749 85 712 39T598 -8ZM598 57Q611 57 627 65T656 99T669 176Q669 228 657 253T628 287T598 296Q585 296 569 288T540 254T527 176Q527 125
539 100T568 66T598 57ZM145 -22L552 685H637L230 -22H145Z" />
<glyph unicode="&amp;" horiz-adv-x="659" d="M493 0L179 378Q157 405 136 442T114 515Q114 559 138 595T202 654T293 676Q343 676 381 656T442 601T465 523Q465 482 447 453T395 399T317 347L273 408Q313 430 333 448T359 482T366 515Q366 545 346 564T294 583Q263
583 242 563T220 513Q220 500 230 482T254 446T280 413L625 0H493ZM259 -10Q205 -10 165 7T100 52T61 114T48 178Q48 211 61 246T108 317T201 382L267 323Q224 299 201 274T168 226T159 185Q159 173 163 156T180 121T215 92T274 80Q314 80 350 101T408 147L464
80Q442 56 413 36T345 3T259 -10ZM451 194Q463 213 471 233T484 271T491 296H576Q570 262 553 218T509 132L451 194Z" />
<glyph unicode="&apos;" horiz-adv-x="260" d="M99 475L81 676H176L159 475H99Z" />
<glyph unicode="(" horiz-adv-x="349" d="M202 -113Q177 -76 147 -14T97 129T76 305Q76 401 96 482T147 626T202 724H299Q288 705 270 666T232 572T200 450T187 305Q187 229 200 162T232 39T269 -54T299 -113H202Z" />
<glyph unicode=")" horiz-adv-x="349" d="M50 -113Q61 -94 79 -55T117 39T149 162T162 306Q162 382 149 449T117 572T80 665T50 724H147Q174 687 203 625T253 482T274 306Q274 211 253 129T203 -14T147 -113H50Z" />
<glyph unicode="*" horiz-adv-x="412" d="M175 460L184 542L114 492L84 546L168 581L84 617L114 669L184 620L175 703H236L229 620L297 669L328 617L245 581L328 546L297 492L229 542L236 460H175Z" />
<glyph unicode="+" horiz-adv-x="551" d="M237 121V261H96V337H237V478H313V337H453V261H313V121H237Z" />
<glyph unicode="," horiz-adv-x="329" d="M74 -112L148 84H247L159 -112H74Z" />
<glyph unicode="-" horiz-adv-x="464" d="M79 259V343H384V259H79Z" />
<glyph unicode="." horiz-adv-x="261" d="M71 0V117H190V0H71Z" />
<glyph unicode="/" horiz-adv-x="422" d="M-14 -98L353 756H437L69 -98H-14Z" />
<glyph unicode="0" horiz-adv-x="655" d="M327 -12Q189 -12 121 74T53 332Q53 503 121 589T327 676Q467 676 534 590T602 332Q602 160 535 74T327 -12ZM327 82Q356 82 385 90T438 124T476 199T491 332Q491 414 477 464T438 539T385 573T327 582Q299 582 270 573T217
539T179 464T164 332Q164 249 178 200T217 125T270 91T327 82Z" />
<glyph unicode="1" horiz-adv-x="459" d="M216 0V557L84 476V586L218 667H326V0H216Z" />
<glyph unicode="2" horiz-adv-x="593" d="M74 0V85Q108 108 150 141T235 216T313 301T371 389T393 473Q393 503 380 528T336 568T254 583Q199 583 156 563T80 518V622Q116 644 165 661T278 678Q357 678 407 652T480 581T504 482Q504 436 483 390T428 300T352 216T270
141T193 79L167 104H515V0H74Z" />
<glyph unicode="3" horiz-adv-x="588" d="M263 -8Q208 -8 162 5T77 38V139Q114 119 157 103T254 86Q330 86 371 113T412 193Q412 246 373 275T250 305H167V396H253Q316 396 347 420T379 488Q379 520 363 540T315 571T242 581Q201 581 165 572T92 544V638Q125 654
166 665T253 676Q308 676 350 663T422 625T466 567T481 495Q481 462 470 437T442 396T411 371T390 361Q399 359 418 348T460 315T497 263T513 189Q513 146 497 110T448 48T370 7T263 -8Z" />
<glyph unicode="4" horiz-adv-x="599" d="M346 0V191H38V284L346 667H457V282H548V191H457V0H346ZM143 282H346V531L143 282Z" />
<glyph unicode="5" horiz-adv-x="580" d="M288 -10Q222 -10 173 4T94 37V144Q109 132 135 119T197 96T277 87Q319 87 346 97T389 125T410 164T416 208Q416 260 398 286T349 321T285 330Q242 330 211 324T162 310T141 300L84 360L122 667H480V567H201L180 365L93
373Q132 402 187 416T307 430Q346 430 385 420T457 385T508 319T527 214Q527 146 507 103T451 35T374 0T288 -10Z" />
<glyph unicode="6" horiz-adv-x="601" d="M298 -10Q175 -10 116 70T56 306Q56 406 78 473T138 581T217 642T300 670T371 678Q408 678 438 673T489 660V563Q465 572 439 577T381 583Q357 583 328 576T271 553T219 508T181 436T167 332Q167 253 177 204T205 130T249
95T303 86Q346 86 372 100T411 136T429 179T434 217Q434 278 401 310T305 342Q264 342 234 330T185 299T158 261L143 336Q150 348 165 364T202 396T252 421T317 431Q427 431 486 375T546 216Q546 173 532 133T487 60T411 9T298 -10Z" />
<glyph unicode="7" horiz-adv-x="581" d="M146 0L424 592L439 562H69V667H534V588L268 0H146Z" />
<glyph unicode="8" horiz-adv-x="603" d="M302 -10Q236 -10 189 7T112 53T68 118T53 194Q53 235 68 264T103 312T141 341T168 354Q162 356 148 365T116 392T88 435T76 497Q76 547 99 588T172 653T302 678Q383 678 433 654T506 588T529 497Q529 460 518 434T490
392T459 366T439 354Q446 351 464 341T502 312T536 264T551 194Q551 154 537 118T494 53T417 7T302 -10ZM302 83Q347 83 374 96T414 130T432 171T437 205Q437 237 422 261T376 299T302 313Q259 313 229 300T183 262T167 205Q167 192 172 172T190 131T231 97T302
83ZM302 389Q335 389 361 401T401 435T416 490Q416 525 399 545T356 574T302 583Q275 583 249 574T205 545T188 490Q188 458 203 436T243 401T302 389Z" />
<glyph unicode="9" horiz-adv-x="605" d="M231 -10Q193 -10 164 -5T113 8V105Q137 96 163 91T221 85Q245 85 274 92T331 115T383 160T421 232T435 336Q435 415 425 464T396 538T352 573T297 582Q255 582 229 568T190 532T172 489T167 451Q167 390 201 358T297
326Q338 326 367 338T416 369T444 407L459 332Q451 320 437 304T400 272T349 247T285 237Q175 237 116 293T56 452Q56 496 70 536T114 608T189 659T297 678Q425 678 485 598T546 362Q546 262 523 195T464 87T385 26T302 -2T231 -10Z" />
<glyph unicode=":" horiz-adv-x="401" d="M152 356V453H251V356H152ZM152 44V141H251V44H152Z" />
<glyph unicode=";" horiz-adv-x="295" d="M39 -112L105 90H218L124 -112H39ZM105 336V453H224V336H105Z" />
<glyph unicode="&lt;" horiz-adv-x="662" d="M535 44L120 231V306L535 493V396L231 269L535 140V44Z" />
<glyph unicode="=" horiz-adv-x="638" d="M126 341V424H513V341H126ZM126 172V256H513V172H126Z" />
<glyph unicode="&gt;" horiz-adv-x="652" d="M127 44V140L430 269L127 396V493L541 306V231L127 44Z" />
<glyph unicode="?" horiz-adv-x="497" d="M189 175V213Q189 268 204 303T241 361T285 401T323 438T338 488Q338 523 324 545T283 577T219 587Q174 587 138 573T80 541V634Q85 638 105 648T157 666T229 675Q263 675 298 666T363 635T411 577T430 487Q430 444 415
417T378 370T333 330T295 282T280 209V175H189ZM183 0V94H286V0H183Z" />
<glyph unicode="@" horiz-adv-x="913" d="M409 -149Q370 -149 326 -138T238 -103T160 -40T104 54T82 181Q82 274 120 351T220 484T358 571T510 602Q548 602 593 591T682 556T762 494T819 402T841 277Q841 226 830 181T798 102T746 49T674 29Q649 29 631 37T602
57T583 82Q565 60 531 45T441 29Q370 29 329 60T287 147Q287 168 295 193T325 241T392 278T507 293Q525 293 541 292T574 289Q575 294 575 298T574 308Q574 326 568 342T543 368T483 379Q444 379 412 373T354 357L363 424Q390 432 421 439T485 446Q563 446 603
411T644 306Q644 264 637 224T628 149Q627 129 630 112T644 85T680 74Q704 74 730 95T776 161T795 275Q795 345 769 398T701 486T608 538T509 556Q436 556 369 527T247 447T161 327T129 180Q129 105 152 54T212 -28T287 -76T361 -99T414 -105Q480 -105 532 -93T630
-55L620 -109Q577 -129 524 -139T409 -149ZM441 98Q485 98 508 109T543 138T558 179T565 226Q551 227 537 228T507 229Q356 229 356 148Q356 127 369 116T402 102T441 98Z" />
<glyph unicode="A" horiz-adv-x="664" d="M17 0L277 667H394L647 0H531L308 613L350 617L127 0H17ZM145 181L177 271H494L503 181H145Z" />
<glyph unicode="B" horiz-adv-x="646" d="M79 0V667H326Q407 667 457 645T532 583T556 486Q556 442 539 416T499 373T454 343L441 366Q479 359 514 339T571 283T594 194Q594 126 563 83T477 20T349 0H79ZM190 92H348Q383 92 413 100T462 132T481 199Q481 232 469
252T438 282T394 296T345 300H190V92ZM189 389H339Q365 389 389 395T429 421T445 477Q445 533 414 553T330 574H189V389Z" />
<glyph unicode="C" horiz-adv-x="625" d="M365 -10Q208 -10 128 75T48 334Q48 505 127 591T365 678Q418 678 470 665T572 629V530Q523 559 475 572T379 586Q306 586 258 560T186 479T162 333Q162 244 186 189T258 108T382 82Q427 82 475 95T572 137V38Q542 23
507 12T436 -4T365 -10Z" />
<glyph unicode="D" horiz-adv-x="686" d="M79 0V667H313Q475 667 554 583T633 334Q633 169 554 85T313 0H79ZM189 93H302Q414 93 467 150T520 334Q520 459 467 517T302 575H189V93Z" />
<glyph unicode="E" horiz-adv-x="586" d="M79 0V667H516V574H190V381H474V287H189V93H516V0H79Z" />
<glyph unicode="F" horiz-adv-x="552" d="M79 0V667H507V574H189V375H467V281H189V0H79Z" />
<glyph unicode="G" horiz-adv-x="695" d="M369 -11Q268 -11 198 26T90 139T53 334Q53 451 90 527T197 641T368 678Q427 678 483 667T591 632V526Q538 552 487 569T382 586Q309 586 261 560T188 479T164 334Q164 245 188 189T261 107T378 81Q413 81 445 86T506
102V261H366V355H616V49Q558 19 496 4T369 -11Z" />
<glyph unicode="H" horiz-adv-x="687" d="M79 0V667H189V380H497V667H608V0H497V284H189V0H79Z" />
<glyph unicode="I" horiz-adv-x="269" d="M79 0V667H190V0H79Z" />
<glyph unicode="J" horiz-adv-x="464" d="M183 -10Q142 -10 107 0T41 26V132Q69 112 98 99T161 85Q219 85 246 113T274 207V667H385V200Q385 137 367 96T320 32T255 -1T183 -10Z" />
<glyph unicode="K" horiz-adv-x="641" d="M182 208L159 306L458 667H598L182 208ZM79 0V667H190V0H79ZM308 392L619 0H475L223 320L308 392Z" />
<glyph unicode="L" horiz-adv-x="536" d="M79 0V667H190V94H508V0H79Z" />
<glyph unicode="M" horiz-adv-x="811" d="M79 0V667H194L433 314L368 306L619 667H732V0H622V573L653 552L399 201L157 549L186 581V0H79Z" />
<glyph unicode="N" horiz-adv-x="723" d="M79 0V667H185L570 134L539 74V667H644V0H545L149 544L184 593V0H79Z" />
<glyph unicode="O" horiz-adv-x="726" d="M363 -11Q264 -11 195 27T89 141T53 333Q53 504 132 591T363 678Q463 678 532 640T637 526T674 333Q674 163 595 76T363 -11ZM363 84Q430 84 473 109T538 190T560 334Q560 422 539 476T474 556T363 582Q297 582 253 556T188
476T166 333Q166 245 187 190T253 110T363 84Z" />
<glyph unicode="P" horiz-adv-x="635" d="M189 239V0H79V667H343Q457 667 519 614T582 456Q582 351 520 295T343 239H189ZM189 333H329Q372 333 399 342T441 369T461 408T467 452Q467 475 462 497T441 536T399 564T329 574H189V333Z" />
<glyph unicode="Q" horiz-adv-x="726" d="M363 -14Q210 -14 132 72T53 333Q53 506 130 593T363 681Q516 681 595 595T674 333Q674 161 597 74T363 -14ZM363 72Q431 74 474 100T539 182T560 334Q560 425 539 480T474 562T363 588Q297 588 253 562T188 480T166 333Q166
239 187 182T253 98T363 72ZM611 -19Q626 -19 639 -16T673 1V-78Q653 -89 633 -93T594 -97Q569 -97 547 -90T504 -68T467 -30T440 26Q428 60 413 88T376 134T323 152Q288 152 261 136T213 95V180Q230 199 262 217T340 235Q384 235 419 215T481 158T525 72Q544 27
564 4T611 -19Z" />
<glyph unicode="R" horiz-adv-x="665" d="M79 0V667H375Q479 667 534 617T590 466Q590 414 569 370T508 298T413 266L425 300L623 0H486L301 299L352 252H189V0H79ZM189 342H344Q410 342 442 371T475 459Q475 514 450 544T362 574H189V342Z" />
<glyph unicode="S" horiz-adv-x="564" d="M283 -11Q233 -11 195 -6T126 12T62 41V151Q101 120 156 100T276 80Q338 80 368 105T399 176Q399 211 377 232T317 269T238 299Q206 311 175 324T119 358T79 411T64 490Q64 523 77 557T116 618T186 662T291 679Q331 679
360 674T416 659T474 633V525Q449 541 424 555T368 578T301 588Q259 589 232 578T191 547T177 501Q177 466 194 446T244 412T318 385Q355 373 390 358T452 322T495 268T512 189Q512 137 489 92T415 18T283 -11Z" />
<glyph unicode="T" horiz-adv-x="584" d="M237 0V574H21V667H563V574H347V0H237Z" />
<glyph unicode="U" horiz-adv-x="706" d="M359 -14Q223 -14 151 55T79 262V667H192V263Q192 169 233 124T356 78Q436 78 478 123T521 263V667H627V262Q627 171 595 109T502 17T359 -14Z" />
<glyph unicode="V" horiz-adv-x="660" d="M270 0L17 667H141L354 77H317L527 666L643 667L384 0H270Z" />
<glyph unicode="W" horiz-adv-x="990" d="M227 0L25 667H144L303 99H280L448 667H543L715 91H687L846 667H965L762 0H652L482 544H509L338 0H227Z" />
<glyph unicode="X" horiz-adv-x="628" d="M613 0H478L16 667H151L613 0ZM307 402L482 667H608L370 316L307 402ZM335 294L141 0H15L265 366L335 294Z" />
<glyph unicode="Y" horiz-adv-x="638" d="M267 0V299L16 667H151L353 352L308 356L500 667H619L360 272L377 334V0H267Z" />
<glyph unicode="Z" horiz-adv-x="619" d="M60 0V87L448 606L473 574H68V667H555V583L180 69L153 93H555V0H60Z" />
<glyph unicode="[" horiz-adv-x="389" d="M103 -116V696H320V600H213V-20H320V-116H103Z" />
<glyph unicode="\" horiz-adv-x="387" d="M331 -98L-37 756H47L414 -98H331Z" />
<glyph unicode="]" horiz-adv-x="391" d="M78 -116V-20H185V600H78V696H295V-116H78Z" />
<glyph unicode="^" horiz-adv-x="569" d="M130 472L244 690H304L419 472H344L275 619L205 472H130Z" />
<glyph unicode="_" horiz-adv-x="546" d="M0 -85V-24H546V-85H0Z" />
<glyph unicode="`" horiz-adv-x="237" d="M134 559L39 677H143L196 559H134Z" />
<glyph unicode="a" horiz-adv-x="561" d="M256 -15Q217 -15 181 -8T116 18T69 67T51 146Q51 202 73 238T136 292T234 310Q272 310 302 304T357 288T399 264L410 195Q388 210 351 220T271 231Q214 231 185 211T155 151Q155 121 172 103T214 76T268 67Q327 67 355
75T383 112V322Q383 375 351 399T260 424Q218 424 173 411T99 373V471Q127 490 180 501T291 513Q319 513 347 508T401 491T445 460T476 412T487 346V106Q487 57 457 31T374 -5T256 -15Z" />
<glyph unicode="b" horiz-adv-x="583" d="M286 -15Q245 -15 207 -10T139 7T92 42T74 99V703H178V432L151 466Q170 481 198 491T256 507T307 513Q421 513 478 446T535 256Q535 174 514 121T457 39T377 -3T286 -15ZM281 76Q340 76 372 100T416 163T428 252Q428 308
413 346T368 404T291 424Q265 424 235 417T178 395V125Q178 105 194 94T233 80T281 76Z" />
<glyph unicode="c" horiz-adv-x="496" d="M295 -10Q249 -10 205 3T126 45T69 124T48 248Q48 324 68 375T123 456T202 500T294 513Q334 513 374 506T448 483V389Q414 404 380 412T309 421Q231 421 192 382T152 256Q152 166 189 125T312 83Q349 83 384 92T449 116V22Q414
6 376 -2T295 -10Z" />
<glyph unicode="d" horiz-adv-x="586" d="M296 -15Q250 -15 206 -4T126 37T69 120T48 257Q48 376 106 445T282 514Q301 514 329 509T386 495T435 470L408 435V712H512V105Q512 74 493 51T441 14T371 -8T296 -15ZM299 76Q344 76 376 87T408 116V395Q382 410 353
417T297 424Q248 424 217 405T170 348T155 255Q155 205 167 165T210 100T299 76Z" />
<glyph unicode="e" horiz-adv-x="553" d="M290 -15Q216 -15 162 15T78 104T48 248Q48 379 109 446T281 514Q362 514 412 478T484 378T506 227H111L108 305H426L401 280Q398 357 369 392T278 428Q238 428 210 412T168 356T153 247Q153 163 192 120T307 76Q341 76
370 82T425 97T468 116V19Q433 4 389 -5T290 -15Z" />
<glyph unicode="f" horiz-adv-x="383" d="M116 0V415H36V502H117V522Q117 575 128 610T159 666T201 697T247 711T292 714Q307 714 322 712T348 707V614Q339 619 330 622T305 626Q290 626 275 624T248 612T229 583T222 531V502H348V415H221V0H116Z" />
<glyph unicode="g" horiz-adv-x="579" d="M273 -15Q200 -14 150 15T74 101T48 237Q48 322 69 376T128 460T213 501T312 513Q366 513 410 499T481 457T508 383V-15Q508 -55 496 -89T456 -151T383 -193T273 -208Q221 -208 180 -200T112 -182V-86Q128 -92 152 -99T205
-111T266 -117Q325 -117 354 -102T394 -64T404 -13V63L432 40Q414 25 388 13T332 -7T273 -15ZM290 70Q319 70 349 77T404 100V363Q404 389 391 401T354 419T305 424Q244 424 212 400T167 333T155 240Q155 164 188 117T290 70Z" />
<glyph unicode="h" horiz-adv-x="591" d="M74 0V714H179V427L148 453Q187 480 234 496T327 513Q386 513 428 493T493 428T517 311V0H412V298Q412 359 383 391T297 423Q267 423 237 414T179 390L178 0H74Z" />
<glyph unicode="i" horiz-adv-x="260" d="M77 0V499H182L183 0H77ZM74 582V677H186V582H74Z" />
<glyph unicode="j" horiz-adv-x="283" d="M9 -193V-103Q45 -103 65 -94T93 -65T101 -16V502H206V-18Q206 -81 183 -119T115 -175T9 -193ZM98 585V680H209V585H98Z" />
<glyph unicode="k" horiz-adv-x="544" d="M156 291L361 502H490L201 227L156 291ZM178 0H74V692H179L178 0ZM225 325L515 0H380L151 255L225 325Z" />
<glyph unicode="l" horiz-adv-x="252" d="M178 0H74V692H178V0Z" />
<glyph unicode="m" horiz-adv-x="897" d="M509 332V0H404V318Q404 337 400 355T383 389T347 414T285 423Q258 423 231 418T179 404V0H74V461Q96 472 123 481T182 498T245 509T307 513Q378 513 422 494T487 434T509 332ZM389 435Q421 461 459 478T539 504T621 513Q692
513 736 494T801 434T823 332V0H718V318Q718 337 714 355T697 389T661 414T599 423Q572 423 545 415T493 390L389 435Z" />
<glyph unicode="n" horiz-adv-x="586" d="M74 461Q96 472 123 481T182 498T245 509T307 513Q378 513 423 494T490 434T512 332V0H407V318Q407 337 403 355T386 389T350 414T288 423Q261 423 233 418T179 404V0H74V461Z" />
<glyph unicode="o" horiz-adv-x="578" d="M289 -15Q167 -15 108 54T48 251Q48 387 109 450T287 514Q370 514 424 484T504 394T530 251Q530 124 468 55T289 -15ZM288 74Q339 74 369 96T412 159T426 251Q426 309 412 348T368 406T288 426Q238 426 208 405T165 345T152
251Q152 168 183 121T288 74Z" />
<glyph unicode="p" horiz-adv-x="582" d="M303 -14Q284 -14 256 -10T200 4T151 30L178 64V-201H74V405Q74 436 93 457T145 490T215 508T292 514Q359 514 414 489T502 405T535 242Q535 164 508 107T429 18T303 -14ZM284 74Q332 74 364 94T412 152T428 244Q428 294
417 335T375 399T289 423Q239 423 209 413T178 382V103Q204 89 231 82T284 74Z" />
<glyph unicode="q" horiz-adv-x="583" d="M309 513Q362 513 407 502T481 463T509 385V-207H405V67L432 33Q412 15 384 5T329 -9T283 -14Q170 -14 109 53T48 240Q48 322 69 375T128 459T211 501T309 513ZM304 422Q244 422 212 399T167 334T155 244Q155 190 172
152T221 94T298 74Q325 74 352 81T405 103V372Q405 390 390 401T351 417T304 422Z" />
<glyph unicode="r" horiz-adv-x="399" d="M74 0V456Q87 464 122 478T205 502T302 513Q327 513 343 509T370 500V416Q347 419 322 420T272 421T223 416T179 410V0H74Z" />
<glyph unicode="s" horiz-adv-x="467" d="M219 -15Q165 -15 128 -4T54 25V124Q80 108 105 96T157 76T219 69Q262 69 286 87T311 132Q311 155 296 168T256 190T206 208Q179 215 152 224T103 250T67 293T53 357Q53 399 70 428T114 476T175 503T241 512Q294 511 327
499T393 470L394 380Q358 399 326 413T252 427Q213 427 187 413T161 370Q161 346 175 332T213 310T264 294Q289 286 316 278T366 253T403 211T418 143Q417 87 389 52T314 1T219 -15Z" />
<glyph unicode="t" horiz-adv-x="384" d="M253 -13Q185 -13 146 23T106 129V415H25V502H106V642H214V502H336V415H214V150Q214 115 226 98T273 80Q290 80 307 84T336 96V3Q318 -5 296 -9T253 -13Z" />
<glyph unicode="u" horiz-adv-x="588" d="M296 -15Q227 -15 178 7T101 75T74 187V502H179V202Q179 138 207 108T296 77Q356 77 384 107T413 202V502H514V187Q514 87 457 36T296 -15Z" />
<glyph unicode="v" horiz-adv-x="589" d="M242 0L31 502H143L315 85L290 82L450 502H559L347 0H242Z" />
<glyph unicode="w" horiz-adv-x="809" d="M198 0L31 502H143L270 73L239 67L361 502H448L569 79H544L671 502H779L611 0H512L393 393L412 384L297 0H198Z" />
<glyph unicode="x" horiz-adv-x="558" d="M296 211L143 0H29L242 282L296 211ZM526 0H398L34 502H161L526 0ZM258 287L413 502H528L309 211L258 287Z" />
<glyph unicode="y" horiz-adv-x="563" d="M152 -194Q133 -194 116 -191T86 -182V-92Q98 -96 110 -99T136 -102Q166 -102 186 -86T220 -40T243 32L245 -20L31 502H150L295 106H280L423 502H532L325 -31Q300 -95 271 -130T212 -180T152 -194Z" />
<glyph unicode="z" horiz-adv-x="471" d="M45 0V88L331 445L345 419H51V502H426V416L149 60L147 88H426V0H45Z" />
<glyph unicode="{" horiz-adv-x="381" d="M313 -110Q251 -110 212 -92T155 -39T136 43V192Q136 215 126 228T101 249T77 259V328Q87 331 101 338T125 358T136 395V544Q136 592 154 626T212 679T313 698H328V602H316Q292 601 277 594T254 570T247 528V394Q247 357
227 333T178 294Q206 280 226 256T247 194V60Q247 33 254 17T276 -6T316 -15H328V-110H313Z" />
<glyph unicode="|" horiz-adv-x="457" d="M185 -99V666H275V-99H185Z" />
<glyph unicode="}" horiz-adv-x="375" d="M63 -110V-15H73Q98 -14 113 -7T135 17T142 60V194Q142 231 163 255T212 294Q184 308 163 332T142 394V528Q142 554 136 570T114 593T73 602H63V698H76Q138 698 177 680T234 627T253 544V395Q253 372 263 359T288 338T312
328V259Q303 257 289 250T264 229T253 192V43Q253 -4 235 -38T177 -91T76 -110H63Z" />
<glyph unicode="~" horiz-adv-x="507" d="M98 229V299Q123 330 149 335T201 332T253 309T305 286T358 281T409 318V249Q384 218 358 213T306 216T254 239T202 262T149 266T98 229Z" />
<glyph unicode="&#xa0;" horiz-adv-x="284" />
<glyph unicode="&#xa1;" horiz-adv-x="383" d="M146 -168L158 324H237L248 -168H146ZM146 405V499H248V405H146Z" />
<glyph unicode="&#xa2;" horiz-adv-x="496" d="M242 539V652H332V539H242ZM242 0V99H332V0H242ZM295 61Q249 61 205 74T126 116T69 196T48 319Q48 395 68 446T123 527T202 571T294 584Q334 584 374 577T448 554V460Q414 475 380 483T309 492Q231 492 192 453T152
327Q152 237 189 196T312 154Q349 154 384 163T449 187V93Q414 77 376 69T295 61Z" />
<glyph unicode="&#xa3;" horiz-adv-x="557" d="M134 488Q134 533 154 576T221 647T346 676Q392 676 432 663T502 633V534Q474 554 440 567T362 581Q314 581 286 567T246 530T234 481V102Q281 92 324 83T412 76T502 98V4Q465 -16 428 -19T352 -17T277 -3T201 11T126
12T50 -15V81Q73 94 93 98T134 104V488ZM50 278V363H416V278H50Z" />
<glyph unicode="&#xa4;" horiz-adv-x="493" d="M248 156Q198 156 156 180T90 247T65 339Q65 390 89 431T156 497T248 522Q299 522 340 498T406 432T431 339Q431 289 407 247T341 181T248 156ZM247 235Q288 235 316 264T344 339Q344 386 316 415T247 444Q206 444
178 415T150 339Q150 293 178 264T247 235ZM118 264L173 210L99 137L46 190L118 264ZM395 539L448 486L375 412L321 466L395 539ZM173 466L118 412L46 486L99 539L173 466ZM448 190L395 137L321 210L375 264L448 190Z" />
<glyph unicode="&#xa5;" horiz-adv-x="640" d="M272 0V128H122V199H272V288H122V359H230L18 667H142L323 390L503 667H628L416 359H524V288H374V199H524V128H374V0H272Z" />
<glyph unicode="&#xa6;" horiz-adv-x="457" d="M275 218V-99H185V218H275ZM185 348V666H275V348H185Z" />
<glyph unicode="&#xa7;" horiz-adv-x="563" d="M244 -8Q188 -8 143 5T64 36V129Q93 107 134 92T234 77Q249 77 269 79T310 87T343 104T356 135Q356 151 345 164T305 190T223 216Q180 228 142 243T82 284T59 352Q59 377 69 395T94 426T128 445T164 457Q153 462
142 473T123 499T115 533Q115 564 128 590T167 635T231 665T320 676Q365 676 404 666T475 640V554Q444 571 409 581T332 591Q311 591 283 587T234 571T213 535Q213 525 220 514T252 490T328 465Q370 454 412 437T482 390T509 310Q509 288 501 272T478 245T447 226T415
214Q432 202 443 179T454 130Q454 65 398 29T244 -8ZM360 263Q382 268 396 278T411 308Q411 322 403 334T370 359T298 382Q277 387 258 392T221 404Q196 401 177 390T157 353Q157 346 162 338T188 320T258 298Q282 291 308 283T360 263Z" />
<glyph unicode="&#xa8;" horiz-adv-x="404" d="M234 562V650H334V562H234ZM70 562V650H171V562H70Z" />
<glyph unicode="&#xa9;" horiz-adv-x="778" d="M390 -8Q320 -8 258 18T149 92T75 201T48 333Q48 404 74 466T148 575T258 648T390 675Q461 675 523 649T632 575T705 466T732 333Q732 263 706 201T632 92T523 19T390 -8ZM397 134Q356 134 323 145T266 181T229 242T216
333Q216 387 229 425T266 487T323 522T397 533Q429 533 459 527T518 510V455Q490 468 462 473T403 479Q361 479 333 465T290 418T276 333Q276 281 290 249T332 202T403 187Q433 187 461 193T518 212V158Q489 146 459 140T397 134ZM390 35Q451 35 505 58T600 123T664
218T688 333Q688 395 665 449T600 544T505 608T390 632Q328 632 274 609T180 544T116 449T92 333Q92 272 115 218T179 123T274 59T390 35Z" />
<glyph unicode="&#xaa;" horiz-adv-x="398" d="M193 386Q175 386 154 389T114 403T84 431T73 477Q73 524 102 545T183 566Q213 566 232 561T254 555Q254 591 237 608T188 625Q160 625 137 619T100 608V657Q118 664 142 669T191 675Q253 675 283 646T314 558V475Q314
447 303 430T275 403T236 390T193 386ZM194 432Q217 432 235 440T254 474V516Q253 516 236 520T200 525Q186 525 170 522T143 508T132 478Q132 461 141 451T165 436T194 432Z" />
<glyph unicode="&#xab;" horiz-adv-x="584" d="M406 64L237 255L406 445H524L345 255L524 64H406ZM201 64L32 255L201 445H318L139 255L318 64H201Z" />
<glyph unicode="&#xac;" horiz-adv-x="626" d="M452 154V249H97V327H529V154H452Z" />
<glyph unicode="&#xad;" horiz-adv-x="600" d="M79 259V343H384V259H79Z" />
<glyph unicode="&#xae;" horiz-adv-x="778" d="M390 -8Q320 -8 258 18T149 92T75 201T48 333Q48 404 74 466T148 575T258 648T390 675Q461 675 523 649T632 575T705 466T732 333Q732 263 706 201T632 92T523 19T390 -8ZM390 35Q452 35 506 58T600 123T664 218T688
333Q688 395 665 449T601 544T506 608T390 632Q329 632 275 609T180 544T116 449T92 333Q92 272 115 218T180 123T275 59T390 35ZM259 138V528H405Q470 528 508 499T546 411Q546 380 537 359T513 326T484 307T459 297L562 138H493L401 288H319V138H259ZM319 339H406Q438
339 455 348T479 374T485 407Q485 424 479 440T456 466T406 476H319V339Z" />
<glyph unicode="&#xaf;" horiz-adv-x="400" d="M75 566V636H327V566H75Z" />
<glyph unicode="&#xb0;" horiz-adv-x="387" d="M191 447Q138 447 110 475T82 558Q82 612 110 640T191 669Q244 669 272 641T300 558Q300 504 272 476T191 447ZM191 490Q225 490 240 506T256 558Q256 594 241 610T191 626Q156 626 141 610T125 558Q125 522 140
506T191 490Z" />
<glyph unicode="&#xb1;" horiz-adv-x="585" d="M255 152V293H114V369H255V510H331V369H471V293H331V152H255ZM114 25V98H471V25H114Z" />
<glyph unicode="&#xb2;" horiz-adv-x="331" d="M50 463V508Q72 524 97 546T146 594T183 647T198 703Q198 726 181 740T138 755Q112 755 91 745T53 723V796Q72 808 98 817T155 826Q203 826 231 811T272 771T284 722Q284 684 263 647T209 577T141 521L131 538H288V463H50Z" />
<glyph unicode="&#xb3;" horiz-adv-x="327" d="M149 458Q120 458 95 465T49 483V553Q69 542 90 534T138 525Q164 525 183 537T203 576Q203 599 184 611T137 623H98V682H138Q156 682 170 692T185 725Q185 740 170 749T132 758Q110 758 91 753T58 739V805Q76 814
97 820T144 826Q184 826 212 813T255 779T271 729Q271 705 261 689T238 666T222 657Q234 651 250 641T277 613T288 564Q288 541 279 522T251 488T207 466T149 458Z" />
<glyph unicode="&#xb4;" horiz-adv-x="247" d="M61 559L113 677H218L123 559H61Z" />
<glyph unicode="&#xb5;" horiz-adv-x="620" d="M99 -210V499H201V176Q201 156 208 134T241 97T319 82Q351 82 378 86T426 97V499H528V45Q521 41 502 33T453 15T386 -1T307 -8Q277 -8 254 -1T218 14T201 22V-210H99Z" />
<glyph unicode="&#xb6;" horiz-adv-x="470" d="M316 0V234H281Q163 234 101 289T38 451Q38 555 100 611T281 667H402V0H316Z" />
<glyph unicode="&#xb7;" horiz-adv-x="326" d="M113 224V321H211V224H113Z" />
<glyph unicode="&#xb8;" horiz-adv-x="263" d="M52 -126L137 -5H211L153 -126H52Z" />
<glyph unicode="&#xb9;" horiz-adv-x="239" d="M89 463V766L103 729L42 692V778L111 822H173V463H89Z" />
<glyph unicode="&#xba;" horiz-adv-x="419" d="M207 389Q174 389 144 401T94 445T75 532Q75 588 94 619T143 663T207 676Q241 676 270 664T319 620T338 532Q338 477 319 446T271 402T207 389ZM207 436Q246 436 263 459T281 532Q281 583 264 606T207 629Q168 629
150 606T132 532Q132 482 150 459T207 436Z" />
<glyph unicode="&#xbb;" horiz-adv-x="588" d="M268 64L447 255L268 445H385L554 255L385 64H268ZM63 64L241 255L63 445H179L349 255L179 64H63Z" />
<glyph unicode="&#xbc;" horiz-adv-x="737" d="M89 314V617L103 580L42 543V629L111 673H173V314H89ZM67 -22L474 685H559L152 -22H67ZM557 1V87H410V154L576 360H638V152H687V87H638V1H557ZM483 152H557V284L597 293L483 152Z" />
<glyph unicode="&#xbd;" horiz-adv-x="707" d="M89 314V617L103 580L42 543V629L111 673H173V314H89ZM62 -22L469 685H554L147 -22H62ZM419 1V46Q441 62 466 84T515 132T552 185T567 241Q567 264 550 278T507 293Q481 293 460 283T422 261V334Q441 346 467 355T524
364Q572 364 600 349T641 309T653 260Q653 222 632 185T578 115T510 59L500 76H657V1H419Z" />
<glyph unicode="&#xbe;" horiz-adv-x="765" d="M149 314Q120 314 95 321T49 339V409Q69 398 90 390T138 381Q164 381 183 393T203 432Q203 455 184 467T137 479H98V538H138Q156 538 170 548T185 581Q185 596 170 605T132 614Q110 614 91 609T58 595V661Q76 670
97 676T144 682Q184 682 212 669T255 635T271 585Q271 561 261 545T238 522T222 513Q234 507 250 497T277 469T288 420Q288 397 279 378T251 344T207 322T149 314ZM133 -22L540 685H625L218 -22H133ZM585 1V87H438V154L604 360H666V152H715V87H666V1H585ZM511 152H585V284L625
293L511 152Z" />
<glyph unicode="&#xbf;" horiz-adv-x="496" d="M275 -176Q241 -176 206 -167T141 -136T93 -78T74 12Q74 56 89 83T126 130T171 169T209 217T224 290V325H315V286Q315 231 300 196T263 138T219 98T181 61T166 12Q166 -22 180 -44T222 -77T286 -88Q330 -88 367 -73T425
-42V-135Q419 -139 399 -149T347 -167T275 -176ZM218 405V499H321V405H218Z" />
<glyph unicode="&#xc0;" horiz-adv-x="664" d="M17 0L277 667H394L647 0H531L308 613L350 617L127 0H17ZM145 181L177 271H494L503 181H145ZM307 719L218 833H317L369 719H307Z" />
<glyph unicode="&#xc1;" horiz-adv-x="664" d="M17 0L277 667H394L647 0H531L308 613L350 617L127 0H17ZM145 181L177 271H494L503 181H145ZM306 727L354 841H463L365 727H306Z" />
<glyph unicode="&#xc2;" horiz-adv-x="664" d="M17 0L277 667H394L647 0H531L308 613L350 617L127 0H17ZM145 181L177 271H494L503 181H145ZM206 715L290 836H377L460 715H391L333 780L275 715H206Z" />
<glyph unicode="&#xc3;" horiz-adv-x="664" d="M17 0L277 667H394L647 0H531L308 613L350 617L127 0H17ZM145 181L177 271H494L503 181H145ZM236 723H180Q173 761 185 788T220 832T270 848Q294 848 314 838T350 816T381 794T412 784Q428 784 436 797T441 836H501Q505
801 494 775T459 733T405 718Q379 718 359 727T324 749T294 771T267 781Q250 781 241 766T236 723Z" />
<glyph unicode="&#xc4;" horiz-adv-x="664" d="M17 0L277 667H394L647 0H531L308 613L350 617L127 0H17ZM145 181L177 271H494L503 181H145ZM363 717V805H463V717H363ZM199 717V805H300V717H199Z" />
<glyph unicode="&#xc5;" horiz-adv-x="664" d="M17 0L277 667H394L647 0H531L308 613L350 617L127 0H17ZM145 181L177 271H494L503 181H145ZM332 651Q276 651 250 674T223 744Q223 791 249 814T332 837Q388 837 414 814T441 744Q441 697 415 674T332 651ZM332
701Q361 701 372 711T383 744Q383 768 372 777T332 787Q302 787 291 778T280 744Q280 721 291 711T332 701Z" />
<glyph unicode="&#xc6;" horiz-adv-x="988" d="M491 638L563 633L142 0H17L477 667H917V574H602V382H877V288H602V94H917V0H491V638ZM530 182H181L236 274H537L530 182Z" />
<glyph unicode="&#xc7;" horiz-adv-x="625" d="M365 -10Q208 -10 128 75T48 334Q48 505 127 591T365 678Q418 678 470 665T572 629V530Q523 559 475 572T379 586Q306 586 258 560T186 479T162 333Q162 244 186 189T258 108T382 82Q427 82 475 95T572 137V38Q542
23 507 12T436 -4T365 -10ZM236 -115L321 6H395L337 -115H236Z" />
<glyph unicode="&#xc8;" horiz-adv-x="586" d="M79 0V667H516V574H190V381H474V287H189V93H516V0H79ZM279 719L190 833H289L341 719H279Z" />
<glyph unicode="&#xc9;" horiz-adv-x="586" d="M79 0V667H516V574H190V381H474V287H189V93H516V0H79ZM279 727L327 841H436L338 727H279Z" />
<glyph unicode="&#xca;" horiz-adv-x="586" d="M79 0V667H516V574H190V381H474V287H189V93H516V0H79ZM179 715L263 836H350L433 715H364L306 780L248 715H179Z" />
<glyph unicode="&#xcb;" horiz-adv-x="586" d="M79 0V667H516V574H190V381H474V287H189V93H516V0H79ZM336 717V805H436V717H336ZM172 717V805H273V717H172Z" />
<glyph unicode="&#xcc;" horiz-adv-x="269" d="M79 0V667H190V0H79ZM110 719L21 833H120L172 719H110Z" />
<glyph unicode="&#xcd;" horiz-adv-x="269" d="M79 0V667H190V0H79ZM110 727L158 841H267L169 727H110Z" />
<glyph unicode="&#xce;" horiz-adv-x="269" d="M79 0V667H190V0H79ZM10 715L94 836H181L264 715H195L137 780L79 715H10Z" />
<glyph unicode="&#xcf;" horiz-adv-x="269" d="M79 0V667H190V0H79ZM167 717V805H267V717H167ZM3 717V805H104V717H3Z" />
<glyph unicode="&#xd0;" horiz-adv-x="686" d="M79 0V667H313Q475 667 554 583T633 334Q633 169 554 85T313 0H79ZM189 93H302Q414 93 467 150T520 334Q520 459 467 517T302 575H189V93ZM263 299V369H530V299H263Z" />
<glyph unicode="&#xd1;" horiz-adv-x="723" d="M79 0V667H185L570 134L539 74V667H644V0H545L149 544L184 593V0H79ZM265 723H209Q202 761 214 788T249 832T299 848Q323 848 343 838T379 816T410 794T441 784Q457 784 465 797T470 836H530Q534 801 523 775T488
733T434 718Q408 718 388 727T353 749T323 771T296 781Q279 781 270 766T265 723Z" />
<glyph unicode="&#xd2;" horiz-adv-x="726" d="M363 -11Q264 -11 195 27T89 141T53 333Q53 504 132 591T363 678Q463 678 532 640T637 526T674 333Q674 163 595 76T363 -11ZM363 84Q430 84 473 109T538 190T560 334Q560 422 539 476T474 556T363 582Q297 582 253
556T188 476T166 333Q166 245 187 190T253 110T363 84ZM342 728L253 842H352L404 728H342Z" />
<glyph unicode="&#xd3;" horiz-adv-x="726" d="M363 -11Q264 -11 195 27T89 141T53 333Q53 504 132 591T363 678Q463 678 532 640T637 526T674 333Q674 163 595 76T363 -11ZM363 84Q430 84 473 109T538 190T560 334Q560 422 539 476T474 556T363 582Q297 582 253
556T188 476T166 333Q166 245 187 190T253 110T363 84ZM342 736L390 850H499L401 736H342Z" />
<glyph unicode="&#xd4;" horiz-adv-x="726" d="M363 -11Q264 -11 195 27T89 141T53 333Q53 504 132 591T363 678Q463 678 532 640T637 526T674 333Q674 163 595 76T363 -11ZM363 84Q430 84 473 109T538 190T560 334Q560 422 539 476T474 556T363 582Q297 582 253
556T188 476T166 333Q166 245 187 190T253 110T363 84ZM242 724L326 845H413L496 724H427L369 789L311 724H242Z" />
<glyph unicode="&#xd5;" horiz-adv-x="726" d="M363 -11Q264 -11 195 27T89 141T53 333Q53 504 132 591T363 678Q463 678 532 640T637 526T674 333Q674 163 595 76T363 -11ZM363 84Q430 84 473 109T538 190T560 334Q560 422 539 476T474 556T363 582Q297 582 253
556T188 476T166 333Q166 245 187 190T253 110T363 84ZM271 732H215Q208 770 220 797T255 841T305 857Q329 857 349 847T385 825T416 803T447 793Q463 793 471 806T476 845H536Q540 810 529 784T494 742T440 727Q414 727 394 736T359 758T329 780T302 790Q285 790
276 775T271 732Z" />
<glyph unicode="&#xd6;" horiz-adv-x="726" d="M363 -11Q264 -11 195 27T89 141T53 333Q53 504 132 591T363 678Q463 678 532 640T637 526T674 333Q674 163 595 76T363 -11ZM363 84Q430 84 473 109T538 190T560 334Q560 422 539 476T474 556T363 582Q297 582 253
556T188 476T166 333Q166 245 187 190T253 110T363 84ZM399 726V814H499V726H399ZM235 726V814H336V726H235Z" />
<glyph unicode="&#xd7;" horiz-adv-x="497" d="M76 77L211 256L76 435H154L250 308L347 435H424L290 256L424 77H347L250 204L154 77H76Z" />
<glyph unicode="&#xd8;" horiz-adv-x="726" d="M43 0L615 667H698L126 0H43ZM363 -11Q264 -11 195 27T89 141T53 333Q53 504 132 591T363 678Q463 678 532 640T637 526T674 333Q674 163 595 76T363 -11ZM363 84Q430 84 473 109T538 190T560 334Q560 422 539 476T474
556T363 582Q297 582 253 556T188 476T166 333Q166 245 187 190T253 110T363 84Z" />
<glyph unicode="&#xd9;" horiz-adv-x="706" d="M359 -14Q223 -14 151 55T79 262V667H192V263Q192 169 233 124T356 78Q436 78 478 123T521 263V667H627V262Q627 171 595 109T502 17T359 -14ZM327 722L238 836H337L389 722H327Z" />
<glyph unicode="&#xda;" horiz-adv-x="706" d="M359 -14Q223 -14 151 55T79 262V667H192V263Q192 169 233 124T356 78Q436 78 478 123T521 263V667H627V262Q627 171 595 109T502 17T359 -14ZM327 730L375 844H484L386 730H327Z" />
<glyph unicode="&#xdb;" horiz-adv-x="706" d="M359 -14Q223 -14 151 55T79 262V667H192V263Q192 169 233 124T356 78Q436 78 478 123T521 263V667H627V262Q627 171 595 109T502 17T359 -14ZM226 718L310 839H397L480 718H411L353 783L295 718H226Z" />
<glyph unicode="&#xdc;" horiz-adv-x="706" d="M359 -14Q223 -14 151 55T79 262V667H192V263Q192 169 233 124T356 78Q436 78 478 123T521 263V667H627V262Q627 171 595 109T502 17T359 -14ZM383 720V808H483V720H383ZM219 720V808H320V720H219Z" />
<glyph unicode="&#xdd;" horiz-adv-x="638" d="M267 0V299L16 667H151L353 352L308 356L500 667H619L360 272L377 334V0H267ZM307 727L355 841H464L366 727H307Z" />
<glyph unicode="&#xde;" horiz-adv-x="595" d="M86 0V667H188V567H305Q419 567 480 511T542 352Q542 248 481 193T305 137H188V0H86ZM188 228H293Q341 228 370 238T414 267T435 308T441 352Q441 373 436 395T415 435T370 465T293 476H188V228Z" />
<glyph unicode="&#xdf;" horiz-adv-x="606" d="M74 0V429Q74 500 97 558T170 651T297 685Q365 685 417 666T498 611T528 526Q528 493 518 468T493 425T459 394T424 376Q452 368 483 344T537 280T559 179Q559 127 537 84T470 13T357 -14Q335 -14 311 -11T259 0V93Q284
82 307 77T349 72Q398 72 425 100T452 184Q452 228 430 257T375 300T307 316V403Q365 403 392 431T420 505Q420 537 404 556T362 586T302 596Q239 596 209 553T179 434V0H74Z" />
<glyph unicode="&#xe0;" horiz-adv-x="561" d="M256 -15Q217 -15 181 -8T116 18T69 67T51 146Q51 202 73 238T136 292T234 310Q272 310 302 304T357 288T399 264L410 195Q388 210 351 220T271 231Q214 231 185 211T155 151Q155 121 172 103T214 76T268 67Q327
67 355 75T383 112V322Q383 375 351 399T260 424Q218 424 173 411T99 373V471Q127 490 180 501T291 513Q319 513 347 508T401 491T445 460T476 412T487 346V106Q487 57 457 31T374 -5T256 -15ZM259 568L164 686H268L321 568H259Z" />
<glyph unicode="&#xe1;" horiz-adv-x="561" d="M256 -15Q217 -15 181 -8T116 18T69 67T51 146Q51 202 73 238T136 292T234 310Q272 310 302 304T357 288T399 264L410 195Q388 210 351 220T271 231Q214 231 185 211T155 151Q155 121 172 103T214 76T268 67Q327
67 355 75T383 112V322Q383 375 351 399T260 424Q218 424 173 411T99 373V471Q127 490 180 501T291 513Q319 513 347 508T401 491T445 460T476 412T487 346V106Q487 57 457 31T374 -5T256 -15ZM253 568L305 686H410L315 568H253Z" />
<glyph unicode="&#xe2;" horiz-adv-x="561" d="M256 -15Q217 -15 181 -8T116 18T69 67T51 146Q51 202 73 238T136 292T234 310Q272 310 302 304T357 288T399 264L410 195Q388 210 351 220T271 231Q214 231 185 211T155 151Q155 121 172 103T214 76T268 67Q327
67 355 75T383 112V322Q383 375 351 399T260 424Q218 424 173 411T99 373V471Q127 490 180 501T291 513Q319 513 347 508T401 491T445 460T476 412T487 346V106Q487 57 457 31T374 -5T256 -15ZM164 570L248 691H335L418 570H349L291 635L233 570H164Z" />
<glyph unicode="&#xe3;" horiz-adv-x="561" d="M256 -15Q217 -15 181 -8T116 18T69 67T51 146Q51 202 73 238T136 292T234 310Q272 310 302 304T357 288T399 264L410 195Q388 210 351 220T271 231Q214 231 185 211T155 151Q155 121 172 103T214 76T268 67Q327
67 355 75T383 112V322Q383 375 351 399T260 424Q218 424 173 411T99 373V471Q127 490 180 501T291 513Q319 513 347 508T401 491T445 460T476 412T487 346V106Q487 57 457 31T374 -5T256 -15ZM187 553H131Q124 591 136 618T171 662T221 678Q245 678 265 668T301
646T332 624T363 614Q379 614 387 627T392 666H452Q456 631 445 605T410 563T356 548Q330 548 310 557T275 579T245 601T218 611Q201 611 192 596T187 553Z" />
<glyph unicode="&#xe4;" horiz-adv-x="561" d="M256 -15Q217 -15 181 -8T116 18T69 67T51 146Q51 202 73 238T136 292T234 310Q272 310 302 304T357 288T399 264L410 195Q388 210 351 220T271 231Q214 231 185 211T155 151Q155 121 172 103T214 76T268 67Q327
67 355 75T383 112V322Q383 375 351 399T260 424Q218 424 173 411T99 373V471Q127 490 180 501T291 513Q319 513 347 508T401 491T445 460T476 412T487 346V106Q487 57 457 31T374 -5T256 -15ZM323 571V659H423V571H323ZM159 571V659H260V571H159Z" />
<glyph unicode="&#xe5;" horiz-adv-x="561" d="M256 -15Q217 -15 181 -8T116 18T69 67T51 146Q51 202 73 238T136 292T234 310Q272 310 302 304T357 288T399 264L410 195Q388 210 351 220T271 231Q214 231 185 211T155 151Q155 121 172 103T214 76T268 67Q327
67 355 75T383 112V322Q383 375 351 399T260 424Q218 424 173 411T99 373V471Q127 490 180 501T291 513Q319 513 347 508T401 491T445 460T476 412T487 346V106Q487 57 457 31T374 -5T256 -15ZM288 544Q232 544 206 567T179 637Q179 684 205 707T288 730Q344 730
370 707T397 637Q397 590 371 567T288 544ZM288 594Q317 594 328 604T339 637Q339 661 328 670T288 680Q258 680 247 671T236 637Q236 614 247 604T288 594Z" />
<glyph unicode="&#xe6;" horiz-adv-x="889" d="M455 55Q423 30 375 6T259 -18Q199 -18 152 -2T78 49T51 143Q51 201 76 238T147 292T252 310Q281 310 308 305T358 290T399 268L410 195Q388 210 351 220T271 231Q211 231 183 209T155 145Q155 117 171 99T214 73T270
64Q298 64 325 69T377 86T416 114L455 55ZM383 225V321Q383 374 351 398T260 423Q218 423 173 410T99 373V471Q127 490 180 501T291 513Q319 513 347 508T401 491T445 460T476 412T487 346V228Q487 151 526 112T642 73Q691 73 733 86T803 116V19Q767 1 723 -8T624
-18Q551 -18 497 10T413 93T383 225ZM383 248Q383 378 444 445T616 513Q698 513 747 477T819 377T841 227H447L443 305H761L736 280Q734 356 705 391T613 427Q573 427 545 411T502 355T487 247L383 248Z" />
<glyph unicode="&#xe7;" horiz-adv-x="496" d="M295 -10Q249 -10 205 3T126 45T69 124T48 248Q48 324 68 375T123 456T202 500T294 513Q334 513 374 506T448 483V389Q414 404 380 412T309 421Q231 421 192 382T152 256Q152 166 189 125T312 83Q349 83 384 92T449
116V22Q414 6 376 -2T295 -10ZM171 -126L256 -5H330L272 -126H171Z" />
<glyph unicode="&#xe8;" horiz-adv-x="553" d="M290 -15Q216 -15 162 15T78 104T48 248Q48 379 109 446T281 514Q362 514 412 478T484 378T506 227H111L108 305H426L401 280Q398 357 369 392T278 428Q238 428 210 412T168 356T153 247Q153 163 192 120T307 76Q341
76 370 82T425 97T468 116V19Q433 4 389 -5T290 -15ZM256 565L161 683H265L318 565H256Z" />
<glyph unicode="&#xe9;" horiz-adv-x="553" d="M290 -15Q216 -15 162 15T78 104T48 248Q48 379 109 446T281 514Q362 514 412 478T484 378T506 227H111L108 305H426L401 280Q398 357 369 392T278 428Q238 428 210 412T168 356T153 247Q153 163 192 120T307 76Q341
76 370 82T425 97T468 116V19Q433 4 389 -5T290 -15ZM251 565L303 683H408L313 565H251Z" />
<glyph unicode="&#xea;" horiz-adv-x="553" d="M290 -15Q216 -15 162 15T78 104T48 248Q48 379 109 446T281 514Q362 514 412 478T484 378T506 227H111L108 305H426L401 280Q398 357 369 392T278 428Q238 428 210 412T168 356T153 247Q153 163 192 120T307 76Q341
76 370 82T425 97T468 116V19Q433 4 389 -5T290 -15ZM162 567L246 688H333L416 567H347L289 632L231 567H162Z" />
<glyph unicode="&#xeb;" horiz-adv-x="553" d="M290 -15Q216 -15 162 15T78 104T48 248Q48 379 109 446T281 514Q362 514 412 478T484 378T506 227H111L108 305H426L401 280Q398 357 369 392T278 428Q238 428 210 412T168 356T153 247Q153 163 192 120T307 76Q341
76 370 82T425 97T468 116V19Q433 4 389 -5T290 -15ZM320 568V656H420V568H320ZM156 568V656H257V568H156Z" />
<glyph unicode="&#xec;" horiz-adv-x="297" d="M98 0V499H200V0H98ZM119 564L33 679H120L178 564H119Z" />
<glyph unicode="&#xed;" horiz-adv-x="297" d="M98 0V499H200V0H98ZM120 562L177 677H264L178 562H120Z" />
<glyph unicode="&#xee;" horiz-adv-x="297" d="M98 0V499H200V0H98ZM34 562L127 682H170L263 562H193L149 624L104 562H34Z" />
<glyph unicode="&#xef;" horiz-adv-x="297" d="M98 0V499H200V0H98ZM26 562V650H117V562H26ZM180 562V650H272V562H180Z" />
<glyph unicode="&#xf0;" horiz-adv-x="574" d="M289 -18Q167 -18 108 50T48 249Q48 380 105 446T266 513Q320 513 355 493T416 439L427 367Q405 397 369 415T288 433Q238 433 208 410T165 345T152 249Q152 164 183 118T288 71Q328 71 357 89T404 154T422 289Q422
361 400 420T342 528T262 616T172 688V692H314Q345 667 381 628T450 536T502 421T523 282Q523 139 465 61T289 -18ZM182 547L168 615L471 666L485 600L182 547Z" />
<glyph unicode="&#xf1;" horiz-adv-x="586" d="M74 461Q96 472 123 481T182 498T245 509T307 513Q378 513 423 494T490 434T512 332V0H407V318Q407 337 403 355T386 389T350 414T288 423Q261 423 233 418T179 404V0H74V461ZM193 550H137Q130 588 142 615T177 659T227
675Q251 675 271 665T307 643T338 621T369 611Q385 611 393 624T398 663H458Q462 628 451 602T416 560T362 545Q336 545 316 554T281 576T251 598T224 608Q207 608 198 593T193 550Z" />
<glyph unicode="&#xf2;" horiz-adv-x="578" d="M289 -15Q167 -15 108 54T48 251Q48 387 109 450T287 514Q370 514 424 484T504 394T530 251Q530 124 468 55T289 -15ZM288 74Q339 74 369 96T412 159T426 251Q426 309 412 348T368 406T288 426Q238 426 208 405T165
345T152 251Q152 168 183 121T288 74ZM262 568L167 686H271L324 568H262Z" />
<glyph unicode="&#xf3;" horiz-adv-x="578" d="M289 -15Q167 -15 108 54T48 251Q48 387 109 450T287 514Q370 514 424 484T504 394T530 251Q530 124 468 55T289 -15ZM288 74Q339 74 369 96T412 159T426 251Q426 309 412 348T368 406T288 426Q238 426 208 405T165
345T152 251Q152 168 183 121T288 74ZM256 568L308 686H413L318 568H256Z" />
<glyph unicode="&#xf4;" horiz-adv-x="578" d="M289 -15Q167 -15 108 54T48 251Q48 387 109 450T287 514Q370 514 424 484T504 394T530 251Q530 124 468 55T289 -15ZM288 74Q339 74 369 96T412 159T426 251Q426 309 412 348T368 406T288 426Q238 426 208 405T165
345T152 251Q152 168 183 121T288 74ZM167 570L251 691H338L421 570H352L294 635L236 570H167Z" />
<glyph unicode="&#xf5;" horiz-adv-x="578" d="M289 -15Q167 -15 108 54T48 251Q48 387 109 450T287 514Q370 514 424 484T504 394T530 251Q530 124 468 55T289 -15ZM288 74Q339 74 369 96T412 159T426 251Q426 309 412 348T368 406T288 426Q238 426 208 405T165
345T152 251Q152 168 183 121T288 74ZM190 553H134Q127 591 139 618T174 662T224 678Q248 678 268 668T304 646T335 624T366 614Q382 614 390 627T395 666H455Q459 631 448 605T413 563T359 548Q333 548 313 557T278 579T248 601T221 611Q204 611 195 596T190 553Z"
/>
<glyph unicode="&#xf6;" horiz-adv-x="578" d="M289 -15Q167 -15 108 54T48 251Q48 387 109 450T287 514Q370 514 424 484T504 394T530 251Q530 124 468 55T289 -15ZM288 74Q339 74 369 96T412 159T426 251Q426 309 412 348T368 406T288 426Q238 426 208 405T165
345T152 251Q152 168 183 121T288 74ZM326 571V659H426V571H326ZM162 571V659H263V571H162Z" />
<glyph unicode="&#xf7;" horiz-adv-x="628" d="M105 220V296H524V220H105ZM268 59V150H361V59H268ZM268 366V457H361V366H268Z" />
<glyph unicode="&#xf8;" horiz-adv-x="586" d="M132 0H29L452 499H555L132 0ZM289 -15Q167 -15 108 54T48 251Q48 387 109 450T287 514Q370 514 424 484T504 394T530 251Q530 124 468 55T289 -15ZM288 74Q339 74 369 96T412 159T426 251Q426 309 412 348T368 406T288
426Q238 426 208 405T165 345T152 251Q152 168 183 121T288 74Z" />
<glyph unicode="&#xf9;" horiz-adv-x="588" d="M296 -15Q227 -15 178 7T101 75T74 187V502H179V202Q179 138 207 108T296 77Q356 77 384 107T413 202V502H514V187Q514 87 457 36T296 -15ZM268 565L173 683H277L330 565H268Z" />
<glyph unicode="&#xfa;" horiz-adv-x="588" d="M296 -15Q227 -15 178 7T101 75T74 187V502H179V202Q179 138 207 108T296 77Q356 77 384 107T413 202V502H514V187Q514 87 457 36T296 -15ZM262 565L314 683H419L324 565H262Z" />
<glyph unicode="&#xfb;" horiz-adv-x="588" d="M296 -15Q227 -15 178 7T101 75T74 187V502H179V202Q179 138 207 108T296 77Q356 77 384 107T413 202V502H514V187Q514 87 457 36T296 -15ZM173 567L257 688H344L427 567H358L300 632L242 567H173Z" />
<glyph unicode="&#xfc;" horiz-adv-x="588" d="M296 -15Q227 -15 178 7T101 75T74 187V502H179V202Q179 138 207 108T296 77Q356 77 384 107T413 202V502H514V187Q514 87 457 36T296 -15ZM332 568V656H432V568H332ZM168 568V656H269V568H168Z" />
<glyph unicode="&#xfd;" horiz-adv-x="563" d="M152 -194Q133 -194 116 -191T86 -182V-92Q98 -96 110 -99T136 -102Q166 -102 186 -86T220 -40T243 32L245 -20L31 502H150L295 106H280L423 502H532L325 -31Q300 -95 271 -130T212 -180T152 -194ZM250 559L302 677H407L312
559H250Z" />
<glyph unicode="&#xfe;" horiz-adv-x="580" d="M178 -193H74V692H178V-193ZM178 100Q204 86 231 79T285 71Q332 71 362 90T409 147T425 238Q425 288 414 328T374 392T290 416Q250 416 217 407T178 380L81 427Q87 451 109 466T163 490T229 503T293 507Q358 507
412 482T500 398T533 236Q533 160 506 103T427 15T301 -17Q282 -17 255 -13T200 1T151 27L178 100Z" />
<glyph unicode="&#xff;" horiz-adv-x="563" d="M152 -194Q133 -194 116 -191T86 -182V-92Q98 -96 110 -99T136 -102Q166 -102 186 -86T220 -40T243 32L245 -20L31 502H150L295 106H280L423 502H532L325 -31Q300 -95 271 -130T212 -180T152 -194ZM320 562V650H420V562H320ZM156
562V650H257V562H156Z" />
<glyph unicode="&#x2013;" horiz-adv-x="560" d="M69 250V329H489V250H69Z" />
<glyph unicode="&#x2014;" horiz-adv-x="891" d="M79 250V331H812V250H79Z" />
<glyph unicode="&#x2018;" horiz-adv-x="269" d="M135 480L47 676H146L220 480H135Z" />
<glyph unicode="&#x2019;" horiz-adv-x="269" d="M47 480L121 676H220L132 480H47Z" />
<glyph unicode="&#x201a;" horiz-adv-x="312" d="M72 -112L146 84H244L157 -112H72Z" />
<glyph unicode="&#x201c;" horiz-adv-x="417" d="M282 480L195 676H294L368 480H282ZM135 480L47 676H146L220 480H135Z" />
<glyph unicode="&#x201d;" horiz-adv-x="415" d="M195 480L269 676H368L280 480H195ZM47 480L121 676H220L133 480H47Z" />
<glyph unicode="&#x201e;" horiz-adv-x="460" d="M219 -112L293 84H392L305 -112H219ZM72 -112L146 84H244L157 -112H72Z" />
<glyph unicode="&#x2022;" horiz-adv-x="449" d="M224 196Q187 196 156 214T107 263T88 331Q88 369 106 399T156 448T224 466Q261 466 291 448T340 400T358 331Q358 294 340 263T292 214T224 196Z" />
<glyph unicode="&#x2039;" horiz-adv-x="363" d="M200 64L31 255L200 445H317L138 255L317 64H200Z" />
<glyph unicode="&#x203a;" horiz-adv-x="389" d="M59 64L237 255L59 445H175L345 255L175 64H59Z" />
</font>
</defs>
</svg>
