<?xml version="1.0" standalone="no"?>
<!DOCTYPE svg PUBLIC "-//W3C//DTD SVG 1.1//EN" "http://www.w3.org/Graphics/SVG/1.1/DTD/svg11.dtd">
<svg xmlns="http://www.w3.org/2000/svg">
<defs >
<font id="Monda" horiz-adv-x="1195" ><font-face
    font-family="Monda"
    units-per-em="2048"
    panose-1="0 0 0 0 0 0 0 0 0 0"
    ascent="2461"
    descent="-875"
    alphabetic="0" />
<glyph unicode=" " glyph-name="space" horiz-adv-x="512" />
<glyph unicode="!" glyph-name="exclam" horiz-adv-x="768" d="M353 371Q338 519 326 673T305 972T291 1239T286 1446H488Q488 1362 482 1240T466 974T441 675T409 371H353ZM265 0V236H499V0H265Z" />
<glyph unicode="&quot;" glyph-name="quotedbl" horiz-adv-x="890" d="M553 930L509 1506H714L665 930H553ZM220 930L176 1506H381L332 930H220Z" />
<glyph unicode="#" glyph-name="numbersign" horiz-adv-x="1284" d="M180 0L267 475H86V594H289L346 910H110V1029H368L444 1446H614L540 1029H841L917 1446H1087L1013 1029H1198V910H992L936 594H1174V475H915L831 0H653L740 475H442L358 0H180ZM463 594H762L819
910H519L463 594Z" />
<glyph unicode="$" glyph-name="dollar" horiz-adv-x="1304" d="M628 -219V-21Q487 -14 367 20T144 113L215 267Q288 224 398 188T628 142V678L453 736Q303 786 237 863T171 1089Q171 1223 230 1305T393 1425T628 1468V1665H723V1467Q878 1462 978 1434T1141 1367L1092
1210Q1031 1243 941 1272T723 1306V837L879 784Q1027 734 1095 652T1164 406Q1164 212 1061 99T723 -21V-219H628ZM515 907L628 869V1305Q501 1299 434 1254T366 1088Q366 1022 394 981T515 907ZM802 620L723 646V141Q877 148 927 218T978 437Q978 498 945 540T802
620Z" />
<glyph unicode="%" glyph-name="percent" horiz-adv-x="1872" d="M462 678Q347 678 282 725T191 858T164 1057V1110Q164 1285 226 1383T462 1481Q635 1481 699 1384T764 1111V1057Q764 943 737 858T643 725T462 678ZM580 0L1123 1446H1272L734 0H580ZM462 794Q531
794 564 826T608 914T619 1040V1133Q619 1202 610 1254T568 1336T462 1365Q391 1365 358 1336T316 1255T307 1135V1040Q307 970 317 914T360 826T462 794ZM1406 -19Q1291 -19 1226 28T1135 160T1108 360V413Q1108 588 1170 686T1406 784Q1579 784 1643 687T1708
414V360Q1708 246 1681 161T1587 28T1406 -19ZM1406 97Q1475 97 1508 129T1552 217T1563 343V436Q1563 505 1554 557T1512 638T1406 668Q1335 668 1302 639T1260 558T1251 438V343Q1251 273 1261 217T1304 129T1406 97Z" />
<glyph unicode="&amp;" glyph-name="ampersand" horiz-adv-x="1500" d="M176 439Q176 590 235 681T439 816Q360 889 312 958T264 1142Q264 1233 300 1310T429 1435T689 1483Q833 1483 929 1463T1075 1383T1124 1205V1104H958V1164Q958 1268 902 1299T704 1331Q599
1331 545 1304T473 1231T454 1126Q454 1068 480 1022T577 907L1100 410Q1101 421 1101 432T1101 455V778H1276V500Q1276 435 1273 375T1257 261L1432 94L1328 -19L1186 114Q1130 50 1020 13T720 -24Q554 -24 448 14T282 117T200 265T176 439ZM1063 230L538 723Q463
702 430 660T387 562T378 445Q378 291 453 209T720 126Q860 126 942 143T1063 230Z" />
<glyph unicode="&apos;" glyph-name="quotesingle" horiz-adv-x="557" d="M176 1506H381L332 930H220L176 1506Z" />
<glyph unicode="(" glyph-name="parenleft" horiz-adv-x="768" d="M644 -150Q466 -150 363 -98T216 71T172 380V1019Q172 1217 216 1337T364 1512T644 1567V1416Q532 1416 471 1384T387 1273T364 1056V349Q364 214 386 138T470 31T644 0V-150Z" />
<glyph unicode=")" glyph-name="parenright" horiz-adv-x="768" d="M122 -150V0Q236 0 296 31T379 138T402 349V1056Q402 1195 379 1273T296 1383T122 1416V1567Q299 1567 402 1513T550 1338T594 1019V380Q594 188 550 72T403 -97T122 -150Z" />
<glyph unicode="*" glyph-name="asterisk" horiz-adv-x="1024" d="M423 599L452 924L179 750L99 911L389 1028L109 1170L204 1323L451 1133L423 1446H601L571 1121L844 1295L925 1134L634 1017L914 875L819 722L572 912L601 599H423Z" />
<glyph unicode="+" glyph-name="plus" horiz-adv-x="1024" d="M437 494H162V642H437V968H588V642H862V494H588V156H437V494Z" />
<glyph unicode="," glyph-name="comma" horiz-adv-x="641" d="M196 -294Q220 -266 252 -223T308 -123T333 0H192V233H449V50Q449 -45 418 -123T347 -256T277 -338L196 -294Z" />
<glyph unicode="-" glyph-name="hyphen" horiz-adv-x="904" d="M172 499V642H732V499H172Z" />
<glyph unicode="." glyph-name="period" horiz-adv-x="628" d="M186 242H442V0H186V242Z" />
<glyph unicode="/" glyph-name="slash" horiz-adv-x="768" d="M521 1506H704L251 0H64L521 1506Z" />
<glyph unicode="0" glyph-name="zero" horiz-adv-x="1250" d="M625 -22Q480 -22 387 17T240 123T161 275T130 453T123 636V790Q123 882 129 977T160 1160T238 1317T386 1427T625 1468Q770 1468 864 1428T1011 1318T1089 1161T1120 978T1127 790V636Q1127 546 1121
453T1089 275T1011 123T864 17T625 -22ZM625 140Q732 140 793 178T882 283T917 436T925 619V816Q925 912 918 1000T882 1157T793 1266T625 1306Q519 1306 458 1266T369 1158T333 1001T325 816V619Q325 523 332 437T368 284T457 179T625 140Z" />
<glyph unicode="1" glyph-name="one" horiz-adv-x="1250" d="M206 155H607V1277L233 1237L215 1396L644 1446H808V155H1162V0H206V155Z" />
<glyph unicode="2" glyph-name="two" horiz-adv-x="1250" d="M231 0L212 158L701 689Q774 768 819 824T884 934T905 1057Q905 1196 845 1251T654 1306Q549 1306 486 1285T394 1203T365 1024H164Q164 1263 292 1365T639 1468Q795 1468 896 1414T1046 1267T1095
1059Q1095 963 1072 892T994 749T848 581L446 156H1087V0H231Z" />
<glyph unicode="3" glyph-name="three" horiz-adv-x="1250" d="M679 -22Q518 -22 421 20T275 162T208 431H400Q408 310 438 248T530 163T690 140Q820 140 877 206T935 399Q935 511 911 574T812 664T587 691V840Q703 840 768 855T864 902T901 980T909 1088Q909
1190 857 1248T676 1306Q587 1306 528 1288T440 1209T410 1025H218Q218 1209 278 1304T443 1434T675 1468Q862 1468 979 1378T1097 1091Q1097 948 1044 868T863 768Q987 743 1056 663T1126 398Q1126 191 1009 85T679 -22Z" />
<glyph unicode="4" glyph-name="four" horiz-adv-x="1250" d="M783 0V351H143V508L672 1446H881L366 506H783V837H950V506H1162V351H950V0H783Z" />
<glyph unicode="5" glyph-name="five" horiz-adv-x="1250" d="M632 -22Q499 -22 392 10T173 107L226 260Q296 214 354 188T475 151T624 140Q764 140 846 211T928 439Q928 592 863 677T655 762Q573 762 504 728T380 652L236 712L287 1446H1024V1281H448L418 832Q519
911 679 911Q896 911 1006 791T1117 449Q1117 286 1054 182T882 28T632 -22Z" />
<glyph unicode="6" glyph-name="six" horiz-adv-x="1250" d="M653 -22Q476 -22 372 40T223 207T178 436Q178 534 202 623T272 806T384 1014L633 1446H833L473 835Q518 859 565 868T679 878Q903 878 1017 758T1132 446Q1132 320 1086 214T934 43T653 -22ZM661 140Q778
140 839 180T923 286T945 426Q945 499 923 565T838 673T657 715Q540 715 477 673T389 565T365 426Q365 352 389 287T478 181T661 140Z" />
<glyph unicode="7" glyph-name="seven" horiz-adv-x="1250" d="M358 0L854 1281H178V1446H1059V1289L569 0H358Z" />
<glyph unicode="8" glyph-name="eight" horiz-adv-x="1250" d="M623 -22Q443 -22 335 31T180 176T132 380Q132 511 212 608T426 764Q355 800 295 846T197 956T160 1110Q160 1203 206 1284T355 1417T623 1468Q803 1468 905 1416T1048 1284T1090 1117Q1090 999 1018
915T814 774Q896 734 965 682T1076 556T1118 381Q1118 269 1070 178T912 32T623 -22ZM347 1115Q347 1053 386 1007T490 923T634 852Q700 876 761 913T863 1001T903 1110Q903 1157 886 1202T811 1276T631 1306Q523 1306 461 1279T373 1208T347 1115ZM631 140Q753
140 816 172T903 260T927 386Q927 462 885 516T774 610T620 687Q475 633 399 560T323 386Q323 316 349 260T442 172T631 140Z" />
<glyph unicode="9" glyph-name="nine" horiz-adv-x="1250" d="M451 0L811 611Q766 587 719 578T605 568Q380 568 266 688T151 1000Q151 1127 197 1233T349 1403T631 1468Q808 1468 912 1406T1061 1239T1106 1010Q1106 912 1082 823T1012 640T900 432L651 0H451ZM627
731Q745 731 808 773T895 881T919 1020Q919 1095 895 1160T806 1265T623 1306Q505 1306 444 1266T361 1160T338 1020Q338 948 360 882T445 773T627 731Z" />
<glyph unicode=":" glyph-name="colon" horiz-adv-x="768" d="M256 242H512V0H256V242ZM256 961H512V719H256V961Z" />
<glyph unicode=";" glyph-name="semicolon" horiz-adv-x="768" d="M268 -294Q292 -266 324 -223T380 -123T405 0H264V233H521V50Q521 -45 490 -123T419 -256T349 -338L268 -294ZM248 961H504V719H248V961Z" />
<glyph unicode="&lt;" glyph-name="less" horiz-adv-x="1024" d="M862 134V292L303 563L862 834V992L162 642V484L862 134Z" />
<glyph unicode="=" glyph-name="equal" horiz-adv-x="1024" d="M162 664V812H862V664H162ZM162 324V472H862V324H162Z" />
<glyph unicode="&gt;" glyph-name="greater" horiz-adv-x="1024" d="M162 134V292L721 563L162 834V992L862 642V484L162 134Z" />
<glyph unicode="?" glyph-name="question" horiz-adv-x="1240" d="M740 795Q805 881 844 948T883 1103Q883 1192 837 1249T657 1306Q495 1306 436 1249T376 1092V1039H179V1071Q179 1223 227 1309T381 1432T657 1468Q788 1468 873 1436T1007 1352T1076 1238T1096
1114Q1096 1023 1063 949T971 803T834 650L626 431H466L740 795ZM425 0V236H659V0H425Z" />
<glyph unicode="@" glyph-name="at" horiz-adv-x="1468" d="M780 -313Q473 -313 311 -177T148 237V630Q148 1118 718 1118Q996 1118 1124 1022T1252 727V324Q1252 253 1275 229T1368 205L1348 57H1308Q1205 57 1156 96T1100 206Q1054 124 975 82T777 40Q687 40
617 77T508 178T468 318Q468 566 750 647L1073 740Q1073 858 992 912T718 966Q519 966 428 896T336 671V203Q336 12 448 -77T780 -166Q905 -166 1019 -141T1227 -72L1277 -213Q1179 -257 1049 -285T780 -313ZM819 188Q905 188 976 234T1073 347V610L795 516Q716
489 684 445T652 333Q652 269 695 229T819 188Z" />
<glyph unicode="A" glyph-name="A" horiz-adv-x="1428" d="M86 0L625 1446H802L1342 0H1137L1040 282H393L295 0H86ZM445 430H989L719 1215L445 430Z" />
<glyph unicode="B" glyph-name="B" horiz-adv-x="1420" d="M218 0V1446H742Q943 1446 1046 1400T1185 1264T1222 1049Q1222 953 1181 880T1039 773Q1166 744 1229 647T1292 411Q1292 196 1171 98T786 0H218ZM420 833H791Q928 833 974 891T1021 1047Q1021 1152
995 1205T901 1276T711 1295H420V833ZM420 149H771Q883 149 954 171T1060 254T1094 433Q1094 499 1072 559T990 658T820 696H420V149Z" />
<glyph unicode="C" glyph-name="C" horiz-adv-x="1456" d="M761 -22Q580 -22 466 15T291 119T206 280T182 486V940Q182 1055 204 1151T288 1319T463 1429T759 1468Q978 1468 1095 1416T1256 1261T1300 1010V997L1109 980V1007Q1109 1138 1076 1202T965 1286T759
1306Q632 1306 549 1278T425 1178T384 977V455Q384 327 426 259T552 166T765 140Q891 140 966 157T1075 234T1109 424V448H1300V438Q1300 329 1280 244T1203 99T1041 9T761 -22Z" />
<glyph unicode="D" glyph-name="D" horiz-adv-x="1522" d="M218 0V1446H792Q993 1446 1113 1382T1286 1207T1340 959V482Q1340 247 1205 124T794 0H218ZM420 150H774Q878 150 960 172T1091 262T1139 462V971Q1139 1105 1091 1174T960 1269T774 1295H420V150Z" />
<glyph unicode="E" glyph-name="E" horiz-adv-x="1255" d="M218 1446H1121V1296H419V820H1039V670H419V150H1133V0H218V1446Z" />
<glyph unicode="F" glyph-name="F" horiz-adv-x="1159" d="M218 1446H1039V1296H419V814H1003V664H419V0H218V1446Z" />
<glyph unicode="G" glyph-name="G" horiz-adv-x="1556" d="M788 -22Q607 -22 490 15T306 119T213 280T186 486V940Q186 1055 212 1151T305 1319T488 1429T788 1468Q963 1468 1072 1436T1241 1345T1322 1208T1344 1037V1015L1160 1000V1022Q1160 1134 1130 1195T1019
1281T788 1306Q661 1306 572 1278T435 1178T388 977V455Q388 327 434 259T570 166T788 140Q917 140 999 165T1119 259T1158 455V588H815V735H1360V0H1250L1225 246Q1207 128 1105 53T788 -22Z" />
<glyph unicode="H" glyph-name="H" horiz-adv-x="1528" d="M212 1446H413V807H1115V1446H1316V0H1115V659H413V0H212V1446Z" />
<glyph unicode="I" glyph-name="I" horiz-adv-x="1132" d="M190 150H466V1297H190V1446H942V1297H667V150H942V0H190V150Z" />
<glyph unicode="J" glyph-name="J" horiz-adv-x="1206" d="M102 70L157 225Q181 214 238 196T369 163T516 148Q659 148 723 221T787 435V1281H234V1446H988V431Q988 226 877 105T522 -17Q438 -17 354 -3T202 32T102 70Z" />
<glyph unicode="K" glyph-name="K" horiz-adv-x="1418" d="M419 437V0H218V1446H419V657L1103 1446H1321L770 810L1350 0H1127L639 687L419 437Z" />
<glyph unicode="L" glyph-name="L" horiz-adv-x="1145" d="M218 1446H419V155H1068V0H218V1446Z" />
<glyph unicode="M" glyph-name="M" horiz-adv-x="1778" d="M218 0V1446H403L895 646L1382 1446H1560V0H1370V1121L965 458H816L410 1119V0H218Z" />
<glyph unicode="N" glyph-name="N" horiz-adv-x="1594" d="M218 1446H371L1199 289V1446H1376V0H1197L395 1104V0H218V1446Z" />
<glyph unicode="O" glyph-name="O" horiz-adv-x="1546" d="M782 -22Q601 -22 485 15T303 119T212 280T186 486V941Q186 1056 211 1152T302 1319T483 1429T782 1468Q957 1468 1070 1427T1246 1313T1334 1141T1360 928V500Q1360 389 1335 294T1246 128T1069 18T782
-22ZM782 140Q911 140 994 165T1118 259T1159 455V978Q1159 1107 1118 1178T994 1277T782 1306Q655 1306 567 1278T434 1178T388 978V455Q388 327 433 259T566 166T782 140Z" />
<glyph unicode="P" glyph-name="P" horiz-adv-x="1326" d="M218 1446H796Q978 1446 1088 1342T1198 991Q1198 818 1148 717T1007 573T793 529H420V0H218V1446ZM797 682Q885 682 927 724T982 835T996 977Q996 1048 985 1121T934 1243T802 1293H420V682H797Z" />
<glyph unicode="Q" glyph-name="Q" horiz-adv-x="1542" d="M944 -384L714 -21Q501 -11 387 55T230 232T186 486V941Q186 1056 211 1152T302 1319T483 1429T782 1468Q957 1468 1070 1427T1246 1313T1334 1141T1360 928V500Q1360 365 1321 254T1182 72T895 -17L1085
-308L944 -384ZM782 140Q911 140 994 165T1118 259T1159 455V978Q1159 1107 1118 1178T994 1277T782 1306Q655 1306 567 1278T434 1178T388 978V455Q388 327 433 259T566 166T782 140Z" />
<glyph unicode="R" glyph-name="R" horiz-adv-x="1464" d="M218 0V1446H863Q985 1446 1075 1407T1216 1274T1267 1018Q1267 843 1211 759T1063 636L1370 0H1163L876 600H420V0H218ZM420 752H846Q934 752 981 785T1046 874T1065 1000Q1065 1070 1054 1137T1001
1248T869 1293H420V752Z" />
<glyph unicode="S" glyph-name="S" horiz-adv-x="1304" d="M691 -22Q530 -22 394 12T144 113L215 267Q298 218 426 179T687 140Q805 140 867 171T954 267T978 437Q978 498 945 540T802 620L453 736Q303 786 237 863T171 1089Q171 1228 234 1311T408 1431T656 1468Q841
1468 956 1440T1141 1367L1092 1210Q1027 1245 930 1275T691 1306Q534 1306 450 1265T366 1088Q366 1022 394 981T515 907L879 784Q1027 734 1095 652T1164 406Q1164 206 1054 92T691 -22Z" />
<glyph unicode="T" glyph-name="T" horiz-adv-x="1204" d="M501 0V1281H84V1446H1120V1281H702V0H501Z" />
<glyph unicode="U" glyph-name="U" horiz-adv-x="1538" d="M779 -22Q602 -22 489 17T312 124T225 281T200 473V1446H402V452Q402 319 454 252T593 163T779 140Q881 140 961 162T1089 252T1136 452V1446H1338V473Q1338 373 1314 284T1228 125T1058 17T779 -22Z" />
<glyph unicode="V" glyph-name="V" horiz-adv-x="1386" d="M86 1446H293L692 294L1091 1446H1300L779 0H602L86 1446Z" />
<glyph unicode="W" glyph-name="W" horiz-adv-x="2048" d="M112 1446H296L603 346L918 1446H1133L1462 346L1753 1446H1936L1542 0H1390L1037 1232L674 0H522L112 1446Z" />
<glyph unicode="X" glyph-name="X" horiz-adv-x="1336" d="M116 1446H333L677 898L1017 1446H1233L780 735L1242 0H1022L661 577L310 0H94L558 740L116 1446Z" />
<glyph unicode="Y" glyph-name="Y" horiz-adv-x="1318" d="M560 568L48 1446H261L661 744L1063 1446H1270L761 568V0H560V568Z" />
<glyph unicode="Z" glyph-name="Z" horiz-adv-x="1242" d="M180 150L862 1281H211V1446H1083V1295L402 165H1096V0H180V150Z" />
<glyph unicode="[" glyph-name="bracketleft" horiz-adv-x="768" d="M256 1529H634V1396H444V58H634V-76H256V1529Z" />
<glyph unicode="\" glyph-name="backslash" horiz-adv-x="768" d="M64 1506H251L704 0H521L64 1506Z" />
<glyph unicode="]" glyph-name="bracketright" horiz-adv-x="768" d="M195 57H385V1395H195V1529H573V-76H195V57Z" />
<glyph unicode="^" glyph-name="asciicircum" horiz-adv-x="1257" d="M513 1283H735L1103 626H910L628 1161L348 626H154L513 1283Z" />
<glyph unicode="_" glyph-name="underscore" horiz-adv-x="790" d="M0 -237V-94H790V-237H0Z" />
<glyph unicode="`" glyph-name="grave" horiz-adv-x="560" d="M332 1155L100 1505H325L460 1155H332Z" />
<glyph unicode="a" glyph-name="a" horiz-adv-x="1172" d="M465 -22Q348 -22 275 18T167 125T132 268Q132 348 163 402T282 501T539 595Q627 621 680 641T757 692T781 781Q781 824 768 859T713 915T586 936Q480 936 431 914T369 857T355 778V731H174V779Q174 936
279 1008T592 1080Q802 1080 885 982T969 720V268Q969 184 990 160T1080 136L1058 -8H1020Q914 -8 867 33T796 150Q773 114 733 74T628 6T465 -22ZM488 118Q545 118 607 142T717 207T781 297V576Q759 554 705 519T549 454Q426 419 369 382T311 274Q311 194 352
156T488 118Z" />
<glyph unicode="b" glyph-name="b" horiz-adv-x="1204" d="M626 -22Q532 -22 462 11T349 71L325 0H186V1505H374V1010Q425 1039 502 1059T664 1080Q860 1080 958 983T1056 736V352Q1056 246 1006 161T860 27T626 -22ZM598 126Q709 126 788 180T868 332V750Q868
845 807 890T641 936Q575 936 501 915T374 870V188Q415 165 473 146T598 126Z" />
<glyph unicode="c" glyph-name="c" horiz-adv-x="1106" d="M579 -22Q421 -22 327 28T190 162T148 344V748Q148 898 262 989T574 1080Q701 1080 795 1051T940 944T992 724L813 707Q813 804 791 853T718 919T579 936Q458 936 397 893T336 743V328Q336 214 400 168T579
122Q672 122 720 135T789 189T816 310H990Q980 188 938 115T810 10T579 -22Z" />
<glyph unicode="d" glyph-name="d" horiz-adv-x="1200" d="M148 335V735Q148 895 254 987T591 1080Q641 1080 709 1069T826 1040V1505H1014V0H886L855 70Q809 34 730 6T568 -22Q416 -22 324 25T190 152T148 335ZM826 189V892Q784 912 722 924T593 936Q482 936
409 895T336 756V321Q336 222 406 174T580 126Q660 126 727 148T826 189Z" />
<glyph unicode="e" glyph-name="e" horiz-adv-x="1138" d="M148 374V743Q148 893 251 986T582 1080Q800 1080 903 995T1006 758V506H336V357Q336 228 387 175T589 122Q678 122 729 128T805 168T838 282H1004Q991 157 950 92T822 2T589 -22Q352 -22 250 77T148
374ZM824 633V778Q824 874 758 905T582 936Q470 936 403 897T336 760V633H824Z" />
<glyph unicode="f" glyph-name="f" horiz-adv-x="790" d="M287 918H110V1060H287V1221Q287 1370 368 1437T613 1505H732L744 1372H628Q542 1372 509 1334T475 1239V1060H732V918H475V0H287V918Z" />
<glyph unicode="g" glyph-name="g" horiz-adv-x="1182" d="M573 -408Q466 -408 389 -399T253 -368L295 -227Q338 -243 414 -254T564 -265Q701 -265 761 -207T822 -31V116Q792 88 742 72T639 48T550 40Q347 40 248 127T148 379V728Q148 888 245 984T550 1080Q604
1080 661 1064T763 1024T822 975V1060H1010V25Q1010 -99 970 -197T834 -351T573 -408ZM579 184Q684 184 742 215T822 264V790Q822 859 763 897T578 936Q467 936 402 891T336 748V350Q336 255 406 220T579 184Z" />
<glyph unicode="h" glyph-name="h" horiz-adv-x="1224" d="M186 1505H374V960Q421 1014 498 1047T690 1080Q821 1080 900 1039T1014 927T1050 773V0H862V783Q862 862 801 899T642 936Q504 936 439 886T374 758V0H186V1505Z" />
<glyph unicode="i" glyph-name="i" horiz-adv-x="596" d="M206 1060H394V0H206V1060ZM203 1505H397V1297H203V1505Z" />
<glyph unicode="j" glyph-name="j" horiz-adv-x="602" d="M13 -197H42Q109 -197 150 -184T212 -130T232 -4V1060H420V7Q420 -149 383 -226T273 -328T98 -353H32L13 -197ZM229 1505H423V1297H229V1505Z" />
<glyph unicode="k" glyph-name="k" horiz-adv-x="1145" d="M186 1505H374V524L881 1060H1087L656 594L1130 0H913L533 492L374 334V0H186V1505Z" />
<glyph unicode="l" glyph-name="l" horiz-adv-x="696" d="M190 358V1505H378V356Q378 270 394 226T452 166T573 150H606L584 -8H530Q414 -8 339 19T227 125T190 358Z" />
<glyph unicode="m" glyph-name="m" horiz-adv-x="1860" d="M186 1060H374V957Q421 1011 492 1045T678 1080Q801 1080 876 1042T989 941Q1058 1009 1139 1044T1336 1080Q1467 1080 1543 1038T1651 925T1684 770V0H1496V781Q1496 860 1441 898T1288 936Q1150 936
1091 884T1032 755V0H844V781Q844 860 786 898T630 936Q492 936 433 884T374 755V0H186V1060Z" />
<glyph unicode="n" glyph-name="n" horiz-adv-x="1226" d="M186 1060H374V957Q421 1011 497 1045T688 1080Q819 1080 898 1038T1014 925T1050 770V0H862V781Q862 860 800 898T640 936Q502 936 438 884T374 755V0H186V1060Z" />
<glyph unicode="o" glyph-name="o" horiz-adv-x="1174" d="M587 -22Q428 -22 332 21T192 141T148 315V742Q148 840 191 916T331 1036T587 1080Q745 1080 841 1037T982 917T1026 742V315Q1026 217 982 141T842 22T587 -22ZM587 122Q697 122 767 161T838 299V758Q838
856 768 896T587 936Q475 936 406 896T336 758V299Q336 201 405 162T587 122Z" />
<glyph unicode="p" glyph-name="p" horiz-adv-x="1198" d="M186 -408V1060H334L356 980Q398 1018 477 1049T648 1080Q851 1080 950 981T1050 729V344Q1050 184 941 81T624 -22Q535 -22 474 -4T374 34V-408H186ZM612 122Q723 122 792 174T862 324V744Q862 839 793
887T619 936Q553 936 501 914T416 864T374 824V179Q410 159 470 141T612 122Z" />
<glyph unicode="q" glyph-name="q" horiz-adv-x="1200" d="M826 47Q777 10 703 -6T573 -22Q370 -22 259 69T148 314V728Q148 888 250 984T560 1080Q614 1080 670 1064T768 1024T826 975V1060H1014V-408H826V47ZM585 122Q690 122 754 153T826 201V810Q826 854 770
895T588 936Q477 936 407 891T336 748V284Q336 189 409 156T585 122Z" />
<glyph unicode="r" glyph-name="r" horiz-adv-x="798" d="M186 1060H374V910Q397 970 457 1006T595 1059T742 1075L736 914Q646 914 563 890T427 826T374 742V0H186V1060Z" />
<glyph unicode="s" glyph-name="s" horiz-adv-x="992" d="M142 64L188 202Q223 183 309 153T503 122Q628 122 672 168T716 281Q716 343 700 379T608 443L356 535Q241 577 195 634T149 790Q149 924 223 1002T493 1080Q605 1080 698 1063T850 1022L807 878Q777 891
728 904T626 926T528 936Q399 936 362 904T324 799Q324 750 342 727T415 682L664 585Q753 551 798 513T860 420T876 283Q876 200 842 131T731 20T528 -22Q380 -22 279 11T142 64Z" />
<glyph unicode="t" glyph-name="t" horiz-adv-x="832" d="M257 303V918H80V1060H264L287 1388H445V1060H711V918H445V315Q445 210 507 180T703 150H724L704 -8H676Q459 -8 358 60T257 303Z" />
<glyph unicode="u" glyph-name="u" horiz-adv-x="1224" d="M541 -22Q411 -22 331 21T213 135T176 290V1060H364V289Q364 210 422 166T578 122Q716 122 783 182T850 309V1060H1038V0H870L850 133Q810 62 734 20T541 -22Z" />
<glyph unicode="v" glyph-name="v" horiz-adv-x="1104" d="M64 1060H253L572 200L856 1060H1040L665 0H475L64 1060Z" />
<glyph unicode="w" glyph-name="w" horiz-adv-x="1614" d="M52 1060H224L459 227L714 1060H895L1161 229L1388 1060H1562L1252 0H1077L806 844L535 0H357L52 1060Z" />
<glyph unicode="x" glyph-name="x" horiz-adv-x="1056" d="M64 0L428 541L70 1060H269L537 671L797 1060H995L632 533L1000 0H801L524 401L264 0H64Z" />
<glyph unicode="y" glyph-name="y" horiz-adv-x="1118" d="M198 -406V-259Q309 -259 379 -214T497 -54L516 -9L76 1060H270L599 214L872 1060H1060L656 -98Q602 -253 499 -329T198 -406Z" />
<glyph unicode="z" glyph-name="z" horiz-adv-x="959" d="M140 126L637 918H158V1060H845V935L344 142H854V0H140V126Z" />
<glyph unicode="{" glyph-name="braceleft" horiz-adv-x="952" d="M866 -207Q688 -207 590 -177T448 -88T396 56T386 253V294Q386 394 383 450T366 533T317 567T221 574H158V725H221Q283 725 317 732T365 765T383 848T386 1005V1046Q386 1157 395 1242T448 1386T589
1475T866 1506V1355Q760 1355 701 1342T616 1297T584 1209T578 1064V1002Q578 873 554 775T474 650Q530 622 554 524T578 297V235Q578 147 584 91T616 2T701 -43T866 -56V-207Z" />
<glyph unicode="|" glyph-name="bar" horiz-adv-x="658" d="M240 1555H418V-167H240V1555Z" />
<glyph unicode="}" glyph-name="braceright" horiz-adv-x="952" d="M128 -207V-56Q234 -56 293 -43T378 2T410 91T416 235V297Q416 426 440 524T520 650Q465 677 441 775T416 1002V1064Q416 1151 410 1208T378 1297T293 1342T128 1355V1506Q306 1506 404 1476T546
1387T598 1243T608 1046V1005Q608 905 611 849T628 766T677 732T773 725H836V574H773Q711 574 677 567T629 534T611 451T608 294V253Q608 142 599 57T546 -87T405 -176T128 -207Z" />
<glyph unicode="~" glyph-name="asciitilde" horiz-adv-x="864" d="M593 1176Q528 1176 470 1203T361 1258T265 1286Q214 1286 195 1263T175 1203H70Q70 1316 130 1370T270 1425Q336 1425 392 1398T498 1344T590 1316Q644 1316 666 1338T689 1399H794Q794 1287
734 1232T593 1176Z" />
<glyph unicode="&#xa0;" glyph-name="uni00A0" horiz-adv-x="512" />
<glyph unicode="&#xa1;" glyph-name="exclamdown" horiz-adv-x="768" d="M415 689Q430 541 442 387T463 88T477 -179T482 -386H280Q280 -302 286 -180T302 86T327 385T359 689H415ZM503 1060V824H269V1060H503Z" />
<glyph unicode="&#xa2;" glyph-name="cent" horiz-adv-x="1106" d="M532 -219V-21Q392 -13 308 39T186 171T148 344V748Q148 890 250 979T532 1079V1277H627V1079Q739 1074 821 1041T947 932T992 724L813 707Q813 838 772 883T627 935V123Q699 126 737 142T793
197T816 310H990Q975 138 896 62T627 -21V-219H532ZM336 328Q336 226 387 179T532 124V934Q434 927 385 883T336 743V328Z" />
<glyph unicode="&#xa3;" glyph-name="sterling" horiz-adv-x="1278" d="M256 0L325 673H166V798H338L372 1125Q382 1222 427 1303T554 1434T753 1484Q823 1484 905 1464T1082 1398L1028 1259Q1009 1269 968 1285T877 1314T775 1327Q697 1327 638 1280T564 1104L532
798H1012V673H520L467 162H1041V0H256Z" />
<glyph unicode="&#xa4;" glyph-name="currency" horiz-adv-x="1149" d="M564 360Q417 360 324 468L177 360L126 443L274 549Q245 615 245 689Q245 784 291 862L116 979L170 1061L350 937Q436 1018 564 1018Q694 1018 780 935L973 1075L1023 993L839 860Q859 822
871 779T883 689Q883 627 862 571L1033 457L981 376L817 486Q774 426 708 393T564 360ZM565 444Q662 444 726 516T790 690Q790 792 726 864T565 936Q468 936 404 864T340 690Q340 589 404 517T565 444Z" />
<glyph unicode="&#xa5;" glyph-name="yen" horiz-adv-x="1318" d="M131 515V639H519L414 819H131V943H341L48 1446H261L661 744L1063 1446H1270L978 943H1190V819H907L802 639H1190V515H761V0H560V515H131Z" />
<glyph unicode="&#xa6;" glyph-name="brokenbar" horiz-adv-x="658" d="M240 1555H418V848H240V1555ZM240 513H418V-167H240V513Z" />
<glyph unicode="&#xa7;" glyph-name="section" horiz-adv-x="995" d="M541 -20Q414 -20 322 0T164 48L207 192Q260 167 342 146T506 124Q635 124 672 156T710 261Q710 311 692 334T619 378L360 475Q267 510 219 550T155 648T138 787Q138 843 158 895T220 987Q176
1021 157 1067T138 1178Q138 1312 212 1390T482 1468Q609 1468 701 1449T859 1400L816 1256Q764 1281 682 1302T517 1324Q388 1324 351 1292T313 1187Q313 1138 331 1114T404 1070L663 973Q757 938 804 898T868 801T885 661Q885 605 865 553T803 461Q847 427 866
381T885 270Q885 136 812 58T541 -20ZM416 618L663 530Q692 552 708 580T725 659Q725 721 707 761T607 830L360 918Q331 896 315 868T298 789Q298 728 316 688T416 618Z" />
<glyph unicode="&#xa8;" glyph-name="dieresis" horiz-adv-x="770" d="M100 1443H306V1262H100V1443ZM464 1443H670V1262H464V1443Z" />
<glyph unicode="&#xa9;" glyph-name="copyright" horiz-adv-x="1784" d="M892 -14Q737 -14 604 41T370 197T213 431T156 722Q156 878 212 1012T369 1245T603 1400T892 1456Q1048 1456 1182 1401T1416 1246T1572 1012T1628 722Q1628 565 1572 431T1416 197T1182
42T892 -14ZM894 82Q1077 82 1219 166T1441 395T1522 722Q1522 904 1442 1048T1219 1277T894 1361Q712 1361 570 1277T347 1049T265 722Q265 540 346 395T570 166T894 82ZM903 287Q760 287 684 325T579 432T551 590V868Q551 959 579 1030T682 1141T902 1182Q1041
1182 1110 1140T1204 1025T1228 861V836L1112 826V890Q1112 1004 1064 1047T902 1091Q789 1091 730 1048T671 890V571Q671 457 730 417T903 376Q1018 376 1065 416T1112 571V632H1228V598Q1228 510 1204 440T1111 328T903 287Z" />
<glyph unicode="&#xaa;" glyph-name="ordfeminine" horiz-adv-x="948" d="M390 508Q235 508 178 577T120 751Q120 820 145 867T242 954T450 1035Q557 1067 601 1095T646 1199Q646 1255 618 1293T488 1332Q402 1332 362 1313T311 1264T300 1196V1156H154V1197Q154
1332 238 1394T492 1456Q662 1456 730 1372T798 1146V758Q798 685 815 665T888 644L870 520H839Q754 520 716 556T658 656Q639 625 607 591T522 532T390 508ZM408 629Q454 629 504 650T594 706T646 783V1023Q628 1004 584 973T458 918Q358 888 312 857T265 763Q265
694 295 662T408 629Z" />
<glyph unicode="&#xab;" glyph-name="guillemotleft" horiz-adv-x="1054" d="M96 530L369 980L516 910L309 530L516 150L376 80L96 530ZM510 530L783 980L928 910L724 530L928 150L790 80L510 530Z" />
<glyph unicode="&#xac;" glyph-name="logicalnot" horiz-adv-x="1024" d="M711 494H162V642H862V256H711V494Z" />
<glyph unicode="&#xad;" glyph-name="uni00AD" horiz-adv-x="904" d="M172 499V642H732V499H172Z" />
<glyph unicode="&#xae;" glyph-name="registered" horiz-adv-x="1784" d="M892 -14Q737 -14 604 41T370 197T213 431T156 722Q156 878 212 1012T369 1245T603 1400T892 1456Q1048 1456 1182 1401T1416 1246T1572 1012T1628 722Q1628 565 1572 431T1416 197T1182
42T892 -14ZM894 82Q1077 82 1219 166T1441 395T1522 722Q1522 904 1442 1048T1219 1277T894 1361Q712 1361 570 1277T347 1049T265 722Q265 540 346 395T570 166T894 82ZM585 319V1153H1008Q1133 1153 1192 1092T1251 908V894Q1251 786 1210 736T1099 666L1283
319H1155L975 652H716V319H585ZM716 742H983Q1055 742 1087 781T1119 887V911Q1119 950 1112 984T1078 1040T992 1062H716V742Z" />
<glyph unicode="&#xaf;" glyph-name="overscore" horiz-adv-x="704" d="M100 1410H604V1255H100V1410Z" />
<glyph unicode="&#xb0;" glyph-name="degree" horiz-adv-x="823" d="M412 849Q250 849 166 937T82 1159Q82 1293 166 1381T412 1470Q574 1470 657 1382T741 1159Q741 1025 658 937T412 849ZM412 983Q502 983 546 1030T591 1160Q591 1243 547 1290T412 1337Q322
1337 277 1290T232 1160Q232 1078 277 1031T412 983Z" />
<glyph unicode="&#xb1;" glyph-name="plusminus" horiz-adv-x="1024" d="M437 594H162V742H437V968H588V742H862V594H588V356H437V594ZM162 101V249H862V101H162Z" />
<glyph unicode="&#xb2;" glyph-name="uni00B2" horiz-adv-x="724" d="M121 878L109 973L381 1290Q444 1363 471 1406T499 1510Q499 1632 351 1632Q274 1632 243 1601T211 1493H80Q80 1636 157 1697T365 1759Q505 1759 572 1689T639 1514Q639 1469 627 1431T584
1345T491 1227L288 991H644V878H121Z" />
<glyph unicode="&#xb3;" glyph-name="uni00B3" horiz-adv-x="711" d="M362 868Q225 868 160 927T80 1140H211Q219 1054 254 1025T356 995Q425 995 458 1025T491 1131Q491 1191 478 1223T425 1269T307 1282V1400Q411 1400 442 1432T473 1520Q473 1572 444 1602T348
1632Q282 1632 250 1604T217 1497H86Q86 1624 152 1691T360 1759Q472 1759 542 1706T613 1536Q613 1458 587 1411T500 1342Q562 1319 596 1270T631 1120Q631 996 561 932T362 868Z" />
<glyph unicode="&#xb4;" glyph-name="acute" horiz-adv-x="560" d="M235 1505H460L228 1155H100L235 1505Z" />
<glyph unicode="&#xb5;" glyph-name="uni00B5" horiz-adv-x="1224" d="M174 -383V1060H362V289Q362 210 420 166T576 122Q714 122 781 182T848 309V1060H1036V0H868L848 133Q808 62 732 20T539 -22Q487 -22 443 -13T362 11V-383H174Z" />
<glyph unicode="&#xb6;" glyph-name="paragraph" horiz-adv-x="1180" d="M520 0V869Q354 869 261 942T168 1163Q168 1310 263 1378T535 1446H968V0H806V1284H682V0H520Z" />
<glyph unicode="&#xb7;" glyph-name="middot" horiz-adv-x="405" d="M100 828H305V622H100V828Z" />
<glyph unicode="&#xb8;" glyph-name="cedilla" horiz-adv-x="582" d="M100 -465V-353H288Q320 -353 332 -340T344 -307V-239Q344 -219 330 -206T288 -193H188V30H289V-90Q395 -93 438 -135T482 -262V-292Q482 -363 436 -414T277 -465H100Z" />
<glyph unicode="&#xb9;" glyph-name="uni00B9" horiz-adv-x="708" d="M85 991H305V1623L94 1601L80 1716L347 1746H446V991H658V878H85V991Z" />
<glyph unicode="&#xba;" glyph-name="ordmasculine" horiz-adv-x="951" d="M475 508Q282 508 201 589T120 798V1165Q120 1292 201 1374T475 1456Q667 1456 749 1374T831 1165V798Q831 671 749 590T475 508ZM475 632Q565 632 622 665T679 784V1179Q679 1264 622
1298T475 1332Q384 1332 328 1298T272 1179V784Q272 699 328 666T475 632Z" />
<glyph unicode="&#xbb;" glyph-name="guillemotright" horiz-adv-x="1054" d="M126 150L330 530L126 910L264 980L544 530L271 80L126 150ZM538 150L745 530L538 910L678 980L958 530L685 80L538 150Z" />
<glyph unicode="&#xbc;" glyph-name="onequarter" horiz-adv-x="1732" d="M85 691H305V1323L94 1301L80 1416L347 1446H446V691H658V578H85V691ZM1192 1446H1318L640 0H508L1192 1446ZM1432 0V211H1068V305L1375 868H1524L1226 324H1432V503H1572V324H1682V211H1572V0H1432Z"
/>
<glyph unicode="&#xbd;" glyph-name="onehalf" horiz-adv-x="1762" d="M85 691H305V1323L94 1301L80 1416L347 1446H446V691H658V578H85V691ZM1192 1446H1318L640 0H508L1192 1446ZM1159 0L1147 95L1419 412Q1482 485 1509 528T1537 632Q1537 754 1389 754Q1312
754 1281 723T1249 615H1118Q1118 758 1195 819T1403 881Q1543 881 1610 811T1677 636Q1677 591 1665 553T1622 467T1529 349L1326 113H1682V0H1159Z" />
<glyph unicode="&#xbe;" glyph-name="threequarters" horiz-adv-x="1735" d="M362 568Q225 568 160 627T80 840H211Q219 754 254 725T356 695Q425 695 458 725T491 831Q491 891 478 923T425 969T307 982V1100Q411 1100 442 1132T473 1220Q473 1272 444 1302T348
1332Q282 1332 250 1304T217 1197H86Q86 1324 152 1391T360 1459Q472 1459 542 1406T613 1236Q613 1158 587 1111T500 1042Q562 1019 596 970T631 820Q631 696 561 632T362 568ZM1195 1446H1321L643 0H511L1195 1446ZM1435 0V211H1071V305L1378 868H1527L1229 324H1435V503H1575V324H1685V211H1575V0H1435Z"
/>
<glyph unicode="&#xbf;" glyph-name="questiondown" horiz-adv-x="1240" d="M503 265Q438 179 399 112T360 -43Q360 -132 406 -189T586 -246Q748 -246 807 -189T867 -32V21H1064V-11Q1064 -163 1016 -249T862 -372T586 -408Q455 -408 370 -376T236 -292T167 -178T147
-54Q147 37 180 111T272 257T409 410L617 629H777L503 265ZM818 1060V824H584V1060H818Z" />
<glyph unicode="&#xc0;" glyph-name="Agrave" horiz-adv-x="1428" d="M86 0L625 1446H802L1342 0H1137L1040 282H393L295 0H86ZM445 430H989L719 1215L445 430ZM679 1982L844 1632H716L454 1982H679Z" />
<glyph unicode="&#xc1;" glyph-name="Aacute" horiz-adv-x="1428" d="M86 0L625 1446H802L1342 0H1137L1040 282H393L295 0H86ZM445 430H989L719 1215L445 430ZM749 1982H974L712 1632H584L749 1982Z" />
<glyph unicode="&#xc2;" glyph-name="Acircumflex" horiz-adv-x="1428" d="M86 0L625 1446H802L1342 0H1137L1040 282H393L295 0H86ZM445 430H989L719 1215L445 430ZM372 1635L627 1955H802L1057 1635H919L715 1818L510 1635H372Z" />
<glyph unicode="&#xc3;" glyph-name="Atilde" horiz-adv-x="1428" d="M86 0L625 1446H802L1342 0H1137L1040 282H393L295 0H86ZM445 430H989L719 1215L445 430ZM824 1602Q756 1602 717 1629T649 1682T584 1709Q553 1709 534 1686T514 1616H417Q417 1740 465 1792T603
1845Q672 1845 711 1819T779 1765T843 1738Q874 1738 893 1761T913 1831H1010Q1010 1707 962 1655T824 1602Z" />
<glyph unicode="&#xc4;" glyph-name="Adieresis" horiz-adv-x="1428" d="M86 0L625 1446H802L1342 0H1137L1040 282H393L295 0H86ZM445 430H989L719 1215L445 430ZM429 1830H635V1649H429V1830ZM793 1830H999V1649H793V1830Z" />
<glyph unicode="&#xc5;" glyph-name="Aring" horiz-adv-x="1428" d="M86 0L625 1446H802L1342 0H1137L1040 282H393L295 0H86ZM445 430H989L719 1215L445 430ZM714 1542Q608 1542 544 1600T480 1768Q480 1876 544 1934T714 1992Q820 1992 884 1934T948 1768Q948
1659 885 1601T714 1542ZM714 1645Q756 1645 792 1670T829 1767Q829 1838 793 1864T713 1891Q670 1891 635 1866T599 1769Q599 1696 634 1671T714 1645Z" />
<glyph unicode="&#xc6;" glyph-name="AE" horiz-adv-x="1686" d="M1559 150V0H874V502H430L302 0L98 3L492 1446H1550V1296H1065V814H1489V664H1065V150H1559ZM874 1296H632L468 650H874V1296Z" />
<glyph unicode="&#xc7;" glyph-name="Ccedilla" horiz-adv-x="1456" d="M761 -22Q580 -22 466 15T291 119T206 280T182 486V940Q182 1055 204 1151T288 1319T463 1429T759 1468Q978 1468 1095 1416T1256 1261T1300 1010V997L1109 980V1007Q1109 1138 1076 1202T965
1286T759 1306Q632 1306 549 1278T425 1178T384 977V455Q384 327 426 259T552 166T765 140Q891 140 966 157T1075 234T1109 424V448H1300V438Q1300 329 1280 244T1203 99T1041 9T761 -22ZM623 -465V-353H811Q843 -353 855 -340T867 -307V-239Q867 -219 853 -206T811
-193H711V30H812V-90Q918 -93 961 -135T1005 -262V-292Q1005 -363 959 -414T800 -465H623Z" />
<glyph unicode="&#xc8;" glyph-name="Egrave" horiz-adv-x="1255" d="M218 1446H1121V1296H419V820H1039V670H419V150H1133V0H218V1446ZM635 1982L800 1632H672L410 1982H635Z" />
<glyph unicode="&#xc9;" glyph-name="Eacute" horiz-adv-x="1255" d="M218 1446H1121V1296H419V820H1039V670H419V150H1133V0H218V1446ZM705 1982H930L668 1632H540L705 1982Z" />
<glyph unicode="&#xca;" glyph-name="Ecircumflex" horiz-adv-x="1255" d="M218 1446H1121V1296H419V820H1039V670H419V150H1133V0H218V1446ZM328 1635L583 1955H758L1013 1635H875L671 1818L466 1635H328Z" />
<glyph unicode="&#xcb;" glyph-name="Edieresis" horiz-adv-x="1255" d="M218 1446H1121V1296H419V820H1039V670H419V150H1133V0H218V1446ZM385 1830H591V1649H385V1830ZM749 1830H955V1649H749V1830Z" />
<glyph unicode="&#xcc;" glyph-name="Igrave" horiz-adv-x="1132" d="M190 150H466V1297H190V1446H942V1297H667V150H942V0H190V150ZM531 1982L696 1632H568L306 1982H531Z" />
<glyph unicode="&#xcd;" glyph-name="Iacute" horiz-adv-x="1132" d="M190 150H466V1297H190V1446H942V1297H667V150H942V0H190V150ZM601 1982H826L564 1632H436L601 1982Z" />
<glyph unicode="&#xce;" glyph-name="Icircumflex" horiz-adv-x="1132" d="M190 150H466V1297H190V1446H942V1297H667V150H942V0H190V150ZM224 1635L479 1955H654L909 1635H771L567 1818L362 1635H224Z" />
<glyph unicode="&#xcf;" glyph-name="Idieresis" horiz-adv-x="1132" d="M190 150H466V1297H190V1446H942V1297H667V150H942V0H190V150ZM281 1830H487V1649H281V1830ZM645 1830H851V1649H645V1830Z" />
<glyph unicode="&#xd0;" glyph-name="Eth" horiz-adv-x="1522" d="M218 0V694H21V837H218V1446H792Q993 1446 1113 1382T1286 1207T1340 959V482Q1340 247 1205 124T794 0H218ZM420 150H774Q878 150 960 172T1091 262T1139 462V971Q1139 1105 1091 1174T960 1269T774
1295H420V837H681V694H420V150Z" />
<glyph unicode="&#xd1;" glyph-name="Ntilde" horiz-adv-x="1594" d="M218 1446H371L1199 289V1446H1376V0H1197L395 1104V0H218V1446ZM907 1602Q839 1602 800 1629T732 1682T667 1709Q636 1709 617 1686T597 1616H500Q500 1740 548 1792T686 1845Q755 1845 794
1819T862 1765T926 1738Q957 1738 976 1761T996 1831H1093Q1093 1707 1045 1655T907 1602Z" />
<glyph unicode="&#xd2;" glyph-name="Ograve" horiz-adv-x="1546" d="M782 -22Q601 -22 485 15T303 119T212 280T186 486V941Q186 1056 211 1152T302 1319T483 1429T782 1468Q957 1468 1070 1427T1246 1313T1334 1141T1360 928V500Q1360 389 1335 294T1246 128T1069
18T782 -22ZM782 140Q911 140 994 165T1118 259T1159 455V978Q1159 1107 1118 1178T994 1277T782 1306Q655 1306 567 1278T434 1178T388 978V455Q388 327 433 259T566 166T782 140ZM738 1982L903 1632H775L513 1982H738Z" />
<glyph unicode="&#xd3;" glyph-name="Oacute" horiz-adv-x="1546" d="M782 -22Q601 -22 485 15T303 119T212 280T186 486V941Q186 1056 211 1152T302 1319T483 1429T782 1468Q957 1468 1070 1427T1246 1313T1334 1141T1360 928V500Q1360 389 1335 294T1246 128T1069
18T782 -22ZM782 140Q911 140 994 165T1118 259T1159 455V978Q1159 1107 1118 1178T994 1277T782 1306Q655 1306 567 1278T434 1178T388 978V455Q388 327 433 259T566 166T782 140ZM808 1982H1033L771 1632H643L808 1982Z" />
<glyph unicode="&#xd4;" glyph-name="Ocircumflex" horiz-adv-x="1546" d="M782 -22Q601 -22 485 15T303 119T212 280T186 486V941Q186 1056 211 1152T302 1319T483 1429T782 1468Q957 1468 1070 1427T1246 1313T1334 1141T1360 928V500Q1360 389 1335 294T1246
128T1069 18T782 -22ZM782 140Q911 140 994 165T1118 259T1159 455V978Q1159 1107 1118 1178T994 1277T782 1306Q655 1306 567 1278T434 1178T388 978V455Q388 327 433 259T566 166T782 140ZM431 1635L686 1955H861L1116 1635H978L774 1818L569 1635H431Z" />
<glyph unicode="&#xd5;" glyph-name="Otilde" horiz-adv-x="1546" d="M782 -22Q601 -22 485 15T303 119T212 280T186 486V941Q186 1056 211 1152T302 1319T483 1429T782 1468Q957 1468 1070 1427T1246 1313T1334 1141T1360 928V500Q1360 389 1335 294T1246 128T1069
18T782 -22ZM782 140Q911 140 994 165T1118 259T1159 455V978Q1159 1107 1118 1178T994 1277T782 1306Q655 1306 567 1278T434 1178T388 978V455Q388 327 433 259T566 166T782 140ZM883 1602Q815 1602 776 1629T708 1682T643 1709Q612 1709 593 1686T573 1616H476Q476
1740 524 1792T662 1845Q731 1845 770 1819T838 1765T902 1738Q933 1738 952 1761T972 1831H1069Q1069 1707 1021 1655T883 1602Z" />
<glyph unicode="&#xd6;" glyph-name="Odieresis" horiz-adv-x="1546" d="M782 -22Q601 -22 485 15T303 119T212 280T186 486V941Q186 1056 211 1152T302 1319T483 1429T782 1468Q957 1468 1070 1427T1246 1313T1334 1141T1360 928V500Q1360 389 1335 294T1246
128T1069 18T782 -22ZM782 140Q911 140 994 165T1118 259T1159 455V978Q1159 1107 1118 1178T994 1277T782 1306Q655 1306 567 1278T434 1178T388 978V455Q388 327 433 259T566 166T782 140ZM488 1830H694V1649H488V1830ZM852 1830H1058V1649H852V1830Z" />
<glyph unicode="&#xd7;" glyph-name="multiply" horiz-adv-x="973" d="M129 344L366 576L129 806L239 937L487 694L735 937L844 806L608 576L844 344L735 216L487 458L239 216L129 344Z" />
<glyph unicode="&#xd8;" glyph-name="Oslash" horiz-adv-x="1546" d="M376 -157L445 29Q293 88 240 207T186 486V941Q186 1056 211 1152T302 1319T483 1429T782 1468Q887 1468 971 1452L1054 1676L1158 1638L1078 1423Q1189 1382 1250 1309T1335 1139T1360 928V500Q1360
389 1335 294T1246 128T1069 18T782 -22Q651 -22 551 -2L479 -195L376 -157ZM388 455Q388 352 417 289T505 191L914 1297Q858 1306 782 1306Q655 1306 567 1278T434 1178T388 978V455ZM782 140Q911 140 994 165T1118 259T1159 455V978Q1159 1096 1125 1165T1021
1267L608 154Q646 146 689 143T782 140Z" />
<glyph unicode="&#xd9;" glyph-name="Ugrave" horiz-adv-x="1538" d="M779 -22Q602 -22 489 17T312 124T225 281T200 473V1446H402V452Q402 319 454 252T593 163T779 140Q881 140 961 162T1089 252T1136 452V1446H1338V473Q1338 373 1314 284T1228 125T1058 17T779
-22ZM734 1982L899 1632H771L509 1982H734Z" />
<glyph unicode="&#xda;" glyph-name="Uacute" horiz-adv-x="1538" d="M779 -22Q602 -22 489 17T312 124T225 281T200 473V1446H402V452Q402 319 454 252T593 163T779 140Q881 140 961 162T1089 252T1136 452V1446H1338V473Q1338 373 1314 284T1228 125T1058 17T779
-22ZM804 1982H1029L767 1632H639L804 1982Z" />
<glyph unicode="&#xdb;" glyph-name="Ucircumflex" horiz-adv-x="1538" d="M779 -22Q602 -22 489 17T312 124T225 281T200 473V1446H402V452Q402 319 454 252T593 163T779 140Q881 140 961 162T1089 252T1136 452V1446H1338V473Q1338 373 1314 284T1228 125T1058
17T779 -22ZM427 1635L682 1955H857L1112 1635H974L770 1818L565 1635H427Z" />
<glyph unicode="&#xdc;" glyph-name="Udieresis" horiz-adv-x="1538" d="M779 -22Q602 -22 489 17T312 124T225 281T200 473V1446H402V452Q402 319 454 252T593 163T779 140Q881 140 961 162T1089 252T1136 452V1446H1338V473Q1338 373 1314 284T1228 125T1058
17T779 -22ZM484 1830H690V1649H484V1830ZM848 1830H1054V1649H848V1830Z" />
<glyph unicode="&#xdd;" glyph-name="Yacute" horiz-adv-x="1318" d="M560 568L48 1446H261L661 744L1063 1446H1270L761 568V0H560V568ZM694 1982H919L657 1632H529L694 1982Z" />
<glyph unicode="&#xde;" glyph-name="Thorn" horiz-adv-x="1320" d="M212 1446H414V1208H788Q910 1208 1000 1168T1141 1033T1192 773Q1192 600 1142 504T1001 370T787 331H414V0H212V1446ZM791 484Q879 484 921 521T976 622T990 759Q990 830 979 898T926 1010T794
1055H414V484H791Z" />
<glyph unicode="&#xdf;" glyph-name="germandbls" horiz-adv-x="1281" d="M190 0V1103Q190 1252 252 1334T419 1450T652 1483Q863 1483 960 1389T1057 1135Q1057 1017 1019 958T898 877Q962 863 1023 821T1125 699T1166 488Q1166 304 1093 197T880 45T536 0L517
149Q616 155 702 166T853 209T954 306T991 485Q991 614 943 674T807 752T600 770V912Q709 912 767 936T847 1007T869 1119Q869 1208 842 1253T763 1315T643 1332Q570 1332 510 1318T414 1261T378 1131V0H190Z" />
<glyph unicode="&#xe0;" glyph-name="agrave" horiz-adv-x="1172" d="M465 -22Q348 -22 275 18T167 125T132 268Q132 348 163 402T282 501T539 595Q627 621 680 641T757 692T781 781Q781 824 768 859T713 915T586 936Q480 936 431 914T369 857T355 778V731H174V779Q174
936 279 1008T592 1080Q802 1080 885 982T969 720V268Q969 184 990 160T1080 136L1058 -8H1020Q914 -8 867 33T796 150Q773 114 733 74T628 6T465 -22ZM488 118Q545 118 607 142T717 207T781 297V576Q759 554 705 519T549 454Q426 419 369 382T311 274Q311 194
352 156T488 118ZM562 1585L697 1235H569L337 1585H562Z" />
<glyph unicode="&#xe1;" glyph-name="aacute" horiz-adv-x="1172" d="M465 -22Q348 -22 275 18T167 125T132 268Q132 348 163 402T282 501T539 595Q627 621 680 641T757 692T781 781Q781 824 768 859T713 915T586 936Q480 936 431 914T369 857T355 778V731H174V779Q174
936 279 1008T592 1080Q802 1080 885 982T969 720V268Q969 184 990 160T1080 136L1058 -8H1020Q914 -8 867 33T796 150Q773 114 733 74T628 6T465 -22ZM488 118Q545 118 607 142T717 207T781 297V576Q759 554 705 519T549 454Q426 419 369 382T311 274Q311 194
352 156T488 118ZM592 1585H817L585 1235H457L592 1585Z" />
<glyph unicode="&#xe2;" glyph-name="acircumflex" horiz-adv-x="1172" d="M465 -22Q348 -22 275 18T167 125T132 268Q132 348 163 402T282 501T539 595Q627 621 680 641T757 692T781 781Q781 824 768 859T713 915T586 936Q480 936 431 914T369 857T355 778V731H174V779Q174
936 279 1008T592 1080Q802 1080 885 982T969 720V268Q969 184 990 160T1080 136L1058 -8H1020Q914 -8 867 33T796 150Q773 114 733 74T628 6T465 -22ZM488 118Q545 118 607 142T717 207T781 297V576Q759 554 705 519T549 454Q426 419 369 382T311 274Q311 194
352 156T488 118ZM235 1235L490 1575H665L920 1235H782L578 1434L373 1235H235Z" />
<glyph unicode="&#xe3;" glyph-name="atilde" horiz-adv-x="1172" d="M465 -22Q348 -22 275 18T167 125T132 268Q132 348 163 402T282 501T539 595Q627 621 680 641T757 692T781 781Q781 824 768 859T713 915T586 936Q480 936 431 914T369 857T355 778V731H174V779Q174
936 279 1008T592 1080Q802 1080 885 982T969 720V268Q969 184 990 160T1080 136L1058 -8H1020Q914 -8 867 33T796 150Q773 114 733 74T628 6T465 -22ZM488 118Q545 118 607 142T717 207T781 297V576Q759 554 705 519T549 454Q426 419 369 382T311 274Q311 194
352 156T488 118ZM687 1253Q619 1253 580 1280T512 1333T447 1360Q416 1360 397 1337T377 1267H280Q280 1391 328 1443T466 1496Q535 1496 574 1470T642 1416T706 1389Q737 1389 756 1412T776 1482H873Q873 1358 825 1306T687 1253Z" />
<glyph unicode="&#xe4;" glyph-name="adieresis" horiz-adv-x="1172" d="M465 -22Q348 -22 275 18T167 125T132 268Q132 348 163 402T282 501T539 595Q627 621 680 641T757 692T781 781Q781 824 768 859T713 915T586 936Q480 936 431 914T369 857T355 778V731H174V779Q174
936 279 1008T592 1080Q802 1080 885 982T969 720V268Q969 184 990 160T1080 136L1058 -8H1020Q914 -8 867 33T796 150Q773 114 733 74T628 6T465 -22ZM488 118Q545 118 607 142T717 207T781 297V576Q759 554 705 519T549 454Q426 419 369 382T311 274Q311 194
352 156T488 118ZM292 1443H498V1262H292V1443ZM656 1443H862V1262H656V1443Z" />
<glyph unicode="&#xe5;" glyph-name="aring" horiz-adv-x="1172" d="M465 -22Q348 -22 275 18T167 125T132 268Q132 348 163 402T282 501T539 595Q627 621 680 641T757 692T781 781Q781 824 768 859T713 915T586 936Q480 936 431 914T369 857T355 778V731H174V779Q174
936 279 1008T592 1080Q802 1080 885 982T969 720V268Q969 184 990 160T1080 136L1058 -8H1020Q914 -8 867 33T796 150Q773 114 733 74T628 6T465 -22ZM488 118Q545 118 607 142T717 207T781 297V576Q759 554 705 519T549 454Q426 419 369 382T311 274Q311 194
352 156T488 118ZM577 1172Q471 1172 407 1230T343 1398Q343 1506 407 1564T577 1622Q683 1622 747 1564T811 1398Q811 1289 748 1231T577 1172ZM577 1275Q619 1275 655 1300T692 1397Q692 1468 656 1494T576 1521Q533 1521 498 1496T462 1399Q462 1326 497 1301T577
1275Z" />
<glyph unicode="&#xe6;" glyph-name="ae" horiz-adv-x="1741" d="M469 -20Q357 -20 282 22T169 133T131 283Q131 336 143 384T194 476T316 553T539 610Q652 628 703 642T769 682T784 761Q784 835 746 887T589 940Q483 940 433 911T368 837T353 742V718H172V746Q172
907 277 993T590 1080Q694 1080 776 1046T887 939Q934 1013 1011 1046T1197 1080Q1404 1080 1506 995T1609 758V511H973V328Q973 121 1189 121Q1272 121 1323 132T1401 185T1433 318H1603Q1593 189 1551 115T1421 10T1189 -21Q1051 -21 981 28T878 159Q814 83 722
32T469 -20ZM973 633H1437V778Q1437 874 1371 906T1196 938Q1084 938 1029 898T973 760V633ZM502 113Q560 113 619 133T724 189T785 275V560Q785 550 766 539T692 514T532 479Q406 454 359 405T312 284Q312 195 366 154T502 113Z" />
<glyph unicode="&#xe7;" glyph-name="ccedilla" horiz-adv-x="1106" d="M579 -22Q421 -22 327 28T190 162T148 344V748Q148 898 262 989T574 1080Q701 1080 795 1051T940 944T992 724L813 707Q813 804 791 853T718 919T579 936Q458 936 397 893T336 743V328Q336
214 400 168T579 122Q672 122 720 135T789 189T816 310H990Q980 188 938 115T810 10T579 -22ZM431 -465V-353H619Q651 -353 663 -340T675 -307V-239Q675 -219 661 -206T619 -193H519V30H620V-90Q726 -93 769 -135T813 -262V-292Q813 -363 767 -414T608 -465H431Z"
/>
<glyph unicode="&#xe8;" glyph-name="egrave" horiz-adv-x="1138" d="M148 374V743Q148 893 251 986T582 1080Q800 1080 903 995T1006 758V506H336V357Q336 228 387 175T589 122Q678 122 729 128T805 168T838 282H1004Q991 157 950 92T822 2T589 -22Q352 -22 250
77T148 374ZM824 633V778Q824 874 758 905T582 936Q470 936 403 897T336 760V633H824ZM569 1585L704 1235H576L344 1585H569Z" />
<glyph unicode="&#xe9;" glyph-name="eacute" horiz-adv-x="1138" d="M148 374V743Q148 893 251 986T582 1080Q800 1080 903 995T1006 758V506H336V357Q336 228 387 175T589 122Q678 122 729 128T805 168T838 282H1004Q991 157 950 92T822 2T589 -22Q352 -22 250
77T148 374ZM824 633V778Q824 874 758 905T582 936Q470 936 403 897T336 760V633H824ZM599 1585H824L592 1235H464L599 1585Z" />
<glyph unicode="&#xea;" glyph-name="ecircumflex" horiz-adv-x="1138" d="M148 374V743Q148 893 251 986T582 1080Q800 1080 903 995T1006 758V506H336V357Q336 228 387 175T589 122Q678 122 729 128T805 168T838 282H1004Q991 157 950 92T822 2T589 -22Q352
-22 250 77T148 374ZM824 633V778Q824 874 758 905T582 936Q470 936 403 897T336 760V633H824ZM242 1235L497 1575H672L927 1235H789L585 1434L380 1235H242Z" />
<glyph unicode="&#xeb;" glyph-name="edieresis" horiz-adv-x="1138" d="M148 374V743Q148 893 251 986T582 1080Q800 1080 903 995T1006 758V506H336V357Q336 228 387 175T589 122Q678 122 729 128T805 168T838 282H1004Q991 157 950 92T822 2T589 -22Q352 -22
250 77T148 374ZM824 633V778Q824 874 758 905T582 936Q470 936 403 897T336 760V633H824ZM299 1443H505V1262H299V1443ZM663 1443H869V1262H663V1443Z" />
<glyph unicode="&#xec;" glyph-name="igrave" horiz-adv-x="560" d="M186 1060H374V0H186V1060ZM265 1585L400 1235H272L40 1585H265Z" />
<glyph unicode="&#xed;" glyph-name="iacute" horiz-adv-x="560" d="M186 1060H374V0H186V1060ZM295 1585H520L288 1235H160L295 1585Z" />
<glyph unicode="&#xee;" glyph-name="icircumflex" horiz-adv-x="564" d="M-12 1235L203 1575H378L593 1235H455L291 1425L126 1235H-12ZM186 1060H374V0H186V1060Z" />
<glyph unicode="&#xef;" glyph-name="idieresis" horiz-adv-x="560" d="M186 1060H374V0H186V1060ZM-5 1443H201V1262H-5V1443ZM359 1443H565V1262H359V1443Z" />
<glyph unicode="&#xf0;" glyph-name="eth" horiz-adv-x="1158" d="M587 -20Q350 -20 250 73T150 314V646Q150 796 265 885T577 975Q664 975 733 952T822 911Q822 1062 763 1158T612 1304L471 1100L376 1152L506 1341Q434 1364 367 1374T210 1384L239 1512Q334
1512 415 1502T595 1466L697 1617L792 1565L693 1427Q866 1341 938 1160T1010 736V365Q1010 292 997 223T942 100T816 13T587 -20ZM587 121Q715 121 770 171T825 359V783Q802 798 757 809T664 827T587 833Q478 833 408 792T337 652V308Q337 202 407 162T587 121Z"
/>
<glyph unicode="&#xf1;" glyph-name="ntilde" horiz-adv-x="1226" d="M186 1060H374V957Q421 1011 497 1045T688 1080Q819 1080 898 1038T1014 925T1050 770V0H862V781Q862 860 800 898T640 936Q502 936 438 884T374 755V0H186V1060ZM756 1253Q688 1253 649 1280T581
1333T516 1360Q485 1360 466 1337T446 1267H349Q349 1391 397 1443T535 1496Q604 1496 643 1470T711 1416T775 1389Q806 1389 825 1412T845 1482H942Q942 1358 894 1306T756 1253Z" />
<glyph unicode="&#xf2;" glyph-name="ograve" horiz-adv-x="1174" d="M587 -22Q428 -22 332 21T192 141T148 315V742Q148 840 191 916T331 1036T587 1080Q745 1080 841 1037T982 917T1026 742V315Q1026 217 982 141T842 22T587 -22ZM587 122Q697 122 767 161T838
299V758Q838 856 768 896T587 936Q475 936 406 896T336 758V299Q336 201 405 162T587 122ZM570 1585L705 1235H577L345 1585H570Z" />
<glyph unicode="&#xf3;" glyph-name="oacute" horiz-adv-x="1174" d="M587 -22Q428 -22 332 21T192 141T148 315V742Q148 840 191 916T331 1036T587 1080Q745 1080 841 1037T982 917T1026 742V315Q1026 217 982 141T842 22T587 -22ZM587 122Q697 122 767 161T838
299V758Q838 856 768 896T587 936Q475 936 406 896T336 758V299Q336 201 405 162T587 122ZM600 1585H825L593 1235H465L600 1585Z" />
<glyph unicode="&#xf4;" glyph-name="ocircumflex" horiz-adv-x="1174" d="M587 -22Q428 -22 332 21T192 141T148 315V742Q148 840 191 916T331 1036T587 1080Q745 1080 841 1037T982 917T1026 742V315Q1026 217 982 141T842 22T587 -22ZM587 122Q697 122 767
161T838 299V758Q838 856 768 896T587 936Q475 936 406 896T336 758V299Q336 201 405 162T587 122ZM243 1235L498 1575H673L928 1235H790L586 1434L381 1235H243Z" />
<glyph unicode="&#xf5;" glyph-name="otilde" horiz-adv-x="1174" d="M587 -22Q428 -22 332 21T192 141T148 315V742Q148 840 191 916T331 1036T587 1080Q745 1080 841 1037T982 917T1026 742V315Q1026 217 982 141T842 22T587 -22ZM587 122Q697 122 767 161T838
299V758Q838 856 768 896T587 936Q475 936 406 896T336 758V299Q336 201 405 162T587 122ZM695 1253Q627 1253 588 1280T520 1333T455 1360Q424 1360 405 1337T385 1267H288Q288 1391 336 1443T474 1496Q543 1496 582 1470T650 1416T714 1389Q745 1389 764 1412T784
1482H881Q881 1358 833 1306T695 1253Z" />
<glyph unicode="&#xf6;" glyph-name="odieresis" horiz-adv-x="1174" d="M587 -22Q428 -22 332 21T192 141T148 315V742Q148 840 191 916T331 1036T587 1080Q745 1080 841 1037T982 917T1026 742V315Q1026 217 982 141T842 22T587 -22ZM587 122Q697 122 767 161T838
299V758Q838 856 768 896T587 936Q475 936 406 896T336 758V299Q336 201 405 162T587 122ZM300 1443H506V1262H300V1443ZM664 1443H870V1262H664V1443Z" />
<glyph unicode="&#xf7;" glyph-name="divide" horiz-adv-x="1024" d="M410 812V1021H615V812H410ZM162 494V642H862V494H162ZM410 115V324H615V115H410Z" />
<glyph unicode="&#xf8;" glyph-name="oslash" horiz-adv-x="1174" d="M271 -195L349 15Q242 55 195 134T148 315V742Q148 840 191 916T331 1036T587 1080Q672 1080 742 1066L811 1251L901 1220L834 1039Q935 997 980 920T1026 742V315Q1026 217 982 141T842 22T587
-22Q508 -22 443 -11L363 -226L271 -195ZM336 299Q336 206 404 162L690 926Q645 936 587 936Q475 936 406 896T336 758V299ZM587 122Q697 122 767 161T838 299V758Q838 844 778 889L495 129Q536 122 587 122Z" />
<glyph unicode="&#xf9;" glyph-name="ugrave" horiz-adv-x="1224" d="M541 -22Q411 -22 331 21T213 135T176 290V1060H364V289Q364 210 422 166T578 122Q716 122 783 182T850 309V1060H1038V0H870L850 133Q810 62 734 20T541 -22ZM589 1585L724 1235H596L364 1585H589Z" />
<glyph unicode="&#xfa;" glyph-name="uacute" horiz-adv-x="1224" d="M541 -22Q411 -22 331 21T213 135T176 290V1060H364V289Q364 210 422 166T578 122Q716 122 783 182T850 309V1060H1038V0H870L850 133Q810 62 734 20T541 -22ZM619 1585H844L612 1235H484L619 1585Z" />
<glyph unicode="&#xfb;" glyph-name="ucircumflex" horiz-adv-x="1224" d="M541 -22Q411 -22 331 21T213 135T176 290V1060H364V289Q364 210 422 166T578 122Q716 122 783 182T850 309V1060H1038V0H870L850 133Q810 62 734 20T541 -22ZM262 1235L517 1575H692L947
1235H809L605 1434L400 1235H262Z" />
<glyph unicode="&#xfc;" glyph-name="udieresis" horiz-adv-x="1224" d="M541 -22Q411 -22 331 21T213 135T176 290V1060H364V289Q364 210 422 166T578 122Q716 122 783 182T850 309V1060H1038V0H870L850 133Q810 62 734 20T541 -22ZM319 1443H525V1262H319V1443ZM683
1443H889V1262H683V1443Z" />
<glyph unicode="&#xfd;" glyph-name="yacute" horiz-adv-x="1118" d="M198 -406V-259Q309 -259 379 -214T497 -54L516 -9L76 1060H270L599 214L872 1060H1060L656 -98Q602 -253 499 -329T198 -406ZM579 1585H804L572 1235H444L579 1585Z" />
<glyph unicode="&#xfe;" glyph-name="thorn" d="M180 1506H368V994Q413 1028 486 1052T642 1076Q845 1076 946 979T1047 729V344Q1047 184 936 80T618 -24Q529 -24 468 -5T368 34V-408H180V1506ZM606 117Q717 117 788 172T859 324V742Q859 837 788 885T613 934Q547
934 495 912T410 864T368 824V179Q404 159 464 138T606 117Z" />
<glyph unicode="&#xff;" glyph-name="ydieresis" horiz-adv-x="1118" d="M198 -406V-259Q309 -259 379 -214T497 -54L516 -9L76 1060H270L599 214L872 1060H1060L656 -98Q602 -253 499 -329T198 -406ZM279 1443H485V1262H279V1443ZM643 1443H849V1262H643V1443Z" />
<glyph unicode="&#x2013;" glyph-name="endash" horiz-adv-x="790" d="M0 499V642H790V499H0Z" />
<glyph unicode="&#x2014;" glyph-name="emdash" horiz-adv-x="1264" d="M0 499V642H1264V499H0Z" />
<glyph unicode="&#x2018;" glyph-name="quoteleft" horiz-adv-x="769" d="M256 943V1126Q256 1222 287 1299T358 1432T428 1514L509 1470Q486 1443 454 1399T397 1299T372 1176H513V943H256Z" />
<glyph unicode="&#x2019;" glyph-name="quoteright" horiz-adv-x="769" d="M341 913L260 957Q284 985 316 1028T372 1128T397 1251H256V1484H513V1301Q513 1206 482 1128T411 995T341 913Z" />
<glyph unicode="&#x201a;" glyph-name="quotesinglbase" horiz-adv-x="769" d="M260 -294Q284 -266 316 -223T372 -123T397 0H256V233H513V50Q513 -45 482 -123T411 -256T341 -338L260 -294Z" />
<glyph unicode="&#x201c;" glyph-name="quotedblleft" horiz-adv-x="1181" d="M668 943V1126Q668 1222 699 1299T770 1432T840 1514L921 1470Q898 1443 866 1399T809 1299T784 1176H925V943H668ZM256 943V1126Q256 1222 287 1299T358 1432T428 1514L509 1470Q486
1443 454 1399T397 1299T372 1176H513V943H256Z" />
<glyph unicode="&#x201d;" glyph-name="quotedblright" horiz-adv-x="1181" d="M341 913L260 957Q284 985 316 1028T372 1128T397 1251H256V1484H513V1301Q513 1206 482 1128T411 995T341 913ZM753 913L672 957Q696 985 728 1028T784 1128T809 1251H668V1484H925V1301Q925
1206 894 1128T823 995T753 913Z" />
<glyph unicode="&#x201e;" glyph-name="quotedblbase" horiz-adv-x="1181" d="M341 -338L260 -294Q284 -266 316 -223T372 -123T397 0H256V233H513V50Q513 -45 482 -123T411 -256T341 -338ZM753 -338L672 -294Q696 -266 728 -223T784 -123T809 0H668V233H925V50Q925
-45 894 -123T823 -256T753 -338Z" />
<glyph unicode="&#x2022;" glyph-name="bullet" horiz-adv-x="975" d="M487 295Q326 295 253 373T180 600Q180 747 253 826T488 905Q649 905 722 826T795 600Q795 453 722 374T487 295Z" />
<glyph unicode="&#x2039;" glyph-name="guilsinglleft" horiz-adv-x="642" d="M96 530L369 980L516 910L309 530L516 150L376 80L96 530Z" />
<glyph unicode="&#x203a;" glyph-name="guilsinglright" horiz-adv-x="642" d="M126 150L333 530L126 910L266 980L546 530L273 80L126 150Z" />
</font>
</defs>
</svg>
