<?xml version="1.0" standalone="no"?>
<!DOCTYPE svg PUBLIC "-//W3C//DTD SVG 1.1//EN" "http://www.w3.org/Graphics/SVG/1.1/DTD/svg11.dtd">
<svg xmlns="http://www.w3.org/2000/svg">
<defs >
<font id="MontserratAlternates" horiz-adv-x="644" ><font-face
    font-family="Montserrat Alternates Medium"
    units-per-em="1000"
    panose-1="0 0 6 0 0 0 0 0 0 0"
    ascent="968"
    descent="-251"
    alphabetic="0" />
<glyph unicode=" " glyph-name="space" horiz-adv-x="269" />
<glyph unicode="!" glyph-name="exclam" horiz-adv-x="268" d="M164 700H278L163 221H87L164 700ZM64 -6T46 12T28 54Q28 84 47 103T95 122Q122 122 139 105T157 63Q157 34 138 14T90 -6Q64 -6 46 12Z" />
<glyph unicode="&quot;" glyph-name="quotedbl" horiz-adv-x="391" d="M150 700H234L174 430H104L150 700ZM331 700H415L355 430H285L331 700Z" />
<glyph unicode="#" glyph-name="numbersign" horiz-adv-x="703" d="M566 447L504 253H642L628 180H481L423 0H349L407 180H221L163 0H90L148 180H11L25 253H171L233 447H96L110 520H256L314 700H387L329 520H515L573 700H647L589 520H728L713 447H566ZM492 447H306L244
253H430L492 447Z" />
<glyph unicode="$" glyph-name="dollar" horiz-adv-x="621" d="M514 616T419 622L372 384Q432 366 471 348T537 296T564 210Q564 147 530 99T435 24T294 -7L271 -120H208L231 -7Q162 -1 101 22T6 77L50 157Q85 125 138 104T248 78L294 312Q236 330 198 349T133
402T107 491Q107 554 140 601T234 676T373 707L396 820H459L436 707Q491 702 539 688T623 649L583 567Q514 616 419 622ZM205 463T232 442T312 402L356 621Q286 614 246 582T205 499Q205 463 232 442ZM466 233T437 254T354 294L311 78Q383 84 424 115T466 196Q466
233 437 254Z" />
<glyph unicode="%" glyph-name="percent" horiz-adv-x="844" d="M160 325T122 365T84 477Q84 539 107 591T174 674T275 705Q340 705 378 665T416 553Q416 491 393 439T326 356T225 325Q160 325 122 365ZM705 700H785L173 0H91L705 700ZM268 381T295 406T337 469T351
548Q351 597 330 623T270 649Q232 649 205 624T163 561T149 482Q149 433 170 407T230 381Q268 381 295 406ZM537 -6T500 34T462 146Q462 208 485 260T552 343T653 374Q717 374 755 334T793 222Q793 160 770 108T704 25T602 -6Q537 -6 500 34ZM645 50T672 75T714
138T728 217Q728 266 707 292T647 318Q609 318 582 293T540 230T526 151Q526 102 548 76T607 50Q645 50 672 75Z" />
<glyph unicode="&amp;" glyph-name="ampersand" horiz-adv-x="686" d="M612 213T555 141L627 52L563 -11L492 77Q389 -8 253 -8Q149 -8 88 36T26 157Q26 228 77 283T237 391Q211 426 198 458T185 525Q185 608 243 657T391 706Q464 706 509 672T554 577Q554 513
510 467T366 374L504 204Q546 260 573 332L648 307Q612 213 555 141ZM336 636T305 609T273 534Q273 511 284 486T321 429Q380 457 412 478T458 521T472 569Q472 598 450 617T388 636Q336 636 305 609ZM360 72T442 139L282 335Q195 293 159 257T122 173Q122 128
158 100T259 72Q360 72 442 139Z" />
<glyph unicode="&apos;" glyph-name="quotesingle" horiz-adv-x="210" d="M150 700H234L174 430H104L150 700Z" />
<glyph unicode="(" glyph-name="parenleft" horiz-adv-x="337" d="M104 -139T91 -66T78 79Q78 261 138 439T303 742H401Q293 603 232 427T170 74Q170 -58 213 -194H125Q104 -139 91 -66Z" />
<glyph unicode=")" glyph-name="parenright" horiz-adv-x="337" d="M89 -55T150 121T212 474Q212 606 169 742H257Q278 687 291 614T304 469Q304 287 244 109T79 -194H-19Q89 -55 150 121Z" />
<glyph unicode="*" glyph-name="asterisk" horiz-adv-x="400" d="M320 554L424 489L387 434L278 508L252 369H190L219 503L88 434L63 487L200 556L94 622L131 678L239 604L264 742H325L297 605L431 677L455 621L320 554Z" />
<glyph unicode="+" glyph-name="plus" horiz-adv-x="583" d="M525 310H343L307 131H223L258 310H77L92 389H274L309 569H394L358 389H540L525 310Z" />
<glyph unicode="," glyph-name="comma" horiz-adv-x="227" d="M104 131T122 113T140 66Q140 51 135 37T117 2L33 -148H-30L38 2Q23 10 15 25T6 58Q6 90 26 110T77 131Q104 131 122 113Z" />
<glyph unicode="-" glyph-name="hyphen" horiz-adv-x="383" d="M68 316H337L320 233H52L68 316Z" />
<glyph unicode="." glyph-name="period" horiz-adv-x="227" d="M43 -6T25 12T6 58Q6 90 26 110T77 131Q104 131 122 113T140 66Q140 35 120 15T70 -6Q43 -6 25 12Z" />
<glyph unicode="/" glyph-name="slash" horiz-adv-x="352" d="M413 842H505L-10 -100H-102L413 842Z" />
<glyph unicode="0" glyph-name="zero" horiz-adv-x="666" d="M181 -8T118 60T55 249Q55 371 99 476T223 645T409 708Q520 708 582 640T645 451Q645 329 601 224T477 55T292 -8Q181 -8 118 60ZM374 81T430 137T515 278T545 449Q545 531 507 575T401 619Q326 619
270 563T185 422T155 251Q155 169 193 125T300 81Q374 81 430 137Z" />
<glyph unicode="1" glyph-name="one" horiz-adv-x="370" d="M352 700L212 0H113L235 613H78L95 700H352Z" />
<glyph unicode="2" glyph-name="two" horiz-adv-x="574" d="M154 87H504L487 0H-16L-2 68L339 341Q408 397 434 436T461 520Q461 567 427 594T324 621Q273 621 226 601T143 543L76 601Q120 651 189 679T338 708Q443 708 502 660T561 533Q561 469 527 413T406 287L154 87Z" />
<glyph unicode="3" glyph-name="three" horiz-adv-x="572" d="M573 632L343 404Q427 393 472 347T517 226Q517 158 480 105T375 22T219 -8Q140 -8 76 15T-26 80L26 157Q56 123 108 102T225 81Q316 81 366 118T417 221Q417 327 263 327H210L224 397L441 613H106L124
700H586L573 632Z" />
<glyph unicode="4" glyph-name="four" horiz-adv-x="669" d="M639 172H505L471 0H374L409 172H20L33 242L478 700H591L165 258H429L460 410H553L523 258H656L639 172Z" />
<glyph unicode="5" glyph-name="five" horiz-adv-x="574" d="M261 613L203 421H271Q401 421 466 372T531 234Q531 162 494 107T390 22T233 -8Q154 -8 90 15T-12 80L41 157Q71 123 123 102T240 81Q331 81 381 118T431 223Q431 334 253 334H83L192 700H587L570 613H261Z" />
<glyph unicode="6" glyph-name="six" horiz-adv-x="617" d="M359 622T298 584T204 483T162 347Q229 425 355 425Q418 425 469 402T550 333T581 225Q581 155 548 102T456 21T323 -8Q244 -8 184 24T91 121T57 276Q57 382 98 480T229 643T452 708Q505 708 550 698T627
667L581 588Q531 622 445 622Q359 622 298 584ZM257 344T211 304T164 203Q164 169 182 140T236 92T321 73Q393 73 437 112T482 219Q482 278 441 311T333 344Q257 344 211 304Z" />
<glyph unicode="7" glyph-name="seven" horiz-adv-x="598" d="M645 700L632 632L226 0H116L511 613H196L171 488H75L117 700H645Z" />
<glyph unicode="8" glyph-name="eight" d="M539 334T562 297T586 211Q586 144 550 95T448 19T296 -8Q173 -8 102 43T30 182Q30 255 72 305T191 377Q156 399 138 431T120 505Q120 567 153 613T245 683T383 708Q493 708 559 661T626 533Q626 470 592 425T495 357Q539
334 562 297ZM307 627T263 594T218 504Q218 457 257 430T365 402Q440 402 484 434T528 522Q528 571 488 599T380 627Q307 627 263 594ZM386 73T436 110T486 211Q486 264 441 295T317 326Q231 326 181 290T130 190Q130 136 175 105T299 73Q386 73 436 110Z" />
<glyph unicode="9" glyph-name="nine" horiz-adv-x="617" d="M408 708T468 676T561 579T595 424Q595 318 554 220T423 57T200 -8Q147 -8 101 2T24 33L70 112Q120 78 206 78Q292 78 352 116T446 216T489 351Q423 275 297 275Q234 275 183 298T101 367T70 475Q70
545 103 598T196 679T329 708Q408 708 468 676ZM395 356T441 396T488 497Q488 530 470 560T416 608T331 627Q259 627 215 588T170 481Q170 422 211 389T319 356Q395 356 441 396Z" />
<glyph unicode=":" glyph-name="colon" horiz-adv-x="227" d="M124 398T106 416T87 462Q87 494 107 514T158 535Q185 535 203 517T221 470Q221 439 201 419T151 398Q124 398 106 416ZM43 -6T25 12T6 58Q6 90 26 110T77 131Q104 131 122 113T140 66Q140 35 120
15T70 -6Q43 -6 25 12Z" />
<glyph unicode=";" glyph-name="semicolon" horiz-adv-x="227" d="M124 398T106 416T87 462Q87 494 107 514T158 535Q185 535 203 517T221 470Q221 439 201 419T151 398Q124 398 106 416ZM104 131T122 113T140 66Q140 51 135 37T117 2L33 -148H-30L38 2Q23 10
15 25T6 58Q6 90 26 110T77 131Q104 131 122 113Z" />
<glyph unicode="&lt;" glyph-name="less" horiz-adv-x="582" d="M557 483L173 346L504 208L488 130L76 307L93 393L575 570L557 483Z" />
<glyph unicode="=" glyph-name="equal" horiz-adv-x="582" d="M116 507H563L547 428H100L116 507ZM69 271H516L500 192H53L69 271Z" />
<glyph unicode="&gt;" glyph-name="greater" horiz-adv-x="582" d="M541 393L523 307L42 130L60 217L442 354L114 492L130 570L541 393Z" />
<glyph unicode="?" glyph-name="question" horiz-adv-x="573" d="M226 261T246 291T290 342T353 392Q389 418 409 435T442 477T456 531Q456 574 423 598T327 623Q209 623 137 543L74 600Q118 652 186 680T342 708Q441 708 498 665T556 548Q556 500 539 465T497
407T431 354Q381 317 355 290T319 221H219Q226 261 246 291ZM208 -6T190 12T172 54Q172 84 191 103T239 122Q266 122 283 105T301 63Q301 34 282 14T234 -6Q208 -6 190 12Z" />
<glyph unicode="@" glyph-name="at" horiz-adv-x="1034" d="M713 707T804 662T944 535T992 343Q992 252 963 172T882 43T766 -6Q721 -6 692 13T654 68Q619 33 572 14T465 -6Q402 -6 353 20T276 95T248 208Q248 291 284 359T384 466T530 506Q595 506 641 482T711
412L729 502H816L744 140Q741 127 741 116Q741 70 789 70Q828 70 859 110T908 212T926 340Q926 480 837 560T577 641Q439 641 334 580T171 413T113 179Q113 85 152 15T266 -95T449 -135Q557 -135 641 -94L656 -159Q612 -179 556 -190T443 -202Q319 -202 228 -155T89
-22T40 174Q40 322 108 444T300 636T585 707Q713 707 804 662ZM542 72T587 100T658 177T684 288Q684 356 644 392T533 429Q477 429 432 402T362 326T336 214Q336 146 375 109T485 72Q542 72 587 100Z" />
<glyph unicode="A" glyph-name="A" horiz-adv-x="800" d="M595 708T664 646T734 472Q734 434 725 390L648 0H548L587 193H183L144 0H46L127 403Q186 708 472 708Q595 708 664 646ZM604 280L627 396Q634 430 634 463Q634 540 590 579T463 619Q364 619 306 567T224
401L200 280H604Z" />
<glyph unicode="B" glyph-name="B" horiz-adv-x="757" d="M641 345T667 309T693 219Q693 113 612 57T389 0H52L192 700H502Q608 700 665 661T723 546Q723 478 688 431T594 361Q641 345 667 309ZM275 619L230 395H435Q520 395 569 429T619 530Q619 575 584 597T481
619H275ZM491 81T542 116T594 218Q594 270 558 292T448 314H214L168 81H396Q491 81 542 116Z" />
<glyph unicode="C" glyph-name="C" horiz-adv-x="723" d="M290 -8T215 29T100 132T60 287Q60 404 113 500T263 652T489 708Q576 708 643 680T746 599L674 537Q611 619 482 619Q385 619 312 575T200 457T160 293Q160 196 222 139T401 81Q530 81 613 164L671 98Q623
46 552 19T394 -8Q290 -8 215 29Z" />
<glyph unicode="D" glyph-name="D" horiz-adv-x="826" d="M192 700H466Q571 700 646 665T761 565T801 413Q801 291 747 197T594 52T365 0H52L192 700ZM368 87Q469 87 544 128T659 241T700 407Q700 504 638 558T456 613H274L169 87H368Z" />
<glyph unicode="E" glyph-name="E" d="M338 622T284 586T229 488Q229 444 260 421T350 397H530L513 311H321Q235 311 185 278T134 186Q134 134 180 106T317 78Q391 78 456 97T563 149L596 71Q546 35 468 14T305 -8Q180 -8 107 40T34 175Q34 244 77 294T194 365Q163
383 146 414T129 486Q129 553 167 603T276 680T438 708Q508 708 567 694T670 653L635 574Q550 622 432 622Q338 622 284 586Z" />
<glyph unicode="F" glyph-name="F" horiz-adv-x="606" d="M270 619T237 455L220 369H540L522 282H202L146 0H46L137 452Q188 708 468 708Q527 708 580 694T668 653L623 573Q563 619 463 619Q270 619 237 455Z" />
<glyph unicode="G" glyph-name="G" horiz-adv-x="772" d="M608 354H704L632 0H545L552 38Q478 -8 377 -8Q282 -8 211 28T100 130T60 286Q60 403 113 499T264 652T491 708Q582 708 650 680T761 600L689 539Q654 580 604 599T486 619Q389 619 315 576T201 458T160
294Q160 196 219 139T388 81Q438 81 483 97T566 145L608 354Z" />
<glyph unicode="H" glyph-name="H" horiz-adv-x="812" d="M794 700L654 0H554L616 310H214L152 0H52L192 700H292L232 400H634L694 700H794Z" />
<glyph unicode="I" glyph-name="I" horiz-adv-x="456" d="M348 616L242 84H377L361 0H-11L5 84H142L249 616H113L129 700H501L485 616H348Z" />
<glyph unicode="J" glyph-name="J" horiz-adv-x="513" d="M71 -108T19 -81T-61 -6L8 59Q28 20 63 -1T144 -22Q202 -22 237 10T287 115L386 613H133L151 700H501L385 119Q361 -4 302 -56T142 -108Q71 -108 19 -81Z" />
<glyph unicode="K" glyph-name="K" horiz-adv-x="719" d="M414 373L667 0H555L342 314L188 182L152 0H52L192 700H292L215 313L663 700H793L416 375L414 373Z" />
<glyph unicode="L" glyph-name="L" horiz-adv-x="594" d="M192 700H292L169 87H549L532 0H52L192 700Z" />
<glyph unicode="M" glyph-name="M" horiz-adv-x="1208" d="M1036 708T1093 657T1151 510Q1151 478 1143 435L1056 0H956L1044 432Q1050 462 1050 487Q1050 553 1013 586T907 619Q825 619 767 569T688 418L604 0H504L592 432Q598 464 598 490Q598 555 563 587T460
619Q377 619 317 570T237 422L152 0H52L194 700H290L272 614Q312 660 367 684T491 708Q569 708 622 679T693 596Q780 708 933 708Q1036 708 1093 657Z" />
<glyph unicode="N" glyph-name="N" horiz-adv-x="798" d="M609 708T672 649T735 481Q735 442 726 398L646 0H547L627 402Q635 442 635 471Q635 544 594 581T473 619Q382 619 319 567T233 408L152 0H52L192 700H288L270 609Q355 708 501 708Q609 708 672 649Z" />
<glyph unicode="O" glyph-name="O" horiz-adv-x="840" d="M286 -8T212 29T99 132T60 287Q60 404 113 500T262 652T485 708Q588 708 662 671T776 568T815 413Q815 296 762 200T612 48T389 -8Q286 -8 212 29ZM492 81T564 125T675 243T714 407Q714 504 653 561T477
619Q383 619 311 575T200 456T160 293Q160 196 222 139T398 81Q492 81 564 125Z" />
<glyph unicode="P" glyph-name="P" horiz-adv-x="722" d="M574 700T641 647T709 495Q709 406 670 343T556 246T381 212H194L152 0H52L192 700H452Q574 700 641 647ZM491 299T550 347T609 486Q609 548 566 580T443 613H275L212 299H383Q491 299 550 347Z" />
<glyph unicode="Q" glyph-name="Q" horiz-adv-x="840" d="M815 301T766 207T625 56T415 -7L390 -135H290L317 -3Q195 16 128 93T60 287Q60 404 113 500T262 652T485 708Q588 708 662 671T776 568T815 413Q815 301 766 207ZM515 89T579 134T679 252T714 407Q714
504 653 561T477 619Q383 619 311 575T200 456T160 293Q160 211 205 156T337 86L370 250H463L429 82Q515 89 579 134Z" />
<glyph unicode="R" glyph-name="R" horiz-adv-x="727" d="M711 392T656 323T501 228L629 0H523L401 214H382H195L153 0H52L192 700H453Q576 700 643 647T711 495Q711 392 656 323ZM493 299T552 347T611 486Q611 549 568 581T444 613H275L212 299H385Q493 299 552 347Z" />
<glyph unicode="S" glyph-name="S" horiz-adv-x="621" d="M190 -8T118 16T6 77L50 157Q90 120 151 99T277 77Q363 77 414 108T466 196Q466 226 446 246T397 278T315 306Q248 326 207 344T137 397T107 491Q107 557 144 606T247 681T398 708Q463 708 521 693T623
649L583 567Q544 595 496 609T393 623Q307 623 256 590T205 500Q205 469 225 448T276 415T360 387Q426 367 466 350T535 298T564 210Q564 143 527 94T422 19T268 -8Q190 -8 118 16Z" />
<glyph unicode="T" glyph-name="T" horiz-adv-x="598" d="M628 549Q537 607 419 617L295 0H196L320 619Q188 610 93 551L65 630Q127 668 208 688T373 708Q551 708 673 628L628 549Z" />
<glyph unicode="U" glyph-name="U" horiz-adv-x="795" d="M777 700L637 0H541L559 90Q473 -8 330 -8Q222 -8 160 51T98 217Q98 257 107 302L186 700H286L205 298Q198 263 198 230Q198 156 239 119T358 81Q449 81 512 133T596 292L678 700H777Z" />
<glyph unicode="V" glyph-name="V" horiz-adv-x="712" d="M800 700L352 0H254L86 700H189L325 124L696 700H800Z" />
<glyph unicode="W" glyph-name="W" horiz-adv-x="1200" d="M1188 700L1098 278Q1067 129 988 61T769 -8Q694 -8 643 17T568 93Q526 42 467 17T335 -8Q222 -8 158 46T93 200Q93 237 102 277L192 700H292L199 268Q192 237 192 209Q192 145 229 113T337 81Q419 81
474 130T552 283L641 700H739L647 268Q640 237 640 208Q640 144 677 113T783 81Q871 81 924 128T999 277L1089 700H1188Z" />
<glyph unicode="X" glyph-name="X" horiz-adv-x="673" d="M410 357L606 0H499L344 286L81 0H-39L301 364L117 700H222L367 433L616 700H730L410 357Z" />
<glyph unicode="Y" glyph-name="Y" horiz-adv-x="787" d="M775 700L675 198Q645 46 556 -30T325 -106Q235 -106 168 -79T59 -2L112 75Q191 -16 330 -16Q532 -16 577 204L589 266Q505 173 365 173Q256 173 193 232T129 398Q129 437 138 482L181 700H281L237 479Q229
439 229 411Q229 337 271 300T392 262Q483 262 546 314T630 473L676 700H775Z" />
<glyph unicode="Z" glyph-name="Z" horiz-adv-x="667" d="M694 632L459 396H583L566 313H376L151 87H597L579 0H-6L8 68L254 315H119L135 398H337L551 613H126L144 700H708L694 632Z" />
<glyph unicode="[" glyph-name="bracketleft" horiz-adv-x="334" d="M199 742H408L392 661H280L125 -113H238L222 -194H12L199 742Z" />
<glyph unicode="\" glyph-name="backslash" horiz-adv-x="352" d="M223 -100L78 842H161L306 -100H223Z" />
<glyph unicode="]" glyph-name="bracketright" horiz-adv-x="333" d="M-71 -194L-56 -113H57L211 661H99L115 742H325L138 -194H-71Z" />
<glyph unicode="^" glyph-name="asciicircum" horiz-adv-x="583" d="M411 142L339 479L132 142H52L310 558H390L483 142H411Z" />
<glyph unicode="_" glyph-name="underscore" horiz-adv-x="500" d="M-53 0H447L435 -62H-65L-53 0Z" />
<glyph unicode="`" glyph-name="grave" horiz-adv-x="600" d="M211 737H332L444 607H353L211 737Z" />
<glyph unicode="a" glyph-name="a" horiz-adv-x="726" d="M660 75T682 84L672 6Q642 -6 601 -6Q550 -6 517 17T476 82Q439 39 388 17T272 -6Q204 -6 151 21T68 101T38 223Q38 313 77 384T184 495T338 535Q406 535 454 511T529 440L547 530H643L570 162Q567 147
567 136Q567 106 584 91T633 75Q660 75 682 84ZM352 78T399 106T473 186T500 302Q500 373 459 412T342 451Q283 451 236 423T162 343T135 227Q135 157 176 118T293 78Q352 78 399 106Z" />
<glyph unicode="b" glyph-name="b" horiz-adv-x="682" d="M478 535T531 508T614 429T644 307Q644 217 605 146T498 35T344 -6Q274 -6 225 20T150 96L130 0H39L187 742H283L228 469Q302 535 410 535Q478 535 531 508ZM399 78T446 106T520 186T547 302Q547 373 506
412T389 451Q330 451 283 423T209 343T182 227Q182 157 223 118T340 78Q399 78 446 106Z" />
<glyph unicode="c" glyph-name="c" horiz-adv-x="571" d="M214 -6T157 22T69 102T38 223Q38 312 78 383T189 494T350 535Q507 535 568 420L487 375Q445 451 343 451Q284 451 237 423T162 343T135 227Q135 157 176 118T294 78Q342 78 383 97T452 153L522 103Q485
52 423 23T290 -6Q214 -6 157 22Z" />
<glyph unicode="d" glyph-name="d" horiz-adv-x="724" d="M567 147T567 135Q567 106 583 91T632 75Q659 75 681 84L671 6Q641 -6 600 -6Q550 -6 518 16T474 80Q397 -6 272 -6Q204 -6 151 21T68 101T38 223Q38 313 77 384T184 495T338 535Q406 535 454 511T529
440L590 742H686L570 162Q567 147 567 135ZM352 78T399 106T473 186T500 302Q500 373 459 412T342 451Q283 451 236 423T162 343T135 227Q135 157 176 118T293 78Q352 78 399 106Z" />
<glyph unicode="e" glyph-name="e" horiz-adv-x="606" d="M445 535T509 474T574 300Q574 284 573 275L135 194Q154 78 300 78Q350 78 393 94T464 139L505 70Q466 33 411 14T292 -6Q214 -6 157 22T69 102T38 224Q38 312 76 383T182 494T336 535Q445 535 509 474ZM252
455T198 403T134 264L485 329Q480 389 439 422T333 455Q252 455 198 403Z" />
<glyph unicode="f" glyph-name="f" horiz-adv-x="339" d="M308 669T283 646T247 572L238 530H392L376 451H225L134 0H38L155 580Q171 661 220 704T351 748Q384 748 413 740T462 715L422 644Q392 669 351 669Q308 669 283 646Z" />
<glyph unicode="g" glyph-name="g" horiz-adv-x="690" d="M651 530L560 72Q532 -70 455 -135T243 -200Q168 -200 106 -181T1 -125L54 -51Q86 -80 137 -97T250 -115Q342 -115 392 -73T461 57L469 95Q393 22 277 22Q207 22 154 48T71 123T41 238Q41 321 79 389T187
496T343 535Q411 535 463 510T541 433L560 530H651ZM356 106T403 132T477 206T504 314Q504 378 463 414T346 451Q286 451 239 425T165 351T138 244Q138 179 180 143T296 106Q356 106 403 132Z" />
<glyph unicode="h" glyph-name="h" horiz-adv-x="681" d="M506 535T556 489T607 359Q607 330 601 297L542 0H446L505 297Q510 324 510 341Q510 393 479 421T387 449Q309 449 259 407T191 280L135 0H39L187 742H283L228 468Q299 535 415 535Q506 535 556 489Z" />
<glyph unicode="i" glyph-name="i" horiz-adv-x="279" d="M144 530H240L135 0H39L144 530ZM194 632T177 649T160 690Q160 718 179 737T229 757Q255 757 272 741T290 701Q290 670 271 651T220 632Q194 632 177 649Z" />
<glyph unicode="j" glyph-name="j" horiz-adv-x="284" d="M-133 -200T-177 -168L-135 -94Q-104 -119 -59 -119Q-19 -119 4 -97T37 -25L148 530H244L133 -25Q98 -200 -60 -200Q-133 -200 -177 -168ZM198 632T181 649T164 690Q164 718 183 737T233 757Q259 757 276
741T294 701Q294 670 275 651T224 632Q198 632 181 649Z" />
<glyph unicode="k" glyph-name="k" horiz-adv-x="606" d="M370 307L559 0H448L295 250L165 149L135 0H39L187 742H283L189 270L518 530H653L370 307Z" />
<glyph unicode="l" glyph-name="l" horiz-adv-x="321" d="M136 -6T101 27T66 119Q66 141 70 161L187 742H283L166 162Q163 149 163 136Q163 107 180 91T229 75Q255 75 278 84L268 6Q237 -6 197 -6Q136 -6 101 27Z" />
<glyph unicode="m" glyph-name="m" horiz-adv-x="1057" d="M883 535T933 490T984 360Q984 337 977 297L918 0H822L881 297Q886 325 886 343Q886 395 857 422T769 449Q695 449 648 408T583 283L526 0H430L490 297Q495 324 495 342Q495 394 466 421T377 449Q303
449 256 407T191 280L135 0H39L144 530H236L223 464Q293 535 407 535Q469 535 513 511T577 441Q658 535 793 535Q883 535 933 490Z" />
<glyph unicode="n" glyph-name="n" horiz-adv-x="681" d="M506 535T556 489T607 359Q607 330 601 297L542 0H446L505 297Q510 324 510 341Q510 393 479 421T387 449Q309 449 259 407T191 280L135 0H39L144 530H236L223 462Q295 535 415 535Q506 535 556 489Z" />
<glyph unicode="o" glyph-name="o" horiz-adv-x="635" d="M212 -6T156 22T69 103T38 223Q38 312 78 383T189 494T349 535Q424 535 480 507T566 428T597 307Q597 218 557 147T447 35T287 -6Q212 -6 156 22ZM352 78T399 106T473 186T500 302Q500 373 459 412T342
451Q283 451 236 423T162 343T135 227Q135 157 176 118T293 78Q352 78 399 106Z" />
<glyph unicode="p" glyph-name="p" horiz-adv-x="682" d="M478 535T531 508T614 429T644 307Q644 217 605 146T498 35T344 -6Q276 -6 227 18T152 90L96 -194H0L144 530H236L223 464Q297 535 410 535Q478 535 531 508ZM399 78T446 106T520 186T547 302Q547 373
506 412T389 451Q330 451 283 423T209 343T182 227Q182 157 223 118T340 78Q399 78 446 106Z" />
<glyph unicode="q" glyph-name="q" horiz-adv-x="682" d="M643 530L499 -194H403L453 59Q418 28 372 11T272 -6Q204 -6 151 21T68 101T38 223Q38 313 77 384T184 495T338 535Q408 535 457 510T532 434L552 530H643ZM352 78T399 106T473 186T500 302Q500 373 459
412T342 451Q283 451 236 423T162 343T135 227Q135 157 176 118T293 78Q352 78 399 106Z" />
<glyph unicode="r" glyph-name="r" horiz-adv-x="410" d="M256 495T307 515T431 535L413 442Q404 443 388 443Q223 443 188 265L135 0H39L144 530H236L221 451Q256 495 307 515Z" />
<glyph unicode="s" glyph-name="s" horiz-adv-x="501" d="M140 -6T81 11T-12 55L31 131Q62 106 111 92T215 77Q283 77 318 97T354 155Q354 185 326 198T237 224Q181 236 146 248T85 288T60 363Q60 415 89 454T173 514T300 535Q353 535 403 522T485 487L447 411Q416
432 375 442T291 453Q226 453 191 432T156 374Q156 342 185 329T275 302Q330 290 365 278T424 239T449 166Q449 85 383 40T206 -6Q140 -6 81 11Z" />
<glyph unicode="t" glyph-name="t" horiz-adv-x="395" d="M163 169Q160 154 160 141Q160 110 177 93T229 75Q271 75 305 100L325 27Q277 -6 202 -6Q139 -6 101 29T63 126Q63 148 67 167L163 646H259L236 530H387L371 451H220L163 169Z" />
<glyph unicode="u" glyph-name="u" horiz-adv-x="720" d="M654 75T676 84L667 6Q636 -6 596 -6Q544 -6 512 18T471 85Q433 39 381 17T264 -6Q176 -6 125 41T74 172Q74 200 80 233L139 530H235L176 232Q171 205 171 187Q171 135 201 108T292 80Q368 80 418 123T486
249L542 530H638L565 162Q562 147 562 136Q562 106 579 91T628 75Q654 75 676 84Z" />
<glyph unicode="v" glyph-name="v" horiz-adv-x="559" d="M613 530L276 0H178L51 530H147L246 105L516 530H613Z" />
<glyph unicode="w" glyph-name="w" horiz-adv-x="975" d="M947 530L893 234Q870 116 802 55T633 -6Q567 -6 523 18T457 85Q421 39 370 17T262 -6Q166 -6 115 43T63 177Q63 204 69 234L126 530H216L161 236Q156 214 156 187Q156 80 274 80Q337 80 378 118T435 232L491
530H581L526 236Q521 206 521 187Q521 80 639 80Q772 80 803 243L857 530H947Z" />
<glyph unicode="x" glyph-name="x" horiz-adv-x="552" d="M328 267L482 0H380L266 204L72 0H-40L227 274L81 530H181L289 338L473 530H582L328 267Z" />
<glyph unicode="y" glyph-name="y" horiz-adv-x="677" d="M638 530L545 64Q517 -76 445 -138T245 -200Q174 -200 115 -180T16 -121L67 -47Q100 -80 148 -97T252 -115Q339 -115 384 -74T448 60L454 90Q383 22 269 22Q181 22 130 68T79 200Q79 228 85 261L139 530H235L181
260Q176 233 176 216Q176 164 206 136T297 108Q374 108 424 150T492 277L542 530H638Z" />
<glyph unicode="z" glyph-name="z" horiz-adv-x="531" d="M521 467L360 305H460L445 229H284L135 79H451L435 0H-9L4 62L171 230H80L95 306H246L390 451H90L105 530H534L521 467Z" />
<glyph unicode="{" glyph-name="braceleft" horiz-adv-x="352" d="M427 742L411 661H387Q347 661 326 643T298 590L253 366Q244 322 228 302T180 273Q219 258 219 212Q219 199 216 182L174 -29Q171 -44 171 -56Q171 -84 186 -98T230 -113H256L240 -194H196Q138
-194 105 -164T72 -79Q72 -58 76 -39L121 184Q123 196 123 200Q123 234 87 234H52L67 314H102Q146 314 156 364L204 600Q218 673 260 707T383 742H427Z" />
<glyph unicode="|" glyph-name="bar" horiz-adv-x="299" d="M200 742H289L102 -194H13L200 742Z" />
<glyph unicode="}" glyph-name="braceright" horiz-adv-x="352" d="M303 314L288 234H253Q209 234 199 184L151 -52Q137 -125 95 -159T-28 -194H-72L-56 -113H-32Q8 -113 29 -95T57 -42L102 182Q111 226 127 247T175 275Q136 290 136 336Q136 350 139 366L181
577Q184 592 184 604Q184 632 169 646T125 661H99L115 742H159Q217 742 250 712T283 627Q283 606 279 587L234 364Q232 352 232 348Q232 314 268 314H303Z" />
<glyph unicode="~" glyph-name="asciitilde" horiz-adv-x="582" d="M368 265T343 279T288 321Q266 342 250 352T213 362Q180 362 156 338T124 272H61Q72 352 114 394T211 436Q250 436 274 422T330 380Q352 359 367 349T404 339Q437 339 461 363T494 430H556Q544
350 503 308T407 265Q368 265 343 279Z" />
<glyph unicode="&#xa0;" glyph-name="uni00A0" horiz-adv-x="269" />
<glyph unicode="&#xa1;" glyph-name="exclamdown" horiz-adv-x="268" d="M146 407T128 424T110 466Q110 495 129 515T178 535Q205 535 222 518T240 475Q240 446 221 427T173 407Q146 407 128 424ZM105 309H180L106 -154H-7L105 309Z" />
<glyph unicode="&#xa2;" glyph-name="cent" horiz-adv-x="571" d="M352 81T389 100T452 153L522 103Q485 52 424 23T291 -6L268 -120H204L228 -1Q139 16 89 75T38 223Q38 309 75 378T180 489T334 535L357 650H422L398 532Q517 515 568 420L487 375Q454 436 382
448L308 78Q352 81 389 100ZM135 169T163 132T244 83L317 450Q264 444 223 414T159 335T135 227Q135 169 163 132Z" />
<glyph unicode="&#xa3;" glyph-name="sterling" horiz-adv-x="646" d="M404 619T348 576T274 438L263 383H528L515 317H250L204 87H580L562 0H-23L-5 87H104L150 317H39L53 383H163L176 448Q202 578 290 643T505 708Q637 708 705 655L661 575Q600 619 499 619Q404
619 348 576Z" />
<glyph unicode="&#xa4;" glyph-name="currency" horiz-adv-x="700" d="M632 231T576 159L679 57L623 -2L517 103Q445 55 360 55Q317 55 277 67T203 104L96 -2L42 57L144 160Q89 231 89 319Q89 406 142 477L42 578L96 637L201 533Q273 584 360 584Q446 584 519
534L623 637L679 578L578 478Q632 407 632 319Q632 231 576 159ZM412 134T457 159T528 226T555 319Q555 369 529 412T457 480T360 505Q308 505 264 480T194 412T168 319Q168 269 194 227T264 159T360 134Q412 134 457 159Z" />
<glyph unicode="&#xa5;" glyph-name="yen" horiz-adv-x="707" d="M444 312H623L611 255H401L385 174H595L583 117H373L350 0H251L274 117H63L75 174H286L302 255H91L103 312H290L84 700H186L370 346L693 700H798L444 312Z" />
<glyph unicode="&#xa6;" glyph-name="brokenbar" horiz-adv-x="299" d="M200 742H289L219 392H130L200 742ZM83 156H172L102 -194H13L83 156Z" />
<glyph unicode="&#xa7;" glyph-name="section" horiz-adv-x="500" d="M279 629T239 603T198 536Q198 502 226 486T312 454Q364 439 395 426T450 384T473 308Q473 259 444 221T367 159Q404 125 404 69Q404 18 374 -22T288 -84T162 -106Q104 -106 53 -89T-33 -42L7
30Q42 1 82 -13T174 -28Q240 -28 279 -2T318 65Q318 99 290 114T203 147Q151 162 119 176T64 219T41 293Q41 339 70 379T148 442Q112 475 112 532Q112 584 143 623T231 684T359 706Q412 706 463 693T547 656L508 584Q477 607 437 618T352 629Q279 629 239 603ZM389
336T360 353T270 387Q249 392 221 401Q175 387 150 361T125 301Q125 277 140 261T178 236T242 215Q288 201 295 199Q340 212 364 238T389 299Q389 336 360 353Z" />
<glyph unicode="&#xa8;" glyph-name="dieresis" horiz-adv-x="600" d="M266 624T252 637T238 670Q238 695 254 711T292 727Q313 727 326 714T340 680Q340 656 324 640T286 624Q266 624 252 637ZM451 624T437 637T423 670Q423 695 439 711T478 727Q498 727 512
714T526 680Q526 656 510 640T471 624Q451 624 437 637Z" />
<glyph unicode="&#xa9;" glyph-name="copyright" horiz-adv-x="802" d="M319 -3T239 44T112 172T65 350Q65 447 111 528T239 656T419 703Q518 703 598 657T725 531T771 352Q771 254 724 173T596 44T417 -3Q319 -3 239 44ZM503 42T573 83T683 195T724 352Q724 438
685 508T576 618T419 658Q333 658 263 617T152 506T112 350Q112 265 152 195T262 83T417 42Q503 42 573 83ZM367 144T320 170T245 243T218 350Q218 410 245 457T319 530T428 556Q480 556 523 534T590 475L533 434Q497 488 427 488Q369 488 331 450T293 350Q293
288 331 250T427 212Q497 212 533 266L590 226Q566 188 523 166T428 144Q367 144 320 170Z" />
<glyph unicode="&#xaa;" glyph-name="ordfeminine" horiz-adv-x="405" d="M343 747T378 721T413 644Q413 634 409 610L372 428H308L316 467Q273 424 202 424Q148 424 118 448T87 507Q87 557 127 583T235 610H341L342 617Q344 631 344 636Q344 664 324 679T267
694Q237 694 206 686T153 661L134 707Q160 726 199 736T278 747Q343 747 378 721ZM283 472T321 516L332 567H237Q196 567 175 554T154 514Q154 494 170 483T219 472Q283 472 321 516Z" />
<glyph unicode="&#xab;" glyph-name="guillemotleft" horiz-adv-x="504" d="M140 261L237 74H151L46 265L228 457H318L140 261ZM332 261L429 74H343L238 265L420 457H510L332 261Z" />
<glyph unicode="&#xac;" glyph-name="logicalnot" horiz-adv-x="584" d="M490 133H405L441 311H77L92 390H540L490 133Z" />
<glyph unicode="&#xad;" glyph-name="uni00AD" horiz-adv-x="383" d="M68 316H337L320 233H52L68 316Z" />
<glyph unicode="&#xae;" glyph-name="registered" horiz-adv-x="802" d="M518 703T598 657T725 531T771 352Q771 254 724 173T596 44T417 -3Q319 -3 239 44T112 172T65 350Q65 447 111 528T239 656T419 703Q518 703 598 657ZM503 42T573 83T683 195T724 352Q724
438 685 508T576 618T419 658Q333 658 263 617T152 506T112 350Q112 265 152 195T262 83T417 42Q503 42 573 83ZM598 369T576 337T514 290L605 150H536L453 278H436H344V150H276V550H436Q511 550 554 514T598 414Q598 369 576 337ZM479 334T505 355T532 414Q532
452 506 472T431 493H343V334H431Q479 334 505 355Z" />
<glyph unicode="&#xaf;" glyph-name="overscore" horiz-adv-x="600" d="M223 702H550L538 642H212L223 702Z" />
<glyph unicode="&#xb0;" glyph-name="degree" horiz-adv-x="418" d="M220 381T183 402T123 461T101 544Q101 588 123 625T182 684T266 706Q311 706 348 685T408 626T430 544Q430 499 408 462T349 403T266 381Q220 381 183 402ZM312 435T343 466T374 544Q374 590
343 621T266 653Q219 653 188 622T157 544Q157 497 188 466T266 435Q312 435 343 466Z" />
<glyph unicode="&#xb1;" glyph-name="plusminus" horiz-adv-x="582" d="M548 438L532 359H351L316 185H232L267 359H85L101 438H282L317 612H401L366 438H548ZM30 81H478L462 0H15L30 81Z" />
<glyph unicode="&#xb2;" glyph-name="uni00B2" horiz-adv-x="430" d="M181 385H403L392 327H57L66 372L282 528Q329 561 346 583T363 630Q363 657 340 672T274 687Q200 687 153 643L110 682Q139 713 183 730T283 747Q353 747 393 717T434 637Q434 600 413 569T329
492L181 385Z" />
<glyph unicode="&#xb3;" glyph-name="uni00B3" horiz-adv-x="430" d="M447 697L306 569Q360 563 389 535T419 464Q419 399 365 361T222 322Q168 322 123 336T54 374L85 427Q110 406 147 394T227 382Q284 382 316 402T349 459Q349 487 327 502T260 517H207L217
564L349 684H123L135 742H456L447 697Z" />
<glyph unicode="&#xb4;" glyph-name="acute" horiz-adv-x="600" d="M442 737H567L385 607H291L442 737Z" />
<glyph unicode="&#xb5;" glyph-name="uni00B5" horiz-adv-x="682" d="M643 530L538 0H446L459 67Q423 31 379 13T289 -6Q190 -6 145 49L96 -194H0L144 530H240L181 232Q176 205 176 188Q176 136 206 108T297 80Q373 80 423 123T491 249L547 530H643Z" />
<glyph unicode="&#xb6;" glyph-name="paragraph" horiz-adv-x="648" d="M249 384Q172 386 124 426T76 536Q76 638 147 690T340 742H638L470 -100H390L543 667H386L233 -100H153L249 384Z" />
<glyph unicode="&#xb7;" glyph-name="middot" horiz-adv-x="267" d="M105 206T87 224T68 270Q68 301 88 321T138 342Q166 342 184 324T202 278Q202 247 181 227T132 206Q105 206 87 224Z" />
<glyph unicode="&#xb8;" glyph-name="cedilla" horiz-adv-x="600" d="M131 -224T97 -202L122 -153Q152 -170 191 -170Q222 -170 238 -158T254 -126Q254 -91 203 -91H177L221 7H276L251 -49Q285 -54 303 -73T322 -121Q322 -169 284 -196T184 -224Q131 -224 97 -202Z" />
<glyph unicode="&#xb9;" glyph-name="uni00B9" horiz-adv-x="430" d="M393 383L383 327H92L103 383H219L280 686H173L184 742H362L290 383H393Z" />
<glyph unicode="&#xba;" glyph-name="ordmasculine" horiz-adv-x="419" d="M182 424T138 463T94 566Q94 618 120 659T192 723T295 747Q365 747 409 708T453 607Q453 555 427 513T356 448T253 424Q182 424 138 463ZM313 482T349 516T385 604Q385 643 359 666T289
690Q232 690 197 655T162 568Q162 529 188 506T258 482Q313 482 349 516Z" />
<glyph unicode="&#xbb;" glyph-name="guillemotright" horiz-adv-x="505" d="M267 265L85 74H-6L173 268L75 457H162L267 265ZM459 265L277 74H186L365 268L267 457H354L459 265Z" />
<glyph unicode="&#xbc;" glyph-name="onequarter" horiz-adv-x="1034" d="M385 341L375 285H84L95 341H211L272 644H165L176 700H354L282 341H385ZM799 700H881L268 0H187L799 700ZM975 99H892L872 0H803L824 99H593L602 146L854 415H935L692 157H840L857 240H920L903
157H987L975 99Z" />
<glyph unicode="&#xbd;" glyph-name="onehalf" horiz-adv-x="1034" d="M385 341L375 285H84L95 341H211L272 644H165L176 700H354L282 341H385ZM799 700H881L268 0H187L799 700ZM720 58H942L931 0H596L605 45L821 201Q868 234 885 256T902 303Q902 330 879 345T813
360Q739 360 692 316L649 355Q678 386 722 403T822 420Q892 420 932 390T973 310Q973 273 952 242T868 165L720 58Z" />
<glyph unicode="&#xbe;" glyph-name="threequarters" horiz-adv-x="1034" d="M439 655L298 527Q352 521 381 493T411 422Q411 357 357 319T214 280Q160 280 115 294T46 332L77 385Q102 364 139 352T219 340Q276 340 308 360T341 417Q341 445 319 460T252 475H199L209
522L341 642H115L127 700H448L439 655ZM799 700H881L268 0H187L799 700ZM975 99H892L872 0H803L824 99H593L602 146L854 415H935L692 157H840L857 240H920L903 157H987L975 99Z" />
<glyph unicode="&#xbf;" glyph-name="questiondown" horiz-adv-x="573" d="M309 407T292 424T274 467Q274 496 293 515T341 535Q368 535 385 518T403 475Q403 446 384 427T336 407Q309 407 292 424ZM135 -162T77 -120T19 -5Q19 41 36 75T79 132T146 185Q194 220
220 246T256 309H356Q346 256 314 222T224 146Q171 108 145 80T119 9Q119 -30 153 -53T249 -77Q367 -77 438 3L502 -54Q458 -106 390 -134T234 -162Q135 -162 77 -120Z" />
<glyph unicode="&#xc0;" glyph-name="Agrave" horiz-adv-x="800" d="M595 708T664 646T734 472Q734 434 725 390L648 0H548L587 193H183L144 0H46L127 403Q186 708 472 708Q595 708 664 646ZM604 280L627 396Q634 430 634 463Q634 540 590 579T463 619Q364 619
306 567T224 401L200 280H604ZM341 887H462L574 757H483L341 887Z" />
<glyph unicode="&#xc1;" glyph-name="Aacute" horiz-adv-x="800" d="M595 708T664 646T734 472Q734 434 725 390L648 0H548L587 193H183L144 0H46L127 403Q186 708 472 708Q595 708 664 646ZM604 280L627 396Q634 430 634 463Q634 540 590 579T463 619Q364 619
306 567T224 401L200 280H604ZM572 887H697L515 757H421L572 887Z" />
<glyph unicode="&#xc2;" glyph-name="Acircumflex" horiz-adv-x="800" d="M595 708T664 646T734 472Q734 434 725 390L648 0H548L587 193H183L144 0H46L127 403Q186 708 472 708Q595 708 664 646ZM604 280L627 396Q634 430 634 463Q634 540 590 579T463 619Q364
619 306 567T224 401L200 280H604ZM593 757L510 833L409 757H320L469 887H560L677 757H593Z" />
<glyph unicode="&#xc3;" glyph-name="Atilde" horiz-adv-x="800" d="M595 708T664 646T734 472Q734 434 725 390L648 0H548L587 193H183L144 0H46L127 403Q186 708 472 708Q595 708 664 646ZM604 280L627 396Q634 430 634 463Q634 540 590 579T463 619Q364 619
306 567T224 401L200 280H604ZM554 760T537 769T497 798Q480 813 469 820T444 827Q423 827 409 810T389 765H334Q343 822 372 854T445 887Q468 887 485 877T524 848Q542 833 553 826T578 819Q599 819 614 835T634 879H688Q679 823 650 792T578 760Q554 760 537
769Z" />
<glyph unicode="&#xc4;" glyph-name="Adieresis" horiz-adv-x="800" d="M595 708T664 646T734 472Q734 434 725 390L648 0H548L587 193H183L144 0H46L127 403Q186 708 472 708Q595 708 664 646ZM604 280L627 396Q634 430 634 463Q634 540 590 579T463 619Q364
619 306 567T224 401L200 280H604ZM396 774T382 787T368 820Q368 845 384 861T422 877Q443 877 456 864T470 830Q470 806 454 790T416 774Q396 774 382 787ZM581 774T567 787T553 820Q553 845 569 861T608 877Q628 877 642 864T656 830Q656 806 640 790T601 774Q581
774 567 787Z" />
<glyph unicode="&#xc5;" glyph-name="Aring" horiz-adv-x="800" d="M595 708T664 646T734 472Q734 434 725 390L648 0H548L587 193H183L144 0H46L127 403Q186 708 472 708Q595 708 664 646ZM604 280L627 396Q634 430 634 463Q634 540 590 579T463 619Q364 619
306 567T224 401L200 280H604ZM474 764T443 795T411 872Q411 917 443 949T521 982Q568 982 600 950T632 872Q632 827 600 796T521 764Q474 764 443 795ZM550 806T568 825T587 872Q587 901 568 920T521 939Q493 939 475 920T456 872Q456 844 474 825T521 806Q550
806 568 825Z" />
<glyph unicode="&#xc6;" glyph-name="AE" horiz-adv-x="1083" d="M694 615L650 396H1003L988 315H634L588 85H999L982 0H473L514 203H177L137 0H37L116 397Q145 544 235 622T466 700H1108L1090 615H694ZM595 610H462Q364 610 300 553T214 387L194 287H530L595 610Z" />
<glyph unicode="&#xc7;" glyph-name="Ccedilla" horiz-adv-x="723" d="M290 -8T215 29T100 132T60 287Q60 404 113 500T263 652T489 708Q576 708 643 680T746 599L674 537Q611 619 482 619Q385 619 312 575T200 457T160 293Q160 196 222 139T401 81Q530 81 613
164L671 98Q623 46 552 19T394 -8Q290 -8 215 29ZM243 -224T209 -202L234 -153Q264 -170 303 -170Q334 -170 350 -158T366 -126Q366 -91 315 -91H289L333 7H388L363 -49Q397 -54 415 -73T434 -121Q434 -169 396 -196T296 -224Q243 -224 209 -202Z" />
<glyph unicode="&#xc8;" glyph-name="Egrave" d="M338 622T284 586T229 488Q229 444 260 421T350 397H530L513 311H321Q235 311 185 278T134 186Q134 134 180 106T317 78Q391 78 456 97T563 149L596 71Q546 35 468 14T305 -8Q180 -8 107 40T34 175Q34 244 77 294T194
365Q163 383 146 414T129 486Q129 553 167 603T276 680T438 708Q508 708 567 694T670 653L635 574Q550 622 432 622Q338 622 284 586ZM292 887H413L525 757H434L292 887Z" />
<glyph unicode="&#xc9;" glyph-name="Eacute" d="M338 622T284 586T229 488Q229 444 260 421T350 397H530L513 311H321Q235 311 185 278T134 186Q134 134 180 106T317 78Q391 78 456 97T563 149L596 71Q546 35 468 14T305 -8Q180 -8 107 40T34 175Q34 244 77 294T194
365Q163 383 146 414T129 486Q129 553 167 603T276 680T438 708Q508 708 567 694T670 653L635 574Q550 622 432 622Q338 622 284 586ZM523 887H648L466 757H372L523 887Z" />
<glyph unicode="&#xca;" glyph-name="Ecircumflex" d="M338 622T284 586T229 488Q229 444 260 421T350 397H530L513 311H321Q235 311 185 278T134 186Q134 134 180 106T317 78Q391 78 456 97T563 149L596 71Q546 35 468 14T305 -8Q180 -8 107 40T34 175Q34 244
77 294T194 365Q163 383 146 414T129 486Q129 553 167 603T276 680T438 708Q508 708 567 694T670 653L635 574Q550 622 432 622Q338 622 284 586ZM544 757L461 833L360 757H271L420 887H511L628 757H544Z" />
<glyph unicode="&#xcb;" glyph-name="Edieresis" d="M338 622T284 586T229 488Q229 444 260 421T350 397H530L513 311H321Q235 311 185 278T134 186Q134 134 180 106T317 78Q391 78 456 97T563 149L596 71Q546 35 468 14T305 -8Q180 -8 107 40T34 175Q34 244 77
294T194 365Q163 383 146 414T129 486Q129 553 167 603T276 680T438 708Q508 708 567 694T670 653L635 574Q550 622 432 622Q338 622 284 586ZM347 774T333 787T319 820Q319 845 335 861T373 877Q394 877 407 864T421 830Q421 806 405 790T367 774Q347 774 333
787ZM532 774T518 787T504 820Q504 845 520 861T559 877Q579 877 593 864T607 830Q607 806 591 790T552 774Q532 774 518 787Z" />
<glyph unicode="&#xcc;" glyph-name="Igrave" horiz-adv-x="456" d="M348 616L242 84H377L361 0H-11L5 84H142L249 616H113L129 700H501L485 616H348ZM169 887H290L402 757H311L169 887Z" />
<glyph unicode="&#xcd;" glyph-name="Iacute" horiz-adv-x="456" d="M348 616L242 84H377L361 0H-11L5 84H142L249 616H113L129 700H501L485 616H348ZM400 887H525L343 757H249L400 887Z" />
<glyph unicode="&#xce;" glyph-name="Icircumflex" horiz-adv-x="456" d="M348 616L242 84H377L361 0H-11L5 84H142L249 616H113L129 700H501L485 616H348ZM421 757L338 833L237 757H148L297 887H388L505 757H421Z" />
<glyph unicode="&#xcf;" glyph-name="Idieresis" horiz-adv-x="456" d="M348 616L242 84H377L361 0H-11L5 84H142L249 616H113L129 700H501L485 616H348ZM224 774T210 787T196 820Q196 845 212 861T250 877Q271 877 284 864T298 830Q298 806 282 790T244 774Q224
774 210 787ZM409 774T395 787T381 820Q381 845 397 861T436 877Q456 877 470 864T484 830Q484 806 468 790T429 774Q409 774 395 787Z" />
<glyph unicode="&#xd0;" glyph-name="Eth" horiz-adv-x="834" d="M200 700H474Q579 700 654 665T769 565T809 413Q809 291 755 197T602 52T373 0H60L200 700ZM376 87Q477 87 552 128T667 241T708 407Q708 504 646 558T464 613H282L177 87H376ZM36 396H436L421
317H20L36 396Z" />
<glyph unicode="&#xd1;" glyph-name="Ntilde" horiz-adv-x="798" d="M609 708T672 649T735 481Q735 442 726 398L646 0H547L627 402Q635 442 635 471Q635 544 594 581T473 619Q382 619 319 567T233 408L152 0H52L192 700H288L270 609Q355 708 501 708Q609 708
672 649ZM556 760T539 769T499 798Q482 813 471 820T446 827Q425 827 411 810T391 765H336Q345 822 374 854T447 887Q470 887 487 877T526 848Q544 833 555 826T580 819Q601 819 616 835T636 879H690Q681 823 652 792T580 760Q556 760 539 769Z" />
<glyph unicode="&#xd2;" glyph-name="Ograve" horiz-adv-x="840" d="M286 -8T212 29T99 132T60 287Q60 404 113 500T262 652T485 708Q588 708 662 671T776 568T815 413Q815 296 762 200T612 48T389 -8Q286 -8 212 29ZM492 81T564 125T675 243T714 407Q714 504
653 561T477 619Q383 619 311 575T200 456T160 293Q160 196 222 139T398 81Q492 81 564 125ZM361 887H482L594 757H503L361 887Z" />
<glyph unicode="&#xd3;" glyph-name="Oacute" horiz-adv-x="840" d="M286 -8T212 29T99 132T60 287Q60 404 113 500T262 652T485 708Q588 708 662 671T776 568T815 413Q815 296 762 200T612 48T389 -8Q286 -8 212 29ZM492 81T564 125T675 243T714 407Q714 504
653 561T477 619Q383 619 311 575T200 456T160 293Q160 196 222 139T398 81Q492 81 564 125ZM592 887H717L535 757H441L592 887Z" />
<glyph unicode="&#xd4;" glyph-name="Ocircumflex" horiz-adv-x="840" d="M286 -8T212 29T99 132T60 287Q60 404 113 500T262 652T485 708Q588 708 662 671T776 568T815 413Q815 296 762 200T612 48T389 -8Q286 -8 212 29ZM492 81T564 125T675 243T714 407Q714
504 653 561T477 619Q383 619 311 575T200 456T160 293Q160 196 222 139T398 81Q492 81 564 125ZM613 757L530 833L429 757H340L489 887H580L697 757H613Z" />
<glyph unicode="&#xd5;" glyph-name="Otilde" horiz-adv-x="840" d="M286 -8T212 29T99 132T60 287Q60 404 113 500T262 652T485 708Q588 708 662 671T776 568T815 413Q815 296 762 200T612 48T389 -8Q286 -8 212 29ZM492 81T564 125T675 243T714 407Q714 504
653 561T477 619Q383 619 311 575T200 456T160 293Q160 196 222 139T398 81Q492 81 564 125ZM574 760T557 769T517 798Q500 813 489 820T464 827Q443 827 429 810T409 765H354Q363 822 392 854T465 887Q488 887 505 877T544 848Q562 833 573 826T598 819Q619 819
634 835T654 879H708Q699 823 670 792T598 760Q574 760 557 769Z" />
<glyph unicode="&#xd6;" glyph-name="Odieresis" horiz-adv-x="840" d="M286 -8T212 29T99 132T60 287Q60 404 113 500T262 652T485 708Q588 708 662 671T776 568T815 413Q815 296 762 200T612 48T389 -8Q286 -8 212 29ZM492 81T564 125T675 243T714 407Q714 504
653 561T477 619Q383 619 311 575T200 456T160 293Q160 196 222 139T398 81Q492 81 564 125ZM416 774T402 787T388 820Q388 845 404 861T442 877Q463 877 476 864T490 830Q490 806 474 790T436 774Q416 774 402 787ZM601 774T587 787T573 820Q573 845 589 861T628
877Q648 877 662 864T676 830Q676 806 660 790T621 774Q601 774 587 787Z" />
<glyph unicode="&#xd7;" glyph-name="multiply" horiz-adv-x="582" d="M363 347L475 217L417 162L304 294L158 162L109 221L253 352L141 483L199 538L313 406L458 538L508 479L363 347Z" />
<glyph unicode="&#xd8;" glyph-name="Oslash" horiz-adv-x="840" d="M286 -8T212 29T99 132T60 287Q60 404 113 500T262 652T485 708Q588 708 662 671T776 568T815 413Q815 296 762 200T612 48T389 -8Q286 -8 212 29ZM492 81T564 125T675 243T714 407Q714 504
653 561T477 619Q383 619 311 575T200 456T160 293Q160 196 222 139T398 81Q492 81 564 125ZM782 770H863L93 -70H12L782 770Z" />
<glyph unicode="&#xd9;" glyph-name="Ugrave" horiz-adv-x="795" d="M777 700L637 0H541L559 90Q473 -8 330 -8Q222 -8 160 51T98 217Q98 257 107 302L186 700H286L205 298Q198 263 198 230Q198 156 239 119T358 81Q449 81 512 133T596 292L678 700H777ZM335 887H456L568
757H477L335 887Z" />
<glyph unicode="&#xda;" glyph-name="Uacute" horiz-adv-x="795" d="M777 700L637 0H541L559 90Q473 -8 330 -8Q222 -8 160 51T98 217Q98 257 107 302L186 700H286L205 298Q198 263 198 230Q198 156 239 119T358 81Q449 81 512 133T596 292L678 700H777ZM566 887H691L509
757H415L566 887Z" />
<glyph unicode="&#xdb;" glyph-name="Ucircumflex" horiz-adv-x="795" d="M777 700L637 0H541L559 90Q473 -8 330 -8Q222 -8 160 51T98 217Q98 257 107 302L186 700H286L205 298Q198 263 198 230Q198 156 239 119T358 81Q449 81 512 133T596 292L678 700H777ZM587
757L504 833L403 757H314L463 887H554L671 757H587Z" />
<glyph unicode="&#xdc;" glyph-name="Udieresis" horiz-adv-x="795" d="M777 700L637 0H541L559 90Q473 -8 330 -8Q222 -8 160 51T98 217Q98 257 107 302L186 700H286L205 298Q198 263 198 230Q198 156 239 119T358 81Q449 81 512 133T596 292L678 700H777ZM390
774T376 787T362 820Q362 845 378 861T416 877Q437 877 450 864T464 830Q464 806 448 790T410 774Q390 774 376 787ZM575 774T561 787T547 820Q547 845 563 861T602 877Q622 877 636 864T650 830Q650 806 634 790T595 774Q575 774 561 787Z" />
<glyph unicode="&#xdd;" glyph-name="Yacute" horiz-adv-x="787" d="M775 700L675 198Q645 46 556 -30T325 -106Q235 -106 168 -79T59 -2L112 75Q191 -16 330 -16Q532 -16 577 204L589 266Q505 173 365 173Q256 173 193 232T129 398Q129 437 138 482L181 700H281L237
479Q229 439 229 411Q229 337 271 300T392 262Q483 262 546 314T630 473L676 700H775ZM563 887H688L506 757H412L563 887Z" />
<glyph unicode="&#xde;" glyph-name="Thorn" horiz-adv-x="722" d="M559 613T626 560T693 409Q693 320 653 256T539 159T364 125H177L152 0H52L192 700H292L275 613H438Q559 613 626 560ZM475 212T534 260T593 399Q593 462 550 494T426 527H257L194 212H366Q475
212 534 260Z" />
<glyph unicode="&#xdf;" glyph-name="germandbls" horiz-adv-x="675" d="M564 365T593 326T622 231Q622 160 587 106T491 23T350 -6Q317 -6 283 -1T229 13L255 93Q296 78 350 78Q429 78 477 117T525 227Q525 278 489 304T388 330H333L350 411Q434 412 486 454T538
567Q538 613 508 638T420 664Q347 664 299 625T235 504L134 0H38L137 497Q162 624 238 686T427 748Q521 748 576 702T631 577Q631 514 600 463T513 383Q564 365 593 326Z" />
<glyph unicode="&#xe0;" glyph-name="agrave" horiz-adv-x="726" d="M660 75T682 84L672 6Q642 -6 601 -6Q550 -6 517 17T476 82Q439 39 388 17T272 -6Q204 -6 151 21T68 101T38 223Q38 313 77 384T184 495T338 535Q406 535 454 511T529 440L547 530H643L570 162Q567
147 567 136Q567 106 584 91T633 75Q660 75 682 84ZM352 78T399 106T473 186T500 302Q500 373 459 412T342 451Q283 451 236 423T162 343T135 227Q135 157 176 118T293 78Q352 78 399 106ZM245 737H366L478 607H387L245 737Z" />
<glyph unicode="&#xe1;" glyph-name="aacute" horiz-adv-x="726" d="M660 75T682 84L672 6Q642 -6 601 -6Q550 -6 517 17T476 82Q439 39 388 17T272 -6Q204 -6 151 21T68 101T38 223Q38 313 77 384T184 495T338 535Q406 535 454 511T529 440L547 530H643L570 162Q567
147 567 136Q567 106 584 91T633 75Q660 75 682 84ZM352 78T399 106T473 186T500 302Q500 373 459 412T342 451Q283 451 236 423T162 343T135 227Q135 157 176 118T293 78Q352 78 399 106ZM476 737H601L419 607H325L476 737Z" />
<glyph unicode="&#xe2;" glyph-name="acircumflex" horiz-adv-x="726" d="M660 75T682 84L672 6Q642 -6 601 -6Q550 -6 517 17T476 82Q439 39 388 17T272 -6Q204 -6 151 21T68 101T38 223Q38 313 77 384T184 495T338 535Q406 535 454 511T529 440L547 530H643L570
162Q567 147 567 136Q567 106 584 91T633 75Q660 75 682 84ZM352 78T399 106T473 186T500 302Q500 373 459 412T342 451Q283 451 236 423T162 343T135 227Q135 157 176 118T293 78Q352 78 399 106ZM497 607L414 683L313 607H224L373 737H464L581 607H497Z" />
<glyph unicode="&#xe3;" glyph-name="atilde" horiz-adv-x="726" d="M660 75T682 84L672 6Q642 -6 601 -6Q550 -6 517 17T476 82Q439 39 388 17T272 -6Q204 -6 151 21T68 101T38 223Q38 313 77 384T184 495T338 535Q406 535 454 511T529 440L547 530H643L570 162Q567
147 567 136Q567 106 584 91T633 75Q660 75 682 84ZM352 78T399 106T473 186T500 302Q500 373 459 412T342 451Q283 451 236 423T162 343T135 227Q135 157 176 118T293 78Q352 78 399 106ZM458 610T441 619T401 648Q384 663 373 670T348 677Q327 677 313 660T293
615H238Q247 672 276 704T349 737Q372 737 389 727T428 698Q446 683 457 676T482 669Q503 669 518 685T538 729H592Q583 673 554 642T482 610Q458 610 441 619Z" />
<glyph unicode="&#xe4;" glyph-name="adieresis" horiz-adv-x="726" d="M660 75T682 84L672 6Q642 -6 601 -6Q550 -6 517 17T476 82Q439 39 388 17T272 -6Q204 -6 151 21T68 101T38 223Q38 313 77 384T184 495T338 535Q406 535 454 511T529 440L547 530H643L570
162Q567 147 567 136Q567 106 584 91T633 75Q660 75 682 84ZM352 78T399 106T473 186T500 302Q500 373 459 412T342 451Q283 451 236 423T162 343T135 227Q135 157 176 118T293 78Q352 78 399 106ZM300 624T286 637T272 670Q272 695 288 711T326 727Q347 727 360
714T374 680Q374 656 358 640T320 624Q300 624 286 637ZM485 624T471 637T457 670Q457 695 473 711T512 727Q532 727 546 714T560 680Q560 656 544 640T505 624Q485 624 471 637Z" />
<glyph unicode="&#xe5;" glyph-name="aring" horiz-adv-x="726" d="M660 75T682 84L672 6Q642 -6 601 -6Q550 -6 517 17T476 82Q439 39 388 17T272 -6Q204 -6 151 21T68 101T38 223Q38 313 77 384T184 495T338 535Q406 535 454 511T529 440L547 530H643L570 162Q567
147 567 136Q567 106 584 91T633 75Q660 75 682 84ZM352 78T399 106T473 186T500 302Q500 373 459 412T342 451Q283 451 236 423T162 343T135 227Q135 157 176 118T293 78Q352 78 399 106ZM374 594T343 625T311 702Q311 747 343 779T421 812Q468 812 500 780T532
702Q532 657 500 626T421 594Q374 594 343 625ZM450 636T468 655T487 702Q487 731 468 750T421 769Q393 769 375 750T356 702Q356 674 374 655T421 636Q450 636 468 655Z" />
<glyph unicode="&#xe6;" glyph-name="ae" horiz-adv-x="985" d="M820 535T884 474T949 300Q949 284 948 275L509 194Q527 78 679 78Q776 78 839 139L881 70Q797 -6 670 -6Q595 -6 537 22T449 105Q413 47 355 21T225 -6Q131 -6 79 33T27 140Q27 216 86 260T257
305H422L425 321Q429 337 429 356Q429 403 398 427T305 451Q257 451 211 436T131 396L102 472Q144 502 202 518T320 535Q392 535 438 513T503 447Q543 489 597 512T712 535Q820 535 884 474ZM628 455T573 403T508 264L860 329Q855 389 814 422T708 455Q628 455
573 403ZM297 68T342 101T401 201L408 236H249Q189 236 156 212T122 146Q122 109 150 89T234 68Q297 68 342 101Z" />
<glyph unicode="&#xe7;" glyph-name="ccedilla" horiz-adv-x="571" d="M214 -6T157 22T69 102T38 223Q38 312 78 383T189 494T350 535Q507 535 568 420L487 375Q445 451 343 451Q284 451 237 423T162 343T135 227Q135 157 176 118T294 78Q342 78 383 97T452 153L522
103Q485 52 423 23T290 -6Q214 -6 157 22ZM161 -224T127 -202L152 -153Q182 -170 221 -170Q252 -170 268 -158T284 -126Q284 -91 233 -91H207L251 7H306L281 -49Q315 -54 333 -73T352 -121Q352 -169 314 -196T214 -224Q161 -224 127 -202Z" />
<glyph unicode="&#xe8;" glyph-name="egrave" horiz-adv-x="606" d="M445 535T509 474T574 300Q574 284 573 275L135 194Q154 78 300 78Q350 78 393 94T464 139L505 70Q466 33 411 14T292 -6Q214 -6 157 22T69 102T38 224Q38 312 76 383T182 494T336 535Q445 535
509 474ZM252 455T198 403T134 264L485 329Q480 389 439 422T333 455Q252 455 198 403ZM210 736H331L443 606H352L210 736Z" />
<glyph unicode="&#xe9;" glyph-name="eacute" horiz-adv-x="606" d="M445 535T509 474T574 300Q574 284 573 275L135 194Q154 78 300 78Q350 78 393 94T464 139L505 70Q466 33 411 14T292 -6Q214 -6 157 22T69 102T38 224Q38 312 76 383T182 494T336 535Q445 535
509 474ZM252 455T198 403T134 264L485 329Q480 389 439 422T333 455Q252 455 198 403ZM441 736H566L384 606H290L441 736Z" />
<glyph unicode="&#xea;" glyph-name="ecircumflex" horiz-adv-x="606" d="M445 535T509 474T574 300Q574 284 573 275L135 194Q154 78 300 78Q350 78 393 94T464 139L505 70Q466 33 411 14T292 -6Q214 -6 157 22T69 102T38 224Q38 312 76 383T182 494T336 535Q445
535 509 474ZM252 455T198 403T134 264L485 329Q480 389 439 422T333 455Q252 455 198 403ZM462 606L379 682L278 606H189L338 736H429L546 606H462Z" />
<glyph unicode="&#xeb;" glyph-name="edieresis" horiz-adv-x="606" d="M445 535T509 474T574 300Q574 284 573 275L135 194Q154 78 300 78Q350 78 393 94T464 139L505 70Q466 33 411 14T292 -6Q214 -6 157 22T69 102T38 224Q38 312 76 383T182 494T336 535Q445
535 509 474ZM252 455T198 403T134 264L485 329Q480 389 439 422T333 455Q252 455 198 403ZM265 623T251 636T237 669Q237 694 253 710T291 726Q312 726 325 713T339 679Q339 655 323 639T285 623Q265 623 251 636ZM450 623T436 636T422 669Q422 694 438 710T477
726Q497 726 511 713T525 679Q525 655 509 639T470 623Q450 623 436 636Z" />
<glyph unicode="&#xec;" glyph-name="igrave" horiz-adv-x="279" d="M144 530H240L135 0H39L144 530ZM50 737H171L283 607H192L50 737Z" />
<glyph unicode="&#xed;" glyph-name="iacute" horiz-adv-x="279" d="M144 530H240L135 0H39L144 530ZM281 737H406L224 607H130L281 737Z" />
<glyph unicode="&#xee;" glyph-name="icircumflex" horiz-adv-x="279" d="M144 530H240L135 0H39L144 530ZM281 607L218 681L138 607H54L180 737H268L361 607H281Z" />
<glyph unicode="&#xef;" glyph-name="idieresis" horiz-adv-x="279" d="M144 530H240L135 0H39L144 530ZM126 624T113 637T99 670Q99 695 114 711T152 727Q172 727 185 713T198 679Q198 655 183 640T146 624Q126 624 113 637ZM269 624T256 637T243 670Q243 695
258 711T296 727Q315 727 328 714T342 680Q342 656 327 640T289 624Q269 624 256 637Z" />
<glyph unicode="&#xf0;" glyph-name="eth" horiz-adv-x="640" d="M570 619Q622 548 622 445Q622 325 580 221T456 55T266 -8Q198 -8 145 17T63 87T33 191Q33 264 69 320T169 408T316 439Q385 439 437 411T512 332Q525 388 525 445Q525 533 480 584L210 480L186
545L408 631Q369 644 316 644Q241 644 179 624V705Q245 725 325 725Q439 725 515 672L624 714L648 649L570 619ZM323 73T367 94T438 152T465 234Q465 292 426 325T320 359Q234 359 181 315T128 198Q128 140 166 107T273 73Q323 73 367 94Z" />
<glyph unicode="&#xf1;" glyph-name="ntilde" horiz-adv-x="681" d="M506 535T556 489T607 359Q607 330 601 297L542 0H446L505 297Q510 324 510 341Q510 393 479 421T387 449Q309 449 259 407T191 280L135 0H39L144 530H236L223 462Q295 535 415 535Q506 535
556 489ZM466 610T449 619T409 648Q392 663 381 670T356 677Q335 677 321 660T301 615H246Q255 672 284 704T357 737Q380 737 397 727T436 698Q454 683 465 676T490 669Q511 669 526 685T546 729H600Q591 673 562 642T490 610Q466 610 449 619Z" />
<glyph unicode="&#xf2;" glyph-name="ograve" horiz-adv-x="635" d="M212 -6T156 22T69 103T38 223Q38 312 78 383T189 494T349 535Q424 535 480 507T566 428T597 307Q597 218 557 147T447 35T287 -6Q212 -6 156 22ZM352 78T399 106T473 186T500 302Q500 373 459
412T342 451Q283 451 236 423T162 343T135 227Q135 157 176 118T293 78Q352 78 399 106ZM226 737H347L459 607H368L226 737Z" />
<glyph unicode="&#xf3;" glyph-name="oacute" horiz-adv-x="635" d="M212 -6T156 22T69 103T38 223Q38 312 78 383T189 494T349 535Q424 535 480 507T566 428T597 307Q597 218 557 147T447 35T287 -6Q212 -6 156 22ZM352 78T399 106T473 186T500 302Q500 373 459
412T342 451Q283 451 236 423T162 343T135 227Q135 157 176 118T293 78Q352 78 399 106ZM457 737H582L400 607H306L457 737Z" />
<glyph unicode="&#xf4;" glyph-name="ocircumflex" horiz-adv-x="635" d="M212 -6T156 22T69 103T38 223Q38 312 78 383T189 494T349 535Q424 535 480 507T566 428T597 307Q597 218 557 147T447 35T287 -6Q212 -6 156 22ZM352 78T399 106T473 186T500 302Q500
373 459 412T342 451Q283 451 236 423T162 343T135 227Q135 157 176 118T293 78Q352 78 399 106ZM478 607L395 683L294 607H205L354 737H445L562 607H478Z" />
<glyph unicode="&#xf5;" glyph-name="otilde" horiz-adv-x="635" d="M212 -6T156 22T69 103T38 223Q38 312 78 383T189 494T349 535Q424 535 480 507T566 428T597 307Q597 218 557 147T447 35T287 -6Q212 -6 156 22ZM352 78T399 106T473 186T500 302Q500 373 459
412T342 451Q283 451 236 423T162 343T135 227Q135 157 176 118T293 78Q352 78 399 106ZM439 610T422 619T382 648Q365 663 354 670T329 677Q308 677 294 660T274 615H219Q228 672 257 704T330 737Q353 737 370 727T409 698Q427 683 438 676T463 669Q484 669 499
685T519 729H573Q564 673 535 642T463 610Q439 610 422 619Z" />
<glyph unicode="&#xf6;" glyph-name="odieresis" horiz-adv-x="635" d="M212 -6T156 22T69 103T38 223Q38 312 78 383T189 494T349 535Q424 535 480 507T566 428T597 307Q597 218 557 147T447 35T287 -6Q212 -6 156 22ZM352 78T399 106T473 186T500 302Q500 373
459 412T342 451Q283 451 236 423T162 343T135 227Q135 157 176 118T293 78Q352 78 399 106ZM281 624T267 637T253 670Q253 695 269 711T307 727Q328 727 341 714T355 680Q355 656 339 640T301 624Q281 624 267 637ZM466 624T452 637T438 670Q438 695 454 711T493
727Q513 727 527 714T541 680Q541 656 525 640T486 624Q466 624 452 637Z" />
<glyph unicode="&#xf7;" glyph-name="divide" horiz-adv-x="582" d="M320 487T305 503T289 543Q289 570 307 588T350 607Q374 607 389 592T405 552Q405 524 387 506T343 487Q320 487 305 503ZM92 389H540L524 310H77L92 389ZM242 93T227 109T211 149Q211 177 229
195T272 213Q295 213 311 198T327 158Q327 130 309 112T265 93Q242 93 227 109Z" />
<glyph unicode="&#xf8;" glyph-name="oslash" horiz-adv-x="635" d="M212 -6T156 22T69 103T38 223Q38 312 78 383T189 494T349 535Q424 535 480 507T566 428T597 307Q597 218 557 147T447 35T287 -6Q212 -6 156 22ZM352 78T399 106T473 186T500 302Q500 373 459
412T342 451Q283 451 236 423T162 343T135 227Q135 157 176 118T293 78Q352 78 399 106ZM570 599H633L62 -70H-1L570 599Z" />
<glyph unicode="&#xf9;" glyph-name="ugrave" horiz-adv-x="720" d="M654 75T676 84L667 6Q636 -6 596 -6Q544 -6 512 18T471 85Q433 39 381 17T264 -6Q176 -6 125 41T74 172Q74 200 80 233L139 530H235L176 232Q171 205 171 187Q171 135 201 108T292 80Q368 80
418 123T486 249L542 530H638L565 162Q562 147 562 136Q562 106 579 91T628 75Q654 75 676 84ZM247 737H368L480 607H389L247 737Z" />
<glyph unicode="&#xfa;" glyph-name="uacute" horiz-adv-x="720" d="M654 75T676 84L667 6Q636 -6 596 -6Q544 -6 512 18T471 85Q433 39 381 17T264 -6Q176 -6 125 41T74 172Q74 200 80 233L139 530H235L176 232Q171 205 171 187Q171 135 201 108T292 80Q368 80
418 123T486 249L542 530H638L565 162Q562 147 562 136Q562 106 579 91T628 75Q654 75 676 84ZM478 737H603L421 607H327L478 737Z" />
<glyph unicode="&#xfb;" glyph-name="ucircumflex" horiz-adv-x="720" d="M654 75T676 84L667 6Q636 -6 596 -6Q544 -6 512 18T471 85Q433 39 381 17T264 -6Q176 -6 125 41T74 172Q74 200 80 233L139 530H235L176 232Q171 205 171 187Q171 135 201 108T292 80Q368
80 418 123T486 249L542 530H638L565 162Q562 147 562 136Q562 106 579 91T628 75Q654 75 676 84ZM499 607L416 683L315 607H226L375 737H466L583 607H499Z" />
<glyph unicode="&#xfc;" glyph-name="udieresis" horiz-adv-x="720" d="M654 75T676 84L667 6Q636 -6 596 -6Q544 -6 512 18T471 85Q433 39 381 17T264 -6Q176 -6 125 41T74 172Q74 200 80 233L139 530H235L176 232Q171 205 171 187Q171 135 201 108T292 80Q368
80 418 123T486 249L542 530H638L565 162Q562 147 562 136Q562 106 579 91T628 75Q654 75 676 84ZM302 624T288 637T274 670Q274 695 290 711T328 727Q349 727 362 714T376 680Q376 656 360 640T322 624Q302 624 288 637ZM487 624T473 637T459 670Q459 695 475
711T514 727Q534 727 548 714T562 680Q562 656 546 640T507 624Q487 624 473 637Z" />
<glyph unicode="&#xfd;" glyph-name="yacute" horiz-adv-x="677" d="M638 530L545 64Q517 -76 445 -138T245 -200Q174 -200 115 -180T16 -121L67 -47Q100 -80 148 -97T252 -115Q339 -115 384 -74T448 60L454 90Q383 22 269 22Q181 22 130 68T79 200Q79 228 85
261L139 530H235L181 260Q176 233 176 216Q176 164 206 136T297 108Q374 108 424 150T492 277L542 530H638ZM477 737H602L420 607H326L477 737Z" />
<glyph unicode="&#xfe;" glyph-name="thorn" horiz-adv-x="682" d="M478 535T531 508T614 429T644 307Q644 217 605 146T498 35T344 -6Q276 -6 227 18T152 90L96 -194H0L187 742H283L227 469Q301 535 410 535Q478 535 531 508ZM399 78T446 106T520 186T547 302Q547
373 506 412T389 451Q330 451 283 423T209 343T182 227Q182 157 223 118T340 78Q399 78 446 106Z" />
<glyph unicode="&#xff;" glyph-name="ydieresis" horiz-adv-x="677" d="M638 530L545 64Q517 -76 445 -138T245 -200Q174 -200 115 -180T16 -121L67 -47Q100 -80 148 -97T252 -115Q339 -115 384 -74T448 60L454 90Q383 22 269 22Q181 22 130 68T79 200Q79 228
85 261L139 530H235L181 260Q176 233 176 216Q176 164 206 136T297 108Q374 108 424 150T492 277L542 530H638ZM301 624T287 637T273 670Q273 695 289 711T327 727Q348 727 361 714T375 680Q375 656 359 640T321 624Q301 624 287 637ZM486 624T472 637T458 670Q458
695 474 711T513 727Q533 727 547 714T561 680Q561 656 545 640T506 624Q486 624 472 637Z" />
<glyph unicode="&#x2013;" glyph-name="endash" horiz-adv-x="500" d="M9 308H509L496 241H-4L9 308Z" />
<glyph unicode="&#x2014;" glyph-name="emdash" horiz-adv-x="1000" d="M9 308H1009L996 241H-4L9 308Z" />
<glyph unicode="&#x2018;" glyph-name="quoteleft" horiz-adv-x="227" d="M216 583T224 569T233 536Q233 505 213 484T163 463Q136 463 118 481T99 527Q99 542 104 555T122 592L206 742H269L202 591Q216 583 224 569Z" />
<glyph unicode="&#x2019;" glyph-name="quoteright" horiz-adv-x="227" d="M227 748T245 730T263 684Q263 668 258 655T241 619L157 469H94L161 619Q146 627 138 642T129 676Q129 707 150 727T200 748Q227 748 245 730Z" />
<glyph unicode="&#x201a;" glyph-name="quotesinglbase" horiz-adv-x="227" d="M104 131T122 113T140 66Q140 51 135 37T117 2L33 -148H-30L38 2Q23 10 15 25T6 58Q6 90 26 110T77 131Q104 131 122 113Z" />
<glyph unicode="&#x201c;" glyph-name="quotedblleft" horiz-adv-x="416" d="M216 583T224 569T233 536Q233 505 213 484T163 463Q136 463 118 481T99 527Q99 542 104 555T122 592L206 742H269L202 591Q216 583 224 569ZM405 583T413 569T422 536Q422 505 402
484T352 463Q325 463 307 481T288 527Q288 542 293 555T311 592L395 742H458L391 591Q405 583 413 569Z" />
<glyph unicode="&#x201d;" glyph-name="quotedblright" horiz-adv-x="416" d="M227 748T245 730T263 684Q263 668 258 655T241 619L157 469H94L161 619Q146 627 138 642T129 676Q129 707 150 727T200 748Q227 748 245 730ZM416 748T434 730T452 684Q452 668 447
655T430 619L346 469H283L350 619Q335 627 327 642T318 676Q318 707 339 727T389 748Q416 748 434 730Z" />
<glyph unicode="&#x201e;" glyph-name="quotedblbase" horiz-adv-x="416" d="M104 131T122 113T140 66Q140 51 135 37T117 2L33 -148H-30L38 2Q23 10 15 25T6 58Q6 90 26 110T77 131Q104 131 122 113ZM293 131T311 113T329 66Q329 51 324 37T306 2L222 -148H159L227
2Q212 10 204 25T195 58Q195 90 215 110T266 131Q293 131 311 113Z" />
<glyph unicode="&#x2022;" glyph-name="bullet" horiz-adv-x="314" d="M118 183T93 207T68 268Q68 310 96 338T164 366Q200 366 224 342T249 281Q249 239 221 211T153 183Q118 183 93 207Z" />
<glyph unicode="&#x2039;" glyph-name="guilsinglleft" horiz-adv-x="312" d="M140 261L237 74H151L46 265L228 457H318L140 261Z" />
<glyph unicode="&#x203a;" glyph-name="guilsinglright" horiz-adv-x="313" d="M267 265L85 74H-6L173 268L75 457H162L267 265Z" />
</font>
</defs>
</svg>
