<?xml version="1.0" standalone="no"?>
<!DOCTYPE svg PUBLIC "-//W3C//DTD SVG 1.1//EN" "http://www.w3.org/Graphics/SVG/1.1/DTD/svg11.dtd">
<svg xmlns="http://www.w3.org/2000/svg">
<defs >
<font id="Mulish" horiz-adv-x="581" ><font-face
    font-family="Mulish ExtraLight Medium"
    units-per-em="1000"
    panose-1="0 0 0 0 0 0 0 0 0 0"
    ascent="1005"
    descent="-250"
    alphabetic="0" />
<glyph unicode=" " horiz-adv-x="264" />
<glyph unicode="!" horiz-adv-x="233" d="M79 190L132 705H245L135 190H79ZM21 0L38 111H149L132 0H21Z" />
<glyph unicode="&quot;" horiz-adv-x="405" d="M111 425L132 705H239L172 425H111ZM289 425L310 705H417L350 425H289Z" />
<glyph unicode="#" horiz-adv-x="600" d="M44 0L108 180H19L30 243H131L213 470H88L97 534H236L298 705H366L305 534H455L517 705H586L524 534H613L603 470H501L419 243H546L535 180H396L332 0H262L327 180H177L114 0H44ZM200 243H350L432 470H282L200 243Z" />
<glyph unicode="$" horiz-adv-x="600" d="M214 -115L234 13L253 -5Q211 -3 167 5T84 30T18 69L58 141Q99 111 152 93T280 75Q358 75 402 106T453 185Q461 229 436 256T345 295L252 312Q196 324 159 350T106 418T98 511Q108 571 143 614T233 681T358 709L342 695L362
820H438L417 695L405 709Q457 707 507 688T590 634L552 564Q519 596 474 613T370 630Q294 630 246 598T187 509Q180 462 203 434T286 394L379 376Q475 357 515 309T544 182Q531 101 463 53T290 -4L310 14L290 -115H214Z" />
<glyph unicode="%" horiz-adv-x="940" d="M266 0H181L706 705H792L266 0ZM238 283Q155 283 114 342T89 509Q104 605 157 659T288 714Q373 714 413 655T437 489Q422 393 370 338T238 283ZM241 345Q288 345 318 382T361 496Q373 574 352 612T285 651Q239 651 209
615T167 502Q154 423 175 384T241 345ZM684 -9Q600 -9 559 50T535 217Q551 314 603 368T734 422Q818 422 859 363T883 197Q867 101 816 46T684 -9ZM688 54Q734 54 764 91T806 204Q819 282 798 320T730 359Q685 359 655 323T612 210Q600 131 621 93T688 54Z" />
<glyph unicode="&amp;" horiz-adv-x="674" d="M612 -9Q568 11 532 40T471 99H498Q449 48 384 20T247 -9Q173 -9 123 15T50 83T36 184Q46 246 91 290T211 376L258 403L240 387Q202 435 187 477T179 568Q186 610 210 643T275 695T374 714Q423 714 459 696T514 645T525
563Q520 530 501 498T443 436T342 371L343 394L500 190H483Q515 232 539 290T577 415H658Q642 332 610 260T535 134L530 159Q551 131 583 104T654 57L612 -9ZM259 64Q317 64 364 87T453 154L445 129L264 356L303 353L259 328Q200 293 167 263T127 187Q119 131 152
98T259 64ZM371 648Q328 648 300 625T265 566Q262 540 265 520T280 478T318 423L298 420Q373 461 408 493T449 564Q456 602 434 625T371 648Z" />
<glyph unicode="&apos;" horiz-adv-x="226" d="M111 425L132 705H239L172 425H111Z" />
<glyph unicode="(" horiz-adv-x="327" d="M149 -180Q121 -105 108 -28T94 124Q94 234 119 339T189 537T290 705H370Q292 574 240 422T188 99Q188 36 197 -35T223 -180H149Z" />
<glyph unicode=")" horiz-adv-x="327" d="M39 -180H-40Q38 -49 89 103T141 426Q141 490 132 561T106 705H181Q208 630 222 553T236 401Q236 292 211 187T141 -12T39 -180Z" />
<glyph unicode="*" horiz-adv-x="455" d="M176 363L123 401L231 526L81 571L105 632L251 578L258 736H323L305 578L459 632L476 571L319 525L407 401L354 363L277 495L176 363Z" />
<glyph unicode="+" horiz-adv-x="600" d="M232 40L265 253H53L64 321H276L309 528H379L346 321H557L546 253H335L302 40H232Z" />
<glyph unicode="," horiz-adv-x="233" d="M53 -119L17 -80Q48 -52 59 -30T76 20L99 0H21L38 111H148L135 25Q131 -4 122 -28T97 -74T53 -119Z" />
<glyph unicode="-" horiz-adv-x="431" d="M68 237L80 311H369L358 237H68Z" />
<glyph unicode="." horiz-adv-x="233" d="M21 0L39 111H149L132 0H21Z" />
<glyph unicode="/" horiz-adv-x="293" d="M9 -56H-72L320 749H401L9 -56Z" />
<glyph unicode="0" horiz-adv-x="600" d="M268 -9Q140 -9 90 88T67 366Q96 545 171 629T364 714Q490 714 542 619T565 341Q537 163 460 77T268 -9ZM273 70Q352 70 402 136T475 351Q491 452 483 514T444 606T359 635Q280 635 231 571T158 357Q142 257 149 194T188
100T273 70Z" />
<glyph unicode="1" horiz-adv-x="600" d="M84 0L96 79H261L348 626L395 624L179 502L193 595L387 705H454L354 79H509L497 0H84Z" />
<glyph unicode="2" horiz-adv-x="600" d="M45 0L55 69L351 338Q404 386 431 425T467 512Q477 572 445 603T345 634Q289 634 239 616T139 559L107 630Q154 669 221 691T355 714Q429 714 478 690T549 621T561 512Q551 448 513 395T408 283L150 53L149 79H521L508 0H45Z" />
<glyph unicode="3" horiz-adv-x="600" d="M264 -9Q193 -9 131 13T30 75L68 147Q110 107 160 89T267 71Q341 71 385 100T440 193Q458 319 303 319H193L205 396H305Q372 396 417 428T471 519Q480 574 448 604T347 634Q289 634 239 616T138 557L107 629Q156 671 222
692T358 714Q467 714 522 664T563 522Q554 463 510 418T401 356L402 367Q472 355 506 306T529 180Q514 88 444 40T264 -9Z" />
<glyph unicode="4" horiz-adv-x="600" d="M339 0L363 149H30L42 216L465 705H542L465 223H571L560 149H453L430 0H339ZM374 223L434 595H460L119 201L118 223H374Z" />
<glyph unicode="5" horiz-adv-x="600" d="M280 -9Q234 -9 191 1T112 29T52 75L87 147Q129 108 178 90T283 71Q355 71 403 107T461 213Q472 281 438 322T334 364Q285 364 243 345T164 283H98L165 705H588L574 626H241L199 358H174Q208 400 256 421T360 443Q426
443 473 414T541 333T551 206Q541 139 505 91T412 17T280 -9Z" />
<glyph unicode="6" horiz-adv-x="600" d="M291 -9Q206 -9 150 31T73 152T71 356Q91 478 137 557T254 675T413 714Q472 714 523 695T606 637L567 568Q533 603 494 618T408 634Q309 634 247 567T159 354L145 265H135Q158 348 215 396T358 445Q424 445 470 415T538
332T547 205Q537 140 503 92T416 18T291 -9ZM291 68Q368 68 409 107T460 210Q472 283 437 325T334 368Q265 368 220 327T164 220Q153 152 188 110T291 68Z" />
<glyph unicode="7" horiz-adv-x="600" d="M62 0L513 663L511 625H122L135 705H610L599 636L169 0H62Z" />
<glyph unicode="8" horiz-adv-x="600" d="M268 -9Q141 -9 81 48T35 200Q47 274 99 317T226 370L223 354Q159 368 128 419T106 536Q120 619 187 666T370 714Q445 714 495 690T568 620T582 516Q571 450 526 406T413 350L416 366Q463 357 495 333T540 269T545 179Q530
88 458 40T268 -9ZM273 66Q356 66 402 97T458 193Q469 256 432 287T310 319Q226 319 180 289T124 198Q114 137 150 102T273 66ZM323 395Q396 395 439 424T492 513Q501 573 468 606T361 639Q286 639 244 608T193 524Q185 468 217 432T323 395Z" />
<glyph unicode="9" horiz-adv-x="600" d="M219 -9Q161 -9 110 10T27 68L66 137Q99 103 139 87T225 71Q323 71 386 139T473 351L487 440H498Q476 357 419 309T275 260Q210 260 164 290T96 374T85 501Q96 566 130 614T218 688T344 714Q428 714 484 674T560 553T562
349Q543 228 496 149T378 30T219 -9ZM298 337Q368 337 413 378T469 486Q480 553 446 595T342 638Q267 638 225 599T173 495Q162 422 197 380T298 337Z" />
<glyph unicode=":" horiz-adv-x="233" d="M83 393L101 503H211L194 393H83ZM21 0L38 111H148L131 0H21Z" />
<glyph unicode=";" horiz-adv-x="233" d="M51 -119L15 -87Q48 -58 61 -33T79 20L96 0H23L41 111H151L138 27Q132 -16 113 -51T51 -119ZM83 392L101 503H211L194 392H83Z" />
<glyph unicode="&lt;" horiz-adv-x="600" d="M511 35L53 252L64 323L591 540L579 461L88 260L96 305L523 105L511 35Z" />
<glyph unicode="=" horiz-adv-x="600" d="M69 353L80 421H572L561 353H69ZM38 154L49 221H541L530 154H38Z" />
<glyph unicode="&gt;" horiz-adv-x="600" d="M20 35L32 113L522 314L515 268L88 469L100 540L558 323L546 252L20 35Z" />
<glyph unicode="?" horiz-adv-x="451" d="M162 190L167 222Q173 255 184 284T220 344T285 412Q307 432 327 456T361 507T375 563Q375 598 349 616T275 635Q235 635 197 625T125 595L138 678Q173 696 216 705T298 714Q350 714 388 698T448 651T469 579Q469 536
451 499T405 431T344 374Q287 324 262 288T226 215L219 190H162ZM105 0L122 111H233L216 0H105Z" />
<glyph unicode="@" horiz-adv-x="968" d="M504 -164Q409 -164 330 -134T192 -46T103 92T71 272Q71 371 104 452T197 592T339 682T519 714Q606 714 678 688T804 612T887 495T917 344Q917 257 891 193T819 94T716 59Q656 59 625 93T596 187L618 185Q592 123 547
91T449 59Q371 59 328 108T285 242Q285 315 313 372T390 463T501 496Q555 496 589 469T635 393H622L639 487H711L667 232Q664 218 663 206T662 183Q662 150 676 134T720 118Q757 118 787 146T836 225T855 344Q855 414 831 471T761 568T654 631T518 653Q434 653
365 626T246 549T167 428T139 272Q139 155 185 71T313 -57T504 -102Q584 -102 648 -78T756 -9L791 -61Q743 -110 669 -137T504 -164ZM460 122Q503 122 536 148T589 220T609 324Q609 379 585 406T510 433Q468 433 434 409T381 341T361 242Q361 184 387 153T460 122Z"
/>
<glyph unicode="A" horiz-adv-x="738" d="M-26 0L398 705H479L684 0H592L536 200L573 176H144L191 200L73 0H-26ZM425 601L210 231L189 252H552L530 231L428 601H425Z" />
<glyph unicode="B" horiz-adv-x="683" d="M46 0L158 705H450Q560 705 612 656T651 515Q640 449 595 408T478 351L480 366Q556 357 591 308T616 185Q601 93 533 47T349 0H46ZM148 74H350Q423 74 469 101T526 189Q534 238 519 266T472 307T394 320H186L148 74ZM199
394H383Q462 394 505 423T557 505Q567 570 536 601T433 632H236L199 394Z" />
<glyph unicode="C" horiz-adv-x="685" d="M375 -9Q258 -9 187 38T88 170T78 366Q96 477 147 555T278 674T461 714Q533 714 588 694T682 634L646 559Q603 598 560 614T456 630Q342 630 269 559T175 357Q162 272 179 209T248 110T384 75Q438 75 490 93T590 153L621
80Q574 37 509 14T375 -9Z" />
<glyph unicode="D" horiz-adv-x="750" d="M46 0L158 705H387Q512 705 588 662T693 536T704 340Q676 169 570 85T288 0H46ZM152 79H291Q431 79 510 145T611 349Q633 490 575 558T376 626H238L152 79Z" />
<glyph unicode="E" horiz-adv-x="590" d="M46 0L158 705H614L601 629H235L199 396H542L530 320H187L148 76H513L502 0H46Z" />
<glyph unicode="F" horiz-adv-x="565" d="M46 0L158 705H604L591 629H238L202 393H532L520 317H190L139 0H46Z" />
<glyph unicode="G" horiz-adv-x="733" d="M383 -9Q261 -9 187 37T87 167T78 365Q96 477 149 554T285 673T475 714Q552 714 606 695T697 640L660 565Q619 600 578 615T471 631Q348 631 272 559T175 354Q154 221 205 147T390 73Q441 73 486 82T576 109L546 61L583
300H407L419 372H675L623 45Q592 28 552 16T467 -2T383 -9Z" />
<glyph unicode="H" horiz-adv-x="768" d="M46 0L158 705H251L202 397H612L661 705H755L643 0H549L600 318H190L139 0H46Z" />
<glyph unicode="I" horiz-adv-x="264" d="M46 0L158 705H251L139 0H46Z" />
<glyph unicode="J" horiz-adv-x="337" d="M12 -187Q-4 -187 -25 -185T-67 -175L-56 -99Q-37 -106 -21 -108T9 -110Q55 -110 82 -82T119 7L229 705H323L211 1Q201 -62 177 -104T112 -166T12 -187Z" />
<glyph unicode="K" horiz-adv-x="641" d="M46 0L158 705H251L200 386H202L580 705H701L265 340L262 385L616 0H500L194 331H192L139 0H46Z" />
<glyph unicode="L" horiz-adv-x="549" d="M46 0L158 705H251L152 80H502L490 0H46Z" />
<glyph unicode="M" horiz-adv-x="861" d="M46 0L158 705H240L418 79H388L766 705H847L735 0H650L742 581H774L420 0H363L193 581H223L131 0H46Z" />
<glyph unicode="N" horiz-adv-x="748" d="M46 0L158 705H230L576 117L556 121L648 705H735L623 0H552L205 588L225 584L133 0H46Z" />
<glyph unicode="O" horiz-adv-x="776" d="M78 366Q96 477 146 555T274 673T451 714Q558 714 625 667T720 535T729 340Q712 229 662 151T534 32T356 -9Q250 -9 182 38T88 170T78 366ZM175 356Q161 268 178 205T243 107T363 73Q475 73 543 146T632 350Q647 438 629
501T564 598T443 632Q332 632 265 560T175 356Z" />
<glyph unicode="P" horiz-adv-x="655" d="M46 0L158 705H441Q558 705 611 648T648 489Q639 429 606 386T519 321T392 298H186L139 0H46ZM198 374H388Q462 374 504 404T557 496Q568 562 535 595T427 629H238L198 374Z" />
<glyph unicode="Q" horiz-adv-x="776" d="M507 -192Q481 -173 454 -143T405 -76T369 -1L454 29Q472 -23 507 -65T579 -138L507 -192ZM78 366Q96 477 146 555T274 673T451 714Q558 714 625 667T720 535T729 340Q712 229 662 151T534 32T356 -9Q250 -9 182 38T88
170T78 366ZM175 356Q161 268 178 205T243 107T363 73Q475 73 543 146T632 350Q647 438 629 501T564 598T443 632Q332 632 265 560T175 356Z" />
<glyph unicode="R" horiz-adv-x="695" d="M46 0L158 705H441Q560 705 614 650T652 494Q643 435 609 393T521 329T402 307L408 321H430Q471 321 499 300T542 234L615 0H517L445 232Q433 275 403 288T325 301H187L139 0H46ZM198 373H392Q465 373 508 405T560 497Q570
563 536 596T424 629H238L198 373Z" />
<glyph unicode="S" horiz-adv-x="628" d="M286 -9Q203 -9 137 11T26 63L63 137Q111 107 165 89T292 71Q378 71 424 102T477 184Q485 231 461 258T368 296L272 311Q175 325 132 378T102 513Q111 573 149 618T250 688T394 714Q466 714 525 694T621 641L585 568Q546
600 497 617T384 634Q304 634 254 601T194 511Q186 462 211 432T304 391L402 377Q500 363 542 314T571 182Q562 127 525 84T428 16T286 -9Z" />
<glyph unicode="T" horiz-adv-x="607" d="M215 0L315 626H70L83 705H666L653 626H408L309 0H215Z" />
<glyph unicode="U" horiz-adv-x="733" d="M335 -9Q243 -9 182 23T96 121T86 284L153 705H247L180 283Q163 178 200 126T344 73Q437 73 492 122T565 284L632 705H724L657 278Q641 179 600 116T493 22T335 -9Z" />
<glyph unicode="V" horiz-adv-x="703" d="M269 0L73 705H169L338 77H305L673 705H775L352 0H269Z" />
<glyph unicode="W" horiz-adv-x="1114" d="M239 0L104 705H197L308 83H272L593 705H665L775 83H742L1058 705H1154L793 0H712L603 595H624L319 0H239Z" />
<glyph unicode="X" horiz-adv-x="657" d="M-37 0L306 378L305 342L91 705H197L366 409H337L598 705H714L385 342V378L609 0H503L322 314H358L78 0H-37Z" />
<glyph unicode="Y" horiz-adv-x="612" d="M219 0L272 330L282 269L58 705H161L332 361H310L590 705H699L335 266L365 330L312 0H219Z" />
<glyph unicode="Z" horiz-adv-x="599" d="M4 0L15 69L522 659L517 626H103L116 705H624L613 637L105 46L109 79H536L524 0H4Z" />
<glyph unicode="[" horiz-adv-x="325" d="M36 -180L176 705H387L376 634H255L137 -109H258L247 -180H36Z" />
<glyph unicode="\" horiz-adv-x="293" d="M194 -56L55 749H131L270 -56H194Z" />
<glyph unicode="]" horiz-adv-x="325" d="M-59 -180L-48 -109H73L190 634H70L81 705H291L151 -180H-59Z" />
<glyph unicode="^" horiz-adv-x="600" d="M27 140L324 628H394L537 140H466L335 594H380L105 140H27Z" />
<glyph unicode="_" horiz-adv-x="505" d="M-40 -58L-31 0H456L447 -58H-40Z" />
<glyph unicode="`" horiz-adv-x="500" d="M305 552L164 754H257L369 552H305Z" />
<glyph unicode="a" horiz-adv-x="605" d="M236 -9Q167 -9 120 23T54 117T48 265Q68 386 138 449T306 512Q372 512 416 479T470 388L459 387L489 503H576Q569 473 562 443T549 384L489 0H398L417 117H432Q406 58 356 25T236 -9ZM262 63Q329 63 377 110T440 249Q455
344 421 391T315 439Q248 439 201 392T139 255Q124 159 157 111T262 63Z" />
<glyph unicode="b" horiz-adv-x="605" d="M300 -9Q234 -9 190 24T135 115L145 117L127 0H36L153 736H244L189 388L173 387Q200 445 249 478T369 512Q439 512 486 480T552 386T558 239Q538 118 468 55T300 -9ZM290 63Q358 63 405 110T467 249Q482 344 449 391T343
439Q277 439 229 392T165 255Q151 159 185 111T290 63Z" />
<glyph unicode="c" horiz-adv-x="497" d="M261 -9Q184 -9 132 24T57 118T48 265Q68 386 142 449T324 512Q371 512 414 497T484 453L450 391Q424 416 391 427T327 439Q254 439 205 393T140 257Q125 166 161 116T274 65Q307 65 344 77T414 119L443 55Q412 25 362 8T261 -9Z" />
<glyph unicode="d" horiz-adv-x="605" d="M236 -9Q167 -9 120 23T54 117T48 265Q68 386 138 449T306 512Q372 512 416 479T470 388H460L515 736H606L489 0H399L417 117H432Q406 58 356 25T236 -9ZM262 63Q329 63 377 110T440 249Q455 344 421 391T315 439Q248
439 201 392T139 255Q124 159 157 111T262 63Z" />
<glyph unicode="e" horiz-adv-x="545" d="M276 -9Q191 -9 136 25T59 121T49 268Q61 345 97 399T189 483T316 512Q386 512 431 482T496 397T505 272L500 242H116L124 296H447L429 282Q441 361 411 403T311 446Q261 446 225 424T166 363T138 274L134 249Q122 160
160 112T286 63Q328 63 369 76T446 119L476 56Q436 25 384 8T276 -9Z" />
<glyph unicode="f" horiz-adv-x="345" d="M64 0L133 433H35L46 503H169L140 480L155 569Q168 653 219 696T356 740Q376 740 396 737T431 727L419 653Q408 658 392 661T359 664Q329 664 305 652T265 617T243 555L232 484L221 503H373L362 433H224L155 0H64Z" />
<glyph unicode="g" horiz-adv-x="608" d="M229 -224Q165 -224 112 -208T20 -159L50 -91Q78 -112 105 -125T164 -145T232 -151Q306 -151 348 -113T402 -5L424 136H436Q412 79 360 46T241 12Q172 12 125 44T57 136T50 275Q69 390 138 451T308 512Q375 512 420 479T473
388L466 397L492 503H580Q572 473 565 443T553 384L493 6Q476 -106 409 -165T229 -224ZM265 84Q335 84 382 131T443 261Q457 347 423 393T319 439Q249 439 202 393T140 263Q126 178 160 131T265 84Z" />
<glyph unicode="h" horiz-adv-x="589" d="M36 0L153 736H244L190 394H175Q205 452 257 482T376 512Q468 512 504 459T524 305L476 0H385L433 304Q445 376 422 407T340 438Q273 438 229 397T173 288L127 0H36Z" />
<glyph unicode="i" horiz-adv-x="243" d="M36 0L116 503H207L127 0H36ZM125 613L141 711H249L233 613H125Z" />
<glyph unicode="j" horiz-adv-x="243" d="M-61 -220Q-77 -220 -97 -218T-131 -208L-119 -133Q-107 -137 -92 -140T-63 -144Q-23 -144 2 -119T36 -35L121 503H212L125 -43Q111 -130 65 -175T-61 -220ZM129 613L145 711H253L237 613H129Z" />
<glyph unicode="k" horiz-adv-x="523" d="M36 0L153 736H244L172 281H174L431 503H549L241 239V282L493 0H381L166 234H164L127 0H36Z" />
<glyph unicode="l" horiz-adv-x="243" d="M36 0L153 736H244L127 0H36Z" />
<glyph unicode="m" horiz-adv-x="883" d="M36 0L97 384Q102 413 104 443T108 503H196L188 395H175Q204 453 251 482T360 512Q422 512 458 482T498 390H483Q511 445 563 478T678 512Q762 512 798 462T818 303L770 0H679L728 308Q738 376 719 407T646 438Q585 438
545 397T493 284L448 0H357L406 308Q417 376 398 407T324 438Q263 438 224 397T173 284L127 0H36Z" />
<glyph unicode="n" horiz-adv-x="589" d="M36 0L97 384Q102 413 104 443T108 503H196L188 395L175 394Q205 452 257 482T376 512Q468 512 504 459T524 305L476 0H385L433 304Q445 376 422 407T340 438Q273 438 229 397T173 288L127 0H36Z" />
<glyph unicode="o" horiz-adv-x="576" d="M255 -9Q179 -9 128 23T56 116T48 265Q61 345 99 400T193 484T320 512Q398 512 449 480T521 387T528 239Q515 158 477 103T382 20T255 -9ZM261 63Q328 63 375 110T438 249Q453 344 419 391T314 439Q247 439 201 392T139
255Q124 159 157 111T261 63Z" />
<glyph unicode="p" horiz-adv-x="605" d="M2 -216L97 384Q102 413 104 443T108 503H196L188 387H173Q200 445 249 478T369 512Q439 512 486 480T552 386T558 239Q538 118 468 55T300 -9Q234 -9 190 24T135 115H146L93 -216H2ZM290 63Q358 63 405 110T467 249Q482
344 449 391T343 439Q277 439 229 392T165 255Q151 159 185 111T290 63Z" />
<glyph unicode="q" horiz-adv-x="605" d="M364 -216L416 115L432 117Q406 58 356 25T236 -9Q167 -9 120 23T54 117T48 265Q68 386 138 449T306 512Q372 512 416 479T470 388L459 387L489 503H576Q569 473 562 443T549 384L455 -216H364ZM262 63Q329 63 377 110T440
249Q455 344 421 391T315 439Q248 439 201 392T139 255Q124 159 157 111T262 63Z" />
<glyph unicode="r" horiz-adv-x="370" d="M35 0L95 380Q100 410 103 441T108 503H196L188 377L171 376Q188 422 217 452T282 497T358 512Q371 512 383 511T406 507L391 426Q378 431 365 432T335 434Q291 434 257 415T201 364T173 290L126 0H35Z" />
<glyph unicode="s" horiz-adv-x="497" d="M214 -9Q156 -9 106 6T25 47L56 110Q90 87 131 73T219 59Q275 59 307 79T345 133Q350 164 334 183T277 208L203 221Q129 233 100 272T80 371Q87 416 116 447T190 495T289 512Q344 512 389 498T461 459L428 397Q402 419
366 431T289 444Q233 444 202 422T165 367Q160 337 174 317T225 290L302 277Q378 264 408 228T429 133Q422 89 394 57T319 8T214 -9Z" />
<glyph unicode="t" horiz-adv-x="356" d="M229 -9Q146 -9 112 35T90 166L133 433H35L46 503H144L166 638L261 663L235 503H377L366 433H224L183 176Q175 118 191 93T247 67Q266 67 281 70T309 79L297 4Q281 -2 265 -5T229 -9Z" />
<glyph unicode="u" horiz-adv-x="582" d="M222 -9Q133 -9 91 41T64 197L113 503H204L156 201Q145 129 168 97T249 65Q314 65 356 107T409 218L454 503H545L465 0H377L394 111H409Q380 54 332 23T222 -9Z" />
<glyph unicode="v" horiz-adv-x="534" d="M184 0L49 503H143L250 71H222L468 503H565L269 0H184Z" />
<glyph unicode="w" horiz-adv-x="872" d="M172 0L63 503H155L239 72H213L438 503H512L598 72H573L794 503H888L620 0H534L444 438H488L259 0H172Z" />
<glyph unicode="x" horiz-adv-x="538" d="M-37 0L235 282L234 237L61 503H164L289 302H257L446 503H559L304 239L307 280L488 0H382L247 215H281L77 0H-37Z" />
<glyph unicode="y" horiz-adv-x="534" d="M-16 -227L-31 -153Q18 -142 51 -128T110 -90T156 -32L191 28L186 -10L48 503H143L251 72H224L467 503H565L248 -39Q219 -88 189 -121T128 -175T61 -208T-16 -227Z" />
<glyph unicode="z" horiz-adv-x="520" d="M9 0L19 61L410 456L406 433H78L89 503H506L497 442L104 45L107 70H449L438 0H9Z" />
<glyph unicode="{" horiz-adv-x="363" d="M206 -180Q164 -180 137 -167T100 -130T94 -73L129 146Q135 186 124 204T72 226L42 228L52 297L84 300Q124 302 141 320T166 379L201 598Q210 651 239 678T318 705H426L415 634H341Q320 634 307 624T289 589L254 369Q249
333 231 309T190 274T145 262V266Q166 266 185 254T215 217T220 156L186 -64Q182 -87 191 -98T222 -109H297L286 -180H206Z" />
<glyph unicode="|" horiz-adv-x="268" d="M20 -180L160 705H251L111 -180H20Z" />
<glyph unicode="}" horiz-adv-x="363" d="M-60 -180L-49 -109H26Q47 -109 60 -98T78 -64L112 156Q118 193 136 216T177 252T222 264V260Q201 260 182 272T152 309T147 369L181 589Q185 613 176 623T146 634H69L81 705H161Q204 705 230 692T268 655T273 598L238
379Q232 339 243 321T295 299L325 297L314 228L283 226Q244 223 226 205T202 146L166 -73Q158 -126 128 -153T48 -180H-60Z" />
<glyph unicode="~" horiz-adv-x="600" d="M419 215Q385 215 353 229T293 258Q267 273 244 283T198 294Q167 294 144 276T105 229L55 262Q81 309 114 334T192 359Q227 359 260 345T321 316Q348 302 369 292T413 281Q446 281 468 299T507 346L557 312Q531 266 498
241T419 215Z" />
<glyph unicode="&#xa0;" horiz-adv-x="264" />
<glyph unicode="&#xa1;" horiz-adv-x="233" d="M-9 -180L98 314H154L104 -180H-9ZM83 393L101 503H211L194 393H83Z" />
<glyph unicode="&#xa2;" horiz-adv-x="600" d="M220 -115L241 18L256 -4Q165 9 119 74T90 252Q109 360 172 420T334 490L312 463L335 607H410L388 467L373 492Q420 491 460 477T527 435L493 373Q467 397 434 408T370 419Q297 419 247 375T183 247Q174 190 187
149T233 87T317 65Q350 65 387 77T457 116L487 53Q453 23 400 7T292 -9L316 14L296 -115H220Z" />
<glyph unicode="&#xa3;" horiz-adv-x="600" d="M5 0L15 64Q65 83 95 109T132 176L155 324H56L66 384H165L184 507Q201 610 264 662T430 714Q491 714 540 696T621 643L584 576Q552 607 518 622T433 637Q365 637 327 605T277 503L258 384H439L430 324H249L229 202Q221
149 194 118T128 73L129 78H537L524 0H5Z" />
<glyph unicode="&#xa4;" horiz-adv-x="600" d="M113 -27L69 19L142 94Q119 126 106 164T93 245Q93 288 106 326T142 396L69 472L113 517L187 441Q218 466 255 479T334 493Q375 493 412 480T480 443L552 518L599 471L525 397Q549 365 562 327T575 245Q575 202 562
164T525 93L598 19L553 -26L481 48Q450 24 413 11T334 -3Q293 -3 255 11T187 48L113 -27ZM334 74Q378 74 414 97T472 159T494 245Q494 293 473 331T415 393T334 416Q290 416 253 393T195 332T173 245Q173 198 194 159T252 97T334 74Z" />
<glyph unicode="&#xa5;" horiz-adv-x="600" d="M214 0L241 175H60L68 234H251L266 329H84L93 387H249L247 376L65 705H164L330 397H307L573 705H679L393 376L394 387H550L541 329H359L344 234H526L517 175H335L306 0H214Z" />
<glyph unicode="&#xa6;" horiz-adv-x="268" d="M107 372L160 705H251L198 372H107ZM20 -180L73 154H164L111 -180H20Z" />
<glyph unicode="&#xa7;" horiz-adv-x="549" d="M206 -189Q139 -189 85 -172T-11 -123L24 -61Q46 -80 74 -93T135 -114T203 -121Q269 -121 306 -88T344 -6Q344 32 327 53T269 98L164 159Q107 193 77 231T47 316Q47 362 70 400T138 467L135 456Q128 472 124 489T120
525Q120 582 151 624T233 690T348 714Q405 714 456 699T546 649L515 588Q485 615 440 630T350 646Q284 646 247 613T209 530Q209 493 226 470T284 424L386 365Q446 331 476 293T506 209Q506 163 482 124T413 56L416 72Q425 56 429 39T433 2Q433 -57 402 -100T320
-166T206 -189ZM130 331Q130 299 152 274T217 222L310 169Q336 152 356 137T389 103L377 104Q400 124 411 148T423 194Q423 226 401 251T333 303L244 353Q218 370 198 386T164 421L177 423Q153 402 142 378T130 331Z" />
<glyph unicode="&#xa8;" horiz-adv-x="500" d="M349 606L362 699H455L441 606H349ZM171 606L185 699H278L264 606H171Z" />
<glyph unicode="&#xa9;" horiz-adv-x="815" d="M429 -9Q353 -9 287 18T171 95T95 210T67 353Q67 430 94 496T171 610T286 686T429 714Q506 714 572 687T686 611T762 496T790 353Q790 277 763 211T687 95T572 19T429 -9ZM443 137Q345 137 289 196T233 355Q233 454
289 511T443 568Q483 568 522 555T586 516L560 459Q535 482 506 492T448 503Q385 503 349 464T313 354Q313 284 349 243T448 202Q476 202 505 213T560 247L586 189Q561 166 521 152T443 137ZM429 37Q496 37 553 61T652 128T718 228T742 353Q742 420 719 477T653
577T553 644T429 668Q362 668 305 644T205 578T139 478T115 353Q115 286 138 229T204 128T304 61T429 37Z" />
<glyph unicode="&#xaa;" horiz-adv-x="330" d="M160 410Q128 410 105 422T70 457T63 507Q68 538 88 555T142 580T218 587H292L285 550H212Q133 550 126 505Q123 483 135 469T177 455Q214 455 242 479T277 545L286 602Q291 633 276 649T223 665Q197 665 169 659T115
637L100 683Q126 698 162 706T231 714Q297 714 326 684T345 590L317 416H258L267 470H264Q245 439 220 425T160 410Z" />
<glyph unicode="&#xab;" horiz-adv-x="457" d="M130 87L28 267L188 449H275L112 260L208 87H130ZM318 87L216 267L376 449H463L300 260L396 87H318Z" />
<glyph unicode="&#xac;" horiz-adv-x="600" d="M460 147L493 355H70L81 423H574L530 147H460Z" />
<glyph unicode="&#xad;" horiz-adv-x="431" d="M68 237L80 311H369L358 237H68Z" />
<glyph unicode="&#xae;" horiz-adv-x="815" d="M429 -9Q353 -9 287 18T171 95T95 210T67 353Q67 430 94 496T171 610T286 686T429 714Q506 714 572 687T686 611T762 496T790 353Q790 277 763 211T687 95T572 19T429 -9ZM429 37Q496 37 553 61T652 128T718 228T742
353Q742 420 719 477T653 577T553 644T429 668Q362 668 305 644T205 578T139 478T115 353Q115 286 138 229T204 128T304 61T429 37ZM282 142V564H457Q525 564 561 531T598 441Q598 384 562 354T459 323L473 333Q504 333 524 319T557 267L603 142H528L481 271Q472
295 455 303T413 312H342L356 322V142H282ZM355 369H446Q487 369 507 386T527 438Q527 473 508 490T446 507H355V369Z" />
<glyph unicode="&#xaf;" horiz-adv-x="500" d="M158 623L167 682H468L459 623H158Z" />
<glyph unicode="&#xb0;" horiz-adv-x="373" d="M237 414Q194 414 160 433T107 486T87 563Q87 605 106 639T160 692T237 712Q280 712 313 693T366 640T386 562Q386 520 367 486T314 433T237 414ZM237 472Q276 472 300 497T324 563Q324 602 300 627T237 653Q199
653 175 628T150 563Q150 523 174 498T237 472Z" />
<glyph unicode="&#xb1;" horiz-adv-x="600" d="M246 130L272 296H60L71 364H284L310 530H380L354 364H562L553 296H343L317 130H246ZM13 0L24 68H517L506 0H13Z" />
<glyph unicode="&#xb2;" horiz-adv-x="380" d="M56 282L65 337L228 480Q260 509 276 532T296 575Q302 611 285 628T233 645Q205 645 174 634T117 602L97 659Q128 684 167 696T249 709Q315 709 352 676T379 581Q374 554 355 523T294 457L156 337L153 347H359L349 282H56Z" />
<glyph unicode="&#xb3;" horiz-adv-x="380" d="M200 278Q151 278 113 290T51 326L74 381Q96 361 127 351T195 340Q233 340 258 356T289 405Q294 437 273 451T213 466H133L143 525H212Q251 525 275 541T305 589Q310 617 293 632T237 648Q205 648 171 636T114 604L95
660Q126 683 167 696T253 709Q321 709 355 678T382 594Q376 556 347 529T278 493L280 502Q324 496 346 468T361 393Q353 339 307 309T200 278Z" />
<glyph unicode="&#xb4;" horiz-adv-x="500" d="M265 552L399 754H496L330 552H265Z" />
<glyph unicode="&#xb5;" horiz-adv-x="573" d="M-2 -216L110 503H201L155 198Q144 130 166 98T243 65Q310 65 351 109T404 227L446 503H537L459 0H370L388 110H394Q373 55 332 23T236 -9Q195 -9 165 7T120 53L125 55L90 -216H-2Z" />
<glyph unicode="&#xb6;" horiz-adv-x="607" d="M183 -180L259 303Q204 303 165 326T104 388T82 476Q82 545 112 596T196 676T318 705H592L452 -180H381L510 636H383L253 -180H183Z" />
<glyph unicode="&#xb7;" horiz-adv-x="236" d="M57 219L75 330H186L169 219H57Z" />
<glyph unicode="&#xb8;" horiz-adv-x="500" d="M183 -193Q157 -193 133 -188T93 -173L111 -126Q129 -135 145 -139T184 -143Q211 -143 228 -134T245 -105Q245 -94 236 -88T210 -81Q200 -81 190 -82T163 -88L148 -72L177 20H232L207 -56L181 -48Q194 -45 205 -43T227
-41Q262 -41 283 -57T305 -104Q305 -144 271 -168T183 -193Z" />
<glyph unicode="&#xb9;" horiz-adv-x="380" d="M82 282L93 347H190L236 639L269 638L136 566L148 642L265 705H322L265 347H351L341 282H82Z" />
<glyph unicode="&#xba;" horiz-adv-x="345" d="M203 411Q136 411 99 452T73 569Q84 638 129 676T239 714Q307 714 344 674T369 556Q359 488 314 450T203 411ZM207 461Q245 461 272 487T307 563Q315 613 296 639T236 665Q198 665 171 639T136 563Q128 513 147 487T207
461Z" />
<glyph unicode="&#xbb;" horiz-adv-x="457" d="M97 87H10L172 276L76 449H155L257 269L97 87ZM284 87H197L359 276L263 449H342L444 269L284 87Z" />
<glyph unicode="&#xbc;" horiz-adv-x="900" d="M82 282L93 347H190L236 639L269 638L136 566L148 642L265 705H322L265 347H351L341 282H82ZM263 -9H180L720 714H803L263 -9ZM710 0L723 83H523L532 137L784 423H847L803 143H866L857 83H794L780 0H710ZM735 143L766
342H780L591 128L589 143H735Z" />
<glyph unicode="&#xbd;" horiz-adv-x="945" d="M82 282L93 347H190L236 639L269 638L136 566L148 642L265 705H322L265 347H351L341 282H82ZM263 -9H180L720 714H803L263 -9ZM576 0L585 55L748 198Q780 227 796 250T816 293Q822 329 805 346T753 363Q725 363 694
352T637 320L617 377Q648 402 687 414T769 427Q835 427 872 394T899 299Q894 272 875 241T814 175L676 55L673 65H879L869 0H576Z" />
<glyph unicode="&#xbe;" horiz-adv-x="900" d="M200 278Q151 278 113 290T51 326L74 381Q96 361 127 351T195 340Q233 340 258 356T289 405Q294 437 273 451T213 466H133L143 525H212Q251 525 275 541T305 589Q310 617 293 632T237 648Q205 648 171 636T114 604L95
660Q126 683 167 696T253 709Q321 709 355 678T382 594Q376 556 347 529T278 493L280 502Q324 496 346 468T361 393Q353 339 307 309T200 278ZM263 -9H180L720 714H803L263 -9ZM710 0L723 83H523L532 137L784 423H847L803 143H866L857 83H794L780 0H710ZM735 143L766
342H780L591 128L589 143H735Z" />
<glyph unicode="&#xbf;" horiz-adv-x="451" d="M153 -207Q102 -207 63 -191T3 -144T-18 -72Q-18 -28 0 9T47 77T108 134Q166 184 191 220T226 292L232 314H290L285 286Q280 254 268 225T232 164T167 95Q145 75 125 51T91 0T77 -56Q77 -90 103 -109T176 -128Q217
-128 254 -117T327 -88L315 -170Q279 -188 236 -197T153 -207ZM347 503L330 393H218L236 503H347Z" />
<glyph unicode="&#xc0;" horiz-adv-x="738" d="M-26 0L398 705H479L684 0H592L536 200L573 176H144L191 200L73 0H-26ZM425 601L210 231L189 252H552L530 231L428 601H425ZM415 765L279 937H378L483 765H415Z" />
<glyph unicode="&#xc1;" horiz-adv-x="738" d="M-26 0L398 705H479L684 0H592L536 200L573 176H144L191 200L73 0H-26ZM425 601L210 231L189 252H552L530 231L428 601H425ZM415 765L546 937H648L483 765H415Z" />
<glyph unicode="&#xc2;" horiz-adv-x="738" d="M-26 0L398 705H479L684 0H592L536 200L573 176H144L191 200L73 0H-26ZM425 601L210 231L189 252H552L530 231L428 601H425ZM278 765L418 937H501L606 765H540L456 880L344 765H278Z" />
<glyph unicode="&#xc3;" horiz-adv-x="738" d="M-26 0L398 705H479L684 0H592L536 200L573 176H144L191 200L73 0H-26ZM425 601L210 231L189 252H552L530 231L428 601H425ZM286 780L236 783Q247 849 281 884T366 920Q396 920 421 907T470 879Q490 867 508 857T545
847Q602 847 621 923L671 920Q660 855 626 819T542 783Q512 783 487 796T438 824Q418 837 400 847T362 857Q305 857 286 780Z" />
<glyph unicode="&#xc4;" horiz-adv-x="738" d="M-26 0L398 705H479L684 0H592L536 200L573 176H144L191 200L73 0H-26ZM425 601L210 231L189 252H552L530 231L428 601H425ZM497 802L512 895H605L589 802H497ZM319 802L334 895H427L412 802H319Z" />
<glyph unicode="&#xc5;" horiz-adv-x="738" d="M-26 0L398 705H479L684 0H592L536 200L573 176H144L191 200L73 0H-26ZM425 601L210 231L189 252H552L530 231L428 601H425ZM464 757Q430 757 403 773T359 816T343 875Q343 908 359 934T402 976T463 992Q498 992
525 977T568 935T584 875Q584 842 568 816T525 773T464 757ZM464 804Q495 804 514 824T534 875Q534 905 515 925T464 945Q433 945 413 925T393 875Q393 845 413 825T464 804Z" />
<glyph unicode="&#xc6;" horiz-adv-x="1008" d="M-46 0L497 705H1032L1019 629H625L651 652L632 371L618 396H962L950 320H612L628 330L610 52L601 76H932L920 0H519L532 196L556 176H175L213 201L61 0H-46ZM535 628L234 230L225 252H548L536 228L563 628H535Z" />
<glyph unicode="&#xc7;" horiz-adv-x="685" d="M375 -9Q258 -9 187 38T88 170T78 366Q96 477 147 555T278 674T461 714Q533 714 588 694T682 634L646 559Q603 598 560 614T456 630Q342 630 269 559T175 357Q162 272 179 209T248 110T384 75Q438 75 490 93T590
153L621 80Q574 37 509 14T375 -9ZM331 -193Q305 -193 281 -188T241 -173L259 -126Q277 -135 293 -139T332 -143Q359 -143 376 -134T393 -105Q393 -94 384 -88T358 -81Q348 -81 338 -82T311 -88L296 -72L325 20H380L355 -56L329 -48Q342 -45 353 -43T375 -41Q410
-41 431 -57T453 -104Q453 -144 419 -168T331 -193Z" />
<glyph unicode="&#xc8;" horiz-adv-x="590" d="M46 0L158 705H614L601 629H235L199 396H542L530 320H187L148 76H513L502 0H46ZM377 765L241 937H340L445 765H377Z" />
<glyph unicode="&#xc9;" horiz-adv-x="590" d="M46 0L158 705H614L601 629H235L199 396H542L530 320H187L148 76H513L502 0H46ZM377 765L508 937H610L445 765H377Z" />
<glyph unicode="&#xca;" horiz-adv-x="590" d="M46 0L158 705H614L601 629H235L199 396H542L530 320H187L148 76H513L502 0H46ZM239 765L379 937H462L567 765H501L417 880L305 765H239Z" />
<glyph unicode="&#xcb;" horiz-adv-x="590" d="M46 0L158 705H614L601 629H235L199 396H542L530 320H187L148 76H513L502 0H46ZM458 802L473 895H566L550 802H458ZM280 802L295 895H388L373 802H280Z" />
<glyph unicode="&#xcc;" horiz-adv-x="264" d="M46 0L158 705H251L139 0H46ZM180 765L44 937H143L248 765H180Z" />
<glyph unicode="&#xcd;" horiz-adv-x="264" d="M46 0L158 705H251L139 0H46ZM180 765L311 937H413L248 765H180Z" />
<glyph unicode="&#xce;" horiz-adv-x="264" d="M46 0L158 705H251L139 0H46ZM42 765L182 937H265L370 765H304L220 880L108 765H42Z" />
<glyph unicode="&#xcf;" horiz-adv-x="264" d="M46 0L158 705H251L139 0H46ZM262 802L277 895H370L354 802H262ZM84 802L99 895H192L177 802H84Z" />
<glyph unicode="&#xd0;" horiz-adv-x="750" d="M46 0L158 705H387Q512 705 588 662T693 536T704 340Q676 169 570 85T288 0H46ZM152 79H291Q431 79 510 145T611 349Q633 490 575 558T376 626H238L152 79ZM11 322L22 393H398L387 322H11Z" />
<glyph unicode="&#xd1;" horiz-adv-x="748" d="M46 0L158 705H230L576 117L556 121L648 705H735L623 0H552L205 588L225 584L133 0H46ZM294 780L244 783Q255 849 289 884T374 920Q404 920 429 907T478 879Q498 867 516 857T553 847Q610 847 629 923L679 920Q668
855 634 819T550 783Q520 783 495 796T446 824Q426 837 408 847T370 857Q313 857 294 780Z" />
<glyph unicode="&#xd2;" horiz-adv-x="776" d="M78 366Q96 477 146 555T274 673T451 714Q558 714 625 667T720 535T729 340Q712 229 662 151T534 32T356 -9Q250 -9 182 38T88 170T78 366ZM175 356Q161 268 178 205T243 107T363 73Q475 73 543 146T632 350Q647
438 629 501T564 598T443 632Q332 632 265 560T175 356ZM435 765L299 937H398L503 765H435Z" />
<glyph unicode="&#xd3;" horiz-adv-x="776" d="M78 366Q96 477 146 555T274 673T451 714Q558 714 625 667T720 535T729 340Q712 229 662 151T534 32T356 -9Q250 -9 182 38T88 170T78 366ZM175 356Q161 268 178 205T243 107T363 73Q475 73 543 146T632 350Q647
438 629 501T564 598T443 632Q332 632 265 560T175 356ZM435 765L566 937H668L503 765H435Z" />
<glyph unicode="&#xd4;" horiz-adv-x="776" d="M78 366Q96 477 146 555T274 673T451 714Q558 714 625 667T720 535T729 340Q712 229 662 151T534 32T356 -9Q250 -9 182 38T88 170T78 366ZM175 356Q161 268 178 205T243 107T363 73Q475 73 543 146T632 350Q647
438 629 501T564 598T443 632Q332 632 265 560T175 356ZM297 765L437 937H520L625 765H559L475 880L363 765H297Z" />
<glyph unicode="&#xd5;" horiz-adv-x="776" d="M78 366Q96 477 146 555T274 673T451 714Q558 714 625 667T720 535T729 340Q712 229 662 151T534 32T356 -9Q250 -9 182 38T88 170T78 366ZM175 356Q161 268 178 205T243 107T363 73Q475 73 543 146T632 350Q647
438 629 501T564 598T443 632Q332 632 265 560T175 356ZM305 780L255 783Q266 849 300 884T385 920Q415 920 440 907T489 879Q509 867 527 857T564 847Q621 847 640 923L690 920Q679 855 645 819T561 783Q531 783 506 796T457 824Q437 837 419 847T381 857Q324
857 305 780Z" />
<glyph unicode="&#xd6;" horiz-adv-x="776" d="M78 366Q96 477 146 555T274 673T451 714Q558 714 625 667T720 535T729 340Q712 229 662 151T534 32T356 -9Q250 -9 182 38T88 170T78 366ZM175 356Q161 268 178 205T243 107T363 73Q475 73 543 146T632 350Q647
438 629 501T564 598T443 632Q332 632 265 560T175 356ZM517 802L532 895H625L609 802H517ZM339 802L354 895H447L432 802H339Z" />
<glyph unicode="&#xd7;" horiz-adv-x="600" d="M112 50L65 98L268 287L100 471L149 519L319 333L521 519L568 471L364 284L533 98L484 50L314 236L112 50Z" />
<glyph unicode="&#xd8;" horiz-adv-x="776" d="M78 366Q96 477 146 555T274 673T451 714Q558 714 625 667T720 535T729 340Q712 229 662 151T534 32T356 -9Q250 -9 182 38T88 170T78 366ZM175 356Q161 268 178 205T243 107T363 73Q475 73 543 146T632 350Q647
438 629 501T564 598T443 632Q332 632 265 560T175 356ZM231 59L160 -38L102 3L173 100L209 140L558 607L581 647L653 743L712 702L640 606L604 565L256 99L231 59Z" />
<glyph unicode="&#xd9;" horiz-adv-x="733" d="M335 -9Q243 -9 182 23T96 121T86 284L153 705H247L180 283Q163 178 200 126T344 73Q437 73 492 122T565 284L632 705H724L657 278Q641 179 600 116T493 22T335 -9ZM415 765L279 937H378L483 765H415Z" />
<glyph unicode="&#xda;" horiz-adv-x="733" d="M335 -9Q243 -9 182 23T96 121T86 284L153 705H247L180 283Q163 178 200 126T344 73Q437 73 492 122T565 284L632 705H724L657 278Q641 179 600 116T493 22T335 -9ZM415 765L546 937H648L483 765H415Z" />
<glyph unicode="&#xdb;" horiz-adv-x="733" d="M335 -9Q243 -9 182 23T96 121T86 284L153 705H247L180 283Q163 178 200 126T344 73Q437 73 492 122T565 284L632 705H724L657 278Q641 179 600 116T493 22T335 -9ZM278 765L418 937H501L606 765H540L456 880L344 765H278Z" />
<glyph unicode="&#xdc;" horiz-adv-x="733" d="M335 -9Q243 -9 182 23T96 121T86 284L153 705H247L180 283Q163 178 200 126T344 73Q437 73 492 122T565 284L632 705H724L657 278Q641 179 600 116T493 22T335 -9ZM497 802L512 895H605L589 802H497ZM319 802L334
895H427L412 802H319Z" />
<glyph unicode="&#xdd;" horiz-adv-x="612" d="M219 0L272 330L282 269L58 705H161L332 361H310L590 705H699L335 266L365 330L312 0H219ZM354 765L485 937H587L422 765H354Z" />
<glyph unicode="&#xde;" horiz-adv-x="655" d="M46 0L158 705H251L230 573H420Q537 573 590 515T628 357Q619 296 586 253T498 188T372 165H165L139 0H46ZM177 241H366Q441 241 484 271T536 364Q547 429 514 463T406 497H218L177 241Z" />
<glyph unicode="&#xdf;" horiz-adv-x="643" d="M36 0L114 489Q134 616 202 679T390 742Q454 742 498 721T563 660T575 561Q569 523 548 487T484 419T372 361L373 380Q458 356 510 324T584 249T597 150Q589 100 560 65T486 10T384 -9Q325 -9 280 5T205 44L235 108Q269
85 304 73T382 61Q436 61 469 86T510 157Q515 192 499 222T434 278T294 329L305 401Q371 424 410 449T467 502T490 561Q499 614 472 643T383 672Q308 672 265 631T206 499L127 0H36Z" />
<glyph unicode="&#xe0;" horiz-adv-x="605" d="M236 -9Q167 -9 120 23T54 117T48 265Q68 386 138 449T306 512Q372 512 416 479T470 388L459 387L489 503H576Q569 473 562 443T549 384L489 0H398L417 117H432Q406 58 356 25T236 -9ZM262 63Q329 63 377 110T440
249Q455 344 421 391T315 439Q248 439 201 392T139 255Q124 159 157 111T262 63ZM311 552L170 754H263L375 552H311Z" />
<glyph unicode="&#xe1;" horiz-adv-x="605" d="M236 -9Q167 -9 120 23T54 117T48 265Q68 386 138 449T306 512Q372 512 416 479T470 388L459 387L489 503H576Q569 473 562 443T549 384L489 0H398L417 117H432Q406 58 356 25T236 -9ZM262 63Q329 63 377 110T440
249Q455 344 421 391T315 439Q248 439 201 392T139 255Q124 159 157 111T262 63ZM312 552L446 754H543L377 552H312Z" />
<glyph unicode="&#xe2;" horiz-adv-x="605" d="M236 -9Q167 -9 120 23T54 117T48 265Q68 386 138 449T306 512Q372 512 416 479T470 388L459 387L489 503H576Q569 473 562 443T549 384L489 0H398L417 117H432Q406 58 356 25T236 -9ZM262 63Q329 63 377 110T440
249Q455 344 421 391T315 439Q248 439 201 392T139 255Q124 159 157 111T262 63ZM189 552L321 754H405L493 552H433L359 696L251 552H189Z" />
<glyph unicode="&#xe3;" horiz-adv-x="605" d="M236 -9Q167 -9 120 23T54 117T48 265Q68 386 138 449T306 512Q372 512 416 479T470 388L459 387L489 503H576Q569 473 562 443T549 384L489 0H398L417 117H432Q406 58 356 25T236 -9ZM262 63Q329 63 377 110T440
249Q455 344 421 391T315 439Q248 439 201 392T139 255Q124 159 157 111T262 63ZM216 589L166 592Q176 657 207 693T285 729Q311 729 329 716T363 688Q377 675 391 665T422 655Q473 655 491 732L540 729Q530 663 499 628T423 592Q396 592 377 605T343 633Q329 645
315 655T284 665Q234 665 216 589Z" />
<glyph unicode="&#xe4;" horiz-adv-x="605" d="M236 -9Q167 -9 120 23T54 117T48 265Q68 386 138 449T306 512Q372 512 416 479T470 388L459 387L489 503H576Q569 473 562 443T549 384L489 0H398L417 117H432Q406 58 356 25T236 -9ZM262 63Q329 63 377 110T440
249Q455 344 421 391T315 439Q248 439 201 392T139 255Q124 159 157 111T262 63ZM397 606L410 699H503L489 606H397ZM219 606L233 699H326L312 606H219Z" />
<glyph unicode="&#xe5;" horiz-adv-x="605" d="M236 -9Q167 -9 120 23T54 117T48 265Q68 386 138 449T306 512Q372 512 416 479T470 388L459 387L489 503H576Q569 473 562 443T549 384L489 0H398L417 117H432Q406 58 356 25T236 -9ZM262 63Q329 63 377 110T440
249Q455 344 421 391T315 439Q248 439 201 392T139 255Q124 159 157 111T262 63ZM362 546Q329 546 302 562T258 604T242 664Q242 697 258 723T301 765T362 781Q397 781 424 765T466 723T482 663Q482 631 467 605T424 562T362 546ZM362 593Q394 593 413 613T433
663Q433 694 414 714T362 734Q332 734 312 714T292 664Q292 633 311 613T362 593Z" />
<glyph unicode="&#xe6;" horiz-adv-x="879" d="M209 -9Q148 -9 108 14T51 75T41 159Q51 212 89 241T193 283T353 295H405L397 242H343Q278 242 231 235T158 208T125 152Q118 110 143 84T221 58Q285 58 327 98T381 205L398 320Q409 383 382 411T301 440Q253 440
212 429T124 390L97 455Q126 473 161 486T233 505T307 512Q388 512 427 481T472 391H443Q479 450 534 481T654 512Q723 512 768 482T831 397T840 272L835 242H459L468 296H782L764 282Q776 361 747 403T650 446Q602 446 566 424T508 363T479 274L475 249Q463 160
501 112T624 63Q665 63 705 76T781 119L811 56Q772 25 720 8T614 -9Q526 -9 472 31T400 145H424Q397 72 342 32T209 -9Z" />
<glyph unicode="&#xe7;" horiz-adv-x="497" d="M261 -9Q184 -9 132 24T57 118T48 265Q68 386 142 449T324 512Q371 512 414 497T484 453L450 391Q424 416 391 427T327 439Q254 439 205 393T140 257Q125 166 161 116T274 65Q307 65 344 77T414 119L443 55Q412 25
362 8T261 -9ZM227 -193Q201 -193 177 -188T137 -173L155 -126Q173 -135 189 -139T228 -143Q255 -143 272 -134T289 -105Q289 -94 280 -88T254 -81Q244 -81 234 -82T207 -88L192 -72L221 20H276L251 -56L225 -48Q238 -45 249 -43T271 -41Q306 -41 327 -57T349 -104Q349
-144 315 -168T227 -193Z" />
<glyph unicode="&#xe8;" horiz-adv-x="545" d="M276 -9Q191 -9 136 25T59 121T49 268Q61 345 97 399T189 483T316 512Q386 512 431 482T496 397T505 272L500 242H116L124 296H447L429 282Q441 361 411 403T311 446Q261 446 225 424T166 363T138 274L134 249Q122
160 160 112T286 63Q328 63 369 76T446 119L476 56Q436 25 384 8T276 -9ZM301 552L160 754H253L365 552H301Z" />
<glyph unicode="&#xe9;" horiz-adv-x="545" d="M276 -9Q191 -9 136 25T59 121T49 268Q61 345 97 399T189 483T316 512Q386 512 431 482T496 397T505 272L500 242H116L124 296H447L429 282Q441 361 411 403T311 446Q261 446 225 424T166 363T138 274L134 249Q122
160 160 112T286 63Q328 63 369 76T446 119L476 56Q436 25 384 8T276 -9ZM302 552L436 754H533L367 552H302Z" />
<glyph unicode="&#xea;" horiz-adv-x="545" d="M276 -9Q191 -9 136 25T59 121T49 268Q61 345 97 399T189 483T316 512Q386 512 431 482T496 397T505 272L500 242H116L124 296H447L429 282Q441 361 411 403T311 446Q261 446 225 424T166 363T138 274L134 249Q122
160 160 112T286 63Q328 63 369 76T446 119L476 56Q436 25 384 8T276 -9ZM179 552L311 754H395L483 552H423L349 696L241 552H179Z" />
<glyph unicode="&#xeb;" horiz-adv-x="545" d="M276 -9Q191 -9 136 25T59 121T49 268Q61 345 97 399T189 483T316 512Q386 512 431 482T496 397T505 272L500 242H116L124 296H447L429 282Q441 361 411 403T311 446Q261 446 225 424T166 363T138 274L134 249Q122
160 160 112T286 63Q328 63 369 76T446 119L476 56Q436 25 384 8T276 -9ZM387 606L400 699H493L479 606H387ZM209 606L223 699H316L302 606H209Z" />
<glyph unicode="&#xec;" horiz-adv-x="243" d="M36 0L116 503H207L127 0H36ZM136 552L-5 754H88L200 552H136Z" />
<glyph unicode="&#xed;" horiz-adv-x="243" d="M36 0L116 503H207L127 0H36ZM137 552L271 754H368L202 552H137Z" />
<glyph unicode="&#xee;" horiz-adv-x="243" d="M36 0L116 503H207L127 0H36ZM14 552L146 754H230L318 552H258L184 696L76 552H14Z" />
<glyph unicode="&#xef;" horiz-adv-x="243" d="M36 0L116 503H207L127 0H36ZM222 606L235 699H328L314 606H222ZM44 606L58 699H151L137 606H44Z" />
<glyph unicode="&#xf0;" d="M255 -9Q181 -9 129 21T55 107T44 238Q55 305 90 354T180 431T304 458Q377 458 425 421T481 308H457Q471 393 449 470T369 601H393L182 516L163 561L344 633L343 620Q316 642 283 657T212 683L237 743Q297 731 344 709T427 656L405
659L531 709L551 665L446 622L448 637Q490 591 514 533T544 408T538 271Q517 135 444 63T255 -9ZM260 64Q329 64 376 107T435 223Q447 300 414 342T309 385Q240 385 194 344T134 226Q122 149 156 107T260 64Z" />
<glyph unicode="&#xf1;" horiz-adv-x="589" d="M36 0L97 384Q102 413 104 443T108 503H196L188 395L175 394Q205 452 257 482T376 512Q468 512 504 459T524 305L476 0H385L433 304Q445 376 422 407T340 438Q273 438 229 397T173 288L127 0H36ZM214 589L164 592Q174
657 205 693T283 729Q309 729 327 716T361 688Q375 675 389 665T420 655Q471 655 489 732L538 729Q528 663 497 628T421 592Q394 592 375 605T341 633Q327 645 313 655T282 665Q232 665 214 589Z" />
<glyph unicode="&#xf2;" horiz-adv-x="576" d="M255 -9Q179 -9 128 23T56 116T48 265Q61 345 99 400T193 484T320 512Q398 512 449 480T521 387T528 239Q515 158 477 103T382 20T255 -9ZM261 63Q328 63 375 110T438 249Q453 344 419 391T314 439Q247 439 201 392T139
255Q124 159 157 111T261 63ZM303 552L162 754H255L367 552H303Z" />
<glyph unicode="&#xf3;" horiz-adv-x="576" d="M255 -9Q179 -9 128 23T56 116T48 265Q61 345 99 400T193 484T320 512Q398 512 449 480T521 387T528 239Q515 158 477 103T382 20T255 -9ZM261 63Q328 63 375 110T438 249Q453 344 419 391T314 439Q247 439 201 392T139
255Q124 159 157 111T261 63ZM304 552L438 754H535L369 552H304Z" />
<glyph unicode="&#xf4;" horiz-adv-x="576" d="M255 -9Q179 -9 128 23T56 116T48 265Q61 345 99 400T193 484T320 512Q398 512 449 480T521 387T528 239Q515 158 477 103T382 20T255 -9ZM261 63Q328 63 375 110T438 249Q453 344 419 391T314 439Q247 439 201 392T139
255Q124 159 157 111T261 63ZM181 552L313 754H397L485 552H425L351 696L243 552H181Z" />
<glyph unicode="&#xf5;" horiz-adv-x="576" d="M255 -9Q179 -9 128 23T56 116T48 265Q61 345 99 400T193 484T320 512Q398 512 449 480T521 387T528 239Q515 158 477 103T382 20T255 -9ZM261 63Q328 63 375 110T438 249Q453 344 419 391T314 439Q247 439 201 392T139
255Q124 159 157 111T261 63ZM208 589L158 592Q168 657 199 693T277 729Q303 729 321 716T355 688Q369 675 383 665T414 655Q465 655 483 732L532 729Q522 663 491 628T415 592Q388 592 369 605T335 633Q321 645 307 655T276 665Q226 665 208 589Z" />
<glyph unicode="&#xf6;" horiz-adv-x="576" d="M255 -9Q179 -9 128 23T56 116T48 265Q61 345 99 400T193 484T320 512Q398 512 449 480T521 387T528 239Q515 158 477 103T382 20T255 -9ZM261 63Q328 63 375 110T438 249Q453 344 419 391T314 439Q247 439 201 392T139
255Q124 159 157 111T261 63ZM389 606L402 699H495L481 606H389ZM211 606L225 699H318L304 606H211Z" />
<glyph unicode="&#xf7;" horiz-adv-x="600" d="M53 253L64 321H557L546 253H53ZM216 43L231 133H321L306 43H216ZM279 440L293 530H383L369 440H279Z" />
<glyph unicode="&#xf8;" horiz-adv-x="576" d="M255 -9Q179 -9 128 23T56 116T48 265Q61 345 99 400T193 484T320 512Q398 512 449 480T521 387T528 239Q515 158 477 103T382 20T255 -9ZM261 63Q332 63 380 110T444 249Q459 342 423 390T314 439Q244 439 196 392T133
254Q118 162 151 113T261 63ZM115 -35L69 -2L465 536L509 504L115 -35Z" />
<glyph unicode="&#xf9;" horiz-adv-x="582" d="M222 -9Q133 -9 91 41T64 197L113 503H204L156 201Q145 129 168 97T249 65Q314 65 356 107T409 218L454 503H545L465 0H377L394 111H409Q380 54 332 23T222 -9ZM305 553L164 755H257L369 553H305Z" />
<glyph unicode="&#xfa;" horiz-adv-x="582" d="M222 -9Q133 -9 91 41T64 197L113 503H204L156 201Q145 129 168 97T249 65Q314 65 356 107T409 218L454 503H545L465 0H377L394 111H409Q380 54 332 23T222 -9ZM306 553L440 755H537L371 553H306Z" />
<glyph unicode="&#xfb;" horiz-adv-x="582" d="M222 -9Q133 -9 91 41T64 197L113 503H204L156 201Q145 129 168 97T249 65Q314 65 356 107T409 218L454 503H545L465 0H377L394 111H409Q380 54 332 23T222 -9ZM183 553L315 755H399L487 553H427L353 697L245 553H183Z" />
<glyph unicode="&#xfc;" horiz-adv-x="582" d="M222 -9Q133 -9 91 41T64 197L113 503H204L156 201Q145 129 168 97T249 65Q314 65 356 107T409 218L454 503H545L465 0H377L394 111H409Q380 54 332 23T222 -9ZM391 607L404 700H497L483 607H391ZM213 607L227 700H320L306
607H213Z" />
<glyph unicode="&#xfd;" horiz-adv-x="534" d="M-16 -227L-31 -153Q18 -142 51 -128T110 -90T156 -32L191 28L186 -10L48 503H143L251 72H224L467 503H565L248 -39Q219 -88 189 -121T128 -175T61 -208T-16 -227ZM281 552L415 754H512L346 552H281Z" />
<glyph unicode="&#xfe;" horiz-adv-x="605" d="M2 -216L153 736H244L189 388L173 387Q200 445 249 478T369 512Q439 512 486 480T552 386T558 239Q538 118 468 55T300 -9Q234 -9 190 24T135 115H146L93 -216H2ZM290 63Q358 63 405 110T467 249Q482 344 449 391T343
439Q277 439 229 392T165 255Q151 159 185 111T290 63Z" />
<glyph unicode="&#xff;" horiz-adv-x="534" d="M-16 -227L-31 -153Q18 -142 51 -128T110 -90T156 -32L191 28L186 -10L48 503H143L251 72H224L467 503H565L248 -39Q219 -88 189 -121T128 -175T61 -208T-16 -227ZM366 606L379 699H472L458 606H366ZM188 606L202
699H295L281 606H188Z" />
<glyph unicode="&#x2013;" horiz-adv-x="505" d="M-1 246L8 304H513L504 246H-1Z" />
<glyph unicode="&#x2014;" horiz-adv-x="1010" d="M-1 246L8 304H1018L1009 246H-1Z" />
<glyph unicode="&#x2018;" horiz-adv-x="233" d="M97 482L111 568Q116 597 124 621T148 667T193 711L228 674Q198 645 186 624T169 574L146 593H225L207 482H97Z" />
<glyph unicode="&#x2019;" horiz-adv-x="233" d="M147 476L112 514Q143 542 154 564T170 614L194 595H115L133 705H243L229 620Q225 591 217 567T192 521T147 476Z" />
<glyph unicode="&#x201a;" horiz-adv-x="233" d="M54 -119L18 -80Q49 -52 60 -30T77 20L100 0H21L38 111H149L135 25Q131 -4 123 -28T98 -74T54 -119Z" />
<glyph unicode="&#x201c;" horiz-adv-x="408" d="M97 482L111 568Q116 597 124 621T148 667T193 711L228 674Q198 645 186 624T169 574L146 593H225L207 482H97ZM272 482L286 568Q291 597 299 621T323 667T368 711L403 674Q373 645 361 624T344 574L321 593H400L382
482H272Z" />
<glyph unicode="&#x201d;" horiz-adv-x="408" d="M147 476L112 514Q143 542 154 564T170 614L194 595H115L133 705H243L229 620Q225 591 217 567T192 521T147 476ZM322 476L287 514Q318 542 329 564T345 614L369 595H290L308 705H418L404 620Q400 591 392 567T367
521T322 476Z" />
<glyph unicode="&#x201e;" horiz-adv-x="408" d="M54 -119L18 -80Q49 -52 60 -30T77 20L100 0H21L38 111H149L135 25Q131 -4 123 -28T98 -74T54 -119ZM229 -119L193 -80Q224 -52 235 -30T252 20L275 0H196L213 111H324L310 25Q306 -4 298 -28T273 -74T229 -119Z" />
<glyph unicode="&#x2022;" horiz-adv-x="529" d="M266 89Q217 89 176 112T111 176T86 266Q86 312 109 352T173 418T266 444Q315 444 356 421T422 358T448 266Q448 217 424 177T358 113T266 89Z" />
<glyph unicode="&#x2039;" horiz-adv-x="269" d="M130 87L28 267L188 449H275L112 260L208 87H130Z" />
<glyph unicode="&#x203a;" horiz-adv-x="269" d="M97 87H10L172 276L76 449H155L257 269L97 87Z" />
</font>
</defs>
</svg>
