<?xml version="1.0" standalone="no"?>
<!DOCTYPE svg PUBLIC "-//W3C//DTD SVG 1.1//EN" "http://www.w3.org/Graphics/SVG/1.1/DTD/svg11.dtd">
<svg xmlns="http://www.w3.org/2000/svg">
<defs >
<font id="NotoSans" horiz-adv-x="524" ><font-face
    font-family="Noto Sans Thin"
    units-per-em="1000"
    panose-1="2 11 2 2 4 5 4 2 2 4"
    ascent="1069"
    descent="-293"
    alphabetic="0" />
<glyph unicode=" " glyph-name="space" horiz-adv-x="260" />
<glyph unicode="!" glyph-name="exclam" horiz-adv-x="223" d="M125 174H100L98 714H127L125 174ZM85 23Q85 35 90 44T110 54Q128 54 132 45T137 23Q137 10 133 1T110 -8Q95 -8 90 1T85 23Z" />
<glyph unicode="&quot;" glyph-name="quotedbl" horiz-adv-x="320" d="M101 714L97 456H77L73 714H101ZM247 714L243 456H223L219 714H247Z" />
<glyph unicode="#" glyph-name="numbersign" horiz-adv-x="646" d="M467 462L426 251H579V227H422L378 0H353L397 227H198L154 0H129L173 227H28V251H177L218 462H67V486H222L266 714H291L247 486H446L490 714H515L471 486H618V462H467ZM202 251H401L442 462H243L202
251Z" />
<glyph unicode="$" glyph-name="dollar" horiz-adv-x="570" d="M253 10Q190 11 145 20T67 39V68Q102 55 150 46T253 35V353Q202 373 159 394T90 449T64 536Q64 589 89 625T156 681T253 704V759H277V704Q317 703 358 695T439 667L428 644Q386 663 348 670T277 679V370Q333
350 376 328T444 272T469 186Q469 101 415 58T277 10V-58H253V10ZM253 679Q208 677 172 661T113 615T91 538Q91 492 114 463T174 414T253 379V679ZM277 35Q348 39 395 75T442 187Q442 229 422 256T365 304T277 343V35Z" />
<glyph unicode="%" glyph-name="percent" horiz-adv-x="793" d="M197 724Q266 724 299 667T333 501Q333 388 297 332T195 276Q129 276 94 333T59 501Q59 612 96 668T197 724ZM609 714L213 0H185L581 714H609ZM197 699Q145 699 116 650T86 501Q86 402 114 352T195
301Q251 301 278 352T306 501Q306 597 280 648T197 699ZM598 438Q667 438 700 381T734 215Q734 102 698 46T596 -10Q530 -10 495 47T460 215Q460 326 497 382T598 438ZM598 413Q546 413 517 364T487 215Q487 116 515 66T596 15Q652 15 679 66T707 215Q707 311 681
362T598 413Z" />
<glyph unicode="&amp;" glyph-name="ampersand" horiz-adv-x="702" d="M304 725Q372 725 416 687T460 581Q460 512 414 469T289 388L532 141Q562 177 586 225T622 328H649Q635 267 609 217T549 122L667 0H632L533 105Q487 55 429 23T281 -10Q185 -10 124 39T63
179Q63 235 84 272T147 338T246 395Q211 430 187 458T151 514T139 576Q139 644 185 684T304 725ZM304 700Q240 700 203 667T166 576Q166 530 193 493T269 406Q345 439 389 479T433 581Q433 637 398 668T304 700ZM264 377Q208 351 169 325T110 265T90 179Q90 100
143 58T281 15Q364 15 417 44T516 122L264 377Z" />
<glyph unicode="&apos;" glyph-name="quotesingle" horiz-adv-x="172" d="M101 714L97 456H77L73 714H101Z" />
<glyph unicode="(" glyph-name="parenleft" horiz-adv-x="255" d="M42 274Q42 407 80 520T187 714H220Q143 626 106 514T69 275Q69 151 106 41T220 -158H187Q119 -74 81 34T42 274Z" />
<glyph unicode=")" glyph-name="parenright" horiz-adv-x="255" d="M214 282Q214 149 176 36T69 -158H36Q113 -69 150 43T187 281Q187 406 150 515T36 714H69Q137 630 175 522T214 282Z" />
<glyph unicode="*" glyph-name="asterisk" horiz-adv-x="551" d="M287 758L281 552L475 621L483 594L287 537L412 374L389 357L273 527L158 358L135 374L260 537L62 594L71 621L265 552L259 758H287Z" />
<glyph unicode="+" glyph-name="plus" horiz-adv-x="570" d="M297 365H515V341H297V123H273V341H55V365H273V583H297V365Z" />
<glyph unicode="," glyph-name="comma" horiz-adv-x="183" d="M125 104Q114 49 98 -14T60 -129H38Q60 -56 73 1T94 116H122L125 104Z" />
<glyph unicode="-" glyph-name="hyphen" horiz-adv-x="322" d="M40 259V284H282V259H40Z" />
<glyph unicode="." glyph-name="period" horiz-adv-x="220" d="M85 23Q85 35 90 44T110 54Q128 54 132 45T137 23Q137 10 133 1T110 -8Q95 -8 90 1T85 23Z" />
<glyph unicode="/" glyph-name="slash" horiz-adv-x="322" d="M309 714L41 0H13L281 714H309Z" />
<glyph unicode="0" glyph-name="zero" horiz-adv-x="570" d="M507 360Q507 -10 285 -10Q179 -10 121 81T62 360Q62 464 83 546T154 677T286 725Q371 725 419 679T487 550T507 360ZM89 360Q89 184 138 100T285 15Q388 15 434 100T480 360Q480 462 464 538T405 657T286
700Q211 700 168 656T107 536T89 360Z" />
<glyph unicode="1" glyph-name="one" horiz-adv-x="570" d="M320 0H294V563Q294 606 294 635T295 685Q283 675 272 666T241 642L118 551L102 572L297 714H320V0Z" />
<glyph unicode="2" glyph-name="two" horiz-adv-x="570" d="M491 0H59V23L283 260Q332 311 364 353T414 440T431 539Q431 614 388 656T268 699Q225 699 180 683T95 635L80 655Q126 693 175 708T268 724Q325 724 368 701T434 636T458 539Q458 479 440 432T387 341T303
246L95 26V25H491V0Z" />
<glyph unicode="3" glyph-name="three" horiz-adv-x="570" d="M470 551Q470 481 427 434T318 375V373Q401 362 446 318T492 194Q492 105 430 48T247 -10Q188 -10 137 2T47 32V60Q85 41 138 28T247 15Q355 15 410 63T465 194Q465 254 436 290T357 343T239 359H156V384H239Q292
384 338 401T414 456T443 551Q443 626 397 662T273 699Q217 699 168 682T69 629L55 650Q99 684 153 704T273 724Q361 724 415 679T470 551Z" />
<glyph unicode="4" glyph-name="four" horiz-adv-x="570" d="M560 194H426V0H400V194H25V212L398 718H426V219H560V194ZM400 524Q400 567 400 593T400 640T401 686H399Q382 659 370 641T335 592L60 219H400V524Z" />
<glyph unicode="5" glyph-name="five" horiz-adv-x="570" d="M274 426Q381 426 443 372T505 217Q505 147 474 96T385 18T253 -10Q196 -10 151 2T74 32V62Q108 42 153 29T253 15Q355 15 416 68T478 217Q478 303 427 352T274 401Q228 401 191 395T117 378L98 393L128
714H462V689H151L126 406Q151 412 187 419T274 426Z" />
<glyph unicode="6" glyph-name="six" horiz-adv-x="570" d="M68 303Q68 456 107 549T214 684T367 726Q397 726 421 723T465 713V686Q447 693 422 697T367 701Q288 701 228 663T132 541T93 322H95Q108 350 135 377T204 421T304 439Q403 439 458 381T513 225Q513
156 488 103T415 20T299 -10Q236 -10 192 17T120 89T81 190T68 303ZM299 15Q390 15 438 71T486 225Q486 313 441 363T304 414Q241 414 195 389T125 328T100 258Q100 228 108 187T138 107T199 41T299 15Z" />
<glyph unicode="7" glyph-name="seven" horiz-adv-x="570" d="M183 0L480 689H58V714H510V697L212 0H183Z" />
<glyph unicode="8" glyph-name="eight" horiz-adv-x="570" d="M283 724Q373 724 426 681T479 561Q479 495 435 454T314 382Q403 352 453 305T503 181Q503 120 473 78T393 13T279 -10Q216 -10 168 13T92 78T64 175Q64 257 115 305T251 381Q206 398 169 420T110
476T87 559Q87 609 112 646T181 703T283 724ZM283 699Q210 699 162 663T114 559Q114 495 161 458T286 394Q369 428 410 465T452 561Q452 630 408 664T283 699ZM91 175Q91 101 143 58T279 15Q365 15 420 57T476 181Q476 246 434 287T309 358L281 368Q228 351 185
327T117 266T91 175Z" />
<glyph unicode="9" glyph-name="nine" horiz-adv-x="570" d="M500 413Q500 260 461 167T355 31T201 -12Q172 -12 143 -9T93 1V29Q111 22 140 18T201 13Q279 13 340 52T436 175T475 394H473Q460 366 433 339T363 293T262 275Q163 275 109 334T55 491Q55 560 80
612T153 694T269 724Q334 724 378 698T449 627T488 527T500 413ZM269 699Q178 699 130 644T82 491Q82 403 127 352T264 300Q327 300 372 325T443 387T468 458Q468 487 460 528T430 608T369 673T269 699Z" />
<glyph unicode=":" glyph-name="colon" horiz-adv-x="220" d="M85 501Q85 513 90 522T110 532Q128 532 132 523T137 501Q137 488 133 479T110 470Q95 470 90 479T85 501ZM85 23Q85 35 90 44T110 54Q128 54 132 45T137 23Q137 10 133 1T110 -8Q95 -8 90 1T85 23Z" />
<glyph unicode=";" glyph-name="semicolon" horiz-adv-x="220" d="M85 501Q85 513 90 522T110 532Q128 532 132 523T137 501Q137 488 133 479T110 470Q95 470 90 479T85 501ZM125 104Q114 49 98 -14T60 -129H38Q60 -56 73 1T94 116H122L125 104Z" />
<glyph unicode="&lt;" glyph-name="less" horiz-adv-x="570" d="M514 138L56 353V371L514 586V560L91 362L514 164V138Z" />
<glyph unicode="=" glyph-name="equal" horiz-adv-x="570" d="M55 443V467H515V443H55ZM55 239V263H515V239H55Z" />
<glyph unicode="&gt;" glyph-name="greater" horiz-adv-x="570" d="M56 164L479 362L56 560V586L514 371V353L56 138V164Z" />
<glyph unicode="?" glyph-name="question" horiz-adv-x="413" d="M144 186Q144 236 151 267T176 323T229 371Q265 397 291 421T332 477T347 554Q347 629 303 664T188 699Q151 699 118 691T48 665L38 691Q82 709 115 716T188 724Q272 724 323 682T374 554Q374 504
358 469T312 406T242 350Q203 323 186 289T169 186V174H144V186ZM133 23Q133 35 138 44T158 54Q176 54 180 45T185 23Q185 10 181 1T158 -8Q143 -8 138 1T133 23Z" />
<glyph unicode="@" glyph-name="at" horiz-adv-x="878" d="M826 351Q826 283 809 228T758 140T670 107Q625 107 597 134T566 212H565Q543 156 501 132T411 107Q338 107 298 152T258 284Q258 348 285 398T359 477T470 506Q506 506 538 501T598 486L591 341Q590
323 589 298T587 246Q587 192 605 162T670 132Q715 132 743 160T785 237T799 351Q799 450 761 524T649 640T467 681Q354 681 266 635T129 501T79 284Q79 173 119 93T234 -31T414 -75Q464 -75 516 -65T616 -34V-62Q573 -80 522 -90T414 -100Q302 -100 221 -53T96
80T52 284Q52 420 104 514T251 657T467 706Q579 706 659 663T782 540T826 351ZM285 284Q285 212 316 172T411 132Q481 132 520 176T564 316L572 466Q529 481 470 481Q388 481 337 428T285 284Z" />
<glyph unicode="A" glyph-name="A" horiz-adv-x="577" d="M549 0L445 271H135L28 0H0L282 716H307L577 0H549ZM325 594Q319 611 311 632T293 682Q286 660 277 637T260 593L144 296H435L325 594Z" />
<glyph unicode="B" glyph-name="B" horiz-adv-x="613" d="M294 714Q425 714 482 671T539 542Q539 481 503 435T398 377V375Q487 362 522 317T557 203Q557 130 524 85T434 20T303 0H103V714H294ZM303 388Q512 388 512 541Q512 620 460 654T291 689H129V388H303ZM129
363V25H311Q413 25 471 67T530 202Q530 264 503 299T424 348T300 363H129Z" />
<glyph unicode="C" glyph-name="C" horiz-adv-x="614" d="M405 699Q305 699 235 655T127 535T90 360Q90 257 123 179T222 58T386 15Q444 15 489 23T570 44V21Q537 8 491 -1T386 -10Q280 -10 208 36T100 166T63 360Q63 464 104 546T221 676T405 724Q502 724 583
687L573 662Q530 685 488 692T405 699Z" />
<glyph unicode="D" glyph-name="D" horiz-adv-x="692" d="M628 364Q628 185 537 93T257 0H103V714H280Q457 714 542 624T628 364ZM601 363Q601 522 523 605T270 689H129V25H260Q601 25 601 363Z" />
<glyph unicode="E" glyph-name="E" horiz-adv-x="550" d="M488 0H103V714H488V689H129V389H468V364H129V25H488V0Z" />
<glyph unicode="F" glyph-name="F" horiz-adv-x="492" d="M129 0H103V714H489V689H129V354H470V329H129V0Z" />
<glyph unicode="G" glyph-name="G" horiz-adv-x="720" d="M367 350H639V36Q591 13 534 2T417 -10Q244 -10 154 85T63 355Q63 461 106 544T231 677T424 726Q481 726 532 716T631 682L619 657Q568 682 520 691T423 701Q320 701 245 656T130 533T90 356Q90 235 130
160T245 50T419 15Q477 15 525 24T613 50V325H367V350Z" />
<glyph unicode="H" glyph-name="H" horiz-adv-x="706" d="M603 0H577V363H129V0H103V714H129V388H577V714H603V0Z" />
<glyph unicode="I" glyph-name="I" horiz-adv-x="283" d="M223 0H61V20L129 23V690L61 694V714H223V694L155 690V23L223 20V0Z" />
<glyph unicode="J" glyph-name="J" horiz-adv-x="231" d="M-19 -174Q-47 -174 -66 -170T-98 -162V-134Q-84 -140 -63 -144T-19 -148Q53 -148 79 -106T106 5V714H132V2Q132 -47 118 -87T70 -150T-19 -174Z" />
<glyph unicode="K" glyph-name="K" horiz-adv-x="558" d="M558 0H524L234 398L129 293V0H103V714H129V324Q140 337 153 350T179 376L514 714H552L254 417L558 0Z" />
<glyph unicode="L" glyph-name="L" horiz-adv-x="506" d="M103 0V714H129V25H486V0H103Z" />
<glyph unicode="M" glyph-name="M" horiz-adv-x="837" d="M408 0L130 679H128Q129 654 129 637T129 596V0H103V714H145L417 48H420L693 714H733V0H707V602Q707 617 707 635T708 678H706L428 0H408Z" />
<glyph unicode="N" glyph-name="N" horiz-adv-x="698" d="M594 0H575L130 655H128Q129 612 129 577T129 502V0H103V714H123L567 61H569Q568 99 568 138T568 211V714H594V0Z" />
<glyph unicode="O" glyph-name="O" horiz-adv-x="754" d="M690 358Q690 250 656 167T552 37T376 -10Q272 -10 203 37T98 168T63 359Q63 467 100 549T208 678T382 725Q530 725 610 629T690 358ZM90 359Q90 259 121 182T216 60T377 15Q475 15 538 58T632 179T663
358Q663 521 590 610T382 700Q284 700 219 656T122 535T90 359Z" />
<glyph unicode="P" glyph-name="P" horiz-adv-x="573" d="M270 714Q389 714 452 669T516 519Q516 442 484 395T394 326T256 305H129V0H103V714H270ZM266 689H129V330H254Q324 330 377 346T459 404T489 518Q489 609 435 649T266 689Z" />
<glyph unicode="Q" glyph-name="Q" horiz-adv-x="754" d="M690 358Q690 263 663 186T581 60T443 -4L585 -170H549L413 -8Q404 -9 395 -9T376 -10Q272 -10 203 37T98 168T63 359Q63 467 100 549T208 678T382 725Q530 725 610 629T690 358ZM90 359Q90 259 121 182T216
60T377 15Q475 15 538 58T632 179T663 358Q663 521 590 610T382 700Q284 700 219 656T122 535T90 359Z" />
<glyph unicode="R" glyph-name="R" horiz-adv-x="577" d="M262 714Q345 714 401 698T487 640T516 525Q516 446 474 397T355 327L551 0H518L327 320H129V0H103V714H262ZM257 689H129V345H292Q379 345 434 392T489 524Q489 588 464 624T387 674T257 689Z" />
<glyph unicode="S" glyph-name="S" horiz-adv-x="543" d="M489 180Q489 116 457 74T370 11T250 -10Q181 -10 137 -1T56 19V48Q96 34 143 25T252 15Q309 15 356 32T433 86T462 181Q462 231 438 261T370 312T263 352Q205 371 160 392T90 449T64 544Q64 604 94 644T176
704T291 724Q338 724 382 716T471 687L460 664Q414 684 372 691T289 699Q236 699 191 683T119 634T91 546Q91 492 116 460T183 410T277 375Q341 355 388 333T462 275T489 180Z" />
<glyph unicode="T" glyph-name="T" horiz-adv-x="505" d="M265 0H239V689H2V714H503V689H265V0Z" />
<glyph unicode="U" glyph-name="U" horiz-adv-x="712" d="M618 252Q618 163 585 105T492 19T355 -10Q231 -10 163 57T95 254V714H121V256Q121 136 182 76T356 15Q463 15 527 72T592 244V714H618V252Z" />
<glyph unicode="V" glyph-name="V" horiz-adv-x="563" d="M563 714L294 0H269L0 714H28L244 143Q255 115 265 88T282 37Q290 60 298 84T320 143L535 714H563Z" />
<glyph unicode="W" glyph-name="W" horiz-adv-x="869" d="M839 714L641 0H617L456 582Q449 611 443 629T431 675Q427 650 424 636T415 604L252 0H228L33 714H60L208 170Q218 133 225 107T240 52Q247 81 254 107T271 171L420 714H445L598 168Q609 129 615 104T629
48Q635 78 641 103T658 168L812 714H839Z" />
<glyph unicode="X" glyph-name="X" horiz-adv-x="509" d="M512 0H481L256 350L28 0H-3L239 370L22 714H53L257 390L463 714H494L274 370L512 0Z" />
<glyph unicode="Y" glyph-name="Y" horiz-adv-x="505" d="M253 301L475 714H505L267 275V0H241V271L0 714H30L253 301Z" />
<glyph unicode="Z" glyph-name="Z" horiz-adv-x="578" d="M538 0H36V18L489 689H64V714H526V696L73 25H538V0Z" />
<glyph unicode="[" glyph-name="bracketleft" horiz-adv-x="313" d="M288 -158H88V714H288V689H113V-133H288V-158Z" />
<glyph unicode="\" glyph-name="backslash" horiz-adv-x="322" d="M41 714L309 0H281L13 714H41Z" />
<glyph unicode="]" glyph-name="bracketright" horiz-adv-x="313" d="M25 -133H200V689H25V714H225V-158H25V-133Z" />
<glyph unicode="^" glyph-name="asciicircum" horiz-adv-x="570" d="M46 278L282 719H305L524 278H495L292 686L75 278H46Z" />
<glyph unicode="_" glyph-name="underscore" horiz-adv-x="391" d="M393 -116H-2V-91H393V-116Z" />
<glyph unicode="`" glyph-name="grave" horiz-adv-x="249" d="M70 766Q85 745 109 717T160 660T209 612V606H188Q148 639 107 682T40 759V766H70Z" />
<glyph unicode="a" glyph-name="a" horiz-adv-x="511" d="M264 537Q346 537 387 493T428 350V0H406L402 103H400Q379 57 334 24T208 -10Q129 -10 89 28T48 129Q48 208 114 247T299 294L402 300V343Q402 433 368 472T264 512Q224 512 187 503T106 472L97 498Q137
516 178 526T264 537ZM301 270Q199 265 138 232T76 129Q76 76 110 46T208 15Q308 15 354 72T402 220V275L301 270Z" />
<glyph unicode="b" glyph-name="b" horiz-adv-x="583" d="M115 525Q115 501 115 466T113 406H115Q132 464 183 501T311 539Q416 539 470 470T524 266Q524 190 501 128T427 28T295 -10Q224 -10 180 22T117 104H115L111 0H89V760H115V525ZM311 514Q211 514 163 447T115
263V253Q115 137 159 76T295 15Q394 15 445 80T497 266Q497 514 311 514Z" />
<glyph unicode="c" glyph-name="c" horiz-adv-x="472" d="M302 -10Q218 -10 164 25T85 122T59 261Q59 342 90 404T180 502T319 538Q355 538 384 532T442 514L437 489Q407 503 378 508T319 513Q247 513 195 481T115 392T86 261Q86 193 108 137T178 48T302 15Q338
15 373 22T438 41V16Q413 6 378 -2T302 -10Z" />
<glyph unicode="d" glyph-name="d" horiz-adv-x="583" d="M283 -10Q169 -10 114 58T59 254Q59 391 119 464T291 538Q363 538 407 503T468 414H470Q469 448 469 480T468 543V760H494V0H472L470 113H468Q450 63 406 27T283 -10ZM283 15Q383 15 425 80T468 263V266Q468
386 424 449T291 513Q192 513 139 449T86 254Q86 134 134 75T283 15Z" />
<glyph unicode="e" glyph-name="e" horiz-adv-x="540" d="M287 538Q355 538 397 505T459 417T479 291V266H86Q85 145 139 80T296 15Q344 15 378 22T459 50V23Q421 6 383 -2T296 -10Q213 -10 161 25T84 121T59 259Q59 334 84 397T159 499T287 538ZM287 513Q203
513 150 457T87 291H452Q453 390 412 451T287 513Z" />
<glyph unicode="f" glyph-name="f" horiz-adv-x="274" d="M258 503H139V0H113V503H11V525L113 528V603Q113 681 146 723T257 765Q282 765 301 762T339 753L335 727Q317 734 297 737T257 740Q193 740 166 709T139 603V528H258V503Z" />
<glyph unicode="g" glyph-name="g" horiz-adv-x="583" d="M290 538Q363 538 402 510T463 437H465L470 528H492V-25Q492 -88 471 -136T401 -212T273 -240Q212 -240 168 -229T87 -203V-173Q123 -190 170 -202T273 -215Q379 -215 422 -163T466 -25V17Q466 46 466
67T468 117H466Q448 55 399 23T276 -10Q174 -10 117 57T59 256Q59 387 117 462T290 538ZM290 513Q185 513 136 445T86 256Q86 138 135 77T276 15Q335 15 372 35T429 89T458 164T466 246V294Q466 357 450 406T396 484T290 513Z" />
<glyph unicode="h" glyph-name="h" horiz-adv-x="573" d="M116 496Q116 474 116 457T114 417H116Q127 449 151 476T214 521T309 538Q395 538 442 491T489 346V0H463V345Q463 433 423 473T309 513Q223 513 170 462T116 302V0H90V760H116V496Z" />
<glyph unicode="i" glyph-name="i" horiz-adv-x="207" d="M103 721Q121 721 125 712T130 690Q130 677 126 668T103 659Q88 659 83 668T78 690Q78 702 83 711T103 721ZM116 528V0H90V528H116Z" />
<glyph unicode="j" glyph-name="j" horiz-adv-x="207" d="M78 690Q78 702 83 711T103 721Q121 721 125 712T130 690Q130 677 126 668T103 659Q88 659 83 668T78 690ZM11 -240Q-8 -240 -23 -237T-50 -230V-204Q-35 -211 -20 -213T11 -215Q51 -215 70 -189T90 -116V528H116V-120Q116
-181 85 -210T11 -240Z" />
<glyph unicode="k" glyph-name="k" horiz-adv-x="454" d="M116 385Q116 337 116 294T115 204Q132 223 144 236T172 268L405 528H439L234 301L459 0H428L216 283L116 172V0H90V760H116V385Z" />
<glyph unicode="l" glyph-name="l" horiz-adv-x="207" d="M117 0H91V760H117V0Z" />
<glyph unicode="m" glyph-name="m" horiz-adv-x="852" d="M614 538Q682 538 726 495T770 361V0H744V360Q744 440 707 476T614 513Q539 513 491 470T443 325V0H417V360Q417 440 380 476T287 513Q241 513 202 494T140 434T116 325V0H90V528H111L115 432H117Q128
457 148 481T202 521T287 538Q342 538 381 510T433 429H435Q454 478 498 508T614 538Z" />
<glyph unicode="n" glyph-name="n" horiz-adv-x="573" d="M309 538Q395 538 442 491T489 346V0H463V345Q463 433 423 473T309 513Q223 513 170 462T116 302V0H90V528H111L115 417H117Q129 448 152 475T214 520T309 538Z" />
<glyph unicode="o" glyph-name="o" horiz-adv-x="575" d="M515 264Q515 187 491 125T416 26T286 -10Q210 -10 160 26T84 124T59 264Q59 390 120 464T292 538Q372 538 421 502T492 403T515 264ZM86 264Q86 191 108 135T174 47T286 15Q356 15 400 47T466 135T488
264Q488 333 469 389T406 479T292 513Q193 513 140 447T86 264Z" />
<glyph unicode="p" glyph-name="p" horiz-adv-x="583" d="M313 538Q418 538 472 470T526 269Q526 136 468 63T303 -10Q224 -10 179 27T117 116H115Q117 82 117 50T117 -15V-232H91V528H113L115 402H117Q128 437 153 468T218 518T313 538ZM313 513Q217 513 167
448T117 265V262Q117 135 167 75T303 15Q395 15 447 79T499 269Q499 393 452 453T313 513Z" />
<glyph unicode="q" glyph-name="q" horiz-adv-x="583" d="M465 3Q465 27 465 62T467 122H465Q449 64 397 27T269 -11Q164 -11 110 59T56 262Q56 338 79 400T154 500T285 538Q356 538 401 505T463 424H465L469 528H491V-232H465V3ZM269 14Q370 14 417 81T465 265V275Q465
391 421 452T285 513Q186 513 135 448T83 262Q83 14 269 14Z" />
<glyph unicode="r" glyph-name="r" horiz-adv-x="375" d="M278 536Q302 536 321 533T359 525L353 501Q334 506 318 508T278 511Q195 511 156 453T117 297V0H91V528H115L117 427H119Q133 473 173 504T278 536Z" />
<glyph unicode="s" glyph-name="s" horiz-adv-x="458" d="M411 134Q411 67 362 29T213 -10Q158 -10 113 0T39 24V54Q119 15 213 15Q304 15 344 47T384 134Q384 173 363 196T305 234T224 262Q178 276 140 290T79 331T56 407Q56 469 105 503T238 538Q285 538 326
530T398 508L387 483Q359 497 319 505T238 513Q166 513 125 487T83 407Q83 366 103 345T158 311T233 286Q277 272 318 256T385 213T411 134Z" />
<glyph unicode="t" glyph-name="t" horiz-adv-x="319" d="M212 15Q237 15 256 18T291 28V3Q275 -2 257 -6T212 -10Q142 -10 117 30T91 140V503H10V525L90 528L96 659H117V528H289V503H117V143Q117 82 137 49T212 15Z" />
<glyph unicode="u" glyph-name="u" horiz-adv-x="573" d="M481 528V0H460L456 111H454Q443 81 419 53T357 8T262 -10Q174 -10 128 39T82 182V528H108V186Q108 98 148 57T262 15Q348 15 401 66T455 226V528H481Z" />
<glyph unicode="v" glyph-name="v" horiz-adv-x="430" d="M204 0L0 528H27L177 138Q190 106 198 84T214 36H216Q225 61 232 83T253 138L403 528H430L226 0H204Z" />
<glyph unicode="w" glyph-name="w" horiz-adv-x="685" d="M380 388Q372 414 366 434T351 482H349Q335 432 320 388L191 -1H169L16 527H45L150 156Q163 110 169 87T180 41H182Q188 64 194 87T216 156L341 527H362L481 157Q504 84 515 41H517Q520 64 526 88T544
156L643 527H669L528 -1H506L380 388Z" />
<glyph unicode="x" glyph-name="x" horiz-adv-x="479" d="M219 272L34 528H67L236 290L405 528H437L254 272L449 0H417L236 253L57 0H26L219 272Z" />
<glyph unicode="y" glyph-name="y" horiz-adv-x="428" d="M0 528H27L164 172Q182 124 194 91T214 37H216Q224 59 235 91T264 168L403 528H430L181 -115Q156 -180 127 -211T48 -243Q21 -243 -6 -233V-207Q8 -212 20 -215T48 -218Q86 -218 110 -192T160 -102L201 6L0 528Z" />
<glyph unicode="z" glyph-name="z" horiz-adv-x="456" d="M412 0H41V17L377 503H68V528H415V513L77 25H412V0Z" />
<glyph unicode="{" glyph-name="braceleft" horiz-adv-x="337" d="M300 -158Q218 -158 177 -123T136 -23V148Q136 210 111 238T26 266V290Q86 290 111 317T136 408V579Q136 644 177 679T300 714V689Q229 689 196 662T163 573V404Q163 353 146 320T84 279V277Q128
269 145 236T163 152V-20Q163 -78 196 -105T300 -133V-158Z" />
<glyph unicode="|" glyph-name="bar" horiz-adv-x="535" d="M253 763H278V-251H253V763Z" />
<glyph unicode="}" glyph-name="braceright" horiz-adv-x="337" d="M36 -133Q107 -133 140 -106T173 -20V152Q173 203 190 236T252 277V279Q208 287 191 320T173 404V573Q173 634 140 661T36 689V714Q118 714 159 679T200 579V408Q200 344 225 317T310 290V266Q250
266 225 238T200 148V-23Q200 -88 159 -123T36 -158V-133Z" />
<glyph unicode="~" glyph-name="asciitilde" horiz-adv-x="570" d="M282 342Q255 356 232 364T173 373Q144 373 115 361T56 318V349Q79 371 109 384T173 397Q215 397 241 388T295 364Q322 351 345 342T400 333Q427 333 455 344T514 387V358Q495 338 466 324T400
309Q364 309 338 318T282 342Z" />
<glyph unicode="&#xa0;" glyph-name="uni00A0" horiz-adv-x="260" />
<glyph unicode="&#xa1;" glyph-name="exclamdown" horiz-adv-x="223" d="M137 505Q137 493 132 484T112 474Q94 474 90 483T85 505Q85 518 89 527T112 536Q127 536 132 527T137 505ZM98 354H122L124 -186H96L98 354Z" />
<glyph unicode="&#xa2;" glyph-name="cent" horiz-adv-x="570" d="M338 638Q378 638 408 633T468 614L463 589Q433 603 404 608T345 613Q273 613 221 581T141 492T112 361Q112 293 134 237T204 148T328 115Q364 115 399 122T464 141V116Q441 106 409 99T338 90V-10H313V90Q234
94 184 130T109 226T85 361Q85 436 112 495T190 592T313 636V724H338V638Z" />
<glyph unicode="&#xa3;" glyph-name="sterling" horiz-adv-x="570" d="M344 723Q391 723 426 715T491 694L482 669Q449 683 418 690T344 698Q267 698 229 653T191 512V360H390V335H191V188Q191 118 169 80T111 25H518V0H42V23Q103 34 134 74T165 187V335H58V360H165V516Q165
620 211 671T344 723Z" />
<glyph unicode="&#xa4;" glyph-name="currency" horiz-adv-x="570" d="M84 354Q84 390 96 425T134 488L57 566L72 582L150 504Q179 530 213 542T284 555Q320 555 355 543T419 504L496 581L511 565L434 488Q460 460 472 425T485 354Q485 318 473 284T434 220L512
142L496 126L419 204Q391 179 356 166T284 153Q248 153 214 166T150 204L72 126L57 142L134 220Q109 249 97 283T84 354ZM106 354Q106 303 130 263T195 199T283 175Q333 175 373 199T438 265T463 355Q463 404 439 444T374 508T285 533Q236 533 196 509T131 445T106
354Z" />
<glyph unicode="&#xa5;" glyph-name="yen" horiz-adv-x="570" d="M286 336L514 714H545L306 323H474V298H299V187H474V162H299V0H273V162H97V187H273V298H97V323H264L25 714H56L286 336Z" />
<glyph unicode="&#xa6;" glyph-name="brokenbar" horiz-adv-x="535" d="M253 763H278V395H253V763ZM253 118H278V-251H253V118Z" />
<glyph unicode="&#xa7;" glyph-name="section" horiz-adv-x="518" d="M82 395Q82 444 112 475T190 522Q146 538 117 561T88 633Q88 692 135 725T263 759Q308 759 347 751T417 730L406 706Q379 720 340 727T263 735Q193 735 154 710T114 633Q114 599 134 581T186
551T258 527Q301 514 340 499T404 457T429 381Q429 333 403 299T337 244Q374 228 398 203T423 133Q423 72 376 36T233 -1Q181 -1 137 9T65 32V61Q143 23 233 23Q320 23 358 53T397 133Q397 168 376 189T321 225T243 251Q199 265 162 280T104 321T82 395ZM108 395Q108
356 127 334T179 300T251 274L311 255Q353 272 378 305T403 381Q403 436 357 463T225 511Q176 498 142 471T108 395Z" />
<glyph unicode="&#xa8;" glyph-name="dieresis" horiz-adv-x="575" d="M170 678Q170 690 175 699T193 709Q210 709 214 700T218 678Q218 665 214 656T193 647Q180 647 175 656T170 678ZM355 678Q355 690 360 699T378 709Q395 709 399 700T403 678Q403 665 399
656T378 647Q365 647 360 656T355 678Z" />
<glyph unicode="&#xa9;" glyph-name="copyright" horiz-adv-x="832" d="M416 -8Q336 -8 269 20T153 99T77 216T50 357Q50 435 79 501T158 617T275 694T416 722Q496 722 563 692T679 611T755 494T782 357Q782 282 754 216T675 99T558 21T416 -8ZM416 17Q489 17
551 44T659 119T730 228T756 357Q756 426 731 487T659 595T551 670T416 697Q344 697 283 671T175 598T102 490T76 357Q76 288 100 227T170 118T277 44T416 17ZM435 143Q343 143 287 196T230 356Q230 422 256 470T330 545T439 572Q483 572 511 565T565 546L554 523Q531
534 504 540T439 546Q359 546 308 495T257 356Q257 262 308 215T435 168Q470 168 495 172T550 188V164Q525 154 497 149T435 143Z" />
<glyph unicode="&#xaa;" glyph-name="ordfeminine" horiz-adv-x="322" d="M169 722Q219 722 243 696T268 622V402H245L241 449Q230 427 205 413T143 398Q96 398 69 420T41 486Q41 533 79 557T197 585L242 587V618Q242 659 223 678T168 697Q120 697 74 672L64 696Q87
707 114 714T169 722ZM196 560Q131 557 100 541T68 486Q68 423 144 423Q193 423 217 450T242 527V562L196 560Z" />
<glyph unicode="&#xab;" glyph-name="guillemotleft" horiz-adv-x="389" d="M26 285L178 472L194 460L57 279L194 98L178 87L26 272V285ZM195 285L347 472L363 460L226 279L363 98L347 87L195 272V285Z" />
<glyph unicode="&#xac;" glyph-name="logicalnot" horiz-adv-x="570" d="M498 365V132H474V341H55V365H498Z" />
<glyph unicode="&#xad;" glyph-name="uni00AD" horiz-adv-x="322" d="M40 259V284H282V259H40Z" />
<glyph unicode="&#xae;" glyph-name="registered" horiz-adv-x="832" d="M416 -8Q336 -8 269 20T153 99T77 216T50 357Q50 435 79 501T158 617T275 694T416 722Q496 722 563 692T679 611T755 494T782 357Q782 282 754 216T675 99T558 21T416 -8ZM416 17Q489 17
551 44T659 119T730 228T756 357Q756 426 731 487T659 595T551 670T416 697Q344 697 283 671T175 598T102 490T76 357Q76 288 100 227T170 118T277 44T416 17ZM298 143V569H416Q478 569 517 541T556 449Q556 400 530 371T463 329L577 143H545L436 324H323V143H298ZM412
346Q462 346 497 370T532 449Q532 500 499 522T414 545H322V346H412Z" />
<glyph unicode="&#xaf;" glyph-name="overscore" horiz-adv-x="500" d="M503 760H-3V785H503V760Z" />
<glyph unicode="&#xb0;" glyph-name="degree" horiz-adv-x="428" d="M214 441Q154 441 113 479T71 583Q71 647 112 685T214 724Q276 724 316 685T357 583Q357 518 317 480T214 441ZM213 466Q264 466 297 499T330 583Q330 636 297 667T213 699Q161 699 130 668T98
583Q98 532 129 499T213 466Z" />
<glyph unicode="&#xb1;" glyph-name="plusminus" horiz-adv-x="570" d="M297 365H515V341H297V123H273V341H55V365H273V583H297V365ZM55 0V24H515V0H55Z" />
<glyph unicode="&#xb2;" glyph-name="uni00B2" horiz-adv-x="328" d="M307 416H27V437L150 563Q204 619 236 657T268 741Q268 780 243 805T169 830Q138 830 111 820T56 789L43 809Q98 855 169 855Q229 855 262 823T295 741Q295 706 280 677T236 618T167 546L64
441H307V416Z" />
<glyph unicode="&#xb3;" glyph-name="uni00B3" horiz-adv-x="328" d="M170 851Q226 851 260 824T294 747Q294 705 273 679T218 644V642Q259 633 281 608T304 539Q304 478 264 445T151 412Q116 412 84 419T26 437V465Q56 452 86 445T151 437Q213 437 245 464T277
539Q277 628 156 628H89V653H156Q209 653 238 677T267 747Q267 783 242 804T170 826Q133 826 104 816T45 788L35 810Q63 829 96 840T170 851Z" />
<glyph unicode="&#xb4;" glyph-name="acute" horiz-adv-x="249" d="M209 759Q183 725 142 682T61 606H40V612Q63 632 89 660T140 716T179 766H209V759Z" />
<glyph unicode="&#xb5;" glyph-name="uni00B5" horiz-adv-x="580" d="M489 528V0H466L463 94H461Q448 66 428 43T374 5T282 -10Q216 -10 176 12T117 71H115V-240H90V528H115V185Q115 15 282 15Q383 15 423 70T464 227V528H489Z" />
<glyph unicode="&#xb6;" glyph-name="paragraph" horiz-adv-x="655" d="M517 -127H491V735H357V-127H331V355Q315 351 299 349T260 346Q205 346 168 374T113 450T95 557Q95 653 139 706T275 760H517V-127Z" />
<glyph unicode="&#xb7;" glyph-name="middot" horiz-adv-x="220" d="M85 314Q85 326 90 335T110 345Q128 345 132 336T137 314Q137 301 133 292T110 283Q95 283 90 292T85 314Z" />
<glyph unicode="&#xb8;" glyph-name="cedilla" horiz-adv-x="193" d="M180 -145Q180 -188 148 -214T67 -240Q33 -240 10 -234V-210Q23 -214 35 -215T67 -216Q105 -216 130 -198T155 -146Q155 -114 130 -100T52 -85L96 0H121L88 -65Q132 -67 156 -88T180 -145Z" />
<glyph unicode="&#xb9;" glyph-name="uni00B9" horiz-adv-x="328" d="M193 844V416H167V696Q167 725 167 756T168 815Q151 804 135 796T95 774L48 749L37 771L173 844H193Z" />
<glyph unicode="&#xba;" glyph-name="ordmasculine" horiz-adv-x="352" d="M318 560Q318 490 283 443T177 395Q108 395 73 442T37 560Q37 636 75 680T180 725Q228 725 258 703T303 644T318 560ZM64 560Q64 499 92 460T177 420Q236 420 263 460T291 560Q291 617
265 658T180 700Q125 700 95 663T64 560Z" />
<glyph unicode="&#xbb;" glyph-name="guillemotright" horiz-adv-x="389" d="M363 274L211 87L195 99L332 280L195 461L211 472L363 287V274ZM194 274L42 87L26 99L163 280L26 461L42 472L194 287V274Z" />
<glyph unicode="&#xbc;" glyph-name="onequarter" horiz-adv-x="698" d="M147 0L519 714H547L175 0H147ZM146 566Q146 595 146 626T147 685Q130 674 114 666T74 644L27 619L16 641L152 714H172V286H146V566ZM590 0V131H386V149L587 431H615V155H689V131H615V0H590ZM418
155H590V319Q590 343 590 363T591 402Q581 386 575 376T557 350L418 155Z" />
<glyph unicode="&#xbd;" glyph-name="onehalf" horiz-adv-x="744" d="M147 0L519 714H547L175 0H147ZM146 566Q146 595 146 626T147 685Q130 674 114 666T74 644L27 619L16 641L152 714H172V286H146V566ZM443 0V21L566 147Q620 203 652 241T684 325Q684 364 659
389T585 414Q554 414 527 404T472 373L459 393Q514 439 585 439Q645 439 678 407T711 325Q711 290 696 261T652 202T583 130L480 25H723V0H443Z" />
<glyph unicode="&#xbe;" glyph-name="threequarters" horiz-adv-x="758" d="M151 282Q116 282 84 289T26 307V335Q56 322 86 315T151 307Q213 307 245 334T277 409Q277 498 156 498H89V523H156Q209 523 238 547T267 617Q267 653 242 674T170 696Q133 696 104 686T45
658L35 680Q63 699 96 710T170 721Q226 721 260 694T294 617Q294 575 273 549T218 514V512Q259 503 281 478T304 409Q304 348 264 315T151 282ZM207 0L579 714H607L235 0H207ZM650 0V131H446V149L647 431H675V155H749V131H675V0H650ZM478 155H650V319Q650 343 650
363T651 402Q641 386 635 376T617 350L478 155Z" />
<glyph unicode="&#xbf;" glyph-name="questiondown" horiz-adv-x="413" d="M283 509Q283 497 278 488T258 478Q240 478 236 487T231 509Q231 522 235 531T258 540Q273 540 278 531T283 509ZM272 346Q272 297 265 265T240 210T187 161Q151 136 125 111T84 55T69
-22Q69 -97 113 -132T228 -167Q265 -167 298 -159T368 -133L378 -159Q335 -177 302 -184T228 -192Q144 -192 93 -150T42 -22Q42 28 58 63T105 127T174 182Q213 209 230 243T247 346V358H272V346Z" />
<glyph unicode="&#xc0;" glyph-name="Agrave" horiz-adv-x="577" d="M549 0L445 271H135L28 0H0L282 716H307L577 0H549ZM325 594Q319 611 311 632T293 682Q286 660 277 637T260 593L144 296H435L325 594ZM235 952Q250 931 274 903T325 846T374 798V792H353Q313
825 272 868T205 945V952H235Z" />
<glyph unicode="&#xc1;" glyph-name="Aacute" horiz-adv-x="577" d="M549 0L445 271H135L28 0H0L282 716H307L577 0H549ZM325 594Q319 611 311 632T293 682Q286 660 277 637T260 593L144 296H435L325 594ZM414 945Q388 911 347 868T266 792H245V798Q268 818 294
846T345 902T384 952H414V945Z" />
<glyph unicode="&#xc2;" glyph-name="Acircumflex" horiz-adv-x="577" d="M549 0L445 271H135L28 0H0L282 716H307L577 0H549ZM325 594Q319 611 311 632T293 682Q286 660 277 637T260 593L144 296H435L325 594ZM301 949Q313 929 333 902T375 847T415 798V792H394Q366
820 339 854T290 917Q269 889 241 855T184 792H163V798Q182 819 204 846T246 901T279 949H301Z" />
<glyph unicode="&#xc3;" glyph-name="Atilde" horiz-adv-x="577" d="M549 0L445 271H135L28 0H0L282 716H307L577 0H549ZM325 594Q319 611 311 632T293 682Q286 660 277 637T260 593L144 296H435L325 594ZM127 804Q131 854 154 878T216 902Q241 902 259 891T293
865T325 839T362 827Q384 827 403 841T427 902H452Q448 853 424 828T361 803Q336 803 318 814T284 840T252 866T214 878Q194 878 176 864T152 804H127Z" />
<glyph unicode="&#xc4;" glyph-name="Adieresis" horiz-adv-x="577" d="M549 0L445 271H135L28 0H0L282 716H307L577 0H549ZM325 594Q319 611 311 632T293 682Q286 660 277 637T260 593L144 296H435L325 594ZM173 864Q173 876 178 885T196 895Q213 895 217 886T221
864Q221 851 217 842T196 833Q183 833 178 842T173 864ZM358 864Q358 876 363 885T381 895Q398 895 402 886T406 864Q406 851 402 842T381 833Q368 833 363 842T358 864Z" />
<glyph unicode="&#xc5;" glyph-name="Aring" horiz-adv-x="577" d="M549 0L445 271H135L28 0H0L282 716H307L577 0H549ZM325 594Q319 611 311 632T293 682Q286 660 277 637T260 593L144 296H435L325 594ZM292 696Q252 696 222 723T191 796Q191 839 221 867T292
896Q333 896 362 867T392 796Q392 752 363 724T292 696ZM292 720Q326 720 347 742T368 796Q368 828 346 850T292 872Q259 872 237 850T215 796Q215 765 236 743T292 720Z" />
<glyph unicode="&#xc6;" glyph-name="AE" horiz-adv-x="763" d="M750 0H365V270H144L30 0H-1L306 714H750V689H391V389H730V364H391V25H750V0ZM156 295H365V689H323L156 295Z" />
<glyph unicode="&#xc7;" glyph-name="Ccedilla" horiz-adv-x="614" d="M405 699Q305 699 235 655T127 535T90 360Q90 257 123 179T222 58T386 15Q444 15 489 23T570 44V21Q537 8 491 -1T386 -10Q280 -10 208 36T100 166T63 360Q63 464 104 546T221 676T405 724Q502
724 583 687L573 662Q530 685 488 692T405 699ZM439 -145Q439 -188 407 -214T326 -240Q292 -240 269 -234V-210Q282 -214 294 -215T326 -216Q364 -216 389 -198T414 -146Q414 -114 389 -100T311 -85L355 0H380L347 -65Q391 -67 415 -88T439 -145Z" />
<glyph unicode="&#xc8;" glyph-name="Egrave" horiz-adv-x="550" d="M488 0H103V714H488V689H129V389H468V364H129V25H488V0ZM251 952Q266 931 290 903T341 846T390 798V792H369Q329 825 288 868T221 945V952H251Z" />
<glyph unicode="&#xc9;" glyph-name="Eacute" horiz-adv-x="550" d="M488 0H103V714H488V689H129V389H468V364H129V25H488V0ZM430 945Q404 911 363 868T282 792H261V798Q284 818 310 846T361 902T400 952H430V945Z" />
<glyph unicode="&#xca;" glyph-name="Ecircumflex" horiz-adv-x="550" d="M488 0H103V714H488V689H129V389H468V364H129V25H488V0ZM317 949Q329 929 349 902T391 847T431 798V792H410Q382 820 355 854T306 917Q285 889 257 855T200 792H179V798Q198 819 220 846T262
901T295 949H317Z" />
<glyph unicode="&#xcb;" glyph-name="Edieresis" horiz-adv-x="550" d="M488 0H103V714H488V689H129V389H468V364H129V25H488V0ZM189 864Q189 876 194 885T212 895Q229 895 233 886T237 864Q237 851 233 842T212 833Q199 833 194 842T189 864ZM374 864Q374 876
379 885T397 895Q414 895 418 886T422 864Q422 851 418 842T397 833Q384 833 379 842T374 864Z" />
<glyph unicode="&#xcc;" glyph-name="Igrave" horiz-adv-x="283" d="M223 0H61V20L129 23V690L61 694V714H223V694L155 690V23L223 20V0ZM88 952Q103 931 127 903T178 846T227 798V792H206Q166 825 125 868T58 945V952H88Z" />
<glyph unicode="&#xcd;" glyph-name="Iacute" horiz-adv-x="283" d="M223 0H61V20L129 23V690L61 694V714H223V694L155 690V23L223 20V0ZM267 945Q241 911 200 868T119 792H98V798Q121 818 147 846T198 902T237 952H267V945Z" />
<glyph unicode="&#xce;" glyph-name="Icircumflex" horiz-adv-x="283" d="M223 0H61V20L129 23V690L61 694V714H223V694L155 690V23L223 20V0ZM154 949Q166 929 186 902T228 847T268 798V792H247Q219 820 192 854T143 917Q122 889 94 855T37 792H16V798Q35 819
57 846T99 901T132 949H154Z" />
<glyph unicode="&#xcf;" glyph-name="Idieresis" horiz-adv-x="283" d="M223 0H61V20L129 23V690L61 694V714H223V694L155 690V23L223 20V0ZM26 864Q26 876 31 885T49 895Q66 895 70 886T74 864Q74 851 70 842T49 833Q36 833 31 842T26 864ZM211 864Q211 876 216
885T234 895Q251 895 255 886T259 864Q259 851 255 842T234 833Q221 833 216 842T211 864Z" />
<glyph unicode="&#xd0;" glyph-name="Eth" horiz-adv-x="692" d="M280 714Q457 714 542 624T628 364Q628 185 537 93T257 0H103V343H17V368H103V714H280ZM270 689H129V368H335V343H129V25H260Q601 25 601 363Q601 522 523 605T270 689Z" />
<glyph unicode="&#xd1;" glyph-name="Ntilde" horiz-adv-x="698" d="M594 0H575L130 655H128Q129 612 129 577T129 502V0H103V714H123L567 61H569Q568 99 568 138T568 211V714H594V0ZM187 804Q191 854 214 878T276 902Q301 902 319 891T353 865T385 839T422 827Q444
827 463 841T487 902H512Q508 853 484 828T421 803Q396 803 378 814T344 840T312 866T274 878Q254 878 236 864T212 804H187Z" />
<glyph unicode="&#xd2;" glyph-name="Ograve" horiz-adv-x="754" d="M690 358Q690 250 656 167T552 37T376 -10Q272 -10 203 37T98 168T63 359Q63 467 100 549T208 678T382 725Q530 725 610 629T690 358ZM90 359Q90 259 121 182T216 60T377 15Q475 15 538 58T632
179T663 358Q663 521 590 610T382 700Q284 700 219 656T122 535T90 359ZM323 952Q338 931 362 903T413 846T462 798V792H441Q401 825 360 868T293 945V952H323Z" />
<glyph unicode="&#xd3;" glyph-name="Oacute" horiz-adv-x="754" d="M690 358Q690 250 656 167T552 37T376 -10Q272 -10 203 37T98 168T63 359Q63 467 100 549T208 678T382 725Q530 725 610 629T690 358ZM90 359Q90 259 121 182T216 60T377 15Q475 15 538 58T632
179T663 358Q663 521 590 610T382 700Q284 700 219 656T122 535T90 359ZM502 945Q476 911 435 868T354 792H333V798Q356 818 382 846T433 902T472 952H502V945Z" />
<glyph unicode="&#xd4;" glyph-name="Ocircumflex" horiz-adv-x="754" d="M690 358Q690 250 656 167T552 37T376 -10Q272 -10 203 37T98 168T63 359Q63 467 100 549T208 678T382 725Q530 725 610 629T690 358ZM90 359Q90 259 121 182T216 60T377 15Q475 15 538
58T632 179T663 358Q663 521 590 610T382 700Q284 700 219 656T122 535T90 359ZM389 949Q401 929 421 902T463 847T503 798V792H482Q454 820 427 854T378 917Q357 889 329 855T272 792H251V798Q270 819 292 846T334 901T367 949H389Z" />
<glyph unicode="&#xd5;" glyph-name="Otilde" horiz-adv-x="754" d="M690 358Q690 250 656 167T552 37T376 -10Q272 -10 203 37T98 168T63 359Q63 467 100 549T208 678T382 725Q530 725 610 629T690 358ZM90 359Q90 259 121 182T216 60T377 15Q475 15 538 58T632
179T663 358Q663 521 590 610T382 700Q284 700 219 656T122 535T90 359ZM215 804Q219 854 242 878T304 902Q329 902 347 891T381 865T413 839T450 827Q472 827 491 841T515 902H540Q536 853 512 828T449 803Q424 803 406 814T372 840T340 866T302 878Q282 878 264
864T240 804H215Z" />
<glyph unicode="&#xd6;" glyph-name="Odieresis" horiz-adv-x="754" d="M690 358Q690 250 656 167T552 37T376 -10Q272 -10 203 37T98 168T63 359Q63 467 100 549T208 678T382 725Q530 725 610 629T690 358ZM90 359Q90 259 121 182T216 60T377 15Q475 15 538 58T632
179T663 358Q663 521 590 610T382 700Q284 700 219 656T122 535T90 359ZM261 864Q261 876 266 885T284 895Q301 895 305 886T309 864Q309 851 305 842T284 833Q271 833 266 842T261 864ZM446 864Q446 876 451 885T469 895Q486 895 490 886T494 864Q494 851 490
842T469 833Q456 833 451 842T446 864Z" />
<glyph unicode="&#xd7;" glyph-name="multiply" horiz-adv-x="570" d="M482 567L499 550L302 353L499 156L482 139L285 336L88 139L71 156L268 353L71 550L88 567L285 370L482 567Z" />
<glyph unicode="&#xd8;" glyph-name="Oslash" horiz-adv-x="754" d="M690 358Q690 250 656 167T552 37T376 -10Q312 -10 261 9T171 63L105 -26L85 -11L153 81Q109 131 86 202T63 359Q63 467 100 549T208 678T382 725Q502 725 579 659L639 740L659 725L598 642Q642
595 666 523T690 358ZM90 359Q90 280 109 215T168 102L564 638Q530 668 484 684T382 700Q284 700 219 656T122 535T90 359ZM663 358Q663 531 582 620L186 84Q221 51 268 33T377 15Q475 15 538 58T632 179T663 358Z" />
<glyph unicode="&#xd9;" glyph-name="Ugrave" horiz-adv-x="712" d="M618 252Q618 163 585 105T492 19T355 -10Q231 -10 163 57T95 254V714H121V256Q121 136 182 76T356 15Q463 15 527 72T592 244V714H618V252ZM302 952Q317 931 341 903T392 846T441 798V792H420Q380
825 339 868T272 945V952H302Z" />
<glyph unicode="&#xda;" glyph-name="Uacute" horiz-adv-x="712" d="M618 252Q618 163 585 105T492 19T355 -10Q231 -10 163 57T95 254V714H121V256Q121 136 182 76T356 15Q463 15 527 72T592 244V714H618V252ZM481 945Q455 911 414 868T333 792H312V798Q335 818
361 846T412 902T451 952H481V945Z" />
<glyph unicode="&#xdb;" glyph-name="Ucircumflex" horiz-adv-x="712" d="M618 252Q618 163 585 105T492 19T355 -10Q231 -10 163 57T95 254V714H121V256Q121 136 182 76T356 15Q463 15 527 72T592 244V714H618V252ZM368 949Q380 929 400 902T442 847T482 798V792H461Q433
820 406 854T357 917Q336 889 308 855T251 792H230V798Q249 819 271 846T313 901T346 949H368Z" />
<glyph unicode="&#xdc;" glyph-name="Udieresis" horiz-adv-x="712" d="M618 252Q618 163 585 105T492 19T355 -10Q231 -10 163 57T95 254V714H121V256Q121 136 182 76T356 15Q463 15 527 72T592 244V714H618V252ZM240 864Q240 876 245 885T263 895Q280 895 284
886T288 864Q288 851 284 842T263 833Q250 833 245 842T240 864ZM425 864Q425 876 430 885T448 895Q465 895 469 886T473 864Q473 851 469 842T448 833Q435 833 430 842T425 864Z" />
<glyph unicode="&#xdd;" glyph-name="Yacute" horiz-adv-x="505" d="M253 301L475 714H505L267 275V0H241V271L0 714H30L253 301ZM378 945Q352 911 311 868T230 792H209V798Q232 818 258 846T309 902T348 952H378V945Z" />
<glyph unicode="&#xde;" glyph-name="Thorn" horiz-adv-x="573" d="M518 382Q518 272 448 223T256 173H129V0H103V714H129V582H281Q399 582 458 535T518 382ZM252 198Q324 198 378 215T461 272T491 382Q491 475 439 516T274 557H129V198H252Z" />
<glyph unicode="&#xdf;" glyph-name="germandbls" horiz-adv-x="554" d="M439 636Q439 599 425 576T391 537T351 506T316 472T302 420Q302 380 327 356T396 302Q425 283 449 262T488 211T503 134Q503 96 485 63T430 10T337 -10Q290 -10 260 -2T203 17V45Q236 30
268 23T337 15Q405 15 440 47T476 134Q476 173 464 199T430 244T382 282Q353 303 329 321T290 363T275 420Q275 456 289 478T323 515T364 545T398 581T412 636Q412 684 379 712T282 740Q197 740 156 694T115 563V0H89V563Q89 660 138 712T282 765Q359 765 399 730T439
636Z" />
<glyph unicode="&#xe0;" glyph-name="agrave" horiz-adv-x="511" d="M264 537Q346 537 387 493T428 350V0H406L402 103H400Q379 57 334 24T208 -10Q129 -10 89 28T48 129Q48 208 114 247T299 294L402 300V343Q402 433 368 472T264 512Q224 512 187 503T106 472L97
498Q137 516 178 526T264 537ZM301 270Q199 265 138 232T76 129Q76 76 110 46T208 15Q308 15 354 72T402 220V275L301 270ZM202 766Q217 745 241 717T292 660T341 612V606H320Q280 639 239 682T172 759V766H202Z" />
<glyph unicode="&#xe1;" glyph-name="aacute" horiz-adv-x="511" d="M264 537Q346 537 387 493T428 350V0H406L402 103H400Q379 57 334 24T208 -10Q129 -10 89 28T48 129Q48 208 114 247T299 294L402 300V343Q402 433 368 472T264 512Q224 512 187 503T106 472L97
498Q137 516 178 526T264 537ZM301 270Q199 265 138 232T76 129Q76 76 110 46T208 15Q308 15 354 72T402 220V275L301 270ZM381 759Q355 725 314 682T233 606H212V612Q235 632 261 660T312 716T351 766H381V759Z" />
<glyph unicode="&#xe2;" glyph-name="acircumflex" horiz-adv-x="511" d="M264 537Q346 537 387 493T428 350V0H406L402 103H400Q379 57 334 24T208 -10Q129 -10 89 28T48 129Q48 208 114 247T299 294L402 300V343Q402 433 368 472T264 512Q224 512 187 503T106
472L97 498Q137 516 178 526T264 537ZM301 270Q199 265 138 232T76 129Q76 76 110 46T208 15Q308 15 354 72T402 220V275L301 270ZM268 763Q280 743 300 716T342 661T382 612V606H361Q333 634 306 668T257 731Q236 703 208 669T151 606H130V612Q149 633 171 660T213
715T246 763H268Z" />
<glyph unicode="&#xe3;" glyph-name="atilde" horiz-adv-x="511" d="M264 537Q346 537 387 493T428 350V0H406L402 103H400Q379 57 334 24T208 -10Q129 -10 89 28T48 129Q48 208 114 247T299 294L402 300V343Q402 433 368 472T264 512Q224 512 187 503T106 472L97
498Q137 516 178 526T264 537ZM301 270Q199 265 138 232T76 129Q76 76 110 46T208 15Q308 15 354 72T402 220V275L301 270ZM94 618Q98 668 121 692T183 716Q208 716 226 705T260 679T292 653T329 641Q351 641 370 655T394 716H419Q415 667 391 642T328 617Q303
617 285 628T251 654T219 680T181 692Q161 692 143 678T119 618H94Z" />
<glyph unicode="&#xe4;" glyph-name="adieresis" horiz-adv-x="511" d="M264 537Q346 537 387 493T428 350V0H406L402 103H400Q379 57 334 24T208 -10Q129 -10 89 28T48 129Q48 208 114 247T299 294L402 300V343Q402 433 368 472T264 512Q224 512 187 503T106
472L97 498Q137 516 178 526T264 537ZM301 270Q199 265 138 232T76 129Q76 76 110 46T208 15Q308 15 354 72T402 220V275L301 270ZM396 678Q396 690 401 699T419 709Q436 709 440 700T444 678Q444 665 440 656T419 647Q406 647 401 656T396 678ZM581 678Q581 690
586 699T604 709Q621 709 625 700T629 678Q629 665 625 656T604 647Q591 647 586 656T581 678Z" />
<glyph unicode="&#xe5;" glyph-name="aring" horiz-adv-x="511" d="M264 537Q346 537 387 493T428 350V0H406L402 103H400Q379 57 334 24T208 -10Q129 -10 89 28T48 129Q48 208 114 247T299 294L402 300V343Q402 433 368 472T264 512Q224 512 187 503T106 472L97
498Q137 516 178 526T264 537ZM301 270Q199 265 138 232T76 129Q76 76 110 46T208 15Q308 15 354 72T402 220V275L301 270ZM256 611Q216 611 186 638T155 711Q155 754 185 782T256 811Q297 811 326 782T356 711Q356 667 327 639T256 611ZM256 635Q290 635 311 657T332
711Q332 743 310 765T256 787Q223 787 201 765T179 711Q179 680 200 658T256 635Z" />
<glyph unicode="&#xe6;" glyph-name="ae" horiz-adv-x="850" d="M604 538Q668 538 710 505T772 417T789 291V266H418Q417 145 469 80T613 15Q656 15 689 22T769 50V23Q696 -10 613 -10Q529 -10 478 34T408 145Q390 75 342 33T210 -10Q129 -10 89 28T48 129Q48
208 114 247T296 294L392 300V343Q392 433 359 472T261 512Q224 512 187 503T106 472L97 498Q137 516 178 526T261 537Q331 537 369 501T414 384Q436 452 483 495T604 538ZM604 513Q531 513 480 457T419 291H762Q763 390 723 451T604 513ZM298 270Q198 265 137
232T76 129Q76 76 110 46T210 15Q303 15 347 72T392 220V275L298 270Z" />
<glyph unicode="&#xe7;" glyph-name="ccedilla" horiz-adv-x="472" d="M302 -10Q218 -10 164 25T85 122T59 261Q59 342 90 404T180 502T319 538Q355 538 384 532T442 514L437 489Q407 503 378 508T319 513Q247 513 195 481T115 392T86 261Q86 193 108 137T178
48T302 15Q338 15 373 22T438 41V16Q413 6 378 -2T302 -10ZM358 -145Q358 -188 326 -214T245 -240Q211 -240 188 -234V-210Q201 -214 213 -215T245 -216Q283 -216 308 -198T333 -146Q333 -114 308 -100T230 -85L274 0H299L266 -65Q310 -67 334 -88T358 -145Z" />
<glyph unicode="&#xe8;" glyph-name="egrave" horiz-adv-x="540" d="M287 538Q355 538 397 505T459 417T479 291V266H86Q85 145 139 80T296 15Q344 15 378 22T459 50V23Q421 6 383 -2T296 -10Q213 -10 161 25T84 121T59 259Q59 334 84 397T159 499T287 538ZM287
513Q203 513 150 457T87 291H452Q453 390 412 451T287 513ZM216 766Q231 745 255 717T306 660T355 612V606H334Q294 639 253 682T186 759V766H216Z" />
<glyph unicode="&#xe9;" glyph-name="eacute" horiz-adv-x="540" d="M287 538Q355 538 397 505T459 417T479 291V266H86Q85 145 139 80T296 15Q344 15 378 22T459 50V23Q421 6 383 -2T296 -10Q213 -10 161 25T84 121T59 259Q59 334 84 397T159 499T287 538ZM287
513Q203 513 150 457T87 291H452Q453 390 412 451T287 513ZM395 759Q369 725 328 682T247 606H226V612Q249 632 275 660T326 716T365 766H395V759Z" />
<glyph unicode="&#xea;" glyph-name="ecircumflex" horiz-adv-x="540" d="M287 538Q355 538 397 505T459 417T479 291V266H86Q85 145 139 80T296 15Q344 15 378 22T459 50V23Q421 6 383 -2T296 -10Q213 -10 161 25T84 121T59 259Q59 334 84 397T159 499T287 538ZM287
513Q203 513 150 457T87 291H452Q453 390 412 451T287 513ZM282 763Q294 743 314 716T356 661T396 612V606H375Q347 634 320 668T271 731Q250 703 222 669T165 606H144V612Q163 633 185 660T227 715T260 763H282Z" />
<glyph unicode="&#xeb;" glyph-name="edieresis" horiz-adv-x="540" d="M287 538Q355 538 397 505T459 417T479 291V266H86Q85 145 139 80T296 15Q344 15 378 22T459 50V23Q421 6 383 -2T296 -10Q213 -10 161 25T84 121T59 259Q59 334 84 397T159 499T287 538ZM287
513Q203 513 150 457T87 291H452Q453 390 412 451T287 513ZM410 678Q410 690 415 699T433 709Q450 709 454 700T458 678Q458 665 454 656T433 647Q420 647 415 656T410 678ZM595 678Q595 690 600 699T618 709Q635 709 639 700T643 678Q643 665 639 656T618 647Q605
647 600 656T595 678Z" />
<glyph unicode="&#xec;" glyph-name="igrave" horiz-adv-x="207" d="M116 0H90V528H116V0ZM306 766Q321 745 345 717T396 660T445 612V606H424Q384 639 343 682T276 759V766H306Z" />
<glyph unicode="&#xed;" glyph-name="iacute" horiz-adv-x="207" d="M116 0H90V528H116V0ZM229 759Q203 725 162 682T81 606H60V612Q83 632 109 660T160 716T199 766H229V759Z" />
<glyph unicode="&#xee;" glyph-name="icircumflex" horiz-adv-x="207" d="M116 0H90V528H116V0ZM372 763Q384 743 404 716T446 661T486 612V606H465Q437 634 410 668T361 731Q340 703 312 669T255 606H234V612Q253 633 275 660T317 715T350 763H372Z" />
<glyph unicode="&#xef;" glyph-name="idieresis" horiz-adv-x="207" d="M116 0H90V528H116V0ZM-12 678Q-12 690 -7 699T11 709Q28 709 32 700T36 678Q36 665 32 656T11 647Q-2 647 -7 656T-12 678ZM173 678Q173 690 178 699T196 709Q213 709 217 700T221 678Q221
665 217 656T196 647Q183 647 178 656T173 678Z" />
<glyph unicode="&#xf0;" glyph-name="eth" horiz-adv-x="554" d="M204 757Q241 740 270 722T321 685L430 752L443 731L339 669Q419 590 456 489T494 272Q494 195 470 131T398 28T274 -10Q170 -10 114 54T57 223Q57 298 86 352T165 435T279 465Q350 465 390 444T455
391H457Q443 463 408 534T317 656L188 578L175 598L298 672Q277 689 249 706T191 736L204 757ZM279 440Q224 440 180 415T110 341T84 223Q84 123 136 69T274 15Q365 15 416 84T467 285Q467 307 459 333T431 384T374 424T279 440Z" />
<glyph unicode="&#xf1;" glyph-name="ntilde" horiz-adv-x="573" d="M309 538Q395 538 442 491T489 346V0H463V345Q463 433 423 473T309 513Q223 513 170 462T116 302V0H90V528H111L115 417H117Q129 448 152 475T214 520T309 538ZM125 618Q129 668 152 692T214
716Q239 716 257 705T291 679T323 653T360 641Q382 641 401 655T425 716H450Q446 667 422 642T359 617Q334 617 316 628T282 654T250 680T212 692Q192 692 174 678T150 618H125Z" />
<glyph unicode="&#xf2;" glyph-name="ograve" horiz-adv-x="575" d="M515 264Q515 187 491 125T416 26T286 -10Q210 -10 160 26T84 124T59 264Q59 390 120 464T292 538Q372 538 421 502T492 403T515 264ZM86 264Q86 191 108 135T174 47T286 15Q356 15 400 47T466
135T488 264Q488 333 469 389T406 479T292 513Q193 513 140 447T86 264ZM234 766Q249 745 273 717T324 660T373 612V606H352Q312 639 271 682T204 759V766H234Z" />
<glyph unicode="&#xf3;" glyph-name="oacute" horiz-adv-x="575" d="M515 264Q515 187 491 125T416 26T286 -10Q210 -10 160 26T84 124T59 264Q59 390 120 464T292 538Q372 538 421 502T492 403T515 264ZM86 264Q86 191 108 135T174 47T286 15Q356 15 400 47T466
135T488 264Q488 333 469 389T406 479T292 513Q193 513 140 447T86 264ZM413 759Q387 725 346 682T265 606H244V612Q267 632 293 660T344 716T383 766H413V759Z" />
<glyph unicode="&#xf4;" glyph-name="ocircumflex" horiz-adv-x="575" d="M515 264Q515 187 491 125T416 26T286 -10Q210 -10 160 26T84 124T59 264Q59 390 120 464T292 538Q372 538 421 502T492 403T515 264ZM86 264Q86 191 108 135T174 47T286 15Q356 15 400
47T466 135T488 264Q488 333 469 389T406 479T292 513Q193 513 140 447T86 264ZM300 763Q312 743 332 716T374 661T414 612V606H393Q365 634 338 668T289 731Q268 703 240 669T183 606H162V612Q181 633 203 660T245 715T278 763H300Z" />
<glyph unicode="&#xf5;" glyph-name="otilde" horiz-adv-x="575" d="M515 264Q515 187 491 125T416 26T286 -10Q210 -10 160 26T84 124T59 264Q59 390 120 464T292 538Q372 538 421 502T492 403T515 264ZM86 264Q86 191 108 135T174 47T286 15Q356 15 400 47T466
135T488 264Q488 333 469 389T406 479T292 513Q193 513 140 447T86 264ZM126 618Q130 668 153 692T215 716Q240 716 258 705T292 679T324 653T361 641Q383 641 402 655T426 716H451Q447 667 423 642T360 617Q335 617 317 628T283 654T251 680T213 692Q193 692 175
678T151 618H126Z" />
<glyph unicode="&#xf6;" glyph-name="odieresis" horiz-adv-x="575" d="M515 264Q515 187 491 125T416 26T286 -10Q210 -10 160 26T84 124T59 264Q59 390 120 464T292 538Q372 538 421 502T492 403T515 264ZM86 264Q86 191 108 135T174 47T286 15Q356 15 400 47T466
135T488 264Q488 333 469 389T406 479T292 513Q193 513 140 447T86 264ZM172 678Q172 690 177 699T195 709Q212 709 216 700T220 678Q220 665 216 656T195 647Q182 647 177 656T172 678ZM357 678Q357 690 362 699T380 709Q397 709 401 700T405 678Q405 665 401
656T380 647Q367 647 362 656T357 678Z" />
<glyph unicode="&#xf7;" glyph-name="divide" horiz-adv-x="570" d="M284 500Q269 500 264 509T259 531Q259 543 264 552T284 562Q302 562 306 553T311 531Q311 518 307 509T284 500ZM55 341V365H515V341H55ZM284 144Q269 144 264 153T259 175Q259 187 264 196T284
206Q302 206 306 197T311 175Q311 162 307 153T284 144Z" />
<glyph unicode="&#xf8;" glyph-name="oslash" horiz-adv-x="575" d="M515 264Q515 187 491 125T416 26T286 -10Q234 -10 195 7T128 54L62 -27L43 -11L112 74Q59 148 59 264Q59 390 120 464T292 538Q341 538 378 524T441 483L499 555L518 539L458 465Q487 428 501
376T515 264ZM86 264Q86 160 128 95L424 463Q401 486 369 499T292 513Q193 513 140 447T86 264ZM488 264Q488 317 477 363T441 443L144 74Q169 46 204 31T286 15Q356 15 400 47T466 135T488 264Z" />
<glyph unicode="&#xf9;" glyph-name="ugrave" horiz-adv-x="573" d="M481 528V0H460L456 111H454Q443 81 419 53T357 8T262 -10Q174 -10 128 39T82 182V528H108V186Q108 98 148 57T262 15Q348 15 401 66T455 226V528H481ZM233 766Q248 745 272 717T323 660T372
612V606H351Q311 639 270 682T203 759V766H233Z" />
<glyph unicode="&#xfa;" glyph-name="uacute" horiz-adv-x="573" d="M481 528V0H460L456 111H454Q443 81 419 53T357 8T262 -10Q174 -10 128 39T82 182V528H108V186Q108 98 148 57T262 15Q348 15 401 66T455 226V528H481ZM412 759Q386 725 345 682T264 606H243V612Q266
632 292 660T343 716T382 766H412V759Z" />
<glyph unicode="&#xfb;" glyph-name="ucircumflex" horiz-adv-x="573" d="M481 528V0H460L456 111H454Q443 81 419 53T357 8T262 -10Q174 -10 128 39T82 182V528H108V186Q108 98 148 57T262 15Q348 15 401 66T455 226V528H481ZM299 763Q311 743 331 716T373 661T413
612V606H392Q364 634 337 668T288 731Q267 703 239 669T182 606H161V612Q180 633 202 660T244 715T277 763H299Z" />
<glyph unicode="&#xfc;" glyph-name="udieresis" horiz-adv-x="573" d="M481 528V0H460L456 111H454Q443 81 419 53T357 8T262 -10Q174 -10 128 39T82 182V528H108V186Q108 98 148 57T262 15Q348 15 401 66T455 226V528H481ZM171 678Q171 690 176 699T194 709Q211
709 215 700T219 678Q219 665 215 656T194 647Q181 647 176 656T171 678ZM356 678Q356 690 361 699T379 709Q396 709 400 700T404 678Q404 665 400 656T379 647Q366 647 361 656T356 678Z" />
<glyph unicode="&#xfd;" glyph-name="yacute" horiz-adv-x="428" d="M0 528H27L164 172Q182 124 194 91T214 37H216Q224 59 235 91T264 168L403 528H430L181 -115Q156 -180 127 -211T48 -243Q21 -243 -6 -233V-207Q8 -212 20 -215T48 -218Q86 -218 110 -192T160
-102L201 6L0 528ZM339 759Q313 725 272 682T191 606H170V612Q193 632 219 660T270 716T309 766H339V759Z" />
<glyph unicode="&#xfe;" glyph-name="thorn" horiz-adv-x="583" d="M526 269Q526 136 468 63T303 -10Q224 -10 179 27T117 116H115Q117 82 117 50T117 -15V-232H91V760H117V525Q117 501 117 466T115 406H117Q128 441 153 471T218 519T313 538Q418 538 472 470T526
269ZM499 269Q499 393 452 453T313 513Q217 513 168 448T118 265V262Q118 135 168 75T303 15Q395 15 447 79T499 269Z" />
<glyph unicode="&#xff;" glyph-name="ydieresis" horiz-adv-x="428" d="M0 528H27L164 172Q182 124 194 91T214 37H216Q224 59 235 91T264 168L403 528H430L181 -115Q156 -180 127 -211T48 -243Q21 -243 -6 -233V-207Q8 -212 20 -215T48 -218Q86 -218 110 -192T160
-102L201 6L0 528ZM354 678Q354 690 359 699T377 709Q394 709 398 700T402 678Q402 665 398 656T377 647Q364 647 359 656T354 678ZM539 678Q539 690 544 699T562 709Q579 709 583 700T587 678Q587 665 583 656T562 647Q549 647 544 656T539 678Z" />
<glyph unicode="&#x2013;" glyph-name="endash" horiz-adv-x="500" d="M40 259V284H460V259H40Z" />
<glyph unicode="&#x2014;" glyph-name="emdash" horiz-adv-x="1000" d="M40 259V284H960V259H40Z" />
<glyph unicode="&#x2018;" glyph-name="quoteleft" horiz-adv-x="127" d="M22 478Q31 540 50 601T94 714H111Q96 679 83 636T61 549T48 469H28L22 478Z" />
<glyph unicode="&#x2019;" glyph-name="quoteright" horiz-adv-x="127" d="M105 705Q96 644 77 583T33 469H16Q32 504 45 547T67 634T79 714H99L105 705Z" />
<glyph unicode="&#x201a;" glyph-name="quotesinglbase" horiz-adv-x="202" d="M124 107Q115 46 96 -15T52 -129H35Q51 -94 64 -51T86 36T98 116H118L124 107Z" />
<glyph unicode="&#x201c;" glyph-name="quotedblleft" horiz-adv-x="265" d="M249 714Q234 679 221 636T199 549T186 469H166L160 478Q169 540 188 601T232 714H249ZM111 714Q96 679 83 636T61 549T48 469H28L22 478Q31 540 50 601T94 714H111Z" />
<glyph unicode="&#x201d;" glyph-name="quotedblright" horiz-adv-x="265" d="M243 705Q234 644 215 583T171 469H154Q170 504 182 547T204 634T217 714H237L243 705ZM105 705Q96 644 77 583T33 469H16Q32 504 45 547T67 634T79 714H99L105 705Z" />
<glyph unicode="&#x201e;" glyph-name="quotedblbase" horiz-adv-x="350" d="M262 107Q253 46 234 -15T190 -129H173Q189 -94 201 -51T223 36T236 116H256L262 107ZM124 107Q115 46 96 -15T52 -129H35Q51 -94 64 -51T86 36T98 116H118L124 107Z" />
<glyph unicode="&#x2022;" glyph-name="bullet" horiz-adv-x="376" d="M135 365Q135 394 147 412T188 431Q217 431 229 412T242 365Q242 339 230 319T188 299Q160 299 148 318T135 365Z" />
<glyph unicode="&#x2039;" glyph-name="guilsinglleft" horiz-adv-x="220" d="M26 285L178 472L194 460L57 279L194 98L178 87L26 272V285Z" />
<glyph unicode="&#x203a;" glyph-name="guilsinglright" horiz-adv-x="220" d="M42 472L194 287V274L42 87L26 99L163 280L26 461L42 472Z" />
</font>
</defs>
</svg>
