<?xml version="1.0" standalone="no"?>
<!DOCTYPE svg PUBLIC "-//W3C//DTD SVG 1.1//EN" "http://www.w3.org/Graphics/SVG/1.1/DTD/svg11.dtd">
<svg xmlns="http://www.w3.org/2000/svg">
<defs >
<font id="NotoSans" horiz-adv-x="521" ><font-face
    font-family="Noto Sans Thin"
    units-per-em="1000"
    panose-1="2 11 2 2 4 5 4 9 2 4"
    ascent="1069"
    descent="-293"
    alphabetic="0" />
<glyph unicode=" " glyph-name="space" horiz-adv-x="260" />
<glyph unicode="!" glyph-name="exclam" horiz-adv-x="210" d="M77 174L191 714H219L101 174H77ZM55 -8Q32 -8 32 14Q32 28 39 41T62 54Q74 54 79 47T84 32Q84 19 77 6T55 -8Z" />
<glyph unicode="&quot;" glyph-name="quotedbl" horiz-adv-x="310" d="M248 456L299 714H327L268 456H248ZM110 456L161 714H189L130 456H110Z" />
<glyph unicode="#" glyph-name="numbersign" horiz-adv-x="614" d="M107 0L172 227H35L37 251H178L240 462H97L99 486H247L313 714H338L273 486H459L525 714H550L484 486H624L622 462H478L419 251H562L560 227H413L345 0H319L387 227H198L132 0H107ZM204 251H393L452
462H266L204 251Z" />
<glyph unicode="$" glyph-name="dollar" horiz-adv-x="550" d="M215 50Q163 50 120 59T51 79V107Q80 94 123 85T221 75L280 353Q238 369 206 388T155 435T136 505Q136 561 165 597T243 653T348 675L365 758H389L372 675Q409 672 445 664T513 641L502 617Q466 634
433 640T367 650L307 370Q350 352 383 335T434 292T453 223Q453 169 423 132T345 74T239 50L215 -58H191L215 50ZM343 650Q293 648 253 631T188 582T164 507Q164 469 180 446T224 408T285 378L343 650ZM245 75Q293 78 334 95T401 144T427 221Q427 255 412 276T368
313T301 344L245 75Z" />
<glyph unicode="%" glyph-name="percent" horiz-adv-x="763" d="M188 276Q140 276 113 308T86 408Q86 442 92 484T112 568T147 645T198 702T268 724Q369 724 369 595Q369 563 363 521T344 436T310 357T258 299T188 276ZM120 0L647 714H677L150 0H120ZM189 301Q223
301 248 321T291 375T320 447T337 524T342 593Q342 648 324 673T267 699Q234 699 209 679T165 627T136 556T119 479T113 410Q113 354 133 328T189 301ZM527 -12Q479 -12 452 20T425 120Q425 154 431 196T451 280T486 357T537 414T607 436Q708 436 708 307Q708 275
702 233T683 148T649 69T597 11T527 -12ZM528 13Q562 13 587 33T630 87T659 159T676 236T681 305Q681 360 663 385T606 411Q573 411 548 391T504 339T475 268T458 191T452 122Q452 66 472 40T528 13Z" />
<glyph unicode="&amp;" glyph-name="ampersand" horiz-adv-x="682" d="M223 -10Q147 -10 97 31T47 146Q47 213 76 257T155 334T271 395Q239 438 222 474T204 550Q204 601 226 640T289 702T383 725Q441 725 479 689T518 597Q518 540 491 504T416 441T309 386L485
140Q522 176 556 225T613 328H640Q613 267 577 216T500 121L585 0H554L482 105Q427 55 368 23T223 -10ZM294 404Q325 418 359 434T424 472T472 524T491 597Q491 643 458 671T379 700Q339 700 305 683T251 632T231 551Q231 514 247 480T294 404ZM226 15Q304 15 359
44T468 123L285 377Q222 349 175 319T101 248T74 148Q74 105 95 76T151 31T226 15Z" />
<glyph unicode="&apos;" glyph-name="quotesingle" horiz-adv-x="172" d="M110 456L161 714H189L130 456H110Z" />
<glyph unicode="(" glyph-name="parenleft" horiz-adv-x="242" d="M97 -158Q66 -102 49 -32T32 118Q32 240 64 350T151 553T277 714H311Q232 638 175 542T88 337T58 118Q58 -39 126 -158H97Z" />
<glyph unicode=")" glyph-name="parenright" horiz-adv-x="242" d="M-63 -158Q17 -81 73 15T160 219T190 438Q190 595 122 714H151Q183 658 199 588T216 438Q216 317 184 207T97 4T-29 -158H-63Z" />
<glyph unicode="*" glyph-name="asterisk" horiz-adv-x="531" d="M396 338L318 528L169 387L150 407L306 540L127 637L141 662L315 554L353 757L380 751L331 550L535 577L534 549L334 534L422 349L396 338Z" />
<glyph unicode="+" glyph-name="plus" horiz-adv-x="570" d="M317 365H535V341H317V123H293V341H75V365H293V583H317V365Z" />
<glyph unicode="," glyph-name="comma" horiz-adv-x="183" d="M-45 -129Q-8 -56 16 1T60 116H87L88 104Q67 49 39 -14T-22 -129H-45Z" />
<glyph unicode="-" glyph-name="hyphen" horiz-adv-x="312" d="M38 259L43 284H274L269 259H38Z" />
<glyph unicode="." glyph-name="period" horiz-adv-x="210" d="M55 -8Q32 -8 32 14Q32 28 39 41T62 54Q74 54 79 47T84 32Q84 19 77 6T55 -8Z" />
<glyph unicode="/" glyph-name="slash" horiz-adv-x="306" d="M-43 0L363 714H392L-14 0H-43Z" />
<glyph unicode="0" glyph-name="zero" horiz-adv-x="550" d="M236 -10Q160 -10 113 43T66 203Q66 269 76 341T109 482T166 605T249 692T359 725Q445 725 486 670T528 522Q528 447 517 372T482 228T423 106T341 21T236 -10ZM237 15Q289 15 331 45T404 126T457 243T490
380T501 520Q501 604 467 652T358 700Q301 700 258 669T183 584T132 466T103 333T93 204Q93 108 131 62T237 15Z" />
<glyph unicode="1" glyph-name="one" horiz-adv-x="550" d="M348 563Q357 606 364 635T376 685Q363 675 350 665T315 641L179 551L166 571L382 714H407L256 0H229L348 563Z" />
<glyph unicode="2" glyph-name="two" horiz-adv-x="550" d="M10 0L14 23L278 262Q312 293 347 327T413 400T462 483T481 579Q481 636 446 667T352 699Q269 699 178 635L165 655Q216 693 264 708T352 724Q423 724 465 684T507 579Q507 511 478 455T401 347T297
246L52 26V25H425L420 0H10Z" />
<glyph unicode="3" glyph-name="three" horiz-adv-x="550" d="M210 -10Q149 -10 102 2T22 33V61Q54 42 103 29T211 15Q283 15 335 40T415 109T444 209Q444 285 394 322T260 359H181L186 384H265Q305 384 346 395T421 429T477 488T498 575Q498 631 461 665T363
699Q309 699 258 682T154 629L141 650Q190 684 246 704T364 724Q435 724 480 682T525 574Q525 516 500 474T433 407T344 372V370Q403 359 437 317T471 209Q471 145 439 96T348 18T210 -10Z" />
<glyph unicode="4" glyph-name="four" horiz-adv-x="550" d="M330 0L371 194H15L19 212L477 718H508L402 219H529L523 194H397L356 0H330ZM57 219H376L441 524Q450 565 455 591T466 638T477 686H475Q456 661 440 642T395 592L57 219Z" />
<glyph unicode="5" glyph-name="five" horiz-adv-x="550" d="M206 -10Q154 -10 109 2T38 32V62Q66 42 112 29T208 15Q272 15 326 39T414 115T448 246Q448 317 406 359T285 402Q241 402 209 396T139 379L124 393L220 714H537L532 689H239L154 408Q178 415 209 421T285
427Q342 427 384 405T451 342T475 247Q475 160 437 103T338 18T206 -10Z" />
<glyph unicode="6" glyph-name="six" horiz-adv-x="550" d="M253 -10Q186 -10 145 20T86 100T68 209Q68 261 80 320T113 439T165 550T233 639Q280 686 336 706T448 726Q475 726 500 722T543 712L537 686Q521 693 498 697T448 701Q375 701 309 665T191 546T105
322H107Q126 350 156 377T228 421T324 439Q401 439 446 392T491 267Q491 186 457 124T369 26T253 -10ZM252 15Q300 15 339 36T406 94T449 176T464 267Q464 338 425 376T321 414Q263 414 216 390T138 329T101 258Q99 245 97 230T95 197Q95 166 102 134T126 75T173
32T252 15Z" />
<glyph unicode="7" glyph-name="seven" horiz-adv-x="550" d="M114 0L524 689H128L133 714H562L559 697L146 0H114Z" />
<glyph unicode="8" glyph-name="eight" horiz-adv-x="550" d="M238 -10Q183 -10 140 11T72 70T47 158Q47 222 77 263T159 330T274 377Q245 396 219 418T177 470T161 542Q161 598 187 639T258 702T361 724Q411 724 449 705T508 653T530 580Q530 527 504 489T434
423T333 373Q371 353 402 330T453 274T472 190Q472 125 440 81T354 13T238 -10ZM306 387Q362 408 406 433T477 495T503 580Q503 636 462 667T360 699Q312 699 273 682T210 629T187 542Q187 487 220 452T306 387ZM239 15Q293 15 340 34T416 92T446 190Q446 237 428
266T377 318T303 363Q243 343 191 319T106 258T73 158Q73 91 120 53T239 15Z" />
<glyph unicode="9" glyph-name="nine" horiz-adv-x="550" d="M165 -10Q131 -10 100 -6T47 6V34Q67 27 99 21T165 15Q227 15 287 51T399 169T484 387H482Q465 360 435 335T364 292T269 275Q190 275 145 323T100 443Q100 524 133 587T221 687T342 724Q405 724 445
695T504 617T523 507Q523 453 510 391T474 267T418 153T348 65Q305 26 258 8T165 -10ZM270 300Q329 300 375 324T452 384T491 458Q494 471 495 483T496 512Q496 560 482 602T435 672T342 699Q276 699 228 662T153 567T127 443Q127 377 166 339T270 300Z" />
<glyph unicode=":" glyph-name="colon" horiz-adv-x="210" d="M157 470Q134 470 134 492Q134 506 141 519T164 532Q176 532 181 525T186 510Q186 497 179 484T157 470ZM55 -8Q32 -8 32 14Q32 28 39 41T62 54Q74 54 79 47T84 32Q84 19 77 6T55 -8Z" />
<glyph unicode=";" glyph-name="semicolon" horiz-adv-x="210" d="M156 470Q133 470 133 492Q133 506 140 519T163 532Q175 532 180 525T185 510Q185 497 178 484T156 470ZM-45 -129Q-8 -56 16 1T60 116H87L88 104Q67 49 39 -14T-22 -129H-45Z" />
<glyph unicode="&lt;" glyph-name="less" horiz-adv-x="570" d="M534 138L76 353V371L534 586V560L111 362L534 164V138Z" />
<glyph unicode="=" glyph-name="equal" horiz-adv-x="570" d="M75 443V467H535V443H75ZM75 239V263H535V239H75Z" />
<glyph unicode="&gt;" glyph-name="greater" horiz-adv-x="570" d="M76 164L499 362L76 560V586L534 371V353L76 138V164Z" />
<glyph unicode="?" glyph-name="question" horiz-adv-x="403" d="M121 174Q131 232 149 266T194 324T258 377Q292 403 323 428T374 486T395 569Q395 628 359 663T263 699Q204 699 131 667L121 690Q165 710 198 717T263 724Q336 724 378 680T421 570Q421 518 401
482T347 416T270 357Q239 334 214 311T172 257T145 174H121ZM104 -8Q81 -8 81 14Q81 28 88 41T111 54Q123 54 128 47T133 32Q133 19 126 6T104 -8Z" />
<glyph unicode="@" glyph-name="at" horiz-adv-x="834" d="M375 -90Q312 -90 255 -70T152 -8T81 95T55 242Q55 329 84 411T172 560T317 666T519 706Q608 706 672 670T772 569T807 413Q807 330 780 260T708 149T604 107Q521 107 521 209H519Q492 160 452 134T359
107Q310 107 278 139T245 231Q245 310 279 372T369 470T491 506Q525 506 556 500T611 483L573 341Q560 295 553 263T545 210Q545 177 558 155T605 132Q650 132 690 169T755 270T780 413Q780 494 750 554T660 647T517 681Q412 681 332 646T196 549T112 408T83 243Q83
138 124 70T232 -32T375 -65Q423 -65 473 -58T572 -31V-56Q527 -72 479 -81T375 -90ZM361 132Q425 132 471 180T542 320L581 465Q562 472 540 476T488 481Q431 481 382 450T303 363T272 232Q272 183 296 158T361 132Z" />
<glyph unicode="A" glyph-name="A" horiz-adv-x="547" d="M-50 0L368 716H392L498 0H473L432 271H138L-20 0H-50ZM152 296H428L385 594Q379 633 374 682H372Q361 660 349 638T324 594L152 296Z" />
<glyph unicode="B" glyph-name="B" horiz-adv-x="598" d="M50 0L201 714H382Q486 714 533 676T580 571Q580 491 535 441T410 376L409 374Q468 361 498 322T528 223Q528 146 490 97T387 24T240 0H50ZM322 388Q425 388 489 432T553 571Q553 689 376 689H223L159
388H322ZM252 25Q319 25 375 45T466 108T501 223Q501 299 451 331T314 363H154L82 25H252Z" />
<glyph unicode="C" glyph-name="C" horiz-adv-x="594" d="M326 -10Q250 -10 196 24T113 121T84 268Q84 370 113 454T196 598T319 691T471 724Q563 724 633 687L621 662Q586 683 548 691T471 699Q395 699 329 668T214 581T138 445T110 270Q110 152 168 84T327 15Q378
15 421 23T500 44V21Q466 8 423 -1T326 -10Z" />
<glyph unicode="D" glyph-name="D" horiz-adv-x="677" d="M50 0L201 714H346Q483 714 560 643T637 425Q637 343 611 267T530 131T392 35T196 0H50ZM197 25Q299 25 376 57T505 145T583 273T610 425Q610 561 539 625T336 689H223L82 25H197Z" />
<glyph unicode="E" glyph-name="E" horiz-adv-x="535" d="M50 0L201 714H559L554 689H223L159 389H471L466 364H154L82 25H413L408 0H50Z" />
<glyph unicode="F" glyph-name="F" horiz-adv-x="487" d="M50 0L201 714H560L555 689H223L152 354H466L460 329H146L77 0H50Z" />
<glyph unicode="G" glyph-name="G" horiz-adv-x="690" d="M333 -10Q213 -10 149 65T84 267Q84 372 114 456T198 601T319 692T464 724Q520 724 570 713T664 682L653 657Q610 677 562 688T463 699Q392 699 329 669T216 582T138 446T110 267Q110 182 139 126T218
43T334 15Q387 15 439 26T531 53L589 325H388L394 350H621L554 36Q504 13 446 2T333 -10Z" />
<glyph unicode="H" glyph-name="H" horiz-adv-x="681" d="M50 0L201 714H228L159 388H580L649 714H676L525 0H498L575 363H154L77 0H50Z" />
<glyph unicode="I" glyph-name="I" horiz-adv-x="279" d="M8 0L12 20L78 23L220 690L155 694L159 714H317L313 694L246 690L104 23L170 20L166 0H8Z" />
<glyph unicode="J" glyph-name="J" horiz-adv-x="231" d="M-88 -174Q-110 -174 -133 -170T-170 -161L-169 -136Q-150 -142 -128 -145T-87 -148Q-23 -148 7 -110T51 -9L204 714H231L77 -13Q60 -95 20 -134T-88 -174Z" />
<glyph unicode="K" glyph-name="K" horiz-adv-x="543" d="M50 0L201 714H228L145 324L202 376L592 714H629L283 414L484 0H454L262 396L138 291L77 0H50Z" />
<glyph unicode="L" glyph-name="L" horiz-adv-x="491" d="M50 0L201 714H228L82 25H411L406 0H50Z" />
<glyph unicode="M" glyph-name="M" horiz-adv-x="806" d="M50 0L201 714H239L357 47H360L759 714H801L650 0H624L751 602Q754 617 758 635T769 678H767L360 0H340L220 679H218Q214 654 211 637T203 597L77 0H50Z" />
<glyph unicode="N" glyph-name="N" horiz-adv-x="674" d="M50 0L201 714H220L503 54H505Q513 93 521 134T536 211L643 714H669L518 0H498L216 659H214Q205 616 198 579T183 502L77 0H50Z" />
<glyph unicode="O" glyph-name="O" horiz-adv-x="716" d="M334 -10Q242 -10 187 29T108 133T84 276Q84 358 105 438T168 583T276 686T431 725Q542 725 609 657T676 446Q676 399 666 339T633 218T571 106T474 22T334 -10ZM335 15Q406 15 458 44T547 121T606 226T639
340T649 445Q649 563 596 631T429 700Q358 700 305 673T215 601T155 501T122 387T111 277Q111 200 134 141T206 49T335 15Z" />
<glyph unicode="P" glyph-name="P" horiz-adv-x="558" d="M50 0L201 714H356Q454 714 506 670T558 538Q558 470 529 418T438 335T282 305H141L77 0H50ZM286 330Q373 330 427 356T506 429T531 537Q531 617 484 653T351 689H223L147 330H286Z" />
<glyph unicode="Q" glyph-name="Q" horiz-adv-x="716" d="M333 -10H325Q240 -8 187 29T109 131T84 276Q84 358 105 438T168 583T276 686T431 725Q542 725 609 657T676 446Q676 401 667 344T637 228T581 118T493 33T367 -9L480 -170H445L333 -10ZM335 15Q406 15
458 44T547 121T606 226T639 340T649 445Q649 563 596 631T429 700Q358 700 305 673T215 601T155 501T122 387T111 277Q111 200 134 141T206 49T335 15Z" />
<glyph unicode="R" glyph-name="R" horiz-adv-x="562" d="M50 0L201 714H348Q558 714 558 549Q558 453 507 398T358 325L475 0H446L332 320H145L77 0H50ZM302 345Q365 345 417 366T500 432T531 548Q531 689 342 689H223L150 345H302Z" />
<glyph unicode="S" glyph-name="S" horiz-adv-x="498" d="M198 -10Q134 -10 93 0T19 24V53Q54 36 98 26T198 15Q231 15 267 24T336 53T387 105T407 184Q407 230 387 261T333 315T252 360Q219 377 188 399T137 454T117 531Q117 584 137 621T190 680T264 713T344
724Q398 724 435 714T509 687L498 662Q458 682 424 690T343 699Q314 699 280 691T214 664T164 613T144 532Q144 490 162 463T209 416T269 381Q315 357 352 332T412 272T434 184Q434 130 412 93T355 34T278 1T198 -10Z" />
<glyph unicode="T" glyph-name="T" horiz-adv-x="485" d="M172 0L318 689H93L98 714H576L571 689H345L199 0H172Z" />
<glyph unicode="U" glyph-name="U" horiz-adv-x="692" d="M300 -10Q204 -10 146 39T88 183Q88 200 90 217T96 254L194 714H221L124 256Q116 216 116 185Q116 102 166 59T301 15Q402 15 472 75T568 257L666 714H693L595 252Q566 115 489 53T300 -10Z" />
<glyph unicode="V" glyph-name="V" horiz-adv-x="535" d="M196 0L106 714H131L202 146Q206 119 209 90T213 37H215Q226 60 239 85T272 144L581 714H610L219 0H196Z" />
<glyph unicode="W" glyph-name="W" horiz-adv-x="826" d="M160 0L125 714H149L176 171Q179 113 179 52H182Q194 80 205 105T234 167L497 714H522L558 167Q560 139 560 108T561 48H564Q575 75 586 103T614 166L863 714H891L565 0H543L506 580Q505 607 504 628T503
674H501Q492 650 485 634T470 601L182 0H160Z" />
<glyph unicode="X" glyph-name="X" horiz-adv-x="489" d="M-59 0L251 372L116 714H143L269 390L533 714H564L281 369L430 0H403L262 350L-27 0H-59Z" />
<glyph unicode="Y" glyph-name="Y" horiz-adv-x="485" d="M174 0L231 271L96 714H123L249 301L547 714H578L259 275L201 0H174Z" />
<glyph unicode="Z" glyph-name="Z" horiz-adv-x="538" d="M-8 0L-5 18L529 689H155L160 714H571L567 696L34 25H436L431 0H-8Z" />
<glyph unicode="[" glyph-name="bracketleft" horiz-adv-x="303" d="M-9 -158L177 714H369L363 687H198L24 -131H191L184 -158H-9Z" />
<glyph unicode="\" glyph-name="backslash" horiz-adv-x="306" d="M228 0L98 714H122L251 0H228Z" />
<glyph unicode="]" glyph-name="bracketright" horiz-adv-x="303" d="M-72 -158L-66 -131H99L273 687H106L113 714H306L120 -158H-72Z" />
<glyph unicode="^" glyph-name="asciicircum" horiz-adv-x="550" d="M50 278L362 719H386L504 278H479L369 686L82 278H50Z" />
<glyph unicode="_" glyph-name="underscore" horiz-adv-x="371" d="M-85 -134L-79 -109H292L286 -134H-85Z" />
<glyph unicode="`" glyph-name="grave" horiz-adv-x="226" d="M244 606Q229 624 210 652T173 709T147 756V766H175Q185 741 200 713T232 659T259 618V606H244Z" />
<glyph unicode="a" glyph-name="a" horiz-adv-x="547" d="M197 -10Q125 -10 88 41T51 178Q51 239 68 302T118 419T202 505T319 538Q366 538 395 518T439 467T460 407H462L489 528H511L399 0H377L405 139H403Q386 109 356 74T285 15T197 -10ZM200 15Q246 15 293
48T378 137T430 264Q436 295 439 317T442 358Q442 432 409 472T318 513Q260 513 215 484T140 405T94 297T78 178Q78 103 108 59T200 15Z" />
<glyph unicode="b" glyph-name="b" horiz-adv-x="568" d="M239 -10Q189 -10 156 9T106 58T83 121H81L55 0H32L193 760H219L173 543Q166 512 157 470T137 389H139Q158 423 189 457T262 515T357 538Q429 538 471 487T513 350Q513 289 497 226T446 110T361 23T239
-10ZM240 15Q302 15 348 44T425 123T471 232T486 350Q486 425 451 469T352 513Q297 513 251 483T172 404T120 293T101 170Q101 92 140 54T240 15Z" />
<glyph unicode="c" glyph-name="c" horiz-adv-x="452" d="M247 -10Q185 -10 142 17T77 90T55 194Q55 263 73 325T128 435T216 510T335 538Q369 538 401 532T458 514L450 489Q425 502 394 507T335 513Q257 513 201 470T113 356T82 196Q82 146 100 105T156 40T248
15Q284 15 314 23T375 45V19Q351 7 320 -1T247 -10Z" />
<glyph unicode="d" glyph-name="d" horiz-adv-x="568" d="M201 -10Q124 -10 88 41T51 178Q51 239 67 302T118 418T203 505T324 538Q375 538 407 518T458 468T480 407H482Q487 441 494 476T508 543L554 760H580L419 0H397L425 141H423Q402 107 370 72T295 14T201
-10ZM203 15Q251 15 297 42T380 117T440 227T463 358Q463 436 424 474T323 513Q262 513 216 484T139 405T93 296T78 178Q78 101 109 58T203 15Z" />
<glyph unicode="e" glyph-name="e" horiz-adv-x="491" d="M246 -10Q199 -10 157 10T89 76T62 194Q62 266 82 328T140 438T227 511T333 538Q389 538 423 506T458 424Q458 375 432 343T361 291T255 264T127 256H93Q92 245 91 228T89 194Q89 107 133 61T251 15Q294
15 328 26T386 48V22Q364 10 326 0T246 -10ZM145 281Q229 281 293 296T394 342T431 423Q431 462 405 487T329 513Q281 513 233 486T149 407T97 281H145Z" />
<glyph unicode="f" glyph-name="f" horiz-adv-x="264" d="M-71 -240Q-84 -240 -103 -237T-132 -230V-204Q-118 -209 -101 -212T-71 -215Q-36 -215 -14 -190T18 -116L149 503H56L60 525L155 528L172 609Q188 683 226 724T337 765Q360 765 379 761T413 752L405 727Q375
740 336 740Q275 740 243 708T197 605L181 528H301L296 503H176L43 -120Q30 -184 1 -212T-71 -240Z" />
<glyph unicode="g" glyph-name="g" horiz-adv-x="568" d="M172 -240Q129 -240 92 -230T26 -207V-178Q55 -193 94 -204T173 -215Q269 -215 319 -163T388 -24L397 17Q403 45 411 80T427 144H425Q404 108 371 73T295 14T202 -10Q124 -10 88 41T51 178Q51 239 67 302T118
418T203 505T325 538Q375 538 407 519T457 469T480 407H482L509 528H531L413 -28Q400 -92 371 -139T294 -213T172 -240ZM205 15Q251 15 296 42T379 116T440 225T463 358Q463 436 425 474T324 513Q262 513 216 484T139 405T93 296T78 178Q78 103 108 59T205 15Z"
/>
<glyph unicode="h" glyph-name="h" horiz-adv-x="553" d="M32 0L193 760H219L176 557Q167 515 157 472T137 389H139Q157 421 188 455T262 514T358 538Q423 538 458 505T493 408Q493 379 485 342L413 0H387L460 345Q464 362 465 376T467 404Q467 460 437 486T354
513Q299 513 250 479T165 391T116 274L58 0H32Z" />
<glyph unicode="i" glyph-name="i" horiz-adv-x="207" d="M189 659Q166 659 166 681Q166 695 173 708T196 721Q208 721 213 714T218 699Q218 686 211 673T189 659ZM32 0L144 528H170L58 0H32Z" />
<glyph unicode="j" glyph-name="j" horiz-adv-x="207" d="M189 659Q166 659 166 681Q166 695 173 708T196 721Q208 721 213 714T218 699Q218 686 211 673T189 659ZM-86 -240Q-99 -240 -115 -237T-142 -230V-204Q-130 -210 -114 -212T-86 -215Q-45 -215 -24 -189T8
-115L144 528H170L33 -119Q20 -180 -8 -210T-86 -240Z" />
<glyph unicode="k" glyph-name="k" horiz-adv-x="439" d="M32 0L193 760H219L139 384Q129 335 120 293T98 204H99L444 528H477L232 298L384 0H355L213 281L94 172L58 0H32Z" />
<glyph unicode="l" glyph-name="l" horiz-adv-x="207" d="M32 0L193 760H219L58 0H32Z" />
<glyph unicode="m" glyph-name="m" horiz-adv-x="842" d="M32 0L144 528H166L137 389H139Q155 421 182 455T248 514T337 538Q405 538 432 497T456 389H457Q473 422 501 456T568 514T658 538Q717 538 749 505T782 408Q782 379 774 342L702 0H676L749 345Q753 362
754 376T756 404Q756 460 729 486T653 513Q615 513 580 493T517 439T467 363T437 275L379 0H353L424 330Q429 351 430 372T432 407Q432 457 406 485T331 513Q294 513 259 493T195 438T146 362T116 274L58 0H32Z" />
<glyph unicode="n" glyph-name="n" horiz-adv-x="553" d="M32 0L144 528H166L138 389H140Q157 421 187 455T261 514T358 538Q423 538 458 505T493 408Q493 379 485 342L413 0H387L460 345Q464 362 465 376T467 404Q467 460 437 486T354 513Q299 513 250 479T165
391T116 274L58 0H32Z" />
<glyph unicode="o" glyph-name="o" horiz-adv-x="565" d="M237 -10Q145 -10 100 46T55 192Q55 297 91 374T190 495T331 538Q390 538 429 512T489 441T510 338Q510 267 492 204T438 93T352 18T237 -10ZM240 15Q316 15 370 58T454 175T483 339Q483 415 445 464T329
513Q259 513 203 474T115 362T82 192Q82 111 121 63T240 15Z" />
<glyph unicode="p" glyph-name="p" horiz-adv-x="568" d="M-17 -232L144 528H166L138 389H140Q159 424 190 458T263 515T357 538Q429 538 471 487T513 350Q513 289 497 226T446 110T361 23T239 -10Q189 -10 156 9T106 58T83 121H81Q76 87 69 52T55 -15L9 -232H-17ZM240
15Q302 15 348 44T425 123T471 232T486 350Q486 425 451 469T352 513Q300 513 255 484T175 406T121 296T101 170Q101 92 140 54T240 15Z" />
<glyph unicode="q" glyph-name="q" horiz-adv-x="568" d="M390 -15Q397 16 407 61T427 145H425Q407 111 374 75T296 15T202 -10Q125 -10 88 41T51 178Q51 239 67 302T118 418T203 505T325 538Q375 538 407 518T457 468T480 407H482L509 528H531L370 -232H344L390
-15ZM205 15Q254 15 300 43T383 121T441 231T463 358Q463 436 425 474T324 513Q262 513 216 484T139 405T93 296T78 178Q78 103 108 59T205 15Z" />
<glyph unicode="r" glyph-name="r" horiz-adv-x="370" d="M32 0L144 528H166L138 389H140Q156 418 184 452T251 511T336 536Q369 536 395 528L389 504Q379 507 366 509T336 511Q290 511 244 478T164 390T114 266L58 0H32Z" />
<glyph unicode="s" glyph-name="s" horiz-adv-x="423" d="M164 -10Q112 -10 74 2T12 27V57Q42 40 81 28T165 15Q247 15 282 49T318 136Q318 170 302 192T259 230T204 261Q171 279 143 296T98 338T80 399Q80 448 103 478T167 523T254 538Q301 538 337 529T399 508L390
483Q365 496 329 504T253 513Q191 513 149 487T107 401Q107 371 122 351T163 316T218 285Q250 268 279 250T326 205T345 137Q345 97 326 64T268 10T164 -10Z" />
<glyph unicode="t" glyph-name="t" horiz-adv-x="309" d="M146 -10Q97 -10 74 14T51 82Q51 95 52 109T58 140L135 503H58L63 525L140 528L174 659H195L167 528H330L324 503H161L85 143Q81 127 80 112T78 84Q78 51 94 33T147 15Q171 15 189 18T224 28V3Q208 -2
190 -6T146 -10Z" />
<glyph unicode="u" glyph-name="u" horiz-adv-x="553" d="M190 -10Q125 -10 90 23T55 120Q55 149 63 186L135 528H161L88 183Q84 167 83 152T81 124Q81 68 111 42T194 15Q250 15 299 49T383 137T432 254L490 528H516L404 0H382L410 139H408Q392 108 361 73T287
14T190 -10Z" />
<glyph unicode="v" glyph-name="v" horiz-adv-x="410" d="M132 0L50 528H76L135 138Q140 106 143 84T148 36H150Q163 60 175 83T205 138L430 528H459L153 0H132Z" />
<glyph unicode="w" glyph-name="w" horiz-adv-x="651" d="M87 0L54 528H80L102 156Q104 118 105 92T106 42H108Q115 58 121 72T138 106T164 156L357 528H377L416 156Q420 118 422 92T425 42H427Q435 65 446 89T477 156L654 528H681L430 0H407L367 389Q364 415
363 435T359 483H358Q345 456 335 434T312 389L110 0H87Z" />
<glyph unicode="x" glyph-name="x" horiz-adv-x="455" d="M-33 0L206 273L86 528H116L225 291L437 528H469L239 271L369 0H340L220 253L-1 0H-33Z" />
<glyph unicode="y" glyph-name="y" horiz-adv-x="410" d="M-57 -243Q-93 -243 -114 -233V-207Q-102 -212 -89 -215T-55 -218Q-19 -218 10 -190T74 -103L138 7L50 528H76L135 172Q143 126 148 93T155 37H157Q168 59 185 92T228 168L430 528H459L96 -115Q62 -176
26 -209T-57 -243Z" />
<glyph unicode="z" glyph-name="z" horiz-adv-x="436" d="M-14 0L-11 17L391 503H108L114 528H436L433 513L28 25H341L336 0H-14Z" />
<glyph unicode="{" glyph-name="braceleft" horiz-adv-x="327" d="M199 -158Q130 -158 100 -135T69 -59Q69 -38 75 -11L112 158Q118 182 118 201Q118 235 97 250T27 265L32 290Q93 290 122 316T164 407L201 579Q216 650 260 681T376 714H382L377 689Q314 688 277
662T226 573L190 403Q180 353 157 320T91 278V276Q144 259 144 201Q144 181 138 154L102 -13Q96 -38 96 -57Q96 -103 121 -118T207 -133V-158H199Z" />
<glyph unicode="|" glyph-name="bar" horiz-adv-x="535" d="M282 -241V760H307V-241H282Z" />
<glyph unicode="}" glyph-name="braceright" horiz-adv-x="327" d="M-45 -134Q18 -133 55 -107T106 -18L142 152Q153 202 176 235T241 277V279Q188 297 188 354Q188 374 194 401L230 568Q236 594 236 612Q236 658 211 673T125 688V713H133Q202 713 232 690T263
614Q263 593 257 566L220 397Q214 373 214 354Q214 320 235 305T305 290L300 265Q239 265 211 239T168 148L131 -24Q116 -94 72 -126T-44 -159H-50L-45 -134Z" />
<glyph unicode="~" glyph-name="asciitilde" horiz-adv-x="570" d="M302 342Q275 356 252 364T193 373Q164 373 135 361T76 318V349Q99 371 129 384T193 397Q235 397 261 388T315 364Q342 351 365 342T420 333Q447 333 475 344T534 387V358Q515 338 486 324T420
309Q384 309 358 318T302 342Z" />
<glyph unicode="&#xa0;" glyph-name="uni00A0" horiz-adv-x="260" />
<glyph unicode="&#xa1;" glyph-name="exclamdown" horiz-adv-x="210" d="M152 474Q140 474 135 481T130 496Q130 510 137 523T159 536Q182 536 182 514Q182 501 175 488T152 474ZM-5 -182L113 354H137L23 -182H-5Z" />
<glyph unicode="&#xa2;" glyph-name="cent" horiz-adv-x="550" d="M260 93Q187 104 147 158T107 289Q107 357 125 418T177 528T259 605T369 638L387 724H412L394 638Q424 637 454 631T507 614L499 589Q474 602 442 607T383 613Q309 613 253 570T166 454T134 290Q134
215 175 165T293 115Q327 115 359 121T423 144V120Q385 100 352 96T284 91L263 -10H238L260 93Z" />
<glyph unicode="&#xa3;" glyph-name="sterling" horiz-adv-x="550" d="M-2 23Q58 34 95 74T148 187L179 335H78L83 360H185L218 518Q240 622 289 672T424 723Q465 723 499 713T557 691L545 667Q522 678 492 688T424 698Q349 698 306 653T243 512L211 360H400L395
335H205L173 183Q158 113 133 78T69 25H451L446 0H-6L-2 23Z" />
<glyph unicode="&#xa4;" glyph-name="currency" horiz-adv-x="570" d="M437 204Q409 179 374 166T302 153Q266 153 232 166T168 204L90 126L75 142L152 220Q127 249 115 283T102 354Q102 390 114 425T152 488L75 566L90 582L168 504Q197 530 231 542T302 555Q338
555 373 543T437 504L514 581L529 565L452 488Q478 460 490 425T503 354Q503 318 491 284T452 220L530 142L514 126L437 204ZM301 175Q351 175 391 199T456 265T481 355Q481 404 457 444T393 509T303 533Q254 533 213 509T148 444T124 354Q124 305 148 264T212
199T301 175Z" />
<glyph unicode="&#xa5;" glyph-name="yen" horiz-adv-x="550" d="M202 0L236 162H70L75 187H242L265 298H99L104 323H261L120 714H147L283 334L580 714H611L305 323H462L457 298H291L268 187H433L428 162H263L229 0H202Z" />
<glyph unicode="&#xa6;" glyph-name="brokenbar" horiz-adv-x="535" d="M282 395V760H307V395H282ZM282 -240V126H307V-240H282Z" />
<glyph unicode="&#xa7;" glyph-name="section" horiz-adv-x="498" d="M176 -1Q129 -1 90 10T28 32V61Q59 45 99 34T176 23Q256 23 301 53T347 139Q347 170 331 188T287 219T229 246Q200 259 171 276T123 320T103 386Q103 429 125 457T179 501T243 525Q213 538
188 562T162 627Q162 676 189 705T259 746T342 759Q381 759 421 750T487 730L477 706Q450 718 412 726T342 735Q309 735 274 726T214 693T189 627Q189 590 220 569T302 525Q331 513 361 498T412 458T433 391Q433 353 415 322T371 269T316 231Q342 215 358 194T374
140Q374 69 320 34T176 -1ZM294 244Q338 267 372 302T406 390Q406 422 391 441T345 476T270 511Q238 503 206 490T152 453T130 386Q130 351 149 328T205 287T294 244Z" />
<glyph unicode="&#xa8;" glyph-name="dieresis" horiz-adv-x="575" d="M459 647Q440 647 440 668Q440 681 446 695T469 709Q489 709 489 688Q489 675 483 661T459 647ZM283 647Q264 647 264 668Q264 681 270 695T293 709Q313 709 313 688Q313 675 307 661T283 647Z" />
<glyph unicode="&#xa9;" glyph-name="copyright" horiz-adv-x="832" d="M416 -8Q336 -8 269 20T153 99T77 216T50 357Q50 435 79 501T158 617T275 694T416 722Q496 722 563 692T679 611T755 494T782 357Q782 282 754 216T675 99T558 21T416 -8ZM416 17Q489 17
551 44T659 119T730 228T756 357Q756 426 731 487T659 595T551 670T416 697Q344 697 283 671T175 598T102 490T76 357Q76 288 100 227T170 118T277 44T416 17ZM435 143Q343 143 287 196T230 356Q230 422 256 470T330 545T439 572Q483 572 511 565T565 546L554 523Q531
534 504 540T439 546Q359 546 308 495T257 356Q257 262 308 215T435 168Q470 168 495 172T550 188V164Q525 154 497 149T435 143Z" />
<glyph unicode="&#xaa;" glyph-name="ordfeminine" horiz-adv-x="322" d="M184 398Q143 398 117 425T90 504Q90 566 112 615T169 693T247 722Q282 722 301 704T328 660H330L346 716H367L301 402H280L293 474H292Q273 443 245 421T184 398ZM184 423Q210 423 233
440T274 484T303 545T314 610Q314 645 298 671T245 697Q214 697 185 673T136 606T117 504Q117 468 135 446T184 423Z" />
<glyph unicode="&#xab;" glyph-name="guillemotleft" horiz-adv-x="371" d="M125 87L20 272L23 285L207 472L222 457L51 275L143 97L125 87ZM286 87L181 272L184 285L368 472L383 457L212 275L304 97L286 87Z" />
<glyph unicode="&#xac;" glyph-name="logicalnot" horiz-adv-x="570" d="M518 365V132H494V341H75V365H518Z" />
<glyph unicode="&#xad;" glyph-name="uni00AD" horiz-adv-x="302" d="M293 259L298 284H529L524 259H293Z" />
<glyph unicode="&#xae;" glyph-name="registered" horiz-adv-x="832" d="M416 -8Q336 -8 269 20T153 99T77 216T50 357Q50 435 79 501T158 617T275 694T416 722Q496 722 563 692T679 611T755 494T782 357Q782 282 754 216T675 99T558 21T416 -8ZM416 17Q489 17
551 44T659 119T730 228T756 357Q756 426 731 487T659 595T551 670T416 697Q344 697 283 671T175 598T102 490T76 357Q76 288 100 227T170 118T277 44T416 17ZM298 143V569H416Q478 569 517 541T556 449Q556 400 530 371T463 329L577 143H545L436 324H323V143H298ZM412
346Q462 346 497 370T532 449Q532 500 499 522T414 545H322V346H412Z" />
<glyph unicode="&#xaf;" glyph-name="overscore" horiz-adv-x="480" d="M101 760L107 785H501L495 760H101Z" />
<glyph unicode="&#xb0;" glyph-name="degree" horiz-adv-x="428" d="M214 441Q154 441 113 479T71 583Q71 647 112 685T214 724Q276 724 316 685T357 583Q357 518 317 480T214 441ZM213 466Q264 466 297 499T330 583Q330 636 297 667T213 699Q161 699 130 668T98
583Q98 532 129 499T213 466Z" />
<glyph unicode="&#xb1;" glyph-name="plusminus" horiz-adv-x="570" d="M317 365H535V341H317V123H293V341H75V365H293V583H317V365ZM75 0V24H535V0H75Z" />
<glyph unicode="&#xb2;" glyph-name="uni00B2" horiz-adv-x="312" d="M50 416L54 437L197 558Q271 621 310 665T350 760Q350 792 330 811T273 830Q216 830 156 789L144 809Q205 855 274 855Q324 855 350 829T377 761Q377 720 357 685T300 616T215 541L95 441H323L318
416H50Z" />
<glyph unicode="&#xb3;" glyph-name="uni00B3" horiz-adv-x="312" d="M172 412Q139 412 110 419T59 437V465Q85 452 112 445T172 437Q234 437 274 465T314 552Q314 588 287 608T207 628H160L165 653H212Q267 653 307 679T348 756Q348 788 329 807T272 826Q237
826 207 816T147 788L137 810Q167 829 201 840T273 851Q320 851 348 826T376 759Q376 707 347 679T279 641V639Q307 632 324 609T342 552Q342 479 293 446T172 412Z" />
<glyph unicode="&#xb4;" glyph-name="acute" horiz-adv-x="218" d="M114 612Q137 632 163 660T214 716T253 766H283V759Q257 725 216 682T135 606H114V612Z" />
<glyph unicode="&#xb5;" glyph-name="uni00B5" horiz-adv-x="552" d="M-22 -232L139 528H165L93 186Q87 159 86 143T84 116Q84 74 113 45T195 15Q245 15 294 43T382 126T438 264L494 528H520L408 0H386L414 139H412Q394 104 364 70T291 13T192 -10Q135 -10 107
16T68 74H66Q56 12 35 -87L4 -232H-22Z" />
<glyph unicode="&#xb6;" glyph-name="paragraph" horiz-adv-x="655" d="M361 355Q345 351 329 349T290 346Q235 346 198 374T143 450T125 557Q125 653 169 706T305 760H547V-127H521V735H387V-127H361V355Z" />
<glyph unicode="&#xb7;" glyph-name="middot" horiz-adv-x="210" d="M117 283Q94 283 94 305Q94 319 101 332T124 345Q136 345 141 338T146 323Q146 310 139 297T117 283Z" />
<glyph unicode="&#xb8;" glyph-name="cedilla" horiz-adv-x="193" d="M-30 -240Q-64 -240 -85 -234V-210Q-62 -216 -32 -216Q-12 -216 10 -209T49 -184T65 -139Q65 -85 -20 -85L27 0H53L19 -65Q52 -68 72 -87T92 -139Q92 -171 74 -194T29 -228T-30 -240Z" />
<glyph unicode="&#xb9;" glyph-name="uni00B9" horiz-adv-x="312" d="M251 695Q257 724 265 755T280 815Q262 805 246 796T203 774L154 749L143 771L289 844H310L219 416H192L251 695Z" />
<glyph unicode="&#xba;" glyph-name="ordmasculine" horiz-adv-x="352" d="M204 395Q151 395 123 430T94 518Q94 578 116 625T177 698T263 725Q317 725 344 691T372 603Q372 545 351 498T292 423T204 395ZM205 420Q246 420 277 444T326 510T344 601Q344 643 323
671T261 700Q222 700 191 677T140 612T121 518Q121 474 143 447T205 420Z" />
<glyph unicode="&#xbb;" glyph-name="guillemotright" horiz-adv-x="371" d="M168 87L153 102L324 284L232 462L250 472L355 287L352 274L168 87ZM7 87L-8 102L163 284L71 462L89 472L194 287L191 274L7 87Z" />
<glyph unicode="&#xbc;" glyph-name="onequarter" horiz-adv-x="671" d="M76 0L606 714H640L109 0H76ZM221 566Q227 595 235 626T250 686Q232 676 216 667T173 645L124 620L113 642L259 715H280L189 287H162L221 566ZM508 1L533 118H338L345 146L601 432H627L565
143H632L626 118H560L535 1H508ZM377 143H538L564 263Q570 293 578 329T592 389Q582 374 559 348T512 295L377 143Z" />
<glyph unicode="&#xbd;" glyph-name="onehalf" horiz-adv-x="713" d="M68 0L598 714H632L101 0H68ZM221 566Q227 595 235 626T250 686Q232 676 216 667T173 645L124 620L113 642L259 715H280L189 287H162L221 566ZM371 1L375 22L518 143Q592 206 631 250T671 345Q671
377 651 396T594 415Q537 415 477 374L465 394Q526 440 595 440Q645 440 671 414T698 346Q698 305 678 270T621 201T536 126L416 26H644L639 1H371Z" />
<glyph unicode="&#xbe;" glyph-name="threequarters" horiz-adv-x="687" d="M134 280Q101 280 72 287T21 305V333Q47 320 74 313T134 305Q196 305 236 333T276 420Q276 456 249 476T169 496H122L127 521H174Q229 521 269 547T310 624Q310 656 291 675T234 694Q199
694 169 684T109 656L99 678Q129 697 163 708T235 719Q282 719 310 694T338 627Q338 575 309 547T241 509V507Q269 500 286 477T304 420Q304 347 255 314T134 280ZM111 0L641 714H675L144 0H111ZM524 2L549 119H354L361 147L617 433H643L581 144H648L642 119H576L551
2H524ZM393 144H554L580 264Q586 294 594 330T608 390Q598 375 575 349T528 296L393 144Z" />
<glyph unicode="&#xbf;" glyph-name="questiondown" horiz-adv-x="403" d="M312 540Q335 540 335 518Q335 505 328 492T305 478Q293 478 288 485T283 500Q283 514 290 527T312 540ZM295 358Q286 301 268 267T222 208T158 155Q124 130 93 105T42 46T21 -37Q21 -96
57 -131T153 -167Q212 -167 285 -135L295 -158Q252 -177 219 -184T153 -192Q80 -192 38 -148T-5 -38Q-5 15 15 51T69 116T146 175Q177 198 202 221T244 276T271 358H295Z" />
<glyph unicode="&#xc0;" glyph-name="Agrave" horiz-adv-x="547" d="M-50 0L368 716H392L498 0H473L432 271H138L-20 0H-50ZM152 296H428L385 594Q379 633 374 682H372Q361 660 349 638T324 594L152 296ZM403 792Q388 810 369 838T332 895T306 942V952H334Q344
927 359 899T391 845T418 804V792H403Z" />
<glyph unicode="&#xc1;" glyph-name="Aacute" horiz-adv-x="547" d="M-50 0L368 716H392L498 0H473L432 271H138L-20 0H-50ZM152 296H428L385 594Q379 633 374 682H372Q361 660 349 638T324 594L152 296ZM363 798Q386 818 412 846T463 902T502 952H532V945Q506
911 465 868T384 792H363V798Z" />
<glyph unicode="&#xc2;" glyph-name="Acircumflex" horiz-adv-x="547" d="M-50 0L368 716H392L498 0H473L432 271H138L-20 0H-50ZM152 296H428L385 594Q379 633 374 682H372Q361 660 349 638T324 594L152 296ZM268 798Q290 819 316 846T368 900T409 949H431Q438
929 451 902T479 847T508 798L506 792H488Q467 820 448 854T415 917Q389 889 356 855T290 792H267L268 798Z" />
<glyph unicode="&#xc3;" glyph-name="Atilde" horiz-adv-x="547" d="M-50 0L368 716H392L498 0H473L432 271H138L-20 0H-50ZM152 296H428L385 594Q379 633 374 682H372Q361 660 349 638T324 594L152 296ZM238 804Q251 853 273 877T335 902Q359 902 377 891T411
865T442 839T473 828Q495 828 513 842T546 902H573Q560 855 537 829T472 803Q450 803 433 814T401 840T369 866T334 877Q314 877 296 863T264 804H238Z" />
<glyph unicode="&#xc4;" glyph-name="Adieresis" horiz-adv-x="547" d="M-50 0L368 716H392L498 0H473L432 271H138L-20 0H-50ZM152 296H428L385 594Q379 633 374 682H372Q361 660 349 638T324 594L152 296ZM482 833Q463 833 463 854Q463 867 469 881T492 895Q512
895 512 874Q512 861 506 847T482 833ZM306 833Q287 833 287 854Q287 867 293 881T316 895Q336 895 336 874Q336 861 330 847T306 833Z" />
<glyph unicode="&#xc5;" glyph-name="Aring" horiz-adv-x="547" d="M-50 0L368 716H392L498 0H473L432 271H138L-20 0H-50ZM152 296H428L385 594Q379 633 374 682H372Q361 660 349 638T324 594L152 296ZM390 695Q350 695 320 722T289 795Q289 838 319 866T390
895Q431 895 460 866T490 795Q490 751 461 723T390 695ZM390 719Q424 719 445 741T466 795Q466 827 444 849T390 871Q357 871 335 849T313 795Q313 764 334 742T390 719Z" />
<glyph unicode="&#xc6;" glyph-name="AE" horiz-adv-x="783" d="M-51 0L391 714H817L812 689H471L407 389H729L724 364H402L330 25H671L666 0H298L355 270H147L-19 0H-51ZM162 295H360L443 689H405L162 295Z" />
<glyph unicode="&#xc7;" glyph-name="Ccedilla" horiz-adv-x="594" d="M326 -10Q250 -10 196 24T113 121T84 268Q84 370 113 454T196 598T319 691T471 724Q563 724 633 687L621 662Q586 683 548 691T471 699Q395 699 329 668T214 581T138 445T110 270Q110 152
168 84T327 15Q378 15 421 23T500 44V21Q466 8 423 -1T326 -10ZM231 -240Q197 -240 176 -234V-210Q199 -216 229 -216Q249 -216 271 -209T310 -184T326 -139Q326 -85 241 -85L288 0H314L280 -65Q313 -68 333 -87T353 -139Q353 -171 335 -194T290 -228T231 -240Z"
/>
<glyph unicode="&#xc8;" glyph-name="Egrave" horiz-adv-x="535" d="M50 0L201 714H559L554 689H223L159 389H471L466 364H154L82 25H413L408 0H50ZM408 792Q393 810 374 838T337 895T311 942V952H339Q349 927 364 899T396 845T423 804V792H408Z" />
<glyph unicode="&#xc9;" glyph-name="Eacute" horiz-adv-x="535" d="M50 0L201 714H559L554 689H223L159 389H471L466 364H154L82 25H413L408 0H50ZM358 798Q381 818 407 846T458 902T497 952H527V945Q501 911 460 868T379 792H358V798Z" />
<glyph unicode="&#xca;" glyph-name="Ecircumflex" horiz-adv-x="535" d="M50 0L201 714H559L554 689H223L159 389H471L466 364H154L82 25H413L408 0H50ZM278 798Q300 819 326 846T378 900T419 949H441Q448 929 461 902T489 847T518 798L516 792H498Q477 820 458
854T425 917Q399 889 366 855T300 792H277L278 798Z" />
<glyph unicode="&#xcb;" glyph-name="Edieresis" horiz-adv-x="535" d="M50 0L201 714H559L554 689H223L159 389H471L466 364H154L82 25H413L408 0H50ZM497 833Q478 833 478 854Q478 867 484 881T507 895Q527 895 527 874Q527 861 521 847T497 833ZM321 833Q302
833 302 854Q302 867 308 881T331 895Q351 895 351 874Q351 861 345 847T321 833Z" />
<glyph unicode="&#xcc;" glyph-name="Igrave" horiz-adv-x="279" d="M8 0L12 20L78 23L220 690L155 694L159 714H317L313 694L246 690L104 23L170 20L166 0H8ZM270 792Q255 810 236 838T199 895T173 942V952H201Q211 927 226 899T258 845T285 804V792H270Z" />
<glyph unicode="&#xcd;" glyph-name="Iacute" horiz-adv-x="279" d="M8 0L12 20L78 23L220 690L155 694L159 714H317L313 694L246 690L104 23L170 20L166 0H8ZM219 798Q242 818 268 846T319 902T358 952H388V945Q362 911 321 868T240 792H219V798Z" />
<glyph unicode="&#xce;" glyph-name="Icircumflex" horiz-adv-x="279" d="M8 0L12 20L78 23L220 690L155 694L159 714H317L313 694L246 690L104 23L170 20L166 0H8ZM124 798Q146 819 172 846T224 900T265 949H287Q294 929 307 902T335 847T364 798L362 792H344Q323
820 304 854T271 917Q245 889 212 855T146 792H123L124 798Z" />
<glyph unicode="&#xcf;" glyph-name="Idieresis" horiz-adv-x="279" d="M8 0L12 20L78 23L220 690L155 694L159 714H317L313 694L246 690L104 23L170 20L166 0H8ZM343 833Q324 833 324 854Q324 867 330 881T353 895Q373 895 373 874Q373 861 367 847T343 833ZM167
833Q148 833 148 854Q148 867 154 881T177 895Q197 895 197 874Q197 861 191 847T167 833Z" />
<glyph unicode="&#xd0;" glyph-name="Eth" horiz-adv-x="677" d="M50 0L123 343H44L49 368H128L201 714H346Q483 714 560 643T637 425Q637 343 611 267T530 131T392 35T196 0H50ZM197 25Q299 25 376 57T505 145T583 273T610 425Q610 561 539 625T336 689H223L155
368H350L345 343H150L82 25H197Z" />
<glyph unicode="&#xd1;" glyph-name="Ntilde" horiz-adv-x="674" d="M50 0L201 714H220L503 54H505Q513 93 521 134T536 211L643 714H669L518 0H498L216 659H214Q205 616 198 579T183 502L77 0H50ZM307 804Q320 853 342 877T404 902Q428 902 446 891T480 865T511
839T542 828Q564 828 582 842T615 902H642Q629 855 606 829T541 803Q519 803 502 814T470 840T438 866T403 877Q383 877 365 863T333 804H307Z" />
<glyph unicode="&#xd2;" glyph-name="Ograve" horiz-adv-x="716" d="M334 -10Q242 -10 187 29T108 133T84 276Q84 358 105 438T168 583T276 686T431 725Q542 725 609 657T676 446Q676 399 666 339T633 218T571 106T474 22T334 -10ZM335 15Q406 15 458 44T547 121T606
226T639 340T649 445Q649 563 596 631T429 700Q358 700 305 673T215 601T155 501T122 387T111 277Q111 200 134 141T206 49T335 15ZM470 792Q455 810 436 838T399 895T373 942V952H401Q411 927 426 899T458 845T485 804V792H470Z" />
<glyph unicode="&#xd3;" glyph-name="Oacute" horiz-adv-x="716" d="M334 -10Q242 -10 187 29T108 133T84 276Q84 358 105 438T168 583T276 686T431 725Q542 725 609 657T676 446Q676 399 666 339T633 218T571 106T474 22T334 -10ZM335 15Q406 15 458 44T547 121T606
226T639 340T649 445Q649 563 596 631T429 700Q358 700 305 673T215 601T155 501T122 387T111 277Q111 200 134 141T206 49T335 15ZM419 798Q442 818 468 846T519 902T558 952H588V945Q562 911 521 868T440 792H419V798Z" />
<glyph unicode="&#xd4;" glyph-name="Ocircumflex" horiz-adv-x="716" d="M334 -10Q242 -10 187 29T108 133T84 276Q84 358 105 438T168 583T276 686T431 725Q542 725 609 657T676 446Q676 399 666 339T633 218T571 106T474 22T334 -10ZM335 15Q406 15 458 44T547
121T606 226T639 340T649 445Q649 563 596 631T429 700Q358 700 305 673T215 601T155 501T122 387T111 277Q111 200 134 141T206 49T335 15ZM326 798Q348 819 374 846T426 900T467 949H489Q496 929 509 902T537 847T566 798L564 792H546Q525 820 506 854T473 917Q447
889 414 855T348 792H325L326 798Z" />
<glyph unicode="&#xd5;" glyph-name="Otilde" horiz-adv-x="716" d="M334 -10Q242 -10 187 29T108 133T84 276Q84 358 105 438T168 583T276 686T431 725Q542 725 609 657T676 446Q676 399 666 339T633 218T571 106T474 22T334 -10ZM335 15Q406 15 458 44T547 121T606
226T639 340T649 445Q649 563 596 631T429 700Q358 700 305 673T215 601T155 501T122 387T111 277Q111 200 134 141T206 49T335 15ZM300 804Q313 853 335 877T397 902Q421 902 439 891T473 865T504 839T535 828Q557 828 575 842T608 902H635Q622 855 599 829T534
803Q512 803 495 814T463 840T431 866T396 877Q376 877 358 863T326 804H300Z" />
<glyph unicode="&#xd6;" glyph-name="Odieresis" horiz-adv-x="716" d="M334 -10Q242 -10 187 29T108 133T84 276Q84 358 105 438T168 583T276 686T431 725Q542 725 609 657T676 446Q676 399 666 339T633 218T571 106T474 22T334 -10ZM335 15Q406 15 458 44T547
121T606 226T639 340T649 445Q649 563 596 631T429 700Q358 700 305 673T215 601T155 501T122 387T111 277Q111 200 134 141T206 49T335 15ZM568 833Q549 833 549 854Q549 867 555 881T578 895Q598 895 598 874Q598 861 592 847T568 833ZM392 833Q373 833 373 854Q373
867 379 881T402 895Q422 895 422 874Q422 861 416 847T392 833Z" />
<glyph unicode="&#xd7;" glyph-name="multiply" horiz-adv-x="570" d="M502 567L519 550L322 353L519 156L502 139L305 336L108 139L91 156L288 353L91 550L108 567L305 370L502 567Z" />
<glyph unicode="&#xd8;" glyph-name="Oslash" horiz-adv-x="716" d="M44 -26L26 -8L124 99Q103 136 94 181T84 276Q84 358 105 438T168 583T276 686T431 725Q492 725 540 705T620 643L709 740L728 723L635 621Q655 590 665 546T676 446Q676 399 666 339T633 218T571
106T474 22T334 -10Q264 -10 216 13T138 77L44 -26ZM602 623Q575 660 532 680T429 700Q358 700 305 673T215 601T155 501T122 387T111 277Q111 231 119 192T143 120L602 623ZM335 15Q406 15 458 44T547 121T606 226T639 340T649 445Q649 540 616 600L156 97Q183
59 227 37T335 15Z" />
<glyph unicode="&#xd9;" glyph-name="Ugrave" horiz-adv-x="692" d="M300 -10Q204 -10 146 39T88 183Q88 200 90 217T96 254L194 714H221L124 256Q116 216 116 185Q116 102 166 59T301 15Q402 15 472 75T568 257L666 714H693L595 252Q566 115 489 53T300 -10ZM473
792Q458 810 439 838T402 895T376 942V952H404Q414 927 429 899T461 845T488 804V792H473Z" />
<glyph unicode="&#xda;" glyph-name="Uacute" horiz-adv-x="692" d="M300 -10Q204 -10 146 39T88 183Q88 200 90 217T96 254L194 714H221L124 256Q116 216 116 185Q116 102 166 59T301 15Q402 15 472 75T568 257L666 714H693L595 252Q566 115 489 53T300 -10ZM414
798Q437 818 463 846T514 902T553 952H583V945Q557 911 516 868T435 792H414V798Z" />
<glyph unicode="&#xdb;" glyph-name="Ucircumflex" horiz-adv-x="692" d="M300 -10Q204 -10 146 39T88 183Q88 200 90 217T96 254L194 714H221L124 256Q116 216 116 185Q116 102 166 59T301 15Q402 15 472 75T568 257L666 714H693L595 252Q566 115 489 53T300
-10ZM326 798Q348 819 374 846T426 900T467 949H489Q496 929 509 902T537 847T566 798L564 792H546Q525 820 506 854T473 917Q447 889 414 855T348 792H325L326 798Z" />
<glyph unicode="&#xdc;" glyph-name="Udieresis" horiz-adv-x="692" d="M300 -10Q204 -10 146 39T88 183Q88 200 90 217T96 254L194 714H221L124 256Q116 216 116 185Q116 102 166 59T301 15Q402 15 472 75T568 257L666 714H693L595 252Q566 115 489 53T300 -10ZM556
833Q537 833 537 854Q537 867 543 881T566 895Q586 895 586 874Q586 861 580 847T556 833ZM380 833Q361 833 361 854Q361 867 367 881T390 895Q410 895 410 874Q410 861 404 847T380 833Z" />
<glyph unicode="&#xdd;" glyph-name="Yacute" horiz-adv-x="485" d="M174 0L231 271L96 714H123L249 301L547 714H578L259 275L201 0H174ZM315 798Q338 818 364 846T415 902T454 952H484V945Q458 911 417 868T336 792H315V798Z" />
<glyph unicode="&#xde;" glyph-name="Thorn" horiz-adv-x="558" d="M50 0L201 714H228L200 582H328Q428 582 479 540T530 420Q530 348 506 300T440 224T344 185T231 173H113L77 0H50ZM235 198Q308 198 368 218T466 286T503 419Q503 487 457 522T323 557H195L119 198H235Z" />
<glyph unicode="&#xdf;" glyph-name="germandbls" horiz-adv-x="531" d="M-89 -240Q-106 -240 -119 -237T-144 -230V-204Q-132 -210 -117 -212T-88 -215Q-50 -215 -26 -189T8 -116L151 563Q172 663 223 714T363 765Q432 765 467 731T503 648Q503 604 487 577T448
534T399 502Q368 484 344 461T320 394Q320 365 341 344T388 299Q414 275 436 244T459 162Q459 87 415 39T276 -10Q232 -10 201 -2T149 17V45Q206 15 276 15Q350 15 390 52T431 162Q431 202 413 229T372 278Q344 304 319 329T294 394Q294 432 307 455T342 494T387
523Q409 536 429 551T462 589T475 647Q475 687 446 713T362 740Q281 740 238 693T177 563L33 -120Q20 -181 -12 -210T-89 -240Z" />
<glyph unicode="&#xe0;" glyph-name="agrave" horiz-adv-x="547" d="M197 -10Q125 -10 88 41T51 178Q51 239 68 302T118 419T202 505T319 538Q366 538 395 518T439 467T460 407H462L489 528H511L399 0H377L405 139H403Q386 109 356 74T285 15T197 -10ZM200 15Q246
15 293 48T378 137T430 264Q436 295 439 317T442 358Q442 432 409 472T318 513Q260 513 215 484T140 405T94 297T78 178Q78 103 108 59T200 15ZM379 606Q364 624 345 652T308 709T282 756V766H310Q320 741 335 713T367 659T394 618V606H379Z" />
<glyph unicode="&#xe1;" glyph-name="aacute" horiz-adv-x="547" d="M197 -10Q125 -10 88 41T51 178Q51 239 68 302T118 419T202 505T319 538Q366 538 395 518T439 467T460 407H462L489 528H511L399 0H377L405 139H403Q386 109 356 74T285 15T197 -10ZM200 15Q246
15 293 48T378 137T430 264Q436 295 439 317T442 358Q442 432 409 472T318 513Q260 513 215 484T140 405T94 297T78 178Q78 103 108 59T200 15ZM308 612Q331 632 357 660T408 716T447 766H477V759Q451 725 410 682T329 606H308V612Z" />
<glyph unicode="&#xe2;" glyph-name="acircumflex" horiz-adv-x="547" d="M197 -10Q125 -10 88 41T51 178Q51 239 68 302T118 419T202 505T319 538Q366 538 395 518T439 467T460 407H462L489 528H511L399 0H377L405 139H403Q386 109 356 74T285 15T197 -10ZM200
15Q246 15 293 48T378 137T430 264Q436 295 439 317T442 358Q442 432 409 472T318 513Q260 513 215 484T140 405T94 297T78 178Q78 103 108 59T200 15ZM227 612Q249 633 275 660T327 714T368 763H390Q397 743 410 716T438 661T467 612L465 606H447Q426 634 407
668T374 731Q348 703 315 669T249 606H226L227 612Z" />
<glyph unicode="&#xe3;" glyph-name="atilde" horiz-adv-x="547" d="M197 -10Q125 -10 88 41T51 178Q51 239 68 302T118 419T202 505T319 538Q366 538 395 518T439 467T460 407H462L489 528H511L399 0H377L405 139H403Q386 109 356 74T285 15T197 -10ZM200 15Q246
15 293 48T378 137T430 264Q436 295 439 317T442 358Q442 432 409 472T318 513Q260 513 215 484T140 405T94 297T78 178Q78 103 108 59T200 15ZM180 618Q193 667 215 691T277 716Q301 716 319 705T353 679T384 653T415 642Q437 642 455 656T488 716H515Q502 669
479 643T414 617Q392 617 375 628T343 654T311 680T276 691Q256 691 238 677T206 618H180Z" />
<glyph unicode="&#xe4;" glyph-name="adieresis" horiz-adv-x="547" d="M197 -10Q125 -10 88 41T51 178Q51 239 68 302T118 419T202 505T319 538Q366 538 395 518T439 467T460 407H462L489 528H511L399 0H377L405 139H403Q386 109 356 74T285 15T197 -10ZM200
15Q246 15 293 48T378 137T430 264Q436 295 439 317T442 358Q442 432 409 472T318 513Q260 513 215 484T140 405T94 297T78 178Q78 103 108 59T200 15ZM701 647Q682 647 682 668Q682 681 688 695T711 709Q731 709 731 688Q731 675 725 661T701 647ZM525 647Q506
647 506 668Q506 681 512 695T535 709Q555 709 555 688Q555 675 549 661T525 647Z" />
<glyph unicode="&#xe5;" glyph-name="aring" horiz-adv-x="547" d="M197 -10Q125 -10 88 41T51 178Q51 239 68 302T118 419T202 505T319 538Q366 538 395 518T439 467T460 407H462L489 528H511L399 0H377L405 139H403Q386 109 356 74T285 15T197 -10ZM200 15Q246
15 293 48T378 137T430 264Q436 295 439 317T442 358Q442 432 409 472T318 513Q260 513 215 484T140 405T94 297T78 178Q78 103 108 59T200 15ZM353 611Q313 611 283 638T252 711Q252 754 282 782T353 811Q394 811 423 782T453 711Q453 667 424 639T353 611ZM353
635Q387 635 408 657T429 711Q429 743 407 765T353 787Q320 787 298 765T276 711Q276 680 297 658T353 635Z" />
<glyph unicode="&#xe6;" glyph-name="ae" horiz-adv-x="842" d="M194 -10Q127 -10 89 41T51 178Q51 239 68 302T118 419T200 505T314 538Q360 538 386 516T424 464T438 407H440L468 528H491L464 404Q501 464 553 501T678 538Q730 538 765 506T800 425Q800 376
774 343T703 291T597 264T469 256H435Q434 245 433 228T431 194Q431 110 473 63T595 15Q635 15 669 26T728 48V23Q705 10 668 0T594 -10Q525 -10 475 27T411 146L380 0H358L386 133H384Q368 100 341 67T278 12T194 -10ZM197 15Q246 15 289 48T364 137T410 264Q417
296 419 317T422 358Q422 432 394 472T313 513Q257 513 213 484T139 405T94 297T78 178Q78 102 109 59T197 15ZM487 281Q571 281 635 296T736 342T773 424Q773 459 749 486T675 513Q623 513 575 486T490 407T439 281H487Z" />
<glyph unicode="&#xe7;" glyph-name="ccedilla" horiz-adv-x="452" d="M247 -10Q185 -10 142 17T77 90T55 194Q55 263 73 325T128 435T216 510T335 538Q369 538 401 532T458 514L450 489Q425 502 394 507T335 513Q257 513 201 470T113 356T82 196Q82 146 100 105T156
40T248 15Q284 15 314 23T375 45V19Q351 7 320 -1T247 -10ZM153 -240Q119 -240 98 -234V-210Q121 -216 151 -216Q171 -216 193 -209T232 -184T248 -139Q248 -85 163 -85L210 0H236L202 -65Q235 -68 255 -87T275 -139Q275 -171 257 -194T212 -228T153 -240Z" />
<glyph unicode="&#xe8;" glyph-name="egrave" horiz-adv-x="491" d="M246 -10Q199 -10 157 10T89 76T62 194Q62 266 82 328T140 438T227 511T333 538Q389 538 423 506T458 424Q458 375 432 343T361 291T255 264T127 256H93Q92 245 91 228T89 194Q89 107 133 61T251
15Q294 15 328 26T386 48V22Q364 10 326 0T246 -10ZM145 281Q229 281 293 296T394 342T431 423Q431 462 405 487T329 513Q281 513 233 486T149 407T97 281H145ZM347 606Q332 624 313 652T276 709T250 756V766H278Q288 741 303 713T335 659T362 618V606H347Z" />
<glyph unicode="&#xe9;" glyph-name="eacute" horiz-adv-x="491" d="M246 -10Q199 -10 157 10T89 76T62 194Q62 266 82 328T140 438T227 511T333 538Q389 538 423 506T458 424Q458 375 432 343T361 291T255 264T127 256H93Q92 245 91 228T89 194Q89 107 133 61T251
15Q294 15 328 26T386 48V22Q364 10 326 0T246 -10ZM145 281Q229 281 293 296T394 342T431 423Q431 462 405 487T329 513Q281 513 233 486T149 407T97 281H145ZM287 612Q310 632 336 660T387 716T426 766H456V759Q430 725 389 682T308 606H287V612Z" />
<glyph unicode="&#xea;" glyph-name="ecircumflex" horiz-adv-x="491" d="M246 -10Q199 -10 157 10T89 76T62 194Q62 266 82 328T140 438T227 511T333 538Q389 538 423 506T458 424Q458 375 432 343T361 291T255 264T127 256H93Q92 245 91 228T89 194Q89 107 133
61T251 15Q294 15 328 26T386 48V22Q364 10 326 0T246 -10ZM145 281Q229 281 293 296T394 342T431 423Q431 462 405 487T329 513Q281 513 233 486T149 407T97 281H145ZM199 612Q221 633 247 660T299 714T340 763H362Q369 743 382 716T410 661T439 612L437 606H419Q398
634 379 668T346 731Q320 703 287 669T221 606H198L199 612Z" />
<glyph unicode="&#xeb;" glyph-name="edieresis" horiz-adv-x="491" d="M246 -10Q199 -10 157 10T89 76T62 194Q62 266 82 328T140 438T227 511T333 538Q389 538 423 506T458 424Q458 375 432 343T361 291T255 264T127 256H93Q92 245 91 228T89 194Q89 107 133
61T251 15Q294 15 328 26T386 48V22Q364 10 326 0T246 -10ZM145 281Q229 281 293 296T394 342T431 423Q431 462 405 487T329 513Q281 513 233 486T149 407T97 281H145ZM671 647Q652 647 652 668Q652 681 658 695T681 709Q701 709 701 688Q701 675 695 661T671 647ZM495
647Q476 647 476 668Q476 681 482 695T505 709Q525 709 525 688Q525 675 519 661T495 647Z" />
<glyph unicode="&#xec;" glyph-name="igrave" horiz-adv-x="207" d="M32 0L144 528H170L58 0H32ZM445 606Q430 624 411 652T374 709T348 756V766H376Q386 741 401 713T433 659T460 618V606H445Z" />
<glyph unicode="&#xed;" glyph-name="iacute" horiz-adv-x="207" d="M32 0L144 528H170L58 0H32ZM128 612Q151 632 177 660T228 716T267 766H297V759Q271 725 230 682T149 606H128V612Z" />
<glyph unicode="&#xee;" glyph-name="icircumflex" horiz-adv-x="207" d="M32 0L144 528H170L58 0H32ZM308 612Q330 633 356 660T408 714T449 763H471Q478 743 491 716T519 661T548 612L546 606H528Q507 634 488 668T455 731Q429 703 396 669T330 606H307L308 612Z" />
<glyph unicode="&#xef;" glyph-name="idieresis" horiz-adv-x="207" d="M32 0L144 528H170L58 0H32ZM265 647Q246 647 246 668Q246 681 252 695T275 709Q295 709 295 688Q295 675 289 661T265 647ZM89 647Q70 647 70 668Q70 681 76 695T99 709Q119 709 119 688Q119
675 113 661T89 647Z" />
<glyph unicode="&#xf0;" glyph-name="eth" horiz-adv-x="551" d="M224 -10Q170 -10 131 15T71 84T50 182Q50 236 66 286T113 377T190 441T296 465Q364 465 409 430T467 344H469Q469 426 445 509T376 652L242 577L231 598L361 670Q332 707 284 741L303 762Q326
744 346 724T383 683L507 752L518 731L398 665Q436 610 465 528T494 342Q494 273 477 210T426 97T342 19T224 -10ZM225 15Q282 15 334 46T420 137T454 288Q454 310 446 336T420 386T371 425T295 440Q227 440 178 405T103 311T77 183Q77 107 119 61T225 15Z" />
<glyph unicode="&#xf1;" glyph-name="ntilde" horiz-adv-x="553" d="M32 0L144 528H166L138 389H140Q157 421 187 455T261 514T358 538Q423 538 458 505T493 408Q493 379 485 342L413 0H387L460 345Q464 362 465 376T467 404Q467 460 437 486T354 513Q299 513
250 479T165 391T116 274L58 0H32ZM181 618Q194 667 216 691T278 716Q302 716 320 705T354 679T385 653T416 642Q438 642 456 656T489 716H516Q503 669 480 643T415 617Q393 617 376 628T344 654T312 680T277 691Q257 691 239 677T207 618H181Z" />
<glyph unicode="&#xf2;" glyph-name="ograve" horiz-adv-x="565" d="M237 -10Q145 -10 100 46T55 192Q55 297 91 374T190 495T331 538Q390 538 429 512T489 441T510 338Q510 267 492 204T438 93T352 18T237 -10ZM240 15Q316 15 370 58T454 175T483 339Q483 415
445 464T329 513Q259 513 203 474T115 362T82 192Q82 111 121 63T240 15ZM362 606Q347 624 328 652T291 709T265 756V766H293Q303 741 318 713T350 659T377 618V606H362Z" />
<glyph unicode="&#xf3;" glyph-name="oacute" horiz-adv-x="565" d="M237 -10Q145 -10 100 46T55 192Q55 297 91 374T190 495T331 538Q390 538 429 512T489 441T510 338Q510 267 492 204T438 93T352 18T237 -10ZM240 15Q316 15 370 58T454 175T483 339Q483 415
445 464T329 513Q259 513 203 474T115 362T82 192Q82 111 121 63T240 15ZM309 612Q332 632 358 660T409 716T448 766H478V759Q452 725 411 682T330 606H309V612Z" />
<glyph unicode="&#xf4;" glyph-name="ocircumflex" horiz-adv-x="565" d="M237 -10Q145 -10 100 46T55 192Q55 297 91 374T190 495T331 538Q390 538 429 512T489 441T510 338Q510 267 492 204T438 93T352 18T237 -10ZM240 15Q316 15 370 58T454 175T483 339Q483
415 445 464T329 513Q259 513 203 474T115 362T82 192Q82 111 121 63T240 15ZM217 612Q239 633 265 660T317 714T358 763H380Q387 743 400 716T428 661T457 612L455 606H437Q416 634 397 668T364 731Q338 703 305 669T239 606H216L217 612Z" />
<glyph unicode="&#xf5;" glyph-name="otilde" horiz-adv-x="565" d="M237 -10Q145 -10 100 46T55 192Q55 297 91 374T190 495T331 538Q390 538 429 512T489 441T510 338Q510 267 492 204T438 93T352 18T237 -10ZM240 15Q316 15 370 58T454 175T483 339Q483 415
445 464T329 513Q259 513 203 474T115 362T82 192Q82 111 121 63T240 15ZM188 618Q201 667 223 691T285 716Q309 716 327 705T361 679T392 653T423 642Q445 642 463 656T496 716H523Q510 669 487 643T422 617Q400 617 383 628T351 654T319 680T284 691Q264 691
246 677T214 618H188Z" />
<glyph unicode="&#xf6;" glyph-name="odieresis" horiz-adv-x="565" d="M237 -10Q145 -10 100 46T55 192Q55 297 91 374T190 495T331 538Q390 538 429 512T489 441T510 338Q510 267 492 204T438 93T352 18T237 -10ZM240 15Q316 15 370 58T454 175T483 339Q483
415 445 464T329 513Q259 513 203 474T115 362T82 192Q82 111 121 63T240 15ZM700 647Q681 647 681 668Q681 681 687 695T710 709Q730 709 730 688Q730 675 724 661T700 647ZM524 647Q505 647 505 668Q505 681 511 695T534 709Q554 709 554 688Q554 675 548 661T524
647Z" />
<glyph unicode="&#xf7;" glyph-name="divide" horiz-adv-x="570" d="M304 500Q289 500 284 509T279 531Q279 543 284 552T304 562Q322 562 326 553T331 531Q331 518 327 509T304 500ZM75 341V365H535V341H75ZM304 144Q289 144 284 153T279 175Q279 187 284 196T304
206Q322 206 326 197T331 175Q331 162 327 153T304 144Z" />
<glyph unicode="&#xf8;" glyph-name="oslash" horiz-adv-x="565" d="M14 -29L-4 -11L81 76Q68 100 62 129T55 192Q55 297 91 374T190 495T331 538Q378 538 413 521T470 474L549 555L567 537L484 452Q510 403 510 338Q510 267 492 204T438 93T352 18T237 -10Q186
-10 151 7T95 54L14 -29ZM452 456Q433 482 402 497T329 513Q259 513 203 474T115 362T82 192Q82 164 87 139T100 95L452 456ZM240 15Q316 15 370 58T454 175T483 339Q483 394 465 433L113 73Q154 15 240 15Z" />
<glyph unicode="&#xf9;" glyph-name="ugrave" horiz-adv-x="553" d="M190 -10Q125 -10 90 23T55 120Q55 149 63 186L135 528H161L88 183Q84 167 83 152T81 124Q81 68 111 42T194 15Q250 15 299 49T383 137T432 254L490 528H516L404 0H382L410 139H408Q392 108
361 73T287 14T190 -10ZM368 606Q353 624 334 652T297 709T271 756V766H299Q309 741 324 713T356 659T383 618V606H368Z" />
<glyph unicode="&#xfa;" glyph-name="uacute" horiz-adv-x="553" d="M190 -10Q125 -10 90 23T55 120Q55 149 63 186L135 528H161L88 183Q84 167 83 152T81 124Q81 68 111 42T194 15Q250 15 299 49T383 137T432 254L490 528H516L404 0H382L410 139H408Q392 108
361 73T287 14T190 -10ZM303 612Q326 632 352 660T403 716T442 766H472V759Q446 725 405 682T324 606H303V612Z" />
<glyph unicode="&#xfb;" glyph-name="ucircumflex" horiz-adv-x="553" d="M190 -10Q125 -10 90 23T55 120Q55 149 63 186L135 528H161L88 183Q84 167 83 152T81 124Q81 68 111 42T194 15Q250 15 299 49T383 137T432 254L490 528H516L404 0H382L410 139H408Q392
108 361 73T287 14T190 -10ZM216 612Q238 633 264 660T316 714T357 763H379Q386 743 399 716T427 661T456 612L454 606H436Q415 634 396 668T363 731Q337 703 304 669T238 606H215L216 612Z" />
<glyph unicode="&#xfc;" glyph-name="udieresis" horiz-adv-x="553" d="M190 -10Q125 -10 90 23T55 120Q55 149 63 186L135 528H161L88 183Q84 167 83 152T81 124Q81 68 111 42T194 15Q250 15 299 49T383 137T432 254L490 528H516L404 0H382L410 139H408Q392 108
361 73T287 14T190 -10ZM689 647Q670 647 670 668Q670 681 676 695T699 709Q719 709 719 688Q719 675 713 661T689 647ZM513 647Q494 647 494 668Q494 681 500 695T523 709Q543 709 543 688Q543 675 537 661T513 647Z" />
<glyph unicode="&#xfd;" glyph-name="yacute" horiz-adv-x="410" d="M-57 -243Q-93 -243 -114 -233V-207Q-102 -212 -89 -215T-55 -218Q-19 -218 10 -190T74 -103L138 7L50 528H76L135 172Q143 126 148 93T155 37H157Q168 59 185 92T228 168L430 528H459L96 -115Q62
-176 26 -209T-57 -243ZM222 612Q245 632 271 660T322 716T361 766H391V759Q365 725 324 682T243 606H222V612Z" />
<glyph unicode="&#xfe;" glyph-name="thorn" horiz-adv-x="568" d="M-17 -232L193 760H219L173 543Q166 512 157 470T137 389H140Q159 425 190 459T264 516T357 538Q429 538 471 487T513 350Q513 289 497 226T446 110T361 23T239 -10Q189 -10 156 9T106 58T83
121H81Q76 87 69 52T55 -15L9 -232H-17ZM240 15Q302 15 348 44T425 123T471 232T486 350Q486 425 451 469T352 513Q301 513 252 482T165 394T111 262Q105 233 103 212T101 170Q101 92 140 54T240 15Z" />
<glyph unicode="&#xff;" glyph-name="ydieresis" horiz-adv-x="410" d="M-57 -243Q-93 -243 -114 -233V-207Q-102 -212 -89 -215T-55 -218Q-19 -218 10 -190T74 -103L138 7L50 528H76L135 172Q143 126 148 93T155 37H157Q168 59 185 92T228 168L430 528H459L96
-115Q62 -176 26 -209T-57 -243ZM616 647Q597 647 597 668Q597 681 603 695T626 709Q646 709 646 688Q646 675 640 661T616 647ZM440 647Q421 647 421 668Q421 681 427 695T450 709Q470 709 470 688Q470 675 464 661T440 647Z" />
<glyph unicode="&#x2013;" glyph-name="endash" horiz-adv-x="480" d="M38 259L43 284H442L437 259H38Z" />
<glyph unicode="&#x2014;" glyph-name="emdash" horiz-adv-x="955" d="M38 259L43 284H917L912 259H38Z" />
<glyph unicode="&#x2018;" glyph-name="quoteleft" horiz-adv-x="121" d="M65 478Q87 540 117 601T182 714H202Q180 679 158 636T119 549T90 469H70L65 478Z" />
<glyph unicode="&#x2019;" glyph-name="quoteright" horiz-adv-x="121" d="M60 469Q83 504 104 547T143 634T172 714H192L197 705Q175 644 145 583T80 469H60Z" />
<glyph unicode="&#x201a;" glyph-name="quotesinglbase" horiz-adv-x="192" d="M-41 -129Q-18 -94 3 -51T42 36T71 116H91L96 107Q74 46 44 -15T-21 -129H-41Z" />
<glyph unicode="&#x201c;" glyph-name="quotedblleft" horiz-adv-x="252" d="M196 478Q218 540 248 601T313 714H333Q311 679 289 636T250 549T221 469H201L196 478ZM65 478Q87 540 117 601T182 714H202Q180 679 158 636T119 549T90 469H70L65 478Z" />
<glyph unicode="&#x201d;" glyph-name="quotedblright" horiz-adv-x="252" d="M191 469Q214 504 235 547T274 634T303 714H323L328 705Q306 644 276 583T211 469H191ZM60 469Q83 504 104 547T143 634T172 714H192L197 705Q175 644 145 583T80 469H60Z" />
<glyph unicode="&#x201e;" glyph-name="quotedblbase" horiz-adv-x="332" d="M90 -129Q113 -94 134 -51T173 36T202 116H222L227 107Q205 46 175 -15T110 -129H90ZM-41 -129Q-18 -94 3 -51T42 36T71 116H91L96 107Q74 46 44 -15T-21 -129H-41Z" />
<glyph unicode="&#x2022;" glyph-name="bullet" horiz-adv-x="376" d="M200 299Q178 299 168 311T158 344Q158 362 164 382T185 417T222 431Q244 431 254 418T264 384Q264 367 257 347T236 313T200 299Z" />
<glyph unicode="&#x2039;" glyph-name="guilsinglleft" horiz-adv-x="210" d="M125 87L20 272L23 285L207 472L222 457L51 275L143 97L125 87Z" />
<glyph unicode="&#x203a;" glyph-name="guilsinglright" horiz-adv-x="210" d="M7 87L-8 102L163 284L71 462L89 472L194 287L191 274L7 87Z" />
</font>
</defs>
</svg>
