<?xml version="1.0" standalone="no"?>
<!DOCTYPE svg PUBLIC "-//W3C//DTD SVG 1.1//EN" "http://www.w3.org/Graphics/SVG/1.1/DTD/svg11.dtd">
<svg xmlns="http://www.w3.org/2000/svg">
<defs >
<font id="NotoSans" horiz-adv-x="527" ><font-face
    font-family="Noto Sans ExtraLight"
    units-per-em="1000"
    panose-1="2 11 3 2 4 5 4 9 2 4"
    ascent="1069"
    descent="-293"
    alphabetic="0" />
<glyph unicode=" " glyph-name="space" horiz-adv-x="260" />
<glyph unicode="!" glyph-name="exclam" horiz-adv-x="220" d="M77 179L186 714H230L111 179H77ZM59 -9Q30 -9 30 19Q30 36 39 52T69 68Q83 68 90 60T97 39Q97 22 88 7T59 -9Z" />
<glyph unicode="&quot;" glyph-name="quotedbl" horiz-adv-x="327" d="M255 456L302 714H344L282 456H255ZM110 456L158 714H199L137 456H110Z" />
<glyph unicode="#" glyph-name="numbersign" horiz-adv-x="621" d="M105 0L169 223H34L37 256H177L237 457H95L98 489H246L311 714H345L281 489H458L524 714H557L493 489H630L627 457H484L427 256H569L566 223H418L352 0H317L384 223H204L139 0H105ZM213 256H392L449
457H271L213 256Z" />
<glyph unicode="$" glyph-name="dollar" horiz-adv-x="550" d="M210 50Q160 50 117 59T48 80V119Q79 105 123 95T218 85L274 350Q232 366 200 385T151 432T133 502Q133 558 162 595T238 651T343 675L360 758H392L375 674Q412 671 448 663T515 640L500 606Q467
622 434 629T368 640L311 374Q355 356 387 338T437 294T455 226Q455 172 426 134T348 75T242 50L218 -58H186L210 50ZM335 640Q266 636 219 601T171 504Q171 471 185 450T225 414T281 385L335 640ZM250 85Q295 88 333 104T394 151T417 223Q417 269 387 292T303
338L250 85Z" />
<glyph unicode="%" glyph-name="percent" horiz-adv-x="770" d="M189 276Q140 276 113 309T85 411Q85 444 91 485T110 568T144 645T196 702T268 724Q373 724 373 593Q373 562 367 521T348 437T314 358T262 299T189 276ZM119 0L646 714H686L158 0H119ZM192 309Q224
309 248 329T289 382T316 452T332 526T337 591Q337 643 319 667T266 691Q235 691 211 672T169 620T142 551T126 478T121 412Q121 360 139 335T192 309ZM534 -12Q485 -12 457 21T429 123Q429 156 435 197T455 281T489 358T541 414T613 436Q718 436 718 306Q718 275
712 234T693 149T658 70T606 11T534 -12ZM536 22Q568 22 592 42T634 94T661 165T676 239T681 303Q681 355 664 379T611 403Q579 403 555 384T514 333T487 264T471 190T466 125Q466 72 484 47T536 22Z" />
<glyph unicode="&amp;" glyph-name="ampersand" horiz-adv-x="680" d="M222 -10Q145 -10 95 32T44 150Q44 215 71 258T148 334T261 395Q231 436 215 472T198 549Q198 600 220 639T283 702T379 725Q440 725 479 688T519 594Q519 538 492 502T418 439T313 384L480
151Q516 185 548 232T602 330H641Q614 269 579 218T501 123L589 0H543L475 100Q421 52 363 21T222 -10ZM294 410Q324 423 356 439T417 476T462 525T480 593Q480 636 450 663T375 691Q317 691 277 654T236 550Q236 514 251 481T294 410ZM227 25Q300 25 352 52T455
126L280 370Q222 344 178 315T108 248T83 153Q83 112 103 84T155 40T227 25Z" />
<glyph unicode="&apos;" glyph-name="quotesingle" horiz-adv-x="182" d="M110 456L158 714H199L137 456H110Z" />
<glyph unicode="(" glyph-name="parenleft" horiz-adv-x="252" d="M100 -158Q68 -101 51 -31T34 121Q34 242 65 350T151 551T279 714H322Q245 637 189 542T102 340T71 121Q71 -37 137 -158H100Z" />
<glyph unicode=")" glyph-name="parenright" horiz-adv-x="252" d="M-66 -158Q12 -81 68 14T154 216T185 435Q185 593 120 714H156Q188 657 205 587T223 435Q223 314 192 206T105 5T-22 -158H-66Z" />
<glyph unicode="*" glyph-name="asterisk" horiz-adv-x="535" d="M391 330L318 521L174 375L147 404L301 538L122 626L139 661L314 557L349 758L388 750L337 552L541 576L539 537L341 529L429 344L391 330Z" />
<glyph unicode="+" glyph-name="plus" horiz-adv-x="570" d="M322 370H536V336H322V121H288V336H74V370H288V585H322V370Z" />
<glyph unicode="," glyph-name="comma" horiz-adv-x="198" d="M-45 -129Q-10 -59 15 0T59 116H100L102 104Q80 49 50 -14T-13 -129H-45Z" />
<glyph unicode="-" glyph-name="hyphen" horiz-adv-x="312" d="M36 253L43 289H275L268 253H36Z" />
<glyph unicode="." glyph-name="period" horiz-adv-x="219" d="M58 -9Q30 -9 30 19Q30 36 39 52T69 68Q83 68 90 60T97 39Q97 22 87 7T58 -9Z" />
<glyph unicode="/" glyph-name="slash" horiz-adv-x="316" d="M-44 0L361 714H402L-2 0H-44Z" />
<glyph unicode="0" glyph-name="zero" horiz-adv-x="550" d="M236 -10Q157 -10 111 45T64 209Q64 274 74 345T107 483T163 605T246 692T358 725Q445 725 487 669T529 517Q529 442 518 367T483 225T425 104T342 21T236 -10ZM239 25Q288 25 328 54T398 134T448 247T479
380T489 515Q489 597 457 643T356 690Q303 690 262 660T191 578T142 464T113 335T104 210Q104 117 139 71T239 25Z" />
<glyph unicode="1" glyph-name="one" horiz-adv-x="550" d="M338 538Q347 582 354 615T368 671Q355 659 341 649T306 625L180 542L161 571L379 714H415L263 0H224L338 538Z" />
<glyph unicode="2" glyph-name="two" horiz-adv-x="550" d="M9 0L15 34L272 266Q321 310 367 356T442 455T472 573Q472 627 439 658T348 689Q306 689 264 673T178 625L159 653Q208 691 256 707T350 724Q424 724 467 683T511 575Q511 509 484 455T408 349T298 243L69
38V36H432L425 0H9Z" />
<glyph unicode="3" glyph-name="three" horiz-adv-x="550" d="M210 -10Q150 -10 103 2T22 32V72Q54 53 104 39T211 25Q279 25 328 48T403 113T430 208Q430 281 383 317T255 354H179L186 388H262Q301 388 340 399T413 432T465 488T485 571Q485 624 450 656T357
689Q305 689 256 672T158 621L139 651Q186 684 241 704T359 724Q434 724 479 682T525 572Q525 516 500 474T434 406T343 371V369Q401 358 436 317T471 209Q471 147 440 98T350 19T210 -10Z" />
<glyph unicode="4" glyph-name="four" horiz-adv-x="550" d="M321 0L361 188H13L19 218L466 717H511L407 223H530L522 188H399L359 0H321ZM68 223H369L428 501Q440 561 449 598T468 673H465Q447 649 430 628T388 580L68 223Z" />
<glyph unicode="5" glyph-name="five" horiz-adv-x="550" d="M205 -10Q154 -10 110 1T38 31V73Q67 52 112 39T206 25Q271 25 323 49T406 122T437 244Q437 313 397 354T280 395Q239 395 208 389T141 373L121 390L217 714H537L529 678H244L165 412Q187 418 216 423T287
429Q372 429 424 379T477 247Q477 166 442 109T345 21T205 -10Z" />
<glyph unicode="6" glyph-name="six" horiz-adv-x="550" d="M253 -10Q187 -10 146 19T86 97T67 209Q67 261 78 320T110 438T162 548T230 638Q275 683 332 704T449 726Q476 726 501 722T544 712L535 676Q519 682 497 686T447 690Q376 690 313 656T199 543T118 331H120Q139
358 168 383T237 425T327 441Q403 441 448 394T493 267Q493 189 461 126T374 27T253 -10ZM254 25Q299 25 336 45T399 100T439 178T454 266Q454 333 418 370T318 407Q264 407 221 384T149 328T113 262Q110 249 108 232T106 198Q106 158 118 118T163 52T254 25Z"
/>
<glyph unicode="7" glyph-name="seven" horiz-adv-x="550" d="M107 0L510 678H124L131 714H562L557 686L152 0H107Z" />
<glyph unicode="8" glyph-name="eight" horiz-adv-x="550" d="M240 -10Q182 -10 139 12T71 72T47 160Q47 221 75 262T154 330T266 378Q223 406 191 443T159 541Q159 597 185 638T257 702T361 724Q414 724 452 704T512 651T533 577Q533 524 507 486T438 421T342
373Q379 353 409 329T457 272T475 191Q475 128 444 83T360 14T240 -10ZM308 392Q362 412 403 436T469 495T493 576Q493 628 455 658T359 689Q290 689 244 652T197 541Q197 488 228 454T308 392ZM242 25Q295 25 339 44T410 100T436 190Q436 234 419 263T372 314T302
358Q244 339 195 316T116 257T86 161Q86 97 130 61T242 25Z" />
<glyph unicode="9" glyph-name="nine" horiz-adv-x="550" d="M165 -10Q131 -10 101 -6T47 6V45Q68 37 99 31T165 25Q228 25 286 60T392 173T470 378H468Q442 339 391 306T267 273Q187 273 142 321T97 445Q97 524 129 587T217 687T341 724Q403 724 443 696T503
619T523 506Q523 453 511 392T477 269T424 156T356 69Q313 28 264 9T165 -10ZM271 307Q324 307 367 328T438 383T477 453Q484 477 484 513Q484 559 470 599T425 664T340 689Q277 689 232 655T162 565T137 446Q137 382 173 345T271 307Z" />
<glyph unicode=":" glyph-name="colon" horiz-adv-x="219" d="M156 459Q127 459 127 487Q127 504 136 520T166 536Q180 536 187 528T194 507Q194 490 185 475T156 459ZM58 -9Q30 -9 30 19Q30 36 39 52T69 68Q83 68 90 60T97 39Q97 22 87 7T58 -9Z" />
<glyph unicode=";" glyph-name="semicolon" horiz-adv-x="219" d="M155 459Q126 459 126 487Q126 504 136 520T166 536Q180 536 186 528T193 507Q193 490 184 475T155 459ZM-46 -129Q-11 -59 14 0T58 116H99L101 104Q79 49 49 -14T-14 -129H-46Z" />
<glyph unicode="&lt;" glyph-name="less" horiz-adv-x="570" d="M535 134L75 347V371L535 590V554L122 360L535 170V134Z" />
<glyph unicode="=" glyph-name="equal" horiz-adv-x="570" d="M75 438V471H535V438H75ZM75 235V268H535V235H75Z" />
<glyph unicode="&gt;" glyph-name="greater" horiz-adv-x="570" d="M75 170L488 360L75 554V590L535 371V347L75 134V170Z" />
<glyph unicode="?" glyph-name="question" horiz-adv-x="408" d="M122 179Q131 234 148 267T192 326T255 380Q288 405 319 430T369 487T389 566Q389 622 355 655T265 689Q234 689 201 680T130 655L116 687Q159 707 195 715T267 724Q341 724 384 681T428 569Q428
518 409 482T356 416T278 355Q246 331 222 309T181 257T156 179H122ZM109 -9Q80 -9 80 19Q80 36 90 52T120 68Q134 68 140 60T147 39Q147 22 138 7T109 -9Z" />
<glyph unicode="@" glyph-name="at" horiz-adv-x="837" d="M377 -90Q290 -90 217 -53T99 58T55 243Q55 330 85 413T173 562T319 668T519 707Q611 707 676 670T775 567T810 413Q810 329 783 260T710 149T605 107Q560 107 539 132T518 206H515Q489 160 450 134T359
107Q308 107 276 140T244 234Q244 313 278 375T368 472T491 508Q528 508 559 501T615 484L575 335Q563 292 556 263T549 213Q549 180 562 160T607 140Q651 140 689 177T750 275T774 412Q774 489 745 548T658 641T515 674Q414 674 336 640T203 545T120 408T92 244Q92
143 131 77T235 -23T379 -57Q428 -57 479 -48T578 -21V-54Q532 -72 482 -81T377 -90ZM364 140Q425 140 468 187T535 320L573 461Q555 467 534 471T487 476Q432 476 385 446T310 361T281 236Q281 188 304 164T364 140Z" />
<glyph unicode="A" glyph-name="A" horiz-adv-x="550" d="M-51 0L360 716H399L501 0H463L425 261H142L-8 0H-51ZM162 297H420L383 565Q379 588 376 615T371 669H369Q357 643 343 617T314 564L162 297Z" />
<glyph unicode="B" glyph-name="B" horiz-adv-x="598" d="M48 0L199 714H381Q484 714 533 676T582 567Q582 488 537 439T414 375L413 373Q470 359 500 321T531 223Q531 146 494 97T392 24T246 0H48ZM324 392Q420 392 480 433T541 565Q541 678 374 678H232L171
392H324ZM256 35Q321 35 374 54T458 115T490 223Q490 293 444 325T314 358H164L95 35H256Z" />
<glyph unicode="C" glyph-name="C" horiz-adv-x="593" d="M326 -10Q249 -10 195 24T111 120T82 267Q82 365 110 448T190 593T313 689T468 724Q562 724 633 686L616 651Q582 671 545 679T468 688Q392 688 329 657T219 569T147 436T122 269Q122 156 177 91T330 26Q379
26 421 34T500 55V21Q465 8 422 -1T326 -10Z" />
<glyph unicode="D" glyph-name="D" horiz-adv-x="675" d="M48 0L199 714H349Q484 714 560 643T637 426Q637 341 610 265T529 129T393 35T200 0H48ZM202 36Q299 36 372 66T496 151T571 276T596 426Q596 556 529 617T339 678H232L95 36H202Z" />
<glyph unicode="E" glyph-name="E" horiz-adv-x="531" d="M48 0L199 714H558L551 678H231L171 394H471L464 358H164L95 36H414L407 0H48Z" />
<glyph unicode="F" glyph-name="F" horiz-adv-x="485" d="M48 0L199 714H559L552 678H231L164 359H466L458 324H156L88 0H48Z" />
<glyph unicode="G" glyph-name="G" horiz-adv-x="688" d="M335 -10Q214 -10 148 64T82 265Q82 369 112 453T194 598T316 691T463 724Q521 724 570 713T664 682L648 646Q607 665 560 676T462 688Q393 688 332 658T223 573T149 440T122 267Q122 148 181 87T338 26Q388
26 436 35T520 60L575 320H387L395 355H622L553 34Q504 12 448 1T335 -10Z" />
<glyph unicode="H" glyph-name="H" horiz-adv-x="681" d="M48 0L199 714H239L171 393H570L638 714H678L527 0H487L563 357H164L88 0H48Z" />
<glyph unicode="I" glyph-name="I" horiz-adv-x="288" d="M2 0L8 26L77 32L215 681L148 688L153 714H330L325 688L254 681L116 32L184 26L179 0H2Z" />
<glyph unicode="J" glyph-name="J" horiz-adv-x="240" d="M-86 -177Q-109 -177 -131 -174T-167 -164L-166 -129Q-148 -135 -127 -137T-86 -140Q-26 -140 5 -105T49 -5L202 714H241L88 -11Q70 -96 27 -136T-86 -177Z" />
<glyph unicode="K" glyph-name="K" horiz-adv-x="547" d="M48 0L199 714H239L158 333L216 388L582 714H633L295 411L489 0H445L264 386L149 290L88 0H48Z" />
<glyph unicode="L" glyph-name="L" horiz-adv-x="488" d="M48 0L199 714H239L95 36H413L405 0H48Z" />
<glyph unicode="M" glyph-name="M" horiz-adv-x="813" d="M48 0L199 714H255L363 64H366L748 714H810L659 0H620L740 566Q745 591 751 616T764 668H762L368 0H337L226 668H224Q220 642 216 617T205 563L87 0H48Z" />
<glyph unicode="N" glyph-name="N" horiz-adv-x="681" d="M48 0L199 714H233L503 68H506Q513 107 521 151T537 233L640 714H678L527 0H492L222 645H220Q212 604 205 563T188 479L87 0H48Z" />
<glyph unicode="O" glyph-name="O" horiz-adv-x="717" d="M335 -10Q244 -10 189 28T108 130T82 274Q82 358 103 438T168 583T277 686T431 725Q545 725 612 656T679 446Q679 393 668 332T633 210T569 100T471 20T335 -10ZM336 26Q402 26 452 53T537 125T595 226T627
338T638 445Q638 558 586 623T429 689Q362 689 312 664T226 595T167 499T133 387T122 275Q122 201 145 145T215 58T336 26Z" />
<glyph unicode="P" glyph-name="P" horiz-adv-x="560" d="M48 0L199 714H355Q457 714 508 668T560 536Q560 430 491 365T276 300H151L88 0H48ZM282 335Q405 335 462 389T520 535Q520 610 476 644T349 678H232L159 335H282Z" />
<glyph unicode="Q" glyph-name="Q" horiz-adv-x="717" d="M337 -10Q334 -10 327 -10Q242 -9 188 28T108 129T82 274Q82 358 103 438T168 583T277 686T431 725Q545 725 612 656T679 446Q679 397 670 340T639 226T584 120T500 37T382 -6L499 -170H448L337 -10ZM336
26Q402 26 452 53T538 125T595 226T627 338T638 445Q638 558 586 623T429 689Q362 689 312 664T226 595T167 499T133 387T122 275Q122 201 145 145T215 58T336 26Z" />
<glyph unicode="R" glyph-name="R" horiz-adv-x="564" d="M48 0L199 714H348Q560 714 560 546Q560 361 365 323L482 0H439L327 315H155L88 0H48ZM299 350Q362 350 412 371T491 434T520 544Q520 613 476 645T342 678H232L162 350H299Z" />
<glyph unicode="S" glyph-name="S" horiz-adv-x="499" d="M195 -10Q133 -10 93 -1T19 24V65Q53 48 96 37T196 26Q229 26 264 34T329 62T377 112T396 187Q396 229 378 258T327 309T249 355Q214 372 184 395T134 450T115 528Q115 598 148 641T234 704T343 724Q398
724 436 714T511 686L495 651Q458 670 423 679T342 688Q313 688 281 680T220 654T173 606T155 530Q155 491 172 465T216 420T276 384Q321 360 357 335T415 276T437 189Q437 135 416 97T359 36T281 1T195 -10Z" />
<glyph unicode="T" glyph-name="T" horiz-adv-x="488" d="M168 0L312 678H92L100 714H579L571 678H352L208 0H168Z" />
<glyph unicode="U" glyph-name="U" horiz-adv-x="689" d="M300 -10Q201 -10 144 40T86 184Q86 201 88 220T95 260L192 714H231L135 260Q127 219 127 186Q127 108 173 67T302 26Q400 26 464 83T554 256L652 714H692L594 250Q565 117 490 54T300 -10Z" />
<glyph unicode="V" glyph-name="V" horiz-adv-x="538" d="M191 0L103 714H141L207 170Q211 140 213 108T217 50H219Q231 75 246 103T280 168L574 714H617L228 0H191Z" />
<glyph unicode="W" glyph-name="W" horiz-adv-x="832" d="M155 0L121 714H158L183 193Q184 161 184 128T184 64H187Q200 94 212 124T244 193L493 714H532L565 193Q566 161 567 126T568 61H571Q582 90 594 121T624 190L860 714H902L576 0H540L506 556Q503 610 503
659H501Q491 634 483 614T464 572L192 0H155Z" />
<glyph unicode="X" glyph-name="X" horiz-adv-x="497" d="M-58 0L249 373L115 714H155L275 400L529 714H573L293 370L439 0H398L265 342L-12 0H-58Z" />
<glyph unicode="Y" glyph-name="Y" horiz-adv-x="490" d="M169 0L226 270L95 714H135L252 312L537 714H583L266 273L209 0H169Z" />
<glyph unicode="Z" glyph-name="Z" horiz-adv-x="537" d="M-8 0L-3 29L513 678H151L158 714H571L566 685L50 36H439L432 0H-8Z" />
<glyph unicode="[" glyph-name="bracketleft" horiz-adv-x="300" d="M-9 -158L177 714H369L361 678H207L37 -122H193L184 -158H-9Z" />
<glyph unicode="\" glyph-name="backslash" horiz-adv-x="316" d="M225 0L100 714H135L260 0H225Z" />
<glyph unicode="]" glyph-name="bracketright" horiz-adv-x="300" d="M-72 -158L-64 -122H90L260 678H104L113 714H306L120 -158H-72Z" />
<glyph unicode="^" glyph-name="asciicircum" horiz-adv-x="554" d="M48 276L339 719H369L510 276H474L350 674L89 276H48Z" />
<glyph unicode="_" glyph-name="underscore" horiz-adv-x="376" d="M-86 -139L-79 -105H298L290 -139H-86Z" />
<glyph unicode="`" glyph-name="grave" horiz-adv-x="237" d="M246 606Q230 624 210 652T173 709T147 756V766H188Q198 741 212 713T242 660T269 618V606H246Z" />
<glyph unicode="a" glyph-name="a" horiz-adv-x="551" d="M196 -10Q126 -10 88 40T50 177Q50 241 67 305T119 422T203 507T317 540Q362 540 390 521T435 473T457 416H460L488 530H519L407 0H375L400 131H397Q379 101 349 68T280 13T196 -10ZM204 25Q248 25 293
56T374 142T425 264Q437 323 437 359Q437 428 405 466T318 505Q264 505 222 477T150 400T105 294T90 177Q90 106 118 66T204 25Z" />
<glyph unicode="b" glyph-name="b" horiz-adv-x="570" d="M245 -10Q198 -10 166 8T117 54T93 113H90L63 0H31L192 760H231L186 551Q179 516 169 473T150 399H153Q172 432 202 464T273 518T362 539Q433 539 474 489T516 353Q516 289 500 225T449 108T364 23T245
-10ZM244 25Q302 25 345 54T418 130T462 236T477 353Q477 424 445 464T353 505Q302 505 259 476T183 399T132 291T113 170Q113 98 149 62T244 25Z" />
<glyph unicode="c" glyph-name="c" horiz-adv-x="452" d="M247 -10Q155 -10 105 46T54 193Q54 262 72 324T127 435T215 512T334 540Q368 540 401 534T459 515L447 480Q423 492 393 498T334 505Q260 505 206 463T123 351T93 195Q93 123 133 74T250 25Q285 25 315
33T377 55V20Q352 7 320 -1T247 -10Z" />
<glyph unicode="d" glyph-name="d" horiz-adv-x="570" d="M199 -10Q125 -10 88 40T50 177Q50 240 67 304T118 421T203 507T321 539Q369 539 400 521T449 474T473 416H476Q481 450 487 484T501 552L545 760H583L422 0H390L415 132H412Q391 99 360 66T288 12T199
-10ZM207 25Q252 25 295 51T375 124T432 231T454 359Q454 431 418 468T322 505Q265 505 222 476T149 399T105 293T90 177Q90 104 119 65T207 25Z" />
<glyph unicode="e" glyph-name="e" horiz-adv-x="493" d="M245 -10Q195 -10 153 11T85 78T59 194Q59 264 79 326T136 437T222 512T330 540Q389 540 424 508T460 423Q460 361 418 323T301 268T133 251H102Q101 240 100 225T99 194Q99 112 140 69T252 25Q294 25
328 36T390 59V23Q365 10 327 0T245 -10ZM148 285Q227 285 288 299T385 344T421 421Q421 457 397 481T325 505Q280 505 236 479T158 404T108 285H148Z" />
<glyph unicode="f" glyph-name="f" horiz-adv-x="275" d="M-66 -240Q-81 -240 -99 -237T-128 -230V-194Q-98 -205 -68 -205Q-33 -205 -12 -179T21 -103L148 496H55L59 521L155 530L171 605Q188 684 227 724T339 765Q363 765 383 761T419 751L408 717Q376 730 339
730Q283 730 253 700T209 601L194 530H313L306 496H187L58 -108Q44 -176 13 -208T-66 -240Z" />
<glyph unicode="g" glyph-name="g" horiz-adv-x="570" d="M175 -240Q130 -240 92 -230T26 -207V-167Q54 -182 94 -193T175 -205Q264 -205 312 -158T378 -27L387 14Q393 40 401 74T416 135H414Q392 100 360 67T288 12T200 -10Q125 -10 88 40T50 177Q50 240 67 304T118
421T203 507T322 540Q369 540 400 522T449 475T473 416H476L504 530H535L416 -29Q395 -128 339 -184T175 -240ZM209 25Q252 25 295 51T374 124T431 230T453 359Q453 431 418 468T323 505Q265 505 222 476T149 399T105 293T90 177Q90 106 118 66T209 25Z" />
<glyph unicode="h" glyph-name="h" horiz-adv-x="558" d="M31 0L192 760H231L188 558Q179 519 170 478T150 399H153Q171 429 200 461T271 516T364 539Q429 539 464 506T499 408Q499 393 497 375T490 339L419 0H380L453 343Q460 377 460 404Q460 455 433 480T356
505Q305 505 258 473T175 387T126 265L70 0H31Z" />
<glyph unicode="i" glyph-name="i" horiz-adv-x="217" d="M194 652Q166 652 166 679Q166 695 175 709T202 724Q216 724 222 716T229 697Q229 680 219 666T194 652ZM31 0L144 530H182L70 0H31Z" />
<glyph unicode="j" glyph-name="j" horiz-adv-x="217" d="M194 652Q166 652 166 679Q166 695 175 709T202 724Q216 724 222 716T228 697Q228 680 219 666T194 652ZM-82 -240Q-96 -240 -112 -237T-139 -230V-194Q-127 -200 -111 -202T-82 -205Q-43 -205 -22 -179T9
-106L144 530H182L46 -110Q33 -175 3 -207T-82 -240Z" />
<glyph unicode="k" glyph-name="k" horiz-adv-x="450" d="M31 0L192 760H231L154 399Q142 343 132 301T112 219H113L439 530H487L245 300L395 0H352L216 275L107 176L70 0H31Z" />
<glyph unicode="l" glyph-name="l" horiz-adv-x="217" d="M31 0L192 760H231L70 0H31Z" />
<glyph unicode="m" glyph-name="m" horiz-adv-x="849" d="M31 0L144 530H176L150 399H153Q169 429 195 462T259 517T346 540Q411 540 439 501T465 397H467Q484 429 511 462T577 517T664 540Q724 540 757 507T790 409Q790 378 781 339L710 0H671L744 343Q751 377
751 404Q751 455 726 480T655 505Q608 505 565 473T491 386T445 268L389 0H350L421 331Q426 353 427 373T429 406Q429 453 405 479T336 505Q289 505 247 472T172 385T126 265L70 0H31Z" />
<glyph unicode="n" glyph-name="n" horiz-adv-x="558" d="M30 0L143 530H176L152 399H154Q171 429 200 462T271 517T364 540Q429 540 464 507T500 409Q500 393 498 375T491 339L419 0H379L452 343Q460 378 460 404Q460 455 433 479T356 504Q305 504 258 473T176
387T127 265L70 0H30Z" />
<glyph unicode="o" glyph-name="o" horiz-adv-x="565" d="M239 -10Q147 -10 101 46T54 193Q54 294 89 372T186 494T328 539Q417 539 464 483T511 338Q511 268 493 206T440 95T355 18T239 -10ZM243 25Q313 25 364 66T443 179T471 340Q471 410 436 457T327 504Q260
504 207 465T124 356T93 193Q93 115 131 70T243 25Z" />
<glyph unicode="p" glyph-name="p" horiz-adv-x="570" d="M-18 -234L144 530H176L151 399H153Q173 432 203 464T274 518T363 539Q433 539 474 489T516 352Q516 289 500 225T449 108T364 23T245 -10Q198 -10 167 8T117 54T93 113H90Q86 83 80 49T67 -14L20 -234H-18ZM244
25Q302 25 345 54T418 130T462 236T477 353Q477 424 445 464T353 505Q305 505 262 477T185 401T132 294T113 170Q113 98 149 62T244 25Z" />
<glyph unicode="q" glyph-name="q" horiz-adv-x="570" d="M381 -14Q387 14 397 57T416 136H414Q395 103 363 69T290 13T200 -10Q126 -10 88 40T50 177Q50 240 67 304T118 421T203 507T322 540Q369 540 400 522T449 475T473 416H476L504 530H535L373 -234H335L381
-14ZM209 25Q255 25 298 52T377 127T432 235T453 359Q453 430 418 467T323 505Q265 505 222 476T149 399T105 293T90 177Q90 106 118 66T209 25Z" />
<glyph unicode="r" glyph-name="r" horiz-adv-x="376" d="M31 0L144 530H176L151 399H154Q170 427 197 459T261 515T343 538Q376 538 402 530L393 495Q383 498 370 500T341 502Q293 502 249 469T172 382T125 262L70 0H31Z" />
<glyph unicode="s" glyph-name="s" horiz-adv-x="425" d="M162 -10Q110 -10 73 2T11 26V67Q40 50 79 38T162 25Q240 25 274 57T309 138Q309 169 294 189T254 225T200 257Q166 276 138 294T94 337T78 398Q78 446 101 477T164 524T253 540Q300 540 337 531T402 508L389
474Q363 487 328 496T252 505Q194 505 156 480T117 401Q117 359 147 337T223 289Q255 271 284 253T331 208T349 141Q349 76 303 33T162 -10Z" />
<glyph unicode="t" glyph-name="t" horiz-adv-x="314" d="M154 -10Q52 -10 52 87Q52 100 54 115T60 148L133 496H55L61 522L140 532L180 659H207L180 530H337L329 496H172L99 150Q92 117 92 91Q92 60 107 43T157 25Q180 25 198 28T233 38V4Q218 -1 199 -5T154 -10Z" />
<glyph unicode="u" glyph-name="u" horiz-adv-x="558" d="M190 -10Q125 -10 90 23T55 121Q55 137 57 154T64 191L135 530H174L101 186Q94 153 94 126Q94 74 121 50T198 25Q249 25 296 56T379 142T428 264L485 530H523L411 0H378L403 131H400Q383 101 354 68T283
13T190 -10Z" />
<glyph unicode="v" glyph-name="v" horiz-adv-x="422" d="M128 0L50 530H88L141 158Q146 125 149 96T154 42H156Q170 69 184 98T217 159L428 530H470L168 0H128Z" />
<glyph unicode="w" glyph-name="w" horiz-adv-x="666" d="M85 0L55 530H93L112 175Q114 133 114 104T114 49H117Q127 74 139 101T175 172L357 530H392L427 175Q430 137 432 107T434 49H437Q446 75 459 105T492 180L657 530H697L447 0H407L372 369Q369 397 368
421T366 477H364Q351 448 340 424T314 371L125 0H85Z" />
<glyph unicode="x" glyph-name="x" horiz-adv-x="461" d="M-34 0L204 274L85 530H127L230 301L431 530H477L249 271L377 0H336L222 244L12 0H-34Z" />
<glyph unicode="y" glyph-name="y" horiz-adv-x="422" d="M-50 -242Q-87 -242 -110 -232V-197Q-98 -202 -84 -205T-50 -208Q-13 -208 16 -181T78 -96L136 4L50 530H88L142 192Q150 145 154 107T161 44H163Q174 66 193 104T236 183L428 530H470L112 -110Q76 -174
39 -208T-50 -242Z" />
<glyph unicode="z" glyph-name="z" horiz-adv-x="438" d="M-14 0L-9 26L379 496H106L114 530H437L431 503L42 33H343L337 0H-14Z" />
<glyph unicode="{" glyph-name="braceleft" horiz-adv-x="332" d="M203 -158Q133 -158 102 -135T70 -57Q70 -35 76 -5L111 151Q117 178 117 197Q117 231 95 246T24 262L31 297Q91 297 121 322T164 409L201 578Q216 650 259 681T377 714H386L379 679Q319 679 285
655T237 571L201 404Q191 354 167 321T96 279V277Q154 259 154 196Q154 175 147 145L114 -8Q108 -35 108 -53Q108 -95 132 -109T212 -123V-158H203Z" />
<glyph unicode="|" glyph-name="bar" horiz-adv-x="538" d="M278 -241V760H312V-241H278Z" />
<glyph unicode="}" glyph-name="braceright" horiz-adv-x="332" d="M-43 -124Q17 -123 52 -99T100 -16L136 151Q147 202 171 235T241 276V279Q183 297 183 359Q183 380 190 410L223 564Q230 590 230 608Q230 650 205 664T123 678L126 713H134Q204 713 235 690T267
612Q267 590 261 560L226 404Q220 376 220 359Q220 325 242 309T313 293L306 259Q246 259 216 234T173 147L136 -22Q121 -96 77 -127T-41 -159H-47L-43 -124Z" />
<glyph unicode="~" glyph-name="asciitilde" horiz-adv-x="570" d="M299 337Q271 351 248 359T191 368Q162 368 132 355T75 312V352Q98 375 128 388T192 401Q232 401 258 393T316 368Q345 355 368 347T421 338Q449 338 478 350T535 393V355Q516 333 486 319T420
305Q386 305 359 313T299 337Z" />
<glyph unicode="&#xa0;" glyph-name="uni00A0" horiz-adv-x="260" />
<glyph unicode="&#xa1;" glyph-name="exclamdown" horiz-adv-x="220" d="M156 461Q141 461 135 469T128 489Q128 507 137 522T167 538Q195 538 195 510Q195 493 186 477T156 461ZM-6 -182L115 349H146L38 -182H-6Z" />
<glyph unicode="&#xa2;" glyph-name="cent" horiz-adv-x="550" d="M256 93Q185 105 146 158T107 289Q107 379 138 456T227 583T366 639L383 724H416L398 639Q428 638 457 632T510 615L498 580Q475 592 444 598T384 604Q314 604 261 562T177 449T147 290Q147 218
186 171T298 124Q365 124 427 154V120Q391 101 358 96T288 90L267 -10H234L256 93Z" />
<glyph unicode="&#xa3;" glyph-name="sterling" horiz-adv-x="550" d="M-1 33Q56 44 92 82T144 192L173 331H73L80 364H181L214 524Q236 626 287 674T422 723Q465 723 501 713T561 689L545 656Q521 667 491 677T421 688Q353 688 312 648T252 517L219 364H406L399
331H212L182 190Q167 122 142 88T80 36H455L448 0H-7L-1 33Z" />
<glyph unicode="&#xa4;" glyph-name="currency" horiz-adv-x="566" d="M429 203Q402 180 369 168T300 156Q266 156 233 168T172 204L98 129L76 151L150 226Q104 281 104 354Q104 426 150 482L76 557L98 579L172 504Q228 552 300 552Q335 552 368 540T429 504L503
578L525 556L451 482Q498 426 498 354Q498 281 451 226L526 151L503 129L429 203ZM300 187Q346 187 384 210T444 270T467 355Q467 400 445 438T385 498T301 521Q255 521 218 498T158 438T135 354Q135 308 157 270T216 210T300 187Z" />
<glyph unicode="&#xa5;" glyph-name="yen" horiz-adv-x="550" d="M196 0L229 155H68L75 189H237L258 293H97L104 326H251L119 714H158L283 338L568 714H612L316 326H463L457 293H295L274 189H434L427 155H267L234 0H196Z" />
<glyph unicode="&#xa6;" glyph-name="brokenbar" horiz-adv-x="538" d="M278 392V760H312V392H278ZM278 -240V129H312V-240H278Z" />
<glyph unicode="&#xa7;" glyph-name="section" horiz-adv-x="496" d="M175 -2Q128 -2 90 8T28 31V69Q57 54 97 43T175 31Q252 31 295 59T338 140Q338 168 323 185T282 215T224 243Q194 256 165 274T118 319T99 384Q99 426 120 454T172 499T234 525Q205 538 182
562T158 626Q158 673 184 702T252 746T340 760Q380 760 420 751T487 730L474 698Q446 711 409 719T340 727Q308 727 275 718T219 688T196 627Q196 592 225 572T306 529Q336 515 365 500T415 459T435 393Q435 356 418 326T375 273T319 234Q344 219 360 198T376 143Q376
72 322 35T175 -2ZM291 251Q333 273 365 307T397 390Q397 419 383 438T339 472T266 507Q236 499 207 486T157 449T137 386Q137 353 154 332T206 292T291 251Z" />
<glyph unicode="&#xa8;" glyph-name="dieresis" horiz-adv-x="571" d="M456 644Q432 644 432 669Q432 684 439 698T466 713Q490 713 490 688Q490 672 482 658T456 644ZM279 644Q255 644 255 669Q255 684 263 698T289 713Q313 713 313 688Q313 672 305 658T279 644Z" />
<glyph unicode="&#xa9;" glyph-name="copyright" horiz-adv-x="832" d="M416 -8Q336 -8 269 20T153 98T77 214T50 357Q50 435 78 502T157 618T274 695T416 722Q495 722 562 693T678 613T755 496T782 357Q782 281 754 215T676 98T559 20T416 -8ZM416 22Q487 22
548 48T654 121T725 228T750 357Q750 425 725 485T655 592T549 665T416 692Q345 692 285 666T179 595T108 488T82 357Q82 289 106 228T174 121T280 49T416 22ZM434 141Q341 141 286 195T231 356Q231 422 257 470T329 546T438 574Q479 574 508 567T564 547L549 516Q525
527 499 533T438 540Q362 540 315 491T268 356Q268 266 314 220T435 174Q468 174 493 179T548 195V163Q523 152 496 147T434 141Z" />
<glyph unicode="&#xaa;" glyph-name="ordfeminine" horiz-adv-x="325" d="M181 395Q141 395 115 422T88 502Q88 563 109 612T166 692T246 722Q280 722 299 705T326 662H328L345 716H371L304 399H278L290 468H288Q269 438 242 417T181 395ZM185 426Q211 426 234
443T274 487T301 547T311 609Q311 643 295 667T245 692Q214 692 186 668T140 601T122 504Q122 468 139 447T185 426Z" />
<glyph unicode="&#xab;" glyph-name="guillemotleft" horiz-adv-x="393" d="M131 80L24 272L27 285L212 472L233 451L68 274L158 94L131 80ZM298 80L193 268L195 281L379 471L400 451L236 270L325 94L298 80Z" />
<glyph unicode="&#xac;" glyph-name="logicalnot" horiz-adv-x="570" d="M522 370V131H489V336H74V370H522Z" />
<glyph unicode="&#xad;" glyph-name="uni00AD" horiz-adv-x="304" d="M291 253L298 289H530L523 253H291Z" />
<glyph unicode="&#xae;" glyph-name="registered" horiz-adv-x="832" d="M416 -8Q336 -8 269 20T153 98T77 214T50 357Q50 435 78 502T157 618T274 695T416 722Q495 722 562 693T678 613T755 496T782 357Q782 281 754 215T676 98T559 20T416 -8ZM416 22Q487 22
548 48T654 121T725 228T750 357Q750 425 725 485T655 592T549 665T416 692Q345 692 285 666T179 595T108 488T82 357Q82 289 106 228T174 121T280 49T416 22ZM294 142V570H414Q480 570 519 541T558 448Q558 400 532 371T468 330L582 142H539L432 321H330V142H294ZM411
351Q459 351 491 375T523 448Q523 496 493 517T412 538H329V351H411Z" />
<glyph unicode="&#xaf;" glyph-name="overscore" horiz-adv-x="462" d="M101 760L109 794H503L495 760H101Z" />
<glyph unicode="&#xb0;" glyph-name="degree" horiz-adv-x="428" d="M214 436Q152 436 110 475T68 580Q68 645 109 684T214 724Q277 724 318 684T360 580Q360 515 319 476T214 436ZM213 468Q264 468 295 499T326 580Q326 631 295 661T213 692Q162 692 132 662T102
580Q102 531 132 500T213 468Z" />
<glyph unicode="&#xb1;" glyph-name="plusminus" horiz-adv-x="570" d="M322 370H536V337H322V121H288V337H74V370H288V586H322V370ZM74 0V34H536V0H74Z" />
<glyph unicode="&#xb2;" glyph-name="uni00B2" horiz-adv-x="320" d="M54 416L60 444L200 563Q271 623 308 665T346 756Q346 786 327 804T273 823Q218 823 160 782L144 808Q206 855 276 855Q328 855 354 827T381 759Q381 700 340 653T227 546L110 448H331L324 416H54Z" />
<glyph unicode="&#xb3;" glyph-name="uni00B3" horiz-adv-x="320" d="M177 411Q144 411 115 418T63 437V472Q90 459 118 451T177 443Q237 443 274 470T311 551Q311 586 285 605T208 625H161L168 656H215Q268 656 306 680T344 753Q344 783 325 801T270 820Q237
820 209 810T152 783L138 810Q167 829 201 840T274 852Q323 852 351 826T380 758Q380 707 351 679T282 641V638Q311 631 329 608T347 551Q347 480 300 446T177 411Z" />
<glyph unicode="&#xb4;" glyph-name="acute" horiz-adv-x="227" d="M114 613Q136 633 161 660T210 716T248 766H292V758Q275 737 250 710T197 655T142 606H114V613Z" />
<glyph unicode="&#xb5;" glyph-name="uni00B5" horiz-adv-x="559" d="M-22 -234L140 530H178L106 189Q101 163 99 147T97 120Q97 79 123 52T200 25Q247 25 294 52T378 133T434 272L489 530H527L415 0H383L407 131H405Q386 97 357 65T287 12T193 -10Q143 -10 116
13T79 66H76Q71 37 64 -3T47 -87L16 -234H-22Z" />
<glyph unicode="&#xb6;" glyph-name="paragraph" horiz-adv-x="655" d="M363 338Q347 334 331 332T292 329Q207 329 163 388T119 547Q119 760 307 760H556V-127H523V724H396V-127H363V338Z" />
<glyph unicode="&#xb7;" glyph-name="middot" horiz-adv-x="219" d="M120 284Q92 284 92 312Q92 329 101 345T131 361Q145 361 152 353T159 332Q159 315 149 300T120 284Z" />
<glyph unicode="&#xb8;" glyph-name="cedilla" horiz-adv-x="195" d="M-32 -240Q-65 -240 -85 -234V-205Q-63 -210 -35 -210Q-14 -210 7 -203T44 -180T59 -138Q59 -87 -23 -86L24 0H56L23 -63Q54 -67 74 -86T95 -138Q95 -186 57 -213T-32 -240Z" />
<glyph unicode="&#xb9;" glyph-name="uni00B9" horiz-adv-x="320" d="M249 689Q255 717 263 748T278 807Q262 797 247 788T208 767L158 740L144 767L289 844H319L228 416H192L249 689Z" />
<glyph unicode="&#xba;" glyph-name="ordmasculine" horiz-adv-x="349" d="M205 393Q152 393 122 427T92 517Q92 576 113 622T173 696T261 724Q316 724 344 689T372 601Q372 544 352 497T294 422T205 393ZM207 423Q246 423 275 447T321 511T338 599Q338 641 318
667T259 694Q220 694 190 671T143 608T126 518Q126 474 147 449T207 423Z" />
<glyph unicode="&#xbb;" glyph-name="guillemotright" horiz-adv-x="393" d="M183 80L163 101L328 278L238 459L265 472L371 280L369 267L183 80ZM17 82L-4 101L160 282L71 459L98 472L203 284L201 271L17 82Z" />
<glyph unicode="&#xbc;" glyph-name="onequarter" horiz-adv-x="683" d="M79 0L609 714H652L121 0H79ZM219 560Q225 588 233 619T248 678Q232 668 217 659T178 638L128 611L114 638L259 715H289L198 287H162L219 560ZM514 1L538 114H346L354 147L606 432H641L580
146H645L638 114H573L549 1H514ZM394 146H544L569 260Q575 289 582 322T596 380Q587 366 565 340T522 291L394 146Z" />
<glyph unicode="&#xbd;" glyph-name="onehalf" horiz-adv-x="732" d="M73 0L603 714H646L115 0H73ZM219 560Q225 588 233 619T248 678Q232 668 217 659T178 638L128 611L114 638L259 715H289L198 287H162L219 560ZM384 1L390 29L530 148Q601 208 638 250T676 341Q676
371 657 389T603 408Q548 408 490 367L474 393Q536 440 606 440Q658 440 684 412T711 344Q711 285 670 238T557 131L440 33H661L654 1H384Z" />
<glyph unicode="&#xbe;" glyph-name="threequarters" horiz-adv-x="709" d="M141 279Q108 279 79 286T27 305V340Q54 327 82 319T141 311Q201 311 238 338T275 419Q275 454 249 473T172 493H125L132 524H179Q232 524 270 548T308 621Q308 651 289 669T234 688Q201
688 173 678T116 651L102 678Q131 697 165 708T238 720Q287 720 315 694T344 626Q344 575 315 547T246 509V506Q275 499 293 476T311 419Q311 348 264 314T141 279ZM119 0L649 714H692L161 0H119ZM539 2L563 115H371L379 148L631 433H666L605 147H670L663 115H598L574
2H539ZM419 147H569L594 261Q600 290 607 323T621 381Q612 367 590 341T547 292L419 147Z" />
<glyph unicode="&#xbf;" glyph-name="questiondown" horiz-adv-x="408" d="M310 541Q339 541 339 513Q339 495 330 480T300 464Q286 464 279 472T272 492Q272 509 281 525T310 541ZM297 352Q288 298 271 264T227 205T164 152Q131 127 101 102T51 45T31 -35Q31
-91 64 -124T155 -157Q186 -157 219 -148T289 -123L304 -155Q261 -175 224 -183T153 -192Q79 -192 36 -149T-8 -38Q-8 13 11 49T64 116T141 177Q174 201 198 223T238 275T264 352H297Z" />
<glyph unicode="&#xc0;" glyph-name="Agrave" horiz-adv-x="550" d="M-51 0L360 716H399L501 0H463L425 261H142L-8 0H-51ZM162 297H420L383 565Q379 588 376 615T371 669H369Q357 643 343 617T314 564L162 297ZM401 790Q385 808 365 836T328 893T302 940V950H343Q353
925 367 897T397 844T424 802V790H401Z" />
<glyph unicode="&#xc1;" glyph-name="Aacute" horiz-adv-x="550" d="M-51 0L360 716H399L501 0H463L425 261H142L-8 0H-51ZM162 297H420L383 565Q379 588 376 615T371 669H369Q357 643 343 617T314 564L162 297ZM358 797Q380 817 405 844T454 900T492 950H536V942Q519
921 494 894T441 839T386 790H358V797Z" />
<glyph unicode="&#xc2;" glyph-name="Acircumflex" horiz-adv-x="550" d="M-51 0L360 716H399L501 0H463L425 261H142L-8 0H-51ZM162 297H420L383 565Q379 588 376 615T371 669H369Q357 643 343 617T314 564L162 297ZM259 797Q280 817 307 844T359 898T400 948H435Q442
926 455 899T484 845T513 797L512 790H486Q466 815 447 847T412 908Q385 880 352 848T289 790H258L259 797Z" />
<glyph unicode="&#xc3;" glyph-name="Atilde" horiz-adv-x="550" d="M-51 0L360 716H399L501 0H463L425 261H142L-8 0H-51ZM162 297H420L383 565Q379 588 376 615T371 669H369Q357 643 343 617T314 564L162 297ZM234 800Q247 851 271 877T335 904Q359 904 377
893T412 869T442 845T473 834Q495 834 512 847T543 904H575Q561 854 537 827T471 799Q450 799 433 809T399 834T367 858T333 869Q312 869 296 855T266 800H234Z" />
<glyph unicode="&#xc4;" glyph-name="Adieresis" horiz-adv-x="550" d="M-51 0L360 716H399L501 0H463L425 261H142L-8 0H-51ZM162 297H420L383 565Q379 588 376 615T371 669H369Q357 643 343 617T314 564L162 297ZM483 828Q459 828 459 853Q459 868 466 882T493
897Q517 897 517 872Q517 856 509 842T483 828ZM306 828Q282 828 282 853Q282 868 290 882T316 897Q340 897 340 872Q340 856 332 842T306 828Z" />
<glyph unicode="&#xc5;" glyph-name="Aring" horiz-adv-x="550" d="M-51 0L360 716H399L501 0H463L425 261H142L-8 0H-51ZM162 297H420L383 565Q379 588 376 615T371 669H369Q357 643 343 617T314 564L162 297ZM391 713Q349 713 319 740T289 814Q289 858 319 886T391
915Q434 915 463 886T493 814Q493 769 464 741T391 713ZM391 742Q423 742 443 763T463 814Q463 844 442 865T391 886Q360 886 340 865T319 814Q319 784 339 763T391 742Z" />
<glyph unicode="&#xc6;" glyph-name="AE" horiz-adv-x="791" d="M-52 0L393 714H827L819 678H492L431 394H740L733 358H424L356 36H683L676 0H309L364 260H154L-6 0H-52ZM177 296H371L451 678H413L177 296Z" />
<glyph unicode="&#xc7;" glyph-name="Ccedilla" horiz-adv-x="593" d="M326 -10Q249 -10 195 24T111 120T82 267Q82 365 110 448T190 593T313 689T468 724Q562 724 633 686L616 651Q582 671 545 679T468 688Q392 688 329 657T219 569T147 436T122 269Q122 156
177 91T330 26Q379 26 421 34T500 55V21Q465 8 422 -1T326 -10ZM232 -240Q199 -240 179 -234V-205Q201 -210 229 -210Q250 -210 271 -203T308 -180T323 -138Q323 -87 241 -86L288 0H320L287 -63Q318 -67 338 -86T359 -138Q359 -186 321 -213T232 -240Z" />
<glyph unicode="&#xc8;" glyph-name="Egrave" horiz-adv-x="531" d="M48 0L199 714H558L551 678H231L171 394H471L464 358H164L95 36H414L407 0H48ZM404 790Q388 808 368 836T331 893T305 940V950H346Q356 925 370 897T400 844T427 802V790H404Z" />
<glyph unicode="&#xc9;" glyph-name="Eacute" horiz-adv-x="531" d="M48 0L199 714H558L551 678H231L171 394H471L464 358H164L95 36H414L407 0H48ZM353 797Q375 817 400 844T449 900T487 950H531V942Q514 921 489 894T436 839T381 790H353V797Z" />
<glyph unicode="&#xca;" glyph-name="Ecircumflex" horiz-adv-x="531" d="M48 0L199 714H558L551 678H231L171 394H471L464 358H164L95 36H414L407 0H48ZM266 797Q287 817 314 844T366 898T407 948H442Q449 926 462 899T491 845T520 797L519 790H493Q473 815 454
847T419 908Q392 880 359 848T296 790H265L266 797Z" />
<glyph unicode="&#xcb;" glyph-name="Edieresis" horiz-adv-x="531" d="M48 0L199 714H558L551 678H231L171 394H471L464 358H164L95 36H414L407 0H48ZM494 828Q470 828 470 853Q470 868 477 882T504 897Q528 897 528 872Q528 856 520 842T494 828ZM317 828Q293
828 293 853Q293 868 301 882T327 897Q351 897 351 872Q351 856 343 842T317 828Z" />
<glyph unicode="&#xcc;" glyph-name="Igrave" horiz-adv-x="288" d="M2 0L8 26L77 32L215 681L148 688L153 714H330L325 688L254 681L116 32L184 26L179 0H2ZM271 790Q255 808 235 836T198 893T172 940V950H213Q223 925 237 897T267 844T294 802V790H271Z" />
<glyph unicode="&#xcd;" glyph-name="Iacute" horiz-adv-x="288" d="M2 0L8 26L77 32L215 681L148 688L153 714H330L325 688L254 681L116 32L184 26L179 0H2ZM219 797Q241 817 266 844T315 900T353 950H397V942Q380 921 355 894T302 839T247 790H219V797Z" />
<glyph unicode="&#xce;" glyph-name="Icircumflex" horiz-adv-x="288" d="M2 0L8 26L77 32L215 681L148 688L153 714H330L325 688L254 681L116 32L184 26L179 0H2ZM121 797Q142 817 169 844T221 898T262 948H297Q304 926 317 899T346 845T375 797L374 790H348Q328
815 309 847T274 908Q247 880 214 848T151 790H120L121 797Z" />
<glyph unicode="&#xcf;" glyph-name="Idieresis" horiz-adv-x="288" d="M2 0L8 26L77 32L215 681L148 688L153 714H330L325 688L254 681L116 32L184 26L179 0H2ZM349 828Q325 828 325 853Q325 868 332 882T359 897Q383 897 383 872Q383 856 375 842T349 828ZM172
828Q148 828 148 853Q148 868 156 882T182 897Q206 897 206 872Q206 856 198 842T172 828Z" />
<glyph unicode="&#xd0;" glyph-name="Eth" horiz-adv-x="675" d="M48 0L120 338L107 337L46 357L125 362L199 714H349Q484 714 560 643T637 426Q637 341 610 265T529 129T393 35T200 0H48ZM202 36Q299 36 372 66T496 151T571 276T596 426Q596 556 529 617T339
678H232L165 365L289 373L350 353L160 341L95 36H202Z" />
<glyph unicode="&#xd1;" glyph-name="Ntilde" horiz-adv-x="681" d="M48 0L199 714H233L503 68H506Q513 107 521 151T537 233L640 714H678L527 0H492L222 645H220Q212 604 205 563T188 479L87 0H48ZM305 800Q318 851 342 877T406 904Q430 904 448 893T483 869T513
845T544 834Q566 834 583 847T614 904H646Q632 854 608 827T542 799Q521 799 504 809T470 834T438 858T404 869Q383 869 367 855T337 800H305Z" />
<glyph unicode="&#xd2;" glyph-name="Ograve" horiz-adv-x="717" d="M335 -10Q244 -10 189 28T108 130T82 274Q82 358 103 438T168 583T277 686T431 725Q545 725 612 656T679 446Q679 393 668 332T633 210T569 100T471 20T335 -10ZM336 26Q402 26 452 53T537 125T595
226T627 338T638 445Q638 558 586 623T429 689Q362 689 312 664T226 595T167 499T133 387T122 275Q122 201 145 145T215 58T336 26ZM470 790Q454 808 434 836T397 893T371 940V950H412Q422 925 436 897T466 844T493 802V790H470Z" />
<glyph unicode="&#xd3;" glyph-name="Oacute" horiz-adv-x="717" d="M335 -10Q244 -10 189 28T108 130T82 274Q82 358 103 438T168 583T277 686T431 725Q545 725 612 656T679 446Q679 393 668 332T633 210T569 100T471 20T335 -10ZM336 26Q402 26 452 53T537 125T595
226T627 338T638 445Q638 558 586 623T429 689Q362 689 312 664T226 595T167 499T133 387T122 275Q122 201 145 145T215 58T336 26ZM419 797Q441 817 466 844T515 900T553 950H597V942Q580 921 555 894T502 839T447 790H419V797Z" />
<glyph unicode="&#xd4;" glyph-name="Ocircumflex" horiz-adv-x="717" d="M335 -10Q244 -10 189 28T108 130T82 274Q82 358 103 438T168 583T277 686T431 725Q545 725 612 656T679 446Q679 393 668 332T633 210T569 100T471 20T335 -10ZM336 26Q402 26 452 53T537
125T595 226T627 338T638 445Q638 558 586 623T429 689Q362 689 312 664T226 595T167 499T133 387T122 275Q122 201 145 145T215 58T336 26ZM322 797Q343 817 370 844T422 898T463 948H498Q505 926 518 899T547 845T576 797L575 790H549Q529 815 510 847T475 908Q448
880 415 848T352 790H321L322 797Z" />
<glyph unicode="&#xd5;" glyph-name="Otilde" horiz-adv-x="717" d="M335 -10Q244 -10 189 28T108 130T82 274Q82 358 103 438T168 583T277 686T431 725Q545 725 612 656T679 446Q679 393 668 332T633 210T569 100T471 20T335 -10ZM336 26Q402 26 452 53T537 125T595
226T627 338T638 445Q638 558 586 623T429 689Q362 689 312 664T226 595T167 499T133 387T122 275Q122 201 145 145T215 58T336 26ZM300 800Q313 851 337 877T401 904Q425 904 443 893T478 869T508 845T539 834Q561 834 578 847T609 904H641Q627 854 603 827T537
799Q516 799 499 809T465 834T433 858T399 869Q378 869 362 855T332 800H300Z" />
<glyph unicode="&#xd6;" glyph-name="Odieresis" horiz-adv-x="717" d="M335 -10Q244 -10 189 28T108 130T82 274Q82 358 103 438T168 583T277 686T431 725Q545 725 612 656T679 446Q679 393 668 332T633 210T569 100T471 20T335 -10ZM336 26Q402 26 452 53T537
125T595 226T627 338T638 445Q638 558 586 623T429 689Q362 689 312 664T226 595T167 499T133 387T122 275Q122 201 145 145T215 58T336 26ZM569 828Q545 828 545 853Q545 868 552 882T579 897Q603 897 603 872Q603 856 595 842T569 828ZM392 828Q368 828 368 853Q368
868 376 882T402 897Q426 897 426 872Q426 856 418 842T392 828Z" />
<glyph unicode="&#xd7;" glyph-name="multiply" horiz-adv-x="570" d="M497 568L520 545L329 353L520 161L497 138L305 329L114 138L90 161L281 353L90 544L114 568L305 377L497 568Z" />
<glyph unicode="&#xd8;" glyph-name="Oslash" horiz-adv-x="717" d="M58 -29L32 -5L124 97Q102 133 92 178T82 274Q82 358 103 438T168 583T277 686T431 725Q490 725 536 706T615 649L698 742L725 720L636 620Q679 555 679 446Q679 393 668 332T633 210T569 100T471
20T335 -10Q269 -10 223 11T146 69L58 -29ZM589 620Q563 653 523 671T429 689Q362 689 312 664T225 596T167 499T133 387T122 275Q122 233 129 196T152 129L589 620ZM336 26Q402 26 452 53T537 125T595 226T628 338T638 445Q638 532 609 588L171 98Q196 65 237
46T336 26Z" />
<glyph unicode="&#xd9;" glyph-name="Ugrave" horiz-adv-x="689" d="M300 -10Q201 -10 144 40T86 184Q86 201 88 220T95 260L192 714H231L135 260Q127 219 127 186Q127 108 173 67T302 26Q400 26 464 83T554 256L652 714H692L594 250Q565 117 490 54T300 -10ZM468
790Q452 808 432 836T395 893T369 940V950H410Q420 925 434 897T464 844T491 802V790H468Z" />
<glyph unicode="&#xda;" glyph-name="Uacute" horiz-adv-x="689" d="M300 -10Q201 -10 144 40T86 184Q86 201 88 220T95 260L192 714H231L135 260Q127 219 127 186Q127 108 173 67T302 26Q400 26 464 83T554 256L652 714H692L594 250Q565 117 490 54T300 -10ZM410
797Q432 817 457 844T506 900T544 950H588V942Q571 921 546 894T493 839T438 790H410V797Z" />
<glyph unicode="&#xdb;" glyph-name="Ucircumflex" horiz-adv-x="689" d="M300 -10Q201 -10 144 40T86 184Q86 201 88 220T95 260L192 714H231L135 260Q127 219 127 186Q127 108 173 67T302 26Q400 26 464 83T554 256L652 714H692L594 250Q565 117 490 54T300
-10ZM317 797Q338 817 365 844T417 898T458 948H493Q500 926 513 899T542 845T571 797L570 790H544Q524 815 505 847T470 908Q443 880 410 848T347 790H316L317 797Z" />
<glyph unicode="&#xdc;" glyph-name="Udieresis" horiz-adv-x="689" d="M300 -10Q201 -10 144 40T86 184Q86 201 88 220T95 260L192 714H231L135 260Q127 219 127 186Q127 108 173 67T302 26Q400 26 464 83T554 256L652 714H692L594 250Q565 117 490 54T300 -10ZM555
828Q531 828 531 853Q531 868 538 882T565 897Q589 897 589 872Q589 856 581 842T555 828ZM378 828Q354 828 354 853Q354 868 362 882T388 897Q412 897 412 872Q412 856 404 842T378 828Z" />
<glyph unicode="&#xdd;" glyph-name="Yacute" horiz-adv-x="490" d="M169 0L226 270L95 714H135L252 312L537 714H583L266 273L209 0H169ZM314 797Q336 817 361 844T410 900T448 950H492V942Q475 921 450 894T397 839T342 790H314V797Z" />
<glyph unicode="&#xde;" glyph-name="Thorn" horiz-adv-x="560" d="M48 0L199 714H239L211 584H328Q431 584 481 540T532 417Q532 324 492 270T383 192T230 169H123L88 0H48ZM236 205Q307 205 365 224T457 290T492 415Q492 548 321 548H204L131 205H236Z" />
<glyph unicode="&#xdf;" glyph-name="germandbls" horiz-adv-x="542" d="M-84 -240Q-101 -240 -115 -237T-140 -230V-194Q-128 -200 -114 -202T-85 -205Q-48 -205 -25 -180T9 -106L151 564Q172 664 223 714T366 765Q437 765 475 731T513 645Q513 602 498 576T459
531T410 498Q379 479 355 457T330 393Q330 365 352 344T397 302Q426 277 448 246T471 164Q471 85 423 38T285 -10Q240 -10 209 -2T157 19V57Q183 43 215 34T283 25Q354 25 392 60T430 162Q430 201 413 226T370 276Q340 303 316 328T292 392Q292 429 306 452T341
492T386 522Q408 536 428 551T460 588T473 643Q473 681 444 705T364 730Q288 730 247 687T189 564L47 -108Q20 -240 -84 -240Z" />
<glyph unicode="&#xe0;" glyph-name="agrave" horiz-adv-x="551" d="M196 -10Q126 -10 88 40T50 177Q50 241 67 305T119 422T203 507T317 540Q362 540 390 521T435 473T457 416H460L488 530H519L407 0H375L400 131H397Q379 101 349 68T280 13T196 -10ZM204 25Q248
25 293 56T374 142T425 264Q437 323 437 359Q437 428 405 466T318 505Q264 505 222 477T150 400T105 294T90 177Q90 106 118 66T204 25ZM375 606Q359 624 339 652T302 709T276 756V766H317Q327 741 341 713T371 660T398 618V606H375Z" />
<glyph unicode="&#xe1;" glyph-name="aacute" horiz-adv-x="551" d="M196 -10Q126 -10 88 40T50 177Q50 241 67 305T119 422T203 507T317 540Q362 540 390 521T435 473T457 416H460L488 530H519L407 0H375L400 131H397Q379 101 349 68T280 13T196 -10ZM204 25Q248
25 293 56T374 142T425 264Q437 323 437 359Q437 428 405 466T318 505Q264 505 222 477T150 400T105 294T90 177Q90 106 118 66T204 25ZM307 613Q329 633 354 660T403 716T441 766H485V758Q468 737 443 710T390 655T335 606H307V613Z" />
<glyph unicode="&#xe2;" glyph-name="acircumflex" horiz-adv-x="551" d="M196 -10Q126 -10 88 40T50 177Q50 241 67 305T119 422T203 507T317 540Q362 540 390 521T435 473T457 416H460L488 530H519L407 0H375L400 131H397Q379 101 349 68T280 13T196 -10ZM204
25Q248 25 293 56T374 142T425 264Q437 323 437 359Q437 428 405 466T318 505Q264 505 222 477T150 400T105 294T90 177Q90 106 118 66T204 25ZM220 613Q241 633 268 660T320 714T361 764H396Q403 742 416 715T445 661T474 613L473 606H447Q427 631 408 663T373
724Q346 696 313 664T250 606H219L220 613Z" />
<glyph unicode="&#xe3;" glyph-name="atilde" horiz-adv-x="551" d="M196 -10Q126 -10 88 40T50 177Q50 241 67 305T119 422T203 507T317 540Q362 540 390 521T435 473T457 416H460L488 530H519L407 0H375L400 131H397Q379 101 349 68T280 13T196 -10ZM204 25Q248
25 293 56T374 142T425 264Q437 323 437 359Q437 428 405 466T318 505Q264 505 222 477T150 400T105 294T90 177Q90 106 118 66T204 25ZM181 616Q194 667 218 693T282 720Q306 720 324 709T359 685T389 661T420 650Q442 650 459 663T490 720H522Q508 670 484 643T418
615Q397 615 380 625T346 650T314 674T280 685Q259 685 243 671T213 616H181Z" />
<glyph unicode="&#xe4;" glyph-name="adieresis" horiz-adv-x="551" d="M196 -10Q126 -10 88 40T50 177Q50 241 67 305T119 422T203 507T317 540Q362 540 390 521T435 473T457 416H460L488 530H519L407 0H375L400 131H397Q379 101 349 68T280 13T196 -10ZM204
25Q248 25 293 56T374 142T425 264Q437 323 437 359Q437 428 405 466T318 505Q264 505 222 477T150 400T105 294T90 177Q90 106 118 66T204 25ZM703 644Q679 644 679 669Q679 684 686 698T713 713Q737 713 737 688Q737 672 729 658T703 644ZM526 644Q502 644 502
669Q502 684 510 698T536 713Q560 713 560 688Q560 672 552 658T526 644Z" />
<glyph unicode="&#xe5;" glyph-name="aring" horiz-adv-x="551" d="M196 -10Q126 -10 88 40T50 177Q50 241 67 305T119 422T203 507T317 540Q362 540 390 521T435 473T457 416H460L488 530H519L407 0H375L400 131H397Q379 101 349 68T280 13T196 -10ZM204 25Q248
25 293 56T374 142T425 264Q437 323 437 359Q437 428 405 466T318 505Q264 505 222 477T150 400T105 294T90 177Q90 106 118 66T204 25ZM354 610Q312 610 282 637T252 711Q252 755 282 783T354 812Q397 812 426 783T456 711Q456 666 427 638T354 610ZM354 639Q386
639 406 660T426 711Q426 741 405 762T354 783Q323 783 303 762T282 711Q282 681 302 660T354 639Z" />
<glyph unicode="&#xe6;" glyph-name="ae" horiz-adv-x="838" d="M191 -10Q125 -10 88 40T50 177Q50 241 67 305T118 422T200 507T312 540Q355 540 380 520T418 471T435 416H438L467 530H497L472 417Q507 472 556 506T675 540Q727 540 763 508T800 424Q800 361
758 323T641 268T472 251H441Q440 240 439 225T438 194Q438 115 477 70T593 25Q633 25 667 36T729 59V24Q702 9 665 0T589 -10Q524 -10 476 23T413 130L385 0H356L380 126H378Q359 93 333 62T271 10T191 -10ZM487 285Q566 285 627 299T724 344T760 422Q760 456
737 480T670 505Q621 505 576 479T496 404T447 285H487ZM199 25Q245 25 286 56T359 142T405 265Q411 296 414 318T417 359Q417 428 390 466T313 505Q261 505 220 477T150 400T106 294T90 177Q90 105 118 65T199 25Z" />
<glyph unicode="&#xe7;" glyph-name="ccedilla" horiz-adv-x="452" d="M247 -10Q155 -10 105 46T54 193Q54 262 72 324T127 435T215 512T334 540Q368 540 401 534T459 515L447 480Q423 492 393 498T334 505Q260 505 206 463T123 351T93 195Q93 123 133 74T250
25Q285 25 315 33T377 55V20Q352 7 320 -1T247 -10ZM150 -240Q117 -240 97 -234V-205Q119 -210 147 -210Q168 -210 189 -203T226 -180T241 -138Q241 -87 159 -86L206 0H238L205 -63Q236 -67 256 -86T277 -138Q277 -186 239 -213T150 -240Z" />
<glyph unicode="&#xe8;" glyph-name="egrave" horiz-adv-x="493" d="M245 -10Q195 -10 153 11T85 78T59 194Q59 264 79 326T136 437T222 512T330 540Q389 540 424 508T460 423Q460 361 418 323T301 268T133 251H102Q101 240 100 225T99 194Q99 112 140 69T252
25Q294 25 328 36T390 59V23Q365 10 327 0T245 -10ZM148 285Q227 285 288 299T385 344T421 421Q421 457 397 481T325 505Q280 505 236 479T158 404T108 285H148ZM344 606Q328 624 308 652T271 709T245 756V766H286Q296 741 310 713T340 660T367 618V606H344Z" />
<glyph unicode="&#xe9;" glyph-name="eacute" horiz-adv-x="493" d="M245 -10Q195 -10 153 11T85 78T59 194Q59 264 79 326T136 437T222 512T330 540Q389 540 424 508T460 423Q460 361 418 323T301 268T133 251H102Q101 240 100 225T99 194Q99 112 140 69T252
25Q294 25 328 36T390 59V23Q365 10 327 0T245 -10ZM148 285Q227 285 288 299T385 344T421 421Q421 457 397 481T325 505Q280 505 236 479T158 404T108 285H148ZM285 613Q307 633 332 660T381 716T419 766H463V758Q446 737 421 710T368 655T313 606H285V613Z" />
<glyph unicode="&#xea;" glyph-name="ecircumflex" horiz-adv-x="493" d="M245 -10Q195 -10 153 11T85 78T59 194Q59 264 79 326T136 437T222 512T330 540Q389 540 424 508T460 423Q460 361 418 323T301 268T133 251H102Q101 240 100 225T99 194Q99 112 140 69T252
25Q294 25 328 36T390 59V23Q365 10 327 0T245 -10ZM148 285Q227 285 288 299T385 344T421 421Q421 457 397 481T325 505Q280 505 236 479T158 404T108 285H148ZM192 613Q213 633 240 660T292 714T333 764H368Q375 742 388 715T417 661T446 613L445 606H419Q399
631 380 663T345 724Q318 696 285 664T222 606H191L192 613Z" />
<glyph unicode="&#xeb;" glyph-name="edieresis" horiz-adv-x="493" d="M245 -10Q195 -10 153 11T85 78T59 194Q59 264 79 326T136 437T222 512T330 540Q389 540 424 508T460 423Q460 361 418 323T301 268T133 251H102Q101 240 100 225T99 194Q99 112 140 69T252
25Q294 25 328 36T390 59V23Q365 10 327 0T245 -10ZM148 285Q227 285 288 299T385 344T421 421Q421 457 397 481T325 505Q280 505 236 479T158 404T108 285H148ZM673 644Q649 644 649 669Q649 684 656 698T683 713Q707 713 707 688Q707 672 699 658T673 644ZM496
644Q472 644 472 669Q472 684 480 698T506 713Q530 713 530 688Q530 672 522 658T496 644Z" />
<glyph unicode="&#xec;" glyph-name="igrave" horiz-adv-x="217" d="M31 0L144 530H182L70 0H31ZM448 606Q432 624 412 652T375 709T349 756V766H390Q400 741 414 713T444 660T471 618V606H448Z" />
<glyph unicode="&#xed;" glyph-name="iacute" horiz-adv-x="217" d="M31 0L144 530H182L70 0H31ZM132 613Q154 633 179 660T228 716T266 766H310V758Q293 737 268 710T215 655T160 606H132V613Z" />
<glyph unicode="&#xee;" glyph-name="icircumflex" horiz-adv-x="217" d="M31 0L144 530H182L70 0H31ZM305 613Q326 633 353 660T405 714T446 764H481Q488 742 501 715T530 661T559 613L558 606H532Q512 631 493 663T458 724Q431 696 398 664T335 606H304L305 613Z" />
<glyph unicode="&#xef;" glyph-name="idieresis" horiz-adv-x="217" d="M31 0L144 530H182L70 0H31ZM272 644Q248 644 248 669Q248 684 255 698T282 713Q306 713 306 688Q306 672 298 658T272 644ZM95 644Q71 644 71 669Q71 684 79 698T105 713Q129 713 129 688Q129
672 121 658T95 644Z" />
<glyph unicode="&#xf0;" glyph-name="eth" horiz-adv-x="555" d="M226 -10Q171 -10 131 15T70 83T49 182Q49 237 65 288T113 379T191 443T296 467Q363 467 405 434T461 354H464Q464 431 442 507T375 643L242 568L227 596L354 666Q324 701 279 734L303 763Q326
745 347 725T386 685L510 754L526 726L407 661Q444 607 471 530T499 353Q499 283 483 218T433 102T348 20T226 -10ZM228 25Q287 25 336 57T416 148T446 286Q446 316 432 350T386 408T296 432Q230 432 184 397T113 306T88 183Q88 112 126 69T228 25Z" />
<glyph unicode="&#xf1;" glyph-name="ntilde" horiz-adv-x="558" d="M30 0L143 530H176L152 399H154Q171 429 200 462T271 517T364 540Q429 540 464 507T500 409Q500 393 498 375T491 339L419 0H379L452 343Q460 378 460 404Q460 455 433 479T356 504Q305 504
258 473T176 387T127 265L70 0H30ZM183 616Q196 667 220 693T284 720Q308 720 326 709T361 685T391 661T422 650Q444 650 461 663T492 720H524Q510 670 486 643T420 615Q399 615 382 625T348 650T316 674T282 685Q261 685 245 671T215 616H183Z" />
<glyph unicode="&#xf2;" glyph-name="ograve" horiz-adv-x="565" d="M239 -10Q147 -10 101 46T54 193Q54 294 89 372T186 494T328 539Q417 539 464 483T511 338Q511 268 493 206T440 95T355 18T239 -10ZM243 25Q313 25 364 66T443 179T471 340Q471 410 436 457T327
504Q260 504 207 465T124 356T93 193Q93 115 131 70T243 25ZM357 606Q341 624 321 652T284 709T258 756V766H299Q309 741 323 713T353 660T380 618V606H357Z" />
<glyph unicode="&#xf3;" glyph-name="oacute" horiz-adv-x="565" d="M239 -10Q147 -10 101 46T54 193Q54 294 89 372T186 494T328 539Q417 539 464 483T511 338Q511 268 493 206T440 95T355 18T239 -10ZM243 25Q313 25 364 66T443 179T471 340Q471 410 436 457T327
504Q260 504 207 465T124 356T93 193Q93 115 131 70T243 25ZM304 613Q326 633 351 660T400 716T438 766H482V758Q465 737 440 710T387 655T332 606H304V613Z" />
<glyph unicode="&#xf4;" glyph-name="ocircumflex" horiz-adv-x="565" d="M239 -10Q147 -10 101 46T54 193Q54 294 89 372T186 494T328 539Q417 539 464 483T511 338Q511 268 493 206T440 95T355 18T239 -10ZM243 25Q313 25 364 66T443 179T471 340Q471 410 436
457T327 504Q260 504 207 465T124 356T93 193Q93 115 131 70T243 25ZM208 613Q229 633 256 660T308 714T349 764H384Q391 742 404 715T433 661T462 613L461 606H435Q415 631 396 663T361 724Q334 696 301 664T238 606H207L208 613Z" />
<glyph unicode="&#xf5;" glyph-name="otilde" horiz-adv-x="565" d="M239 -10Q147 -10 101 46T54 193Q54 294 89 372T186 494T328 539Q417 539 464 483T511 338Q511 268 493 206T440 95T355 18T239 -10ZM243 25Q313 25 364 66T443 179T471 340Q471 410 436 457T327
504Q260 504 207 465T124 356T93 193Q93 115 131 70T243 25ZM183 616Q196 667 220 693T284 720Q308 720 326 709T361 685T391 661T422 650Q444 650 461 663T492 720H524Q510 670 486 643T420 615Q399 615 382 625T348 650T316 674T282 685Q261 685 245 671T215
616H183Z" />
<glyph unicode="&#xf6;" glyph-name="odieresis" horiz-adv-x="565" d="M239 -10Q147 -10 101 46T54 193Q54 294 89 372T186 494T328 539Q417 539 464 483T511 338Q511 268 493 206T440 95T355 18T239 -10ZM243 25Q313 25 364 66T443 179T471 340Q471 410 436
457T327 504Q260 504 207 465T124 356T93 193Q93 115 131 70T243 25ZM698 644Q674 644 674 669Q674 684 681 698T708 713Q732 713 732 688Q732 672 724 658T698 644ZM521 644Q497 644 497 669Q497 684 505 698T531 713Q555 713 555 688Q555 672 547 658T521 644Z"
/>
<glyph unicode="&#xf7;" glyph-name="divide" horiz-adv-x="570" d="M304 492Q288 492 281 502T273 529Q273 546 280 556T304 566Q323 566 330 556T337 529Q337 513 330 503T304 492ZM74 336V370H536V336H74ZM304 139Q288 139 281 149T273 176Q273 193 280 203T304
213Q323 213 330 203T337 176Q337 160 330 150T304 139Z" />
<glyph unicode="&#xf8;" glyph-name="oslash" horiz-adv-x="565" d="M28 -31L3 -8L81 75Q54 122 54 193Q54 294 89 372T186 494T328 539Q373 539 407 524T464 482L536 558L562 536L484 456Q511 407 511 339Q511 270 493 207T440 96T355 19T239 -10Q192 -10 158
5T102 48L28 -31ZM439 455Q422 477 394 490T327 504Q260 504 207 465T124 357T93 194Q93 168 97 145T109 105L439 455ZM243 25Q313 25 364 66T444 179T472 338Q472 389 456 424L126 75Q164 25 243 25Z" />
<glyph unicode="&#xf9;" glyph-name="ugrave" horiz-adv-x="558" d="M190 -10Q125 -10 90 23T55 121Q55 137 57 154T64 191L135 530H174L101 186Q94 153 94 126Q94 74 121 50T198 25Q249 25 296 56T379 142T428 264L485 530H523L411 0H378L403 131H400Q383 101
354 68T283 13T190 -10ZM367 606Q351 624 331 652T294 709T268 756V766H309Q319 741 333 713T363 660T390 618V606H367Z" />
<glyph unicode="&#xfa;" glyph-name="uacute" horiz-adv-x="558" d="M190 -10Q125 -10 90 23T55 121Q55 137 57 154T64 191L135 530H174L101 186Q94 153 94 126Q94 74 121 50T198 25Q249 25 296 56T379 142T428 264L485 530H523L411 0H378L403 131H400Q383 101
354 68T283 13T190 -10ZM304 613Q326 633 351 660T400 716T438 766H482V758Q465 737 440 710T387 655T332 606H304V613Z" />
<glyph unicode="&#xfb;" glyph-name="ucircumflex" horiz-adv-x="558" d="M190 -10Q125 -10 90 23T55 121Q55 137 57 154T64 191L135 530H174L101 186Q94 153 94 126Q94 74 121 50T198 25Q249 25 296 56T379 142T428 264L485 530H523L411 0H378L403 131H400Q383
101 354 68T283 13T190 -10ZM212 613Q233 633 260 660T312 714T353 764H388Q395 742 408 715T437 661T466 613L465 606H439Q419 631 400 663T365 724Q338 696 305 664T242 606H211L212 613Z" />
<glyph unicode="&#xfc;" glyph-name="udieresis" horiz-adv-x="558" d="M190 -10Q125 -10 90 23T55 121Q55 137 57 154T64 191L135 530H174L101 186Q94 153 94 126Q94 74 121 50T198 25Q249 25 296 56T379 142T428 264L485 530H523L411 0H378L403 131H400Q383
101 354 68T283 13T190 -10ZM695 644Q671 644 671 669Q671 684 678 698T705 713Q729 713 729 688Q729 672 721 658T695 644ZM518 644Q494 644 494 669Q494 684 502 698T528 713Q552 713 552 688Q552 672 544 658T518 644Z" />
<glyph unicode="&#xfd;" glyph-name="yacute" horiz-adv-x="422" d="M-50 -242Q-87 -242 -110 -232V-197Q-98 -202 -84 -205T-50 -208Q-13 -208 16 -181T78 -96L136 4L50 530H88L142 192Q150 145 154 107T161 44H163Q174 66 193 104T236 183L428 530H470L112 -110Q76
-174 39 -208T-50 -242ZM224 613Q246 633 271 660T320 716T358 766H402V758Q385 737 360 710T307 655T252 606H224V613Z" />
<glyph unicode="&#xfe;" glyph-name="thorn" horiz-adv-x="570" d="M-18 -234L192 760H231L186 551Q179 517 170 476T150 399H153Q173 433 204 465T275 518T362 539Q433 539 474 489T516 352Q516 289 500 225T449 108T364 23T245 -10Q198 -10 167 8T117 54T93
113H90Q86 83 80 49T67 -14L20 -234H-18ZM244 25Q302 25 345 54T418 130T462 236T477 353Q477 424 445 464T353 505Q304 505 258 474T175 388T123 262Q117 234 115 212T113 170Q113 98 149 62T244 25Z" />
<glyph unicode="&#xff;" glyph-name="ydieresis" horiz-adv-x="422" d="M-50 -242Q-87 -242 -110 -232V-197Q-98 -202 -84 -205T-50 -208Q-13 -208 16 -181T78 -96L136 4L50 530H88L142 192Q150 145 154 107T161 44H163Q174 66 193 104T236 183L428 530H470L112
-110Q76 -174 39 -208T-50 -242ZM621 644Q597 644 597 669Q597 684 604 698T631 713Q655 713 655 688Q655 672 647 658T621 644ZM444 644Q420 644 420 669Q420 684 428 698T454 713Q478 713 478 688Q478 672 470 658T444 644Z" />
<glyph unicode="&#x2013;" glyph-name="endash" horiz-adv-x="480" d="M36 253L43 289H443L436 253H36Z" />
<glyph unicode="&#x2014;" glyph-name="emdash" horiz-adv-x="956" d="M36 253L43 289H919L912 253H36Z" />
<glyph unicode="&#x2018;" glyph-name="quoteleft" horiz-adv-x="132" d="M64 478Q86 538 117 600T184 714H213Q192 678 171 635T133 548T104 469H69L64 478Z" />
<glyph unicode="&#x2019;" glyph-name="quoteright" horiz-adv-x="132" d="M60 469Q81 505 102 548T140 635T169 714H205L210 705Q187 645 156 583T90 469H60Z" />
<glyph unicode="&#x201a;" glyph-name="quotesinglbase" horiz-adv-x="202" d="M-43 -129Q-21 -93 0 -50T38 37T67 116H102L107 107Q85 47 54 -15T-13 -129H-43Z" />
<glyph unicode="&#x201c;" glyph-name="quotedblleft" horiz-adv-x="274" d="M206 478Q228 538 259 600T326 714H355Q334 678 313 635T275 548T246 469H210L206 478ZM64 478Q86 538 117 600T184 714H213Q192 678 171 635T133 548T104 469H69L64 478Z" />
<glyph unicode="&#x201d;" glyph-name="quotedblright" horiz-adv-x="274" d="M202 469Q223 505 244 548T282 635T311 714H347L351 705Q329 645 298 583T231 469H202ZM60 469Q81 505 102 548T140 635T169 714H205L210 705Q187 645 156 583T90 469H60Z" />
<glyph unicode="&#x201e;" glyph-name="quotedblbase" horiz-adv-x="351" d="M99 -129Q120 -93 141 -50T179 37T208 116H244L249 107Q226 47 195 -15T129 -129H99ZM-43 -129Q-21 -93 0 -50T38 37T67 116H102L107 107Q85 47 54 -15T-13 -129H-43Z" />
<glyph unicode="&#x2022;" glyph-name="bullet" horiz-adv-x="376" d="M202 287Q146 287 146 348Q146 383 164 413T219 443Q275 443 275 380Q275 346 256 317T202 287Z" />
<glyph unicode="&#x2039;" glyph-name="guilsinglleft" horiz-adv-x="226" d="M131 80L24 271L27 284L212 472L233 451L68 273L158 94L131 80Z" />
<glyph unicode="&#x203a;" glyph-name="guilsinglright" horiz-adv-x="226" d="M16 80L-4 101L161 279L71 459L98 472L204 281L202 268L16 80Z" />
</font>
</defs>
</svg>
