<?xml version="1.0" standalone="no"?>
<!DOCTYPE svg PUBLIC "-//W3C//DTD SVG 1.1//EN" "http://www.w3.org/Graphics/SVG/1.1/DTD/svg11.dtd">
<svg xmlns="http://www.w3.org/2000/svg">
<defs >
<font id="NotoSans" horiz-adv-x="584" ><font-face
    font-family="Noto Sans Medium"
    units-per-em="1000"
    panose-1="2 11 6 2 4 5 4 2 2 4"
    ascent="1069"
    descent="-293"
    alphabetic="0" />
<glyph unicode=" " glyph-name="space" horiz-adv-x="260" />
<glyph unicode="!" glyph-name="exclam" horiz-adv-x="274" d="M175 212H100L75 714H200L175 212ZM68 59Q68 98 88 114T137 130Q164 130 184 114T205 59Q205 20 185 3T137 -14Q108 -14 88 3T68 59Z" />
<glyph unicode="&quot;" glyph-name="quotedbl" horiz-adv-x="427" d="M172 714L152 456H85L65 714H172ZM362 714L342 456H275L255 714H362Z" />
<glyph unicode="#" glyph-name="numbersign" horiz-adv-x="646" d="M482 429L454 283H587V206H439L399 0H317L357 206H228L190 0H110L147 206H24V283H162L191 429H61V506H205L244 714H327L287 506H418L457 714H537L497 506H621V429H482ZM243 283H372L401 429H272L243
283Z" />
<glyph unicode="$" glyph-name="dollar" horiz-adv-x="572" d="M253 46Q195 47 144 56T57 82V180Q93 163 147 150T253 135V322Q149 354 103 395T56 509Q56 583 110 626T253 675V759H318V676Q372 674 417 664T502 637L469 551Q434 565 395 574T318 587V403Q380
383 425 361T496 306T521 221Q521 150 469 105T318 50V-58H253V46ZM253 585Q206 581 183 563T160 514Q160 480 180 461T253 426V585ZM318 139Q369 145 393 164T417 215Q417 247 396 265T318 299V139Z" />
<glyph unicode="%" glyph-name="percent" horiz-adv-x="852" d="M196 724Q273 724 312 666T352 501Q352 395 315 336T196 276Q122 276 83 335T44 501Q44 607 80 665T196 724ZM668 714L272 0H183L579 714H668ZM196 650Q131 650 131 501Q131 350 196 350Q265 350
265 501Q265 650 196 650ZM652 438Q728 438 768 380T808 215Q808 110 771 50T652 -10Q577 -10 538 50T499 215Q499 321 535 379T652 438ZM652 364Q587 364 587 215Q587 65 652 65Q720 65 720 215Q720 364 652 364Z" />
<glyph unicode="&amp;" glyph-name="ampersand" horiz-adv-x="737" d="M306 725Q388 725 437 685T487 570Q487 506 446 461T344 380L521 209Q545 241 561 280T588 365H696Q681 303 655 246T590 142L736 0H598L520 75Q474 37 418 14T284 -10Q175 -10 112 42T49
188Q49 264 88 310T196 396Q162 434 138 474T114 566Q114 640 166 682T306 725ZM303 640Q266 640 241 621T216 564Q216 531 233 503T281 441Q336 472 360 500T385 566Q385 600 362 620T303 640ZM259 331Q213 302 187 272T160 194Q160 143 195 113T289 82Q344 82
384 99T454 141L259 331Z" />
<glyph unicode="&apos;" glyph-name="quotesingle" horiz-adv-x="237" d="M172 714L152 456H85L65 714H172Z" />
<glyph unicode="(" glyph-name="parenleft" horiz-adv-x="312" d="M40 274Q40 396 75 509T187 714H282Q212 620 177 507T141 275Q141 159 176 47T281 -158H187Q111 -70 76 41T40 274Z" />
<glyph unicode=")" glyph-name="parenright" horiz-adv-x="312" d="M272 274Q272 153 236 42T125 -158H31Q100 -65 135 47T170 275Q170 394 135 507T30 714H125Q200 623 236 510T272 274Z" />
<glyph unicode="*" glyph-name="asterisk" horiz-adv-x="549" d="M326 760L306 572L495 625L510 524L331 509L447 355L354 305L271 473L197 305L101 355L215 509L38 524L54 625L240 572L219 760H326Z" />
<glyph unicode="+" glyph-name="plus" horiz-adv-x="572" d="M326 393H522V312H326V111H244V312H48V393H244V595H326V393Z" />
<glyph unicode="," glyph-name="comma" horiz-adv-x="273" d="M201 105Q188 52 164 -11T115 -129H38Q52 -71 66 -4T88 116H194L201 105Z" />
<glyph unicode="-" glyph-name="hyphen" horiz-adv-x="322" d="M37 223V313H285V223H37Z" />
<glyph unicode="." glyph-name="period" horiz-adv-x="273" d="M68 59Q68 98 87 114T136 130Q164 130 184 114T205 59Q205 20 185 3T136 -14Q107 -14 88 3T68 59Z" />
<glyph unicode="/" glyph-name="slash" horiz-adv-x="384" d="M376 714L110 0H9L275 714H376Z" />
<glyph unicode="0" glyph-name="zero" horiz-adv-x="572" d="M527 358Q527 242 503 160T425 34T285 -10Q162 -10 104 87T45 358Q45 473 68 555T145 681T285 725Q407 725 467 629T527 358ZM151 358Q151 218 181 149T285 79Q358 79 389 148T420 358Q420 497 389
566T285 636Q211 636 181 567T151 358Z" />
<glyph unicode="1" glyph-name="one" horiz-adv-x="572" d="M372 0H267V474Q267 511 268 542T271 602Q258 589 244 577T212 549L134 486L80 554L284 714H372V0Z" />
<glyph unicode="2" glyph-name="two" horiz-adv-x="572" d="M526 0H46V82L230 269Q284 324 320 364T374 442T392 524Q392 578 360 606T277 634Q228 634 189 616T108 564L51 635Q94 671 149 697T280 724Q382 724 440 672T499 533Q499 476 476 428T411 331T312 228L179
99V94H526V0Z" />
<glyph unicode="3" glyph-name="three" horiz-adv-x="572" d="M498 549Q498 476 457 433T349 376V372Q434 362 477 319T520 204Q520 142 491 94T400 18T242 -10Q185 -10 136 -1T43 29V125Q88 102 139 90T238 78Q329 78 369 112T409 209Q409 269 361 297T217 325H152V412H218Q309
412 350 446T391 535Q391 583 360 609T269 636Q214 636 174 619T98 578L46 651Q85 681 141 702T272 724Q383 724 440 676T498 549Z" />
<glyph unicode="4" glyph-name="four" horiz-adv-x="572" d="M553 158H454V0H351V158H20V242L349 717H454V248H553V158ZM351 442Q351 489 353 530T356 600H352Q344 580 333 559T309 522L120 248H351V442Z" />
<glyph unicode="5" glyph-name="five" horiz-adv-x="572" d="M282 443Q388 443 453 388T518 231Q518 119 447 55T246 -10Q190 -10 142 0T59 29V126Q95 105 146 92T245 79Q320 79 365 113T410 221Q410 286 370 320T242 355Q213 355 179 350T124 340L75 369L102
714H469V620H194L178 433Q195 436 221 439T282 443Z" />
<glyph unicode="6" glyph-name="six" horiz-adv-x="572" d="M49 304Q49 366 57 426T87 540T147 635T243 699T385 723Q406 723 432 721T476 715V626Q438 638 390 638Q321 638 276 617T205 559T167 473T152 368H158Q180 404 220 428T323 452Q416 452 472 395T529
232Q529 119 467 55T297 -10Q228 -10 172 24T82 127T49 304ZM296 78Q353 78 389 115T425 232Q425 295 394 332T299 369Q256 369 224 351T174 305T156 248Q156 207 172 168T219 104T296 78Z" />
<glyph unicode="7" glyph-name="seven" horiz-adv-x="572" d="M129 0L414 620H39V714H528V638L244 0H129Z" />
<glyph unicode="8" glyph-name="eight" horiz-adv-x="572" d="M285 724Q348 724 397 705T474 647T503 552Q503 488 464 447T370 378Q412 357 447 331T504 269T526 185Q526 125 497 82T413 14T287 -10Q171 -10 108 40T45 182Q45 230 65 266T118 329T190 373Q138
403 103 445T68 553Q68 609 97 646T175 704T285 724ZM284 641Q234 641 202 617T170 547Q170 497 204 470T288 420Q335 440 367 468T400 547Q400 592 368 616T284 641ZM147 184Q147 136 181 104T285 72Q353 72 388 103T424 185Q424 234 386 266T288 323L273 329Q212
303 180 269T147 184Z" />
<glyph unicode="9" glyph-name="nine" horiz-adv-x="572" d="M525 409Q525 348 517 288T487 174T427 79T330 14T188 -10Q167 -10 140 -8T96 -1V88Q136 76 184 76Q252 76 297 96T369 154T407 240T421 344H415Q393 310 354 286T249 261Q156 261 101 318T45 480Q45
593 108 658T277 723Q347 723 403 689T492 586T525 409ZM278 636Q221 636 185 598T149 482Q149 418 180 381T274 344Q318 344 350 362T400 408T418 466Q418 506 403 545T356 610T278 636Z" />
<glyph unicode=":" glyph-name="colon" horiz-adv-x="273" d="M68 479Q68 519 87 535T136 552Q164 552 184 536T205 479Q205 441 185 424T136 407Q107 407 88 424T68 479ZM68 59Q68 98 87 114T136 130Q164 130 184 114T205 59Q205 20 185 3T136 -14Q107 -14 88 3T68 59Z" />
<glyph unicode=";" glyph-name="semicolon" horiz-adv-x="273" d="M66 479Q66 519 86 535T135 552Q163 552 183 536T204 479Q204 441 184 424T135 407Q106 407 86 424T66 479ZM195 105Q182 52 158 -11T109 -129H31Q41 -91 50 -48T68 38T81 116H188L195 105Z" />
<glyph unicode="&lt;" glyph-name="less" horiz-adv-x="572" d="M523 111L48 320V376L523 613V524L159 352L523 200V111Z" />
<glyph unicode="=" glyph-name="equal" horiz-adv-x="572" d="M52 410V491H518V410H52ZM52 213V295H518V213H52Z" />
<glyph unicode="&gt;" glyph-name="greater" horiz-adv-x="572" d="M48 200L412 352L48 524V613L523 376V320L48 111V200Z" />
<glyph unicode="?" glyph-name="question" horiz-adv-x="447" d="M139 241Q139 296 157 331T225 407Q261 436 282 456T311 497T320 545Q320 588 292 611T209 634Q162 634 123 622T47 591L9 671Q52 694 103 709T216 724Q314 724 367 676T421 548Q421 505 407 474T367
416T304 360Q271 334 255 315T232 277T226 232V212H139V241ZM118 59Q118 98 137 114T187 130Q214 130 234 114T255 59Q255 20 235 3T187 -14Q157 -14 138 3T118 59Z" />
<glyph unicode="@" glyph-name="at" horiz-adv-x="898" d="M843 357Q843 311 832 267T800 187T745 130T667 108Q624 108 597 131T563 188H557Q538 155 504 132T418 108Q338 108 295 159T251 296Q251 362 277 413T353 493T470 522Q515 522 559 515T630 497L620
294Q619 278 619 270T619 258Q619 209 635 194T673 178Q702 178 721 202T751 268T762 358Q762 448 726 511T626 607T481 640Q370 640 294 594T178 468T138 284Q138 140 214 63T435 -14Q495 -14 552 -1T656 30V-46Q612 -64 557 -76T436 -88Q316 -88 231 -44T101
82T56 281Q56 374 85 453T169 590T303 681T481 714Q586 714 667 671T796 548T843 357ZM339 294Q339 233 363 206T430 178Q484 178 507 218T535 323L541 443Q528 446 510 449T472 452Q424 452 395 429T352 370T339 294Z" />
<glyph unicode="A" glyph-name="A" horiz-adv-x="654" d="M540 0L464 206H188L112 0H0L271 717H383L653 0H540ZM362 501Q359 512 352 534T337 580T326 619Q318 588 308 553T292 501L220 300H434L362 501Z" />
<glyph unicode="B" glyph-name="B" horiz-adv-x="656" d="M304 714Q440 714 510 674T581 536Q581 473 548 432T452 379V374Q494 367 528 348T583 295T603 204Q603 107 535 54T351 0H95V714H304ZM322 416Q406 416 437 443T469 523Q469 576 431 599T310 623H203V416H322ZM203
328V90H334Q420 90 454 124T489 214Q489 265 454 296T327 328H203Z" />
<glyph unicode="C" glyph-name="C" horiz-adv-x="633" d="M400 631Q293 631 233 558T173 356Q173 229 229 156T399 83Q445 83 487 91T574 114V21Q532 5 489 -2T386 -10Q276 -10 204 35T96 163T60 357Q60 465 99 548T215 677T401 724Q455 724 506 713T601 680L561
590Q526 606 486 618T400 631Z" />
<glyph unicode="D" glyph-name="D" horiz-adv-x="733" d="M673 364Q673 183 574 92T295 0H95V714H316Q425 714 505 674T629 557T673 364ZM560 361Q560 496 495 559T309 623H203V91H290Q560 91 560 361Z" />
<glyph unicode="E" glyph-name="E" horiz-adv-x="557" d="M497 0H95V714H497V622H203V418H479V327H203V93H497V0Z" />
<glyph unicode="F" glyph-name="F" horiz-adv-x="528" d="M202 0H95V714H497V622H202V389H478V297H202V0Z" />
<glyph unicode="G" glyph-name="G" horiz-adv-x="727" d="M393 384H651V28Q594 9 535 0T399 -10Q235 -10 148 87T60 357Q60 469 103 551T230 679T431 724Q490 724 544 713T644 681L605 591Q568 607 523 619T427 631Q308 631 240 557T172 356Q172 275 197 214T276
117T417 82Q460 82 489 86T544 97V291H393V384Z" />
<glyph unicode="H" glyph-name="H" horiz-adv-x="748" d="M652 0H544V326H203V0H95V714H203V418H544V714H652V0Z" />
<glyph unicode="I" glyph-name="I" horiz-adv-x="354" d="M315 0H38V62L123 87V626L38 652V714H315V652L231 626V87L315 62V0Z" />
<glyph unicode="J" glyph-name="J" horiz-adv-x="290" d="M2 -196Q-24 -196 -43 -193T-77 -183V-93Q-61 -97 -43 -100T-5 -103Q20 -103 42 -93T77 -57T91 16V714H199V21Q199 -92 145 -144T2 -196Z" />
<glyph unicode="K" glyph-name="K" horiz-adv-x="632" d="M632 0H507L273 329L203 271V0H95V714H203V369Q229 399 255 429T307 490L500 714H624L351 402L632 0Z" />
<glyph unicode="L" glyph-name="L" horiz-adv-x="536" d="M95 0V714H203V93H508V0H95Z" />
<glyph unicode="M" glyph-name="M" horiz-adv-x="918" d="M406 0L190 607H186Q187 586 189 553T192 480T193 403V0H95V714H249L454 141H458L669 714H823V0H718V409Q718 443 719 480T722 551T725 606H721L499 0H406Z" />
<glyph unicode="N" glyph-name="N" horiz-adv-x="776" d="M681 0H550L189 577H185Q187 537 190 486T193 380V0H95V714H225L585 140H588Q587 161 586 193T583 261T581 330V714H681V0Z" />
<glyph unicode="O" glyph-name="O" horiz-adv-x="785" d="M725 358Q725 247 688 165T577 36T393 -10Q280 -10 206 36T96 165T60 359Q60 469 96 551T207 679T394 725Q504 725 577 680T688 552T725 358ZM174 358Q174 230 227 156T393 82Q507 82 559 156T611 358Q611
486 560 559T394 632Q280 632 227 559T174 358Z" />
<glyph unicode="P" glyph-name="P" horiz-adv-x="612" d="M295 714Q435 714 499 658T563 500Q563 440 537 388T448 304T280 271H203V0H95V714H295ZM287 623H203V362H268Q359 362 405 393T452 496Q452 560 412 591T287 623Z" />
<glyph unicode="Q" glyph-name="Q" horiz-adv-x="785" d="M725 358Q725 230 676 139T527 12L698 -170H550L414 -9Q409 -9 404 -9T393 -10Q280 -10 206 36T96 165T60 359Q60 469 96 551T207 679T394 725Q504 725 577 680T688 552T725 358ZM174 358Q174 230 227
156T393 82Q507 82 559 156T611 358Q611 486 560 559T394 632Q280 632 227 559T174 358Z" />
<glyph unicode="R" glyph-name="R" horiz-adv-x="633" d="M295 714Q432 714 497 663T563 508Q563 453 543 416T490 355T423 317L623 0H499L327 289H203V0H95V714H295ZM288 622H203V379H293Q376 379 414 410T452 504Q452 568 412 595T288 622Z" />
<glyph unicode="S" glyph-name="S" horiz-adv-x="550" d="M505 193Q505 98 436 44T247 -10Q189 -10 138 -1T50 27V129Q90 111 144 97T254 82Q326 82 362 110T398 185Q398 218 382 240T330 282T238 324Q185 344 145 371T81 438T58 536Q58 624 122 674T290 724Q348
724 397 713T492 681L458 592Q417 609 375 620T287 631Q228 631 197 605T166 537Q166 504 181 482T229 441T316 401Q376 377 418 351T483 287T505 193Z" />
<glyph unicode="T" glyph-name="T" horiz-adv-x="563" d="M335 0H227V621H13V714H549V621H335V0Z" />
<glyph unicode="U" glyph-name="U" horiz-adv-x="738" d="M649 252Q649 178 618 119T525 25T366 -10Q230 -10 160 62T89 254V714H197V259Q197 82 371 82Q461 82 501 130T542 260V714H649V252Z" />
<glyph unicode="V" glyph-name="V" horiz-adv-x="615" d="M615 714L363 0H251L0 714H111L264 266Q277 230 289 187T307 109Q313 144 325 187T350 267L503 714H615Z" />
<glyph unicode="W" glyph-name="W" horiz-adv-x="941" d="M932 714L744 0H629L503 441Q496 465 489 495T475 551T467 589Q466 578 461 552T449 495T434 438L310 0H195L8 714H119L224 292Q235 249 244 202T258 117Q263 155 273 204T295 292L414 714H522L645 290Q657
250 667 201T682 117Q687 153 696 201T717 292L822 714H932Z" />
<glyph unicode="X" glyph-name="X" horiz-adv-x="610" d="M607 0H484L302 298L118 0H3L240 371L18 714H138L306 441L475 714H590L368 370L607 0Z" />
<glyph unicode="Y" glyph-name="Y" horiz-adv-x="583" d="M292 380L467 714H583L345 277V0H238V273L0 714H117L292 380Z" />
<glyph unicode="Z" glyph-name="Z" horiz-adv-x="574" d="M539 0H34V77L400 621H45V714H530V637L164 93H539V0Z" />
<glyph unicode="[" glyph-name="bracketleft" horiz-adv-x="330" d="M305 -158H77V714H305V633H175V-77H305V-158Z" />
<glyph unicode="\" glyph-name="backslash" horiz-adv-x="384" d="M109 714L376 0H275L9 714H109Z" />
<glyph unicode="]" glyph-name="bracketright" horiz-adv-x="330" d="M25 -77H154V633H25V714H253V-158H25V-77Z" />
<glyph unicode="^" glyph-name="asciicircum" horiz-adv-x="572" d="M34 263L246 719H302L538 263H449L276 609L122 263H34Z" />
<glyph unicode="_" glyph-name="underscore" horiz-adv-x="434" d="M436 -155H-2V-90H436V-155Z" />
<glyph unicode="`" glyph-name="grave" horiz-adv-x="305" d="M163 766Q175 744 193 717T230 663T265 618V606H194Q170 624 140 652T82 709T40 756V766H163Z" />
<glyph unicode="a" glyph-name="a" horiz-adv-x="574" d="M292 549Q393 549 443 505T494 365V0H419L398 75H394Q359 31 321 11T214 -10Q141 -10 93 29T45 153Q45 235 107 278T298 325L390 328V358Q390 417 363 441T287 466Q246 466 208 454T135 425L101 502Q139
522 188 535T292 549ZM317 257Q225 253 190 227T154 152Q154 110 179 91T244 72Q306 72 347 107T389 212V259L317 257Z" />
<glyph unicode="b" glyph-name="b" horiz-adv-x="620" d="M189 577Q189 544 187 514T184 468H189Q211 502 250 525T352 548Q449 548 508 478T568 270Q568 131 508 61T351 -10Q288 -10 250 12T189 66H181L161 0H83V760H189V577ZM327 462Q249 462 219 417T189 277V269Q189
176 218 127T329 77Q393 77 426 127T459 271Q459 462 327 462Z" />
<glyph unicode="c" glyph-name="c" horiz-adv-x="490" d="M300 -10Q188 -10 120 56T52 266Q52 366 85 428T176 519T308 549Q353 549 392 540T458 518L426 432Q398 443 367 451T307 459Q161 459 161 267Q161 175 197 127T303 79Q348 79 382 89T446 115V23Q417 6
383 -2T300 -10Z" />
<glyph unicode="d" glyph-name="d" horiz-adv-x="620" d="M268 -10Q171 -10 112 60T52 268Q52 407 112 478T270 549Q331 549 370 526T433 470H439Q437 483 434 510T431 558V760H537V0H454L436 72H431Q408 37 369 14T268 -10ZM293 77Q371 77 403 120T435 251V267Q435
361 405 411T292 462Q227 462 194 410T161 266Q161 175 194 126T293 77Z" />
<glyph unicode="e" glyph-name="e" horiz-adv-x="572" d="M295 549Q401 549 462 484T523 305V247H161Q163 164 204 120T321 76Q373 76 413 85T497 114V26Q456 8 415 -1T317 -10Q238 -10 179 21T86 113T52 265Q52 356 82 419T167 515T295 549ZM295 467Q238 467
204 430T163 325H417Q416 388 387 427T295 467Z" />
<glyph unicode="f" glyph-name="f" horiz-adv-x="357" d="M346 458H213V0H107V458H16V508L107 541V575Q107 678 154 721T287 765Q322 765 351 759T400 746L373 665Q356 670 336 674T292 679Q213 679 213 574V539H346V458Z" />
<glyph unicode="g" glyph-name="g" horiz-adv-x="620" d="M269 549Q376 549 434 468H439L451 539H537V-7Q537 -122 476 -181T288 -240Q229 -240 181 -232T91 -207V-114Q177 -156 294 -156Q360 -156 396 -119T432 -13V5Q432 18 433 39T435 71H431Q404 29 363 10T269
-10Q167 -10 110 63T52 268Q52 398 109 473T269 549ZM291 461Q228 461 195 411T161 267Q161 173 194 124T293 75Q367 75 401 115T436 248V268Q436 371 401 416T291 461Z" />
<glyph unicode="h" glyph-name="h" horiz-adv-x="630" d="M189 557Q189 531 187 507T183 466H190Q216 508 259 528T354 548Q449 548 499 501T550 351V0H445V336Q445 462 334 462Q251 462 220 413T189 271V0H83V760H189V557Z" />
<glyph unicode="i" glyph-name="i" horiz-adv-x="272" d="M137 744Q161 744 179 730T197 683Q197 651 179 637T137 622Q111 622 94 636T76 683Q76 716 93 730T137 744ZM189 539V0H83V539H189Z" />
<glyph unicode="j" glyph-name="j" horiz-adv-x="272" d="M76 683Q76 716 93 730T137 744Q161 744 179 730T197 683Q197 651 179 637T137 622Q111 622 94 636T76 683ZM26 -240Q0 -240 -21 -237T-58 -228V-143Q-42 -148 -26 -150T10 -153Q41 -153 62 -136T83 -69V539H189V-74Q189
-149 151 -194T26 -240Z" />
<glyph unicode="k" glyph-name="k" horiz-adv-x="559" d="M188 380Q188 360 186 332T183 282H186Q197 297 216 321T251 362L416 539H539L322 308L553 0H428L250 241L188 189V0H83V760H188V380Z" />
<glyph unicode="l" glyph-name="l" horiz-adv-x="272" d="M189 0H83V760H189V0Z" />
<glyph unicode="m" glyph-name="m" horiz-adv-x="949" d="M687 549Q778 549 824 502T870 351V0H764V337Q764 462 663 462Q591 462 560 418T529 290V0H424V337Q424 462 322 462Q246 462 218 413T189 272V0H83V539H167L182 467H188Q212 509 255 529T346 549Q471
549 510 462H518Q544 507 590 528T687 549Z" />
<glyph unicode="n" glyph-name="n" horiz-adv-x="630" d="M356 549Q450 549 500 502T550 351V0H445V336Q445 462 334 462Q251 462 220 413T189 272V0H83V539H167L182 467H188Q214 509 259 529T356 549Z" />
<glyph unicode="o" glyph-name="o" horiz-adv-x="609" d="M558 270Q558 136 489 63T303 -10Q230 -10 174 23T85 118T52 270Q52 404 120 476T306 549Q380 549 436 517T525 422T558 270ZM161 270Q161 179 195 128T305 77Q380 77 414 128T449 270Q449 362 414 411T304
461Q229 461 195 412T161 270Z" />
<glyph unicode="p" glyph-name="p" horiz-adv-x="620" d="M352 549Q449 549 508 479T568 270Q568 133 508 62T351 -10Q289 -10 251 12T189 66H182Q185 48 187 24T189 -20V-240H83V539H169L184 467H189Q212 501 250 525T352 549ZM327 462Q252 462 221 419T189 287V271Q189
178 219 128T329 77Q395 77 427 131T459 272Q459 360 427 411T327 462Z" />
<glyph unicode="q" glyph-name="q" horiz-adv-x="620" d="M431 -11Q431 8 432 31T437 72H431Q408 37 369 14T267 -10Q171 -10 112 60T52 268Q52 407 112 478T270 549Q332 549 371 525T434 467H438L451 539H537V-240H431V-11ZM294 76Q370 76 402 119T435 249V267Q435
363 404 412T292 462Q226 462 194 410T161 266Q161 175 193 126T294 76Z" />
<glyph unicode="r" glyph-name="r" horiz-adv-x="425" d="M349 549Q363 549 379 548T408 544L397 445Q371 452 343 452Q303 452 268 432T211 375T189 284V0H83V539H167L181 443H185Q211 486 252 517T349 549Z" />
<glyph unicode="s" glyph-name="s" horiz-adv-x="484" d="M441 152Q441 73 383 32T222 -10Q165 -10 125 -2T50 23V116Q85 99 132 86T225 72Q285 72 311 91T338 142Q338 160 328 174T291 204T210 240Q158 261 123 281T68 330T49 404Q49 474 105 511T255 549Q304
549 347 539T432 511L397 430Q362 445 325 455T250 466Q202 466 177 451T152 409Q152 390 164 376T204 348T283 314Q333 295 368 275T422 226T441 152Z" />
<glyph unicode="t" glyph-name="t" horiz-adv-x="383" d="M277 76Q298 76 320 79T358 89V9Q340 1 312 -4T254 -10Q210 -10 173 5T115 57T93 160V458H18V506L97 546L134 660H199V539H353V458H199V162Q199 118 220 97T277 76Z" />
<glyph unicode="u" glyph-name="u" horiz-adv-x="630" d="M547 539V0H462L447 71H442Q416 29 370 10T273 -10Q178 -10 128 37T78 186V539H185V202Q185 77 294 77Q377 77 409 126T441 266V539H547Z" />
<glyph unicode="v" glyph-name="v" horiz-adv-x="526" d="M204 0L0 539H112L224 224Q235 193 246 155T260 91H264Q268 116 280 155T302 224L414 539H526L321 0H204Z" />
<glyph unicode="w" glyph-name="w" horiz-adv-x="807" d="M447 270Q439 296 431 330T415 394T404 441H400Q397 425 390 394T375 329T358 269L278 1H160L11 540H119L189 267Q200 225 209 178T223 101H227Q230 118 235 146T247 202T260 249L346 540H462L546 249Q552
229 559 202T571 148T579 102H583Q585 118 590 146T602 206T617 267L689 540H796L645 1H524L447 270Z" />
<glyph unicode="x" glyph-name="x" horiz-adv-x="543" d="M206 275L23 539H144L272 345L400 539H520L337 275L529 0H409L272 206L134 0H14L206 275Z" />
<glyph unicode="y" glyph-name="y" horiz-adv-x="527" d="M1 539H115L227 233Q240 198 249 166T264 102H268Q273 128 283 163T307 234L413 539H527L296 -73Q267 -151 219 -195T92 -240Q67 -240 49 -238T18 -232V-148Q28 -150 44 -152T77 -154Q123 -154 151 -128T195
-58L217 0L1 539Z" />
<glyph unicode="z" glyph-name="z" horiz-adv-x="475" d="M439 0H35V67L313 457H52V539H431V464L159 82H439V0Z" />
<glyph unicode="{" glyph-name="braceleft" horiz-adv-x="384" d="M350 -158Q247 -157 197 -121T147 -6V143Q147 193 116 214T24 235V321Q84 322 115 342T147 412V562Q147 640 198 677T350 714V631Q302 630 274 611T246 544V400Q246 300 136 282V276Q246 257 246
158V11Q246 -36 273 -55T350 -75V-158Z" />
<glyph unicode="|" glyph-name="bar" horiz-adv-x="551" d="M234 759H317V-237H234V759Z" />
<glyph unicode="}" glyph-name="braceright" horiz-adv-x="384" d="M34 -75Q82 -74 110 -55T138 12V157Q138 256 248 275V281Q138 300 138 399V545Q138 592 111 611T34 631V714Q137 713 187 677T237 562V413Q237 363 268 342T360 321V235Q300 235 269 214T237
144V-6Q237 -84 186 -121T34 -158V-75Z" />
<glyph unicode="~" glyph-name="asciitilde" horiz-adv-x="572" d="M269 314Q232 329 208 335T162 341Q134 341 103 324T48 282V370Q97 423 169 423Q198 423 227 417T302 391Q339 376 363 370T408 364Q437 364 468 381T523 423V336Q474 282 402 282Q373 282 344
288T269 314Z" />
<glyph unicode="&#xa0;" glyph-name="uni00A0" horiz-adv-x="260" />
<glyph unicode="&#xa1;" glyph-name="exclamdown" horiz-adv-x="274" d="M205 474Q205 434 185 418T136 402Q108 402 88 418T68 474Q68 512 88 529T136 546Q165 546 185 529T205 474ZM98 320H174L199 -181H73L98 320Z" />
<glyph unicode="&#xa2;" glyph-name="cent" horiz-adv-x="572" d="M356 645Q396 643 431 635T492 614L460 528Q432 540 400 548T339 556Q265 556 229 508T193 363Q193 265 229 221T337 176Q381 176 414 184T480 208V117Q452 103 423 95T355 86V-10H282V89Q191
102 138 165T85 362Q85 454 109 512T178 601T282 641V724H356V645Z" />
<glyph unicode="&#xa3;" glyph-name="sterling" horiz-adv-x="572" d="M336 723Q391 723 436 712T517 683L482 600Q451 614 415 625T341 636Q292 636 264 610T236 523V398H433V319H236V225Q236 167 214 138T166 94H540V0H34V88Q77 101 103 131T130 224V319H37V398H130V530Q130
625 187 674T336 723Z" />
<glyph unicode="&#xa4;" glyph-name="currency" horiz-adv-x="572" d="M91 353Q91 382 99 409T123 459L58 525L114 579L178 516Q201 531 228 539T286 548Q315 548 341 540T392 516L457 579L512 526L449 460Q463 438 472 410T481 353Q481 293 449 245L511 181L457
127L392 190Q369 176 342 168T286 159Q224 159 178 191L114 128L59 182L123 246Q108 269 100 296T91 353ZM168 353Q168 320 183 294T226 251T286 235Q319 235 346 251T389 293T405 353Q405 386 389 413T346 457T286 473Q253 473 226 457T184 414T168 353Z" />
<glyph unicode="&#xa5;" glyph-name="yen" horiz-adv-x="572" d="M285 381L449 714H559L362 342H478V271H336V194H478V123H336V0H234V123H92V194H234V271H92V342H205L11 714H122L285 381Z" />
<glyph unicode="&#xa6;" glyph-name="brokenbar" horiz-adv-x="551" d="M234 759H317V373H234V759ZM234 149H317V-237H234V149Z" />
<glyph unicode="&#xa7;" glyph-name="section" horiz-adv-x="505" d="M65 394Q65 441 87 471T140 518Q105 538 86 565T67 633Q67 694 119 729T264 765Q318 765 358 755T437 729L406 654Q372 668 338 679T259 690Q205 690 183 676T160 635Q160 608 186 589T283
544Q358 516 401 479T444 382Q444 332 423 301T373 251Q407 233 425 207T443 142Q443 72 386 33T226 -6Q171 -6 130 3T57 28V111Q91 95 138 82T229 68Q298 68 323 88T349 135Q349 153 340 166T305 194T228 229Q176 248 140 269T84 320T65 394ZM150 404Q150 369
180 344T284 291L301 285Q322 297 340 317T358 369Q358 393 346 412T302 448T213 485Q189 477 170 456T150 404Z" />
<glyph unicode="&#xa8;" glyph-name="dieresis" horiz-adv-x="588" d="M145 682Q145 711 160 723T198 736Q220 736 236 724T252 682Q252 655 236 642T198 628Q176 628 161 641T145 682ZM336 682Q336 711 351 723T389 736Q410 736 426 724T442 682Q442 655 426
642T389 628Q367 628 352 641T336 682Z" />
<glyph unicode="&#xa9;" glyph-name="copyright" horiz-adv-x="832" d="M416 -10Q336 -10 269 17T153 93T76 210T49 357Q49 436 76 503T153 619T270 696T416 724Q492 724 558 697T675 621T754 504T783 357Q783 277 756 210T680 94T563 17T416 -10ZM416 46Q479
46 534 69T632 133T698 232T722 357Q722 421 700 477T636 577T539 644T416 668Q327 668 258 628T149 518T109 357Q109 270 148 200T257 88T416 46ZM431 132Q331 132 282 193T232 357Q232 422 255 473T324 553T435 582Q500 582 558 552L529 489Q479 515 436 515Q377
515 345 473T312 357Q312 281 340 240T435 198Q458 198 486 204T540 221V156Q516 145 491 139T431 132Z" />
<glyph unicode="&#xaa;" glyph-name="ordfeminine" horiz-adv-x="365" d="M184 722Q317 722 317 603V384H265L252 430Q231 407 203 393T137 378Q88 378 59 403T29 480Q29 533 70 558T191 587L245 589V607Q245 637 226 650T176 663Q150 663 124 656T74 636L49 690Q77
703 111 712T184 722ZM197 538Q141 535 123 520T104 481Q104 457 117 447T153 436Q200 436 222 458T245 519V540L197 538Z" />
<glyph unicode="&#xab;" glyph-name="guillemotleft" horiz-adv-x="540" d="M40 273L212 480L288 438L149 267L288 96L212 53L40 260V273ZM252 273L426 480L501 438L362 267L501 96L426 53L252 260V273Z" />
<glyph unicode="&#xac;" glyph-name="logicalnot" horiz-adv-x="572" d="M522 393V126H441V312H48V393H522Z" />
<glyph unicode="&#xad;" glyph-name="uni00AD" horiz-adv-x="322" d="M37 223V313H285V223H37Z" />
<glyph unicode="&#xae;" glyph-name="registered" horiz-adv-x="832" d="M416 -10Q336 -10 269 17T153 93T76 210T49 357Q49 436 76 503T153 619T270 696T416 724Q492 724 558 697T675 621T754 504T783 357Q783 277 756 210T680 94T563 17T416 -10ZM416 46Q479
46 534 69T632 133T698 232T722 357Q722 421 700 477T636 577T539 644T416 668Q327 668 258 628T149 518T109 357Q109 270 148 200T257 88T416 46ZM278 138V576H407Q489 576 527 544T565 446Q565 399 541 372T487 332L603 138H516L417 310H355V138H278ZM405 373Q444
373 465 393T487 444Q487 479 468 495T404 511H355V373H405Z" />
<glyph unicode="&#xaf;" glyph-name="overscore" horiz-adv-x="500" d="M503 760H-3V835H503V760Z" />
<glyph unicode="&#xb0;" glyph-name="degree" horiz-adv-x="428" d="M214 408Q140 408 95 452T50 566Q50 635 94 679T214 724Q286 724 331 680T377 566Q377 496 332 452T214 408ZM215 477Q258 477 280 501T303 566Q303 607 280 631T215 656Q171 656 148 632T125
566Q125 526 148 502T215 477Z" />
<glyph unicode="&#xb1;" glyph-name="plusminus" horiz-adv-x="572" d="M326 404H522V323H326V122H244V323H48V404H244V606H326V404ZM48 0V82H523V0H48Z" />
<glyph unicode="&#xb2;" glyph-name="uni00B2" horiz-adv-x="359" d="M317 416H25V478L138 589Q176 625 195 648T222 689T230 728Q230 756 213 770T170 785Q143 785 119 774T70 742L27 796Q57 822 93 837T175 853Q239 853 276 822T314 734Q314 686 286 648T201
556L129 489H317V416Z" />
<glyph unicode="&#xb3;" glyph-name="uni00B3" horiz-adv-x="359" d="M171 853Q239 853 276 822T313 742Q313 704 292 679T237 642V638Q279 629 302 603T326 538Q326 480 284 444T152 408Q115 408 83 415T21 438V510Q54 492 87 483T153 473Q200 473 222 491T244
542Q244 606 142 606H86V667H139Q190 667 210 685T231 732Q231 760 213 774T167 788Q139 788 114 778T62 750L22 803Q53 825 88 839T171 853Z" />
<glyph unicode="&#xb4;" glyph-name="acute" horiz-adv-x="305" d="M265 756Q250 738 223 709T165 652T110 606H40V618Q55 637 74 663T111 716T141 766H265V756Z" />
<glyph unicode="&#xb5;" glyph-name="uni00B5" horiz-adv-x="634" d="M551 539V0H468L452 72H446Q422 32 386 11T296 -10Q260 -10 233 2T188 35H184Q186 17 187 -15T189 -84V-240H83V539H189V201Q189 77 300 77Q382 77 413 126T445 266V539H551Z" />
<glyph unicode="&#xb6;" glyph-name="paragraph" horiz-adv-x="655" d="M555 -127H491V692H395V-127H331V273Q316 269 297 267T260 264Q198 264 152 287T81 364T55 509Q55 605 82 659T160 737T275 760H555V-127Z" />
<glyph unicode="&#xb7;" glyph-name="middot" horiz-adv-x="273" d="M68 353Q68 392 87 408T136 424Q164 424 184 408T205 353Q205 314 185 297T136 280Q107 280 88 297T68 353Z" />
<glyph unicode="&#xb8;" glyph-name="cedilla" horiz-adv-x="219" d="M210 -134Q210 -184 174 -212T61 -240Q27 -240 5 -234V-171Q30 -177 63 -177Q92 -177 108 -169T125 -137Q125 -113 101 -101T37 -83L79 0H147L125 -46Q159 -55 184 -75T210 -134Z" />
<glyph unicode="&#xb9;" glyph-name="uni00B9" horiz-adv-x="359" d="M253 844V416H169V675Q169 699 170 724T173 767Q164 759 152 748T129 729L80 692L39 745L174 844H253Z" />
<glyph unicode="&#xba;" glyph-name="ordmasculine" horiz-adv-x="380" d="M349 551Q349 469 306 424T189 378Q120 378 76 422T31 551Q31 633 74 677T191 722Q261 722 305 678T349 551ZM104 551Q104 495 124 467T190 439Q234 439 254 467T275 551Q275 607 255
634T190 661Q145 661 125 634T104 551Z" />
<glyph unicode="&#xbb;" glyph-name="guillemotright" horiz-adv-x="540" d="M500 260L327 53L252 96L391 267L252 438L327 480L500 273V260ZM287 260L115 53L39 96L178 267L39 438L115 480L287 273V260Z" />
<glyph unicode="&#xbc;" glyph-name="onequarter" horiz-adv-x="770" d="M135 0L559 714H646L222 0H135ZM160 545Q160 569 161 594T164 637Q155 629 143 618T120 599L71 562L30 615L165 714H244V286H160V545ZM613 0V90H420V148L615 431H700V156H761V90H700V0H613ZM496
156H613V245Q613 266 613 292T616 343Q611 331 597 307T571 266L496 156Z" />
<glyph unicode="&#xbd;" glyph-name="onehalf" horiz-adv-x="801" d="M114 0L538 714H625L201 0H114ZM152 545Q152 569 153 594T156 637Q147 629 135 618T112 599L62 562L22 615L157 714H236V286H152V545ZM468 0V62L581 173Q618 209 638 232T665 273T672 312Q672
340 656 354T612 369Q586 369 562 358T512 326L470 380Q500 406 536 421T618 437Q682 437 719 406T757 318Q757 270 729 232T644 140L572 73H760V0H468Z" />
<glyph unicode="&#xbe;" glyph-name="threequarters" horiz-adv-x="800" d="M155 278Q118 278 86 285T24 308V380Q57 362 90 353T156 343Q203 343 225 361T247 412Q247 476 145 476H89V537H142Q193 537 213 555T234 602Q234 630 216 644T170 658Q142 658 117 648T65
620L25 673Q56 695 91 709T174 723Q242 723 279 692T316 612Q316 574 295 549T240 512V508Q282 499 305 473T329 408Q329 350 287 314T155 278ZM176 0L600 714H688L264 0H176ZM643 0V90H450V148L644 431H730V156H791V90H730V0H643ZM526 156H643V245Q643 266 643
292T646 343Q641 331 626 307T601 266L526 156Z" />
<glyph unicode="&#xbf;" glyph-name="questiondown" horiz-adv-x="447" d="M329 473Q329 434 309 418T259 402Q232 402 212 418T191 473Q191 512 211 529T259 546Q289 546 309 529T329 473ZM308 291Q308 236 289 201T221 125Q185 96 164 76T135 35T126 -13Q126
-56 155 -79T237 -102Q285 -102 323 -90T399 -59L437 -139Q394 -162 343 -177T230 -192Q132 -192 79 -144T25 -16Q25 27 39 58T79 116T143 172Q175 198 191 217T214 255T220 300V320H308V291Z" />
<glyph unicode="&#xc0;" glyph-name="Agrave" horiz-adv-x="654" d="M540 0L464 206H188L112 0H0L271 717H383L653 0H540ZM362 501Q359 512 352 534T337 580T326 619Q318 588 308 553T292 501L220 300H434L362 501ZM304 941Q316 919 334 892T371 838T406 793V781H335Q311
799 281 827T223 884T181 931V941H304Z" />
<glyph unicode="&#xc1;" glyph-name="Aacute" horiz-adv-x="654" d="M540 0L464 206H188L112 0H0L271 717H383L653 0H540ZM362 501Q359 512 352 534T337 580T326 619Q318 588 308 553T292 501L220 300H434L362 501ZM493 931Q478 913 451 884T393 827T338 781H268V793Q283
812 302 838T339 891T369 941H493V931Z" />
<glyph unicode="&#xc2;" glyph-name="Acircumflex" horiz-adv-x="654" d="M540 0L464 206H188L112 0H0L271 717H383L653 0H540ZM362 501Q359 512 352 534T337 580T326 619Q318 588 308 553T292 501L220 300H434L362 501ZM382 941Q395 919 417 892T464 838T507
793V781H434Q408 797 380 820T324 870Q270 815 216 781H144V793Q163 812 186 838T232 891T268 941H382Z" />
<glyph unicode="&#xc3;" glyph-name="Atilde" horiz-adv-x="654" d="M540 0L464 206H188L112 0H0L271 717H383L653 0H540ZM362 501Q359 512 352 534T337 580T326 619Q318 588 308 553T292 501L220 300H434L362 501ZM137 781Q143 845 174 880T254 915Q282 915 308
902T359 874T405 860Q444 860 458 916H515Q509 852 478 817T399 782Q372 782 346 795T295 823T248 837Q207 837 194 781H137Z" />
<glyph unicode="&#xc4;" glyph-name="Adieresis" horiz-adv-x="654" d="M540 0L464 206H188L112 0H0L271 717H383L653 0H540ZM362 501Q359 512 352 534T337 580T326 619Q318 588 308 553T292 501L220 300H434L362 501ZM178 857Q178 886 193 898T231 911Q253 911
269 899T285 857Q285 830 269 817T231 803Q209 803 194 816T178 857ZM369 857Q369 886 384 898T422 911Q443 911 459 899T475 857Q475 830 459 817T422 803Q400 803 385 816T369 857Z" />
<glyph unicode="&#xc5;" glyph-name="Aring" horiz-adv-x="654" d="M540 0L464 206H188L112 0H0L271 717H383L653 0H540ZM362 501Q359 512 352 534T337 580T326 619Q318 588 308 553T292 501L220 300H434L362 501ZM325 662Q274 662 243 690T212 771Q212 821 243
850T325 879Q373 879 406 851T439 772Q439 720 407 691T325 662ZM325 717Q348 717 363 731T378 771Q378 796 363 810T325 824Q302 824 287 810T271 771Q271 746 285 732T325 717Z" />
<glyph unicode="&#xc6;" glyph-name="AE" horiz-adv-x="902" d="M842 0H454V206H207L110 0H-1L333 714H842V622H562V418H824V327H562V93H842V0ZM248 300H454V620H395L248 300Z" />
<glyph unicode="&#xc7;" glyph-name="Ccedilla" horiz-adv-x="633" d="M400 631Q293 631 233 558T173 356Q173 229 229 156T399 83Q445 83 487 91T574 114V21Q532 5 489 -2T386 -10Q276 -10 204 35T96 163T60 357Q60 465 99 548T215 677T401 724Q455 724 506 713T601
680L561 590Q526 606 486 618T400 631ZM477 -134Q477 -184 441 -212T328 -240Q294 -240 272 -234V-171Q297 -177 330 -177Q359 -177 375 -169T392 -137Q392 -113 368 -101T304 -83L346 0H414L392 -46Q426 -55 451 -75T477 -134Z" />
<glyph unicode="&#xc8;" glyph-name="Egrave" horiz-adv-x="557" d="M497 0H95V714H497V622H203V418H479V327H203V93H497V0ZM282 941Q294 919 312 892T349 838T384 793V781H313Q289 799 259 827T201 884T159 931V941H282Z" />
<glyph unicode="&#xc9;" glyph-name="Eacute" horiz-adv-x="557" d="M497 0H95V714H497V622H203V418H479V327H203V93H497V0ZM471 931Q456 913 429 884T371 827T316 781H246V793Q261 812 280 838T317 891T347 941H471V931Z" />
<glyph unicode="&#xca;" glyph-name="Ecircumflex" horiz-adv-x="557" d="M497 0H95V714H497V622H203V418H479V327H203V93H497V0ZM360 941Q373 919 395 892T442 838T485 793V781H412Q386 797 358 820T302 870Q248 815 194 781H122V793Q141 812 164 838T210 891T246
941H360Z" />
<glyph unicode="&#xcb;" glyph-name="Edieresis" horiz-adv-x="557" d="M497 0H95V714H497V622H203V418H479V327H203V93H497V0ZM155 857Q155 886 170 898T208 911Q230 911 246 899T262 857Q262 830 246 817T208 803Q186 803 171 816T155 857ZM346 857Q346 886
361 898T399 911Q420 911 436 899T452 857Q452 830 436 817T399 803Q377 803 362 816T346 857Z" />
<glyph unicode="&#xcc;" glyph-name="Igrave" horiz-adv-x="354" d="M315 0H38V62L123 87V626L38 652V714H315V652L231 626V87L315 62V0ZM155 941Q167 919 185 892T222 838T257 793V781H186Q162 799 132 827T74 884T32 931V941H155Z" />
<glyph unicode="&#xcd;" glyph-name="Iacute" horiz-adv-x="354" d="M315 0H38V62L123 87V626L38 652V714H315V652L231 626V87L315 62V0ZM344 931Q329 913 302 884T244 827T189 781H119V793Q134 812 153 838T190 891T220 941H344V931Z" />
<glyph unicode="&#xce;" glyph-name="Icircumflex" horiz-adv-x="354" d="M315 0H38V62L123 87V626L38 652V714H315V652L231 626V87L315 62V0ZM234 941Q247 919 269 892T316 838T359 793V781H286Q260 797 232 820T176 870Q122 815 68 781H-4V793Q15 812 38 838T84
891T120 941H234Z" />
<glyph unicode="&#xcf;" glyph-name="Idieresis" horiz-adv-x="354" d="M315 0H38V62L123 87V626L38 652V714H315V652L231 626V87L315 62V0ZM29 857Q29 886 44 898T82 911Q104 911 120 899T136 857Q136 830 120 817T82 803Q60 803 45 816T29 857ZM220 857Q220
886 235 898T273 911Q294 911 310 899T326 857Q326 830 310 817T273 803Q251 803 236 816T220 857Z" />
<glyph unicode="&#xd0;" glyph-name="Eth" horiz-adv-x="733" d="M316 714Q425 714 505 674T629 557T673 364Q673 183 573 92T294 0H100V307H28V399H100V714H316ZM309 623H208V399H368V307H208V91H290Q560 91 560 361Q560 496 494 559T309 623Z" />
<glyph unicode="&#xd1;" glyph-name="Ntilde" horiz-adv-x="776" d="M681 0H550L189 577H185Q187 537 190 486T193 380V0H95V714H225L585 140H588Q587 161 586 193T583 261T581 330V714H681V0ZM199 781Q205 845 236 880T316 915Q344 915 370 902T421 874T467 860Q506
860 520 916H577Q571 852 540 817T461 782Q434 782 408 795T357 823T310 837Q269 837 256 781H199Z" />
<glyph unicode="&#xd2;" glyph-name="Ograve" horiz-adv-x="785" d="M725 358Q725 247 688 165T577 36T393 -10Q280 -10 206 36T96 165T60 359Q60 469 96 551T207 679T394 725Q504 725 577 680T688 552T725 358ZM174 358Q174 230 227 156T393 82Q507 82 559 156T611
358Q611 486 560 559T394 632Q280 632 227 559T174 358ZM371 941Q383 919 401 892T438 838T473 793V781H402Q378 799 348 827T290 884T248 931V941H371Z" />
<glyph unicode="&#xd3;" glyph-name="Oacute" horiz-adv-x="785" d="M725 358Q725 247 688 165T577 36T393 -10Q280 -10 206 36T96 165T60 359Q60 469 96 551T207 679T394 725Q504 725 577 680T688 552T725 358ZM174 358Q174 230 227 156T393 82Q507 82 559 156T611
358Q611 486 560 559T394 632Q280 632 227 559T174 358ZM560 931Q545 913 518 884T460 827T405 781H335V793Q350 812 369 838T406 891T436 941H560V931Z" />
<glyph unicode="&#xd4;" glyph-name="Ocircumflex" horiz-adv-x="785" d="M725 358Q725 247 688 165T577 36T393 -10Q280 -10 206 36T96 165T60 359Q60 469 96 551T207 679T394 725Q504 725 577 680T688 552T725 358ZM174 358Q174 230 227 156T393 82Q507 82 559
156T611 358Q611 486 560 559T394 632Q280 632 227 559T174 358ZM449 941Q462 919 484 892T531 838T574 793V781H501Q475 797 447 820T391 870Q337 815 283 781H211V793Q230 812 253 838T299 891T335 941H449Z" />
<glyph unicode="&#xd5;" glyph-name="Otilde" horiz-adv-x="785" d="M725 358Q725 247 688 165T577 36T393 -10Q280 -10 206 36T96 165T60 359Q60 469 96 551T207 679T394 725Q504 725 577 680T688 552T725 358ZM174 358Q174 230 227 156T393 82Q507 82 559 156T611
358Q611 486 560 559T394 632Q280 632 227 559T174 358ZM204 781Q210 845 241 880T321 915Q349 915 375 902T426 874T472 860Q511 860 525 916H582Q576 852 545 817T466 782Q439 782 413 795T362 823T315 837Q274 837 261 781H204Z" />
<glyph unicode="&#xd6;" glyph-name="Odieresis" horiz-adv-x="785" d="M725 358Q725 247 688 165T577 36T393 -10Q280 -10 206 36T96 165T60 359Q60 469 96 551T207 679T394 725Q504 725 577 680T688 552T725 358ZM174 358Q174 230 227 156T393 82Q507 82 559
156T611 358Q611 486 560 559T394 632Q280 632 227 559T174 358ZM245 857Q245 886 260 898T298 911Q320 911 336 899T352 857Q352 830 336 817T298 803Q276 803 261 816T245 857ZM436 857Q436 886 451 898T489 911Q510 911 526 899T542 857Q542 830 526 817T489
803Q467 803 452 816T436 857Z" />
<glyph unicode="&#xd7;" glyph-name="multiply" horiz-adv-x="572" d="M449 574L507 517L343 353L505 189L449 132L284 294L123 132L65 190L227 353L64 516L122 574L285 411L449 574Z" />
<glyph unicode="&#xd8;" glyph-name="Oslash" horiz-adv-x="785" d="M725 358Q725 247 688 165T577 36T393 -10Q286 -10 214 33L167 -35L101 9L151 81Q105 129 83 200T60 359Q60 469 96 551T207 679T394 725Q445 725 489 714T569 683L614 748L680 704L631 635Q725
537 725 358ZM174 358Q174 301 184 255T215 174L513 601Q465 632 394 632Q280 632 227 559T174 358ZM611 358Q611 475 568 543L271 115Q294 100 325 91T393 82Q507 82 559 156T611 358Z" />
<glyph unicode="&#xd9;" glyph-name="Ugrave" horiz-adv-x="738" d="M649 252Q649 178 618 119T525 25T366 -10Q230 -10 160 62T89 254V714H197V259Q197 82 371 82Q461 82 501 130T542 260V714H649V252ZM347 941Q359 919 377 892T414 838T449 793V781H378Q354
799 324 827T266 884T224 931V941H347Z" />
<glyph unicode="&#xda;" glyph-name="Uacute" horiz-adv-x="738" d="M649 252Q649 178 618 119T525 25T366 -10Q230 -10 160 62T89 254V714H197V259Q197 82 371 82Q461 82 501 130T542 260V714H649V252ZM536 931Q521 913 494 884T436 827T381 781H311V793Q326
812 345 838T382 891T412 941H536V931Z" />
<glyph unicode="&#xdb;" glyph-name="Ucircumflex" horiz-adv-x="738" d="M649 252Q649 178 618 119T525 25T366 -10Q230 -10 160 62T89 254V714H197V259Q197 82 371 82Q461 82 501 130T542 260V714H649V252ZM426 941Q439 919 461 892T508 838T551 793V781H478Q452
797 424 820T368 870Q314 815 260 781H188V793Q207 812 230 838T276 891T312 941H426Z" />
<glyph unicode="&#xdc;" glyph-name="Udieresis" horiz-adv-x="738" d="M649 252Q649 178 618 119T525 25T366 -10Q230 -10 160 62T89 254V714H197V259Q197 82 371 82Q461 82 501 130T542 260V714H649V252ZM221 857Q221 886 236 898T274 911Q296 911 312 899T328
857Q328 830 312 817T274 803Q252 803 237 816T221 857ZM412 857Q412 886 427 898T465 911Q486 911 502 899T518 857Q518 830 502 817T465 803Q443 803 428 816T412 857Z" />
<glyph unicode="&#xdd;" glyph-name="Yacute" horiz-adv-x="583" d="M292 380L467 714H583L345 277V0H238V273L0 714H117L292 380ZM458 931Q443 913 416 884T358 827T303 781H233V793Q248 812 267 838T304 891T334 941H458V931Z" />
<glyph unicode="&#xde;" glyph-name="Thorn" horiz-adv-x="612" d="M563 380Q563 320 537 268T450 184T282 151H203V0H95V714H203V594H296Q437 594 500 537T563 380ZM268 241Q363 241 407 272T452 377Q452 441 412 472T284 503H203V241H268Z" />
<glyph unicode="&#xdf;" glyph-name="germandbls" horiz-adv-x="655" d="M548 614Q548 579 534 553T499 508T457 472T422 442T408 411Q408 397 415 387T443 362T500 322Q553 288 583 251T613 155Q613 70 560 30T415 -10Q368 -10 332 -2T269 23V114Q294 98 333
85T410 72Q460 72 483 92T507 150Q507 172 499 189T471 223T413 263Q351 302 328 331T304 401Q304 432 318 453T352 492T392 524T426 558T440 603Q440 641 406 660T318 679Q283 679 254 670T207 637T189 574V0H83V576Q83 644 114 685T198 746T318 765Q386 765 437
748T518 698T548 614Z" />
<glyph unicode="&#xe0;" glyph-name="agrave" horiz-adv-x="574" d="M292 549Q393 549 443 505T494 365V0H419L398 75H394Q359 31 321 11T214 -10Q141 -10 93 29T45 153Q45 235 107 278T298 325L390 328V358Q390 417 363 441T287 466Q246 466 208 454T135 425L101
502Q139 522 188 535T292 549ZM317 257Q225 253 190 227T154 152Q154 110 179 91T244 72Q306 72 347 107T389 212V259L317 257ZM265 766Q277 744 295 717T332 663T367 618V606H296Q272 624 242 652T184 709T142 756V766H265Z" />
<glyph unicode="&#xe1;" glyph-name="aacute" horiz-adv-x="574" d="M292 549Q393 549 443 505T494 365V0H419L398 75H394Q359 31 321 11T214 -10Q141 -10 93 29T45 153Q45 235 107 278T298 325L390 328V358Q390 417 363 441T287 466Q246 466 208 454T135 425L101
502Q139 522 188 535T292 549ZM317 257Q225 253 190 227T154 152Q154 110 179 91T244 72Q306 72 347 107T389 212V259L317 257ZM454 756Q439 738 412 709T354 652T299 606H229V618Q244 637 263 663T300 716T330 766H454V756Z" />
<glyph unicode="&#xe2;" glyph-name="acircumflex" horiz-adv-x="574" d="M292 549Q393 549 443 505T494 365V0H419L398 75H394Q359 31 321 11T214 -10Q141 -10 93 29T45 153Q45 235 107 278T298 325L390 328V358Q390 417 363 441T287 466Q246 466 208 454T135
425L101 502Q139 522 188 535T292 549ZM317 257Q225 253 190 227T154 152Q154 110 179 91T244 72Q306 72 347 107T389 212V259L317 257ZM344 766Q357 744 379 717T426 663T469 618V606H396Q370 622 342 645T286 695Q232 640 178 606H106V618Q125 637 148 663T194
716T230 766H344Z" />
<glyph unicode="&#xe3;" glyph-name="atilde" horiz-adv-x="574" d="M292 549Q393 549 443 505T494 365V0H419L398 75H394Q359 31 321 11T214 -10Q141 -10 93 29T45 153Q45 235 107 278T298 325L390 328V358Q390 417 363 441T287 466Q246 466 208 454T135 425L101
502Q139 522 188 535T292 549ZM317 257Q225 253 190 227T154 152Q154 110 179 91T244 72Q306 72 347 107T389 212V259L317 257ZM99 606Q105 670 136 705T216 740Q244 740 270 727T321 699T367 685Q406 685 420 741H477Q471 677 440 642T361 607Q334 607 308 620T257
648T210 662Q169 662 156 606H99Z" />
<glyph unicode="&#xe4;" glyph-name="adieresis" horiz-adv-x="574" d="M292 549Q393 549 443 505T494 365V0H419L398 75H394Q359 31 321 11T214 -10Q141 -10 93 29T45 153Q45 235 107 278T298 325L390 328V358Q390 417 363 441T287 466Q246 466 208 454T135 425L101
502Q139 522 188 535T292 549ZM317 257Q225 253 190 227T154 152Q154 110 179 91T244 72Q306 72 347 107T389 212V259L317 257ZM395 682Q395 711 410 723T448 736Q470 736 486 724T502 682Q502 655 486 642T448 628Q426 628 411 641T395 682ZM586 682Q586 711 601
723T639 736Q660 736 676 724T692 682Q692 655 676 642T639 628Q617 628 602 641T586 682Z" />
<glyph unicode="&#xe5;" glyph-name="aring" horiz-adv-x="574" d="M292 549Q393 549 443 505T494 365V0H419L398 75H394Q359 31 321 11T214 -10Q141 -10 93 29T45 153Q45 235 107 278T298 325L390 328V358Q390 417 363 441T287 466Q246 466 208 454T135 425L101
502Q139 522 188 535T292 549ZM317 257Q225 253 190 227T154 152Q154 110 179 91T244 72Q306 72 347 107T389 212V259L317 257ZM286 606Q235 606 204 634T173 715Q173 765 204 794T286 823Q334 823 367 795T400 716Q400 664 368 635T286 606ZM286 661Q309 661 324
675T339 715Q339 740 324 754T286 768Q263 768 248 754T232 715Q232 690 246 676T286 661Z" />
<glyph unicode="&#xe6;" glyph-name="ae" horiz-adv-x="880" d="M614 549Q680 549 729 519T804 435T831 307V247H485Q490 76 634 76Q684 76 724 85T805 114V26Q765 8 725 -1T630 -10Q562 -10 509 17T424 99Q387 47 341 19T216 -10Q168 -10 129 7T68 61T45 153Q45
317 286 325L377 328V364Q377 420 350 443T274 466Q235 466 197 455T125 426L92 502Q129 522 179 535T282 549Q342 549 383 530T447 469Q475 507 517 528T614 549ZM613 467Q557 467 525 431T487 325H724Q724 388 697 427T613 467ZM307 257Q221 253 188 227T154
152Q154 110 177 91T240 72Q298 72 337 107T376 212V259L307 257Z" />
<glyph unicode="&#xe7;" glyph-name="ccedilla" horiz-adv-x="490" d="M300 -10Q188 -10 120 56T52 266Q52 366 85 428T176 519T308 549Q353 549 392 540T458 518L426 432Q398 443 367 451T307 459Q161 459 161 267Q161 175 197 127T303 79Q348 79 382 89T446
115V23Q417 6 383 -2T300 -10ZM390 -134Q390 -184 354 -212T241 -240Q207 -240 185 -234V-171Q210 -177 243 -177Q272 -177 288 -169T305 -137Q305 -113 281 -101T217 -83L259 0H327L305 -46Q339 -55 364 -75T390 -134Z" />
<glyph unicode="&#xe8;" glyph-name="egrave" horiz-adv-x="572" d="M295 549Q401 549 462 484T523 305V247H161Q163 164 204 120T321 76Q373 76 413 85T497 114V26Q456 8 415 -1T317 -10Q238 -10 179 21T86 113T52 265Q52 356 82 419T167 515T295 549ZM295 467Q238
467 204 430T163 325H417Q416 388 387 427T295 467ZM266 766Q278 744 296 717T333 663T368 618V606H297Q273 624 243 652T185 709T143 756V766H266Z" />
<glyph unicode="&#xe9;" glyph-name="eacute" horiz-adv-x="572" d="M295 549Q401 549 462 484T523 305V247H161Q163 164 204 120T321 76Q373 76 413 85T497 114V26Q456 8 415 -1T317 -10Q238 -10 179 21T86 113T52 265Q52 356 82 419T167 515T295 549ZM295 467Q238
467 204 430T163 325H417Q416 388 387 427T295 467ZM455 756Q440 738 413 709T355 652T300 606H230V618Q245 637 264 663T301 716T331 766H455V756Z" />
<glyph unicode="&#xea;" glyph-name="ecircumflex" horiz-adv-x="572" d="M295 549Q401 549 462 484T523 305V247H161Q163 164 204 120T321 76Q373 76 413 85T497 114V26Q456 8 415 -1T317 -10Q238 -10 179 21T86 113T52 265Q52 356 82 419T167 515T295 549ZM295
467Q238 467 204 430T163 325H417Q416 388 387 427T295 467ZM345 766Q358 744 380 717T427 663T470 618V606H397Q371 622 343 645T287 695Q233 640 179 606H107V618Q126 637 149 663T195 716T231 766H345Z" />
<glyph unicode="&#xeb;" glyph-name="edieresis" horiz-adv-x="572" d="M295 549Q401 549 462 484T523 305V247H161Q163 164 204 120T321 76Q373 76 413 85T497 114V26Q456 8 415 -1T317 -10Q238 -10 179 21T86 113T52 265Q52 356 82 419T167 515T295 549ZM295
467Q238 467 204 430T163 325H417Q416 388 387 427T295 467ZM396 682Q396 711 411 723T449 736Q471 736 487 724T503 682Q503 655 487 642T449 628Q427 628 412 641T396 682ZM587 682Q587 711 602 723T640 736Q661 736 677 724T693 682Q693 655 677 642T640 628Q618
628 603 641T587 682Z" />
<glyph unicode="&#xec;" glyph-name="igrave" horiz-adv-x="272" d="M189 0H83V539H189V0ZM370 766Q382 744 400 717T437 663T472 618V606H401Q377 624 347 652T289 709T247 756V766H370Z" />
<glyph unicode="&#xed;" glyph-name="iacute" horiz-adv-x="272" d="M189 0H83V539H189V0ZM303 756Q288 738 261 709T203 652T148 606H78V618Q93 637 112 663T149 716T179 766H303V756Z" />
<glyph unicode="&#xee;" glyph-name="icircumflex" horiz-adv-x="272" d="M189 0H83V539H189V0ZM448 766Q461 744 483 717T530 663T573 618V606H500Q474 622 446 645T390 695Q336 640 282 606H210V618Q229 637 252 663T298 716T334 766H448Z" />
<glyph unicode="&#xef;" glyph-name="idieresis" horiz-adv-x="272" d="M189 0H83V539H189V0ZM-12 682Q-12 711 3 723T41 736Q63 736 79 724T95 682Q95 655 79 642T41 628Q19 628 4 641T-12 682ZM179 682Q179 711 194 723T232 736Q253 736 269 724T285 682Q285
655 269 642T232 628Q210 628 195 641T179 682Z" />
<glyph unicode="&#xf0;" glyph-name="eth" horiz-adv-x="609" d="M218 765Q251 750 283 732T344 694L458 761L499 701L405 646Q474 581 516 489T558 276Q558 135 490 63T303 -10Q230 -10 173 19T84 103T52 235Q52 349 116 413T287 477Q339 477 377 464T437 422L441
424Q425 476 395 519T325 598L201 525L159 586L264 647Q224 673 179 697L218 765ZM305 394Q228 394 194 353T160 232Q160 162 194 118T305 73Q381 73 415 119T450 254Q450 311 415 352T305 394Z" />
<glyph unicode="&#xf1;" glyph-name="ntilde" horiz-adv-x="630" d="M356 549Q450 549 500 502T550 351V0H445V336Q445 462 334 462Q251 462 220 413T189 272V0H83V539H167L182 467H188Q214 509 259 529T356 549ZM126 606Q132 670 163 705T243 740Q271 740 297
727T348 699T394 685Q433 685 447 741H504Q498 677 467 642T388 607Q361 607 335 620T284 648T237 662Q196 662 183 606H126Z" />
<glyph unicode="&#xf2;" glyph-name="ograve" horiz-adv-x="609" d="M558 270Q558 136 489 63T303 -10Q230 -10 174 23T85 118T52 270Q52 404 120 476T306 549Q380 549 436 517T525 422T558 270ZM161 270Q161 179 195 128T305 77Q380 77 414 128T449 270Q449 362
414 411T304 461Q229 461 195 412T161 270ZM283 766Q295 744 313 717T350 663T385 618V606H314Q290 624 260 652T202 709T160 756V766H283Z" />
<glyph unicode="&#xf3;" glyph-name="oacute" horiz-adv-x="609" d="M558 270Q558 136 489 63T303 -10Q230 -10 174 23T85 118T52 270Q52 404 120 476T306 549Q380 549 436 517T525 422T558 270ZM161 270Q161 179 195 128T305 77Q380 77 414 128T449 270Q449 362
414 411T304 461Q229 461 195 412T161 270ZM472 756Q457 738 430 709T372 652T317 606H247V618Q262 637 281 663T318 716T348 766H472V756Z" />
<glyph unicode="&#xf4;" glyph-name="ocircumflex" horiz-adv-x="609" d="M558 270Q558 136 489 63T303 -10Q230 -10 174 23T85 118T52 270Q52 404 120 476T306 549Q380 549 436 517T525 422T558 270ZM161 270Q161 179 195 128T305 77Q380 77 414 128T449 270Q449
362 414 411T304 461Q229 461 195 412T161 270ZM361 766Q374 744 396 717T443 663T486 618V606H413Q387 622 359 645T303 695Q249 640 195 606H123V618Q142 637 165 663T211 716T247 766H361Z" />
<glyph unicode="&#xf5;" glyph-name="otilde" horiz-adv-x="609" d="M558 270Q558 136 489 63T303 -10Q230 -10 174 23T85 118T52 270Q52 404 120 476T306 549Q380 549 436 517T525 422T558 270ZM161 270Q161 179 195 128T305 77Q380 77 414 128T449 270Q449 362
414 411T304 461Q229 461 195 412T161 270ZM116 606Q122 670 153 705T233 740Q261 740 287 727T338 699T384 685Q423 685 437 741H494Q488 677 457 642T378 607Q351 607 325 620T274 648T227 662Q186 662 173 606H116Z" />
<glyph unicode="&#xf6;" glyph-name="odieresis" horiz-adv-x="609" d="M558 270Q558 136 489 63T303 -10Q230 -10 174 23T85 118T52 270Q52 404 120 476T306 549Q380 549 436 517T525 422T558 270ZM161 270Q161 179 195 128T305 77Q380 77 414 128T449 270Q449
362 414 411T304 461Q229 461 195 412T161 270ZM157 682Q157 711 172 723T210 736Q232 736 248 724T264 682Q264 655 248 642T210 628Q188 628 173 641T157 682ZM348 682Q348 711 363 723T401 736Q422 736 438 724T454 682Q454 655 438 642T401 628Q379 628 364
641T348 682Z" />
<glyph unicode="&#xf7;" glyph-name="divide" horiz-adv-x="572" d="M285 458Q260 458 243 473T225 523Q225 559 242 573T285 587Q309 587 326 573T344 523Q344 489 327 474T285 458ZM48 312V393H523V312H48ZM285 117Q260 117 243 132T225 182Q225 218 242 232T285
246Q309 246 326 232T344 182Q344 148 327 133T285 117Z" />
<glyph unicode="&#xf8;" glyph-name="oslash" horiz-adv-x="609" d="M558 270Q558 136 489 63T303 -10Q233 -10 178 20L141 -34L78 8L119 67Q87 103 70 154T52 270Q52 404 120 476T306 549Q377 549 434 516L470 567L533 525L493 469Q523 433 540 384T558 270ZM161
270Q161 236 165 208T181 156L381 441Q350 461 304 461Q229 461 195 412T161 270ZM449 270Q449 334 431 378L231 95Q261 77 305 77Q380 77 414 128T449 270Z" />
<glyph unicode="&#xf9;" glyph-name="ugrave" horiz-adv-x="630" d="M547 539V0H462L447 71H442Q416 29 370 10T273 -10Q178 -10 128 37T78 186V539H185V202Q185 77 294 77Q377 77 409 126T441 266V539H547ZM293 766Q305 744 323 717T360 663T395 618V606H324Q300
624 270 652T212 709T170 756V766H293Z" />
<glyph unicode="&#xfa;" glyph-name="uacute" horiz-adv-x="630" d="M547 539V0H462L447 71H442Q416 29 370 10T273 -10Q178 -10 128 37T78 186V539H185V202Q185 77 294 77Q377 77 409 126T441 266V539H547ZM482 756Q467 738 440 709T382 652T327 606H257V618Q272
637 291 663T328 716T358 766H482V756Z" />
<glyph unicode="&#xfb;" glyph-name="ucircumflex" horiz-adv-x="630" d="M547 539V0H462L447 71H442Q416 29 370 10T273 -10Q178 -10 128 37T78 186V539H185V202Q185 77 294 77Q377 77 409 126T441 266V539H547ZM371 766Q384 744 406 717T453 663T496 618V606H423Q397
622 369 645T313 695Q259 640 205 606H133V618Q152 637 175 663T221 716T257 766H371Z" />
<glyph unicode="&#xfc;" glyph-name="udieresis" horiz-adv-x="630" d="M547 539V0H462L447 71H442Q416 29 370 10T273 -10Q178 -10 128 37T78 186V539H185V202Q185 77 294 77Q377 77 409 126T441 266V539H547ZM166 682Q166 711 181 723T219 736Q241 736 257 724T273
682Q273 655 257 642T219 628Q197 628 182 641T166 682ZM357 682Q357 711 372 723T410 736Q431 736 447 724T463 682Q463 655 447 642T410 628Q388 628 373 641T357 682Z" />
<glyph unicode="&#xfd;" glyph-name="yacute" horiz-adv-x="527" d="M1 539H115L227 233Q240 198 249 166T264 102H268Q273 128 283 163T307 234L413 539H527L296 -73Q267 -151 219 -195T92 -240Q67 -240 49 -238T18 -232V-148Q28 -150 44 -152T77 -154Q123 -154
151 -128T195 -58L217 0L1 539ZM431 756Q416 738 389 709T331 652T276 606H206V618Q221 637 240 663T277 716T307 766H431V756Z" />
<glyph unicode="&#xfe;" glyph-name="thorn" horiz-adv-x="620" d="M568 270Q568 133 509 62T352 -10Q291 -10 252 12T189 65H183Q185 52 187 26T189 -17V-240H83V760H189V546Q189 529 188 505T185 467H190Q213 501 251 525T352 549Q449 549 508 479T568 270ZM459
272Q459 367 427 414T328 462Q252 462 221 419T189 289V271Q189 178 219 128T329 77Q396 77 427 127T459 272Z" />
<glyph unicode="&#xff;" glyph-name="ydieresis" horiz-adv-x="527" d="M1 539H115L227 233Q240 198 249 166T264 102H268Q273 128 283 163T307 234L413 539H527L296 -73Q267 -151 219 -195T92 -240Q67 -240 49 -238T18 -232V-148Q28 -150 44 -152T77 -154Q123
-154 151 -128T195 -58L217 0L1 539ZM371 682Q371 711 386 723T424 736Q446 736 462 724T478 682Q478 655 462 642T424 628Q402 628 387 641T371 682ZM562 682Q562 711 577 723T615 736Q636 736 652 724T668 682Q668 655 652 642T615 628Q593 628 578 641T562 682Z"
/>
<glyph unicode="&#x2013;" glyph-name="endash" horiz-adv-x="500" d="M40 224V312H460V224H40Z" />
<glyph unicode="&#x2014;" glyph-name="emdash" horiz-adv-x="1000" d="M40 224V312H960V224H40Z" />
<glyph unicode="&#x2018;" glyph-name="quoteleft" horiz-adv-x="187" d="M12 480Q26 533 50 596T98 714H175Q161 656 147 589T126 469H18L12 480Z" />
<glyph unicode="&#x2019;" glyph-name="quoteright" horiz-adv-x="187" d="M175 703Q162 650 138 587T89 469H12Q26 526 40 594T62 714H168L175 703Z" />
<glyph unicode="&#x201a;" glyph-name="quotesinglbase" horiz-adv-x="260" d="M194 105Q181 52 157 -11T108 -129H31Q45 -72 59 -4T81 116H187L194 105Z" />
<glyph unicode="&#x201c;" glyph-name="quotedblleft" horiz-adv-x="384" d="M372 714Q358 656 344 589T323 469H215L208 480Q222 533 246 596T295 714H372ZM175 714Q160 656 146 589T125 469H18L12 480Q26 533 49 596T98 714H175Z" />
<glyph unicode="&#x201d;" glyph-name="quotedblright" horiz-adv-x="384" d="M372 703Q359 650 335 587T286 469H208Q218 507 227 550T245 636T259 714H365L372 703ZM175 703Q161 650 137 587T89 469H12Q26 526 40 594T61 714H168L175 703Z" />
<glyph unicode="&#x201e;" glyph-name="quotedblbase" horiz-adv-x="445" d="M391 105Q378 52 354 -11T305 -129H227Q237 -91 246 -48T264 38T278 116H384L391 105ZM194 105Q180 52 156 -11T108 -129H31Q45 -72 59 -4T80 116H187L194 105Z" />
<glyph unicode="&#x2022;" glyph-name="bullet" horiz-adv-x="376" d="M68 365Q68 437 102 467T188 498Q238 498 273 468T308 365Q308 294 273 263T188 232Q137 232 103 263T68 365Z" />
<glyph unicode="&#x2039;" glyph-name="guilsinglleft" horiz-adv-x="327" d="M40 273L212 480L288 438L149 267L288 96L212 53L40 260V273Z" />
<glyph unicode="&#x203a;" glyph-name="guilsinglright" horiz-adv-x="327" d="M115 480L287 273V260L115 53L39 96L178 267L39 438L115 480Z" />
</font>
</defs>
</svg>
