<?xml version="1.0" standalone="no"?>
<!DOCTYPE svg PUBLIC "-//W3C//DTD SVG 1.1//EN" "http://www.w3.org/Graphics/SVG/1.1/DTD/svg11.dtd">
<svg xmlns="http://www.w3.org/2000/svg">
<defs >
<font id="NotoSans" horiz-adv-x="566" ><font-face
    font-family="Noto Sans Medium"
    units-per-em="1000"
    panose-1="2 11 6 2 4 5 4 9 2 4"
    ascent="1069"
    descent="-293"
    alphabetic="0" />
<glyph unicode=" " glyph-name="space" horiz-adv-x="260" />
<glyph unicode="!" glyph-name="exclam" horiz-adv-x="268" d="M75 212L163 714H287L162 212H75ZM77 -14Q47 -14 33 2T18 45Q18 78 37 104T100 130Q126 130 142 115T158 71Q158 39 138 13T77 -14Z" />
<glyph unicode="&quot;" glyph-name="quotedbl" horiz-adv-x="410" d="M285 456L320 714H428L353 456H285ZM106 456L141 714H248L174 456H106Z" />
<glyph unicode="#" glyph-name="numbersign" horiz-adv-x="646" d="M92 0L150 206H27L34 282H172L216 430H85L92 506H236L296 714H378L318 506H448L509 714H587L528 506H653L646 430H506L463 282H597L590 206H441L382 0H300L361 206H231L172 0H92ZM253 282H383L425
430H296L253 282Z" />
<glyph unicode="$" glyph-name="dollar" horiz-adv-x="551" d="M192 47Q148 50 106 59T31 85V180Q70 159 117 146T209 132L253 330Q190 353 152 389T114 491Q114 549 141 588T216 650T325 677L343 759H409L392 676Q431 672 465 663T531 637L493 554Q468 567 437
577T373 590L333 399Q401 374 438 339T476 241Q476 155 417 106T258 47L235 -58H169L192 47ZM307 590Q266 585 240 563T213 495Q213 472 227 454T272 423L307 590ZM276 134Q317 140 345 164T374 231Q374 281 313 305L276 134Z" />
<glyph unicode="%" glyph-name="percent" horiz-adv-x="816" d="M195 276Q136 276 105 314T73 424Q73 455 78 494T97 574T132 648T188 703T267 724Q327 724 359 688T391 582Q391 553 385 514T366 433T330 356T274 298T195 276ZM113 0L643 714H732L203 0H113ZM202
352Q225 352 242 369T271 415T290 474T301 533T305 579Q305 615 294 631T261 648Q233 648 214 624T182 563T165 488T159 423Q159 352 202 352ZM578 -10Q519 -10 487 27T455 135Q455 169 461 209T480 289T515 363T571 417T650 438Q710 438 742 402T774 298Q774 268
768 228T749 147T712 70T656 12T578 -10ZM585 67Q607 67 624 84T654 129T673 188T684 248T687 294Q687 330 676 346T643 362Q615 362 596 338T565 277T548 202T542 137Q542 67 585 67Z" />
<glyph unicode="&amp;" glyph-name="ampersand" horiz-adv-x="683" d="M224 -10Q137 -10 85 36T32 170Q32 248 79 300T217 395Q198 427 185 463T172 538Q172 621 225 673T369 725Q448 725 491 685T534 580Q534 530 509 494T441 429T344 375L466 207Q497 238 518
275T556 351H661Q607 224 518 135L617 0H494L445 69Q400 34 349 12T224 -10ZM303 438Q333 453 363 471T413 513T433 570Q433 603 415 622T364 641Q319 641 295 614T271 541Q271 484 303 438ZM243 78Q290 78 326 96T395 138L260 331Q228 313 201 293T156 246T139
178Q139 134 167 106T243 78Z" />
<glyph unicode="&apos;" glyph-name="quotesingle" horiz-adv-x="230" d="M106 456L141 714H248L174 456H106Z" />
<glyph unicode="(" glyph-name="parenleft" horiz-adv-x="304" d="M111 -158Q76 -96 58 -22T39 134Q39 311 102 451T285 714H380Q309 636 254 546T168 353T136 133Q136 50 151 -22T193 -158H111Z" />
<glyph unicode=")" glyph-name="parenright" horiz-adv-x="304" d="M-76 -158Q-5 -80 50 10T136 203T167 423Q167 506 153 578T111 714H193Q228 652 246 578T265 421Q265 244 202 104T19 -158H-76Z" />
<glyph unicode="*" glyph-name="asterisk" horiz-adv-x="549" d="M366 295L314 481L199 324L127 391L271 523L97 574L130 663L305 575L324 764L422 745L364 563L564 574L558 480L376 502L460 324L366 295Z" />
<glyph unicode="+" glyph-name="plus" horiz-adv-x="572" d="M343 393H539V312H343V111H261V312H65V393H261V595H343V393Z" />
<glyph unicode="," glyph-name="comma" horiz-adv-x="265" d="M-45 -129Q-19 -70 7 -3T53 116H161L165 105Q141 52 106 -11T35 -129H-45Z" />
<glyph unicode="-" glyph-name="hyphen" horiz-adv-x="316" d="M24 221L45 314H286L266 221H24Z" />
<glyph unicode="." glyph-name="period" horiz-adv-x="265" d="M77 -14Q47 -14 33 2T18 43Q18 77 37 103T101 130Q126 130 142 116T158 72Q158 38 137 12T77 -14Z" />
<glyph unicode="/" glyph-name="slash" horiz-adv-x="375" d="M-45 0L351 714H457L61 0H-45Z" />
<glyph unicode="0" glyph-name="zero" horiz-adv-x="551" d="M234 -10Q142 -10 96 52T50 232Q50 296 60 365T94 498T153 613T238 695T352 725Q536 725 536 495Q536 422 525 350T492 212T433 97T348 19T234 -10ZM245 79Q281 79 310 104T362 173T399 271T421 384T429
498Q429 636 345 636Q309 636 280 610T227 541T188 444T164 336T156 231Q156 157 177 118T245 79Z" />
<glyph unicode="1" glyph-name="one" horiz-adv-x="551" d="M291 431Q299 471 310 517T331 594Q318 580 301 568T265 543L175 486L127 564L366 714H457L304 0H198L291 431Z" />
<glyph unicode="2" glyph-name="two" horiz-adv-x="551" d="M-5 0L13 84L241 289Q305 346 344 387T402 463T421 540Q421 582 396 608T324 634Q283 634 247 616T172 568L122 640Q166 676 218 700T339 724Q433 724 481 676T530 558Q530 498 507 449T434 349T309
233L152 98V94H464L445 0H-5Z" />
<glyph unicode="3" glyph-name="three" horiz-adv-x="551" d="M206 -10Q149 -10 103 0T18 29V127Q54 106 104 92T205 78Q282 78 325 113T369 212Q369 266 335 296T230 326H165L182 409H239Q286 409 328 424T395 471T421 549Q421 589 396 612T326 636Q281 636 244
620T172 580L125 654Q168 684 219 704T341 724Q434 724 481 680T529 565Q529 489 481 437T347 368V364Q403 354 440 316T477 211Q477 155 449 105T361 22T206 -10Z" />
<glyph unicode="4" glyph-name="four" horiz-adv-x="551" d="M275 0L309 158H1L18 248L413 714H529L431 247H533L514 158H411L377 0H275ZM122 247H328L362 404Q369 437 379 474T398 545T413 598H409Q397 578 377 551T343 506L122 247Z" />
<glyph unicode="5" glyph-name="five" horiz-adv-x="551" d="M200 -10Q97 -10 30 29V128Q66 106 108 92T196 78Q263 78 303 101T362 160T380 238Q380 293 348 325T254 357Q224 357 198 352T143 340L101 372L200 714H540L520 620H272L217 432Q233 435 252 438T296
441Q383 441 436 392T490 252Q490 204 475 158T426 73T337 13T200 -10Z" />
<glyph unicode="6" glyph-name="six" horiz-adv-x="551" d="M251 -10Q162 -10 110 46T57 215Q57 287 74 365T125 513T212 633Q256 677 315 700T454 724Q482 724 507 721T551 713L531 624Q514 629 492 632T444 636Q348 636 280 573T178 371H182Q209 408 250 430T343
453Q417 453 460 407T504 273Q504 226 490 176T446 84T367 16T251 -10ZM260 78Q305 78 336 105T383 174T400 264Q400 314 377 341T306 369Q272 369 244 354T197 315T171 271Q165 256 163 239T161 204Q161 154 184 116T260 78Z" />
<glyph unicode="7" glyph-name="seven" horiz-adv-x="551" d="M68 0L437 622H102L122 714H571L556 637L185 0H68Z" />
<glyph unicode="8" glyph-name="eight" horiz-adv-x="551" d="M247 -10Q177 -10 131 14T63 79T40 170Q40 247 88 298T223 383Q187 409 163 444T139 533Q139 591 167 634T244 701T358 725Q424 725 465 703T526 644T545 566Q545 513 522 477T462 415T382 373Q430
343 461 302T493 194Q493 141 467 95T387 19T247 -10ZM316 419Q376 442 408 473T440 554Q440 594 416 617T350 640Q301 640 272 612T242 536Q242 494 262 467T316 419ZM257 74Q302 74 331 91T374 135T388 192Q388 238 364 271T292 332Q228 310 188 276T147 178Q147
129 177 102T257 74Z" />
<glyph unicode="9" glyph-name="nine" horiz-adv-x="551" d="M163 -10Q132 -10 101 -6T46 7V101Q70 92 99 86T163 79Q265 79 321 147T404 339H399Q375 304 337 283T250 261Q166 261 123 311T79 450Q79 500 95 548T142 637T222 700T335 724Q423 724 474 669T525
500Q525 429 510 351T464 203T391 84Q347 36 290 13T163 -10ZM277 345Q323 345 358 372T409 442Q421 472 421 515Q421 568 397 602T326 636Q280 636 249 611T201 545T184 457Q184 403 207 374T277 345Z" />
<glyph unicode=":" glyph-name="colon" horiz-adv-x="265" d="M159 408Q129 408 115 423T100 464Q100 498 119 525T183 552Q208 552 223 537T239 493Q239 459 219 434T159 408ZM77 -14Q47 -14 33 2T18 43Q18 77 37 103T101 130Q126 130 142 116T158 72Q158 38
137 12T77 -14Z" />
<glyph unicode=";" glyph-name="semicolon" horiz-adv-x="265" d="M159 408Q129 408 115 423T100 464Q100 498 119 525T183 552Q208 552 223 537T239 493Q239 459 219 434T159 408ZM-49 -129Q-23 -70 3 -3T49 116H157L161 105Q137 52 102 -11T30 -129H-49Z" />
<glyph unicode="&lt;" glyph-name="less" horiz-adv-x="572" d="M540 111L65 320V376L540 613V524L176 352L540 200V111Z" />
<glyph unicode="=" glyph-name="equal" horiz-adv-x="572" d="M69 410V491H535V410H69ZM69 213V295H535V213H69Z" />
<glyph unicode="&gt;" glyph-name="greater" horiz-adv-x="572" d="M65 200L429 352L65 524V613L540 376V320L65 111V200Z" />
<glyph unicode="?" glyph-name="question" horiz-adv-x="439" d="M127 212Q134 256 148 288T185 349T247 405Q279 428 304 449T345 495T360 553Q360 592 339 613T274 635Q237 635 201 622T128 592L93 671Q134 693 185 708T288 724Q369 724 417 684T465 566Q465
496 427 448T321 351Q285 325 265 306T233 266T214 212H127ZM136 -14Q106 -14 92 2T77 43Q77 77 97 103T161 130Q186 130 201 116T217 72Q217 38 197 12T136 -14Z" />
<glyph unicode="@" glyph-name="at" horiz-adv-x="850" d="M387 -91Q282 -91 207 -50T91 67T51 245Q51 343 84 428T180 577T328 677T518 713Q623 713 692 674T795 566T829 414Q829 327 801 257T723 146T608 104Q556 104 532 128T502 188H498Q476 152 444 128T362
104Q307 104 273 140T238 247Q238 324 271 386T362 483T491 519Q541 519 574 511T636 491L587 304Q580 277 576 259T572 223Q572 196 584 186T614 175Q644 175 668 195T709 250T736 325T746 408Q746 474 722 526T645 609T506 640Q423 640 355 611T238 529T163 406T136
251Q136 172 164 112T251 18T398 -16Q454 -16 507 -4T607 26V-47Q556 -67 500 -79T387 -91ZM383 175Q428 175 457 215T505 321L537 440Q527 444 514 447T482 450Q436 450 401 422T345 350T325 254Q325 212 340 194T383 175Z" />
<glyph unicode="A" glyph-name="A" horiz-adv-x="581" d="M-58 0L326 714H446L529 0H424L402 207H164L57 0H-58ZM212 301H393L378 461Q375 496 372 537T368 612H366Q351 577 333 539T294 460L212 301Z" />
<glyph unicode="B" glyph-name="B" horiz-adv-x="606" d="M37 0L188 714H379Q479 714 537 676T595 551Q595 479 552 433T436 372V367Q485 354 517 319T549 225Q549 150 513 100T415 25T273 0H37ZM335 416Q398 416 441 444T484 534Q484 577 457 600T368 623H275L231
416H335ZM277 90Q353 90 395 125T438 225Q438 270 410 299T316 329H213L162 90H277Z" />
<glyph unicode="C" glyph-name="C" horiz-adv-x="594" d="M325 -10Q202 -10 135 64T68 265Q68 329 83 394T128 519T204 624T312 697T453 724Q509 724 553 714T638 681L595 593Q566 609 532 620T453 631Q383 631 332 599T247 514T197 396T180 269Q180 181 222 132T345
83Q386 83 426 92T505 115V22Q469 9 426 0T325 -10Z" />
<glyph unicode="D" glyph-name="D" horiz-adv-x="670" d="M37 0L188 714H364Q493 714 566 644T639 433Q639 306 591 209T451 56T226 0H37ZM231 91Q328 91 394 137T494 260T528 432Q528 532 480 577T352 623H275L162 91H231Z" />
<glyph unicode="E" glyph-name="E" horiz-adv-x="522" d="M37 0L188 714H560L541 622H275L232 418H480L462 327H213L162 93H429L409 0H37Z" />
<glyph unicode="F" glyph-name="F" horiz-adv-x="493" d="M37 0L188 714H560L541 622H275L226 388H474L454 296H206L143 0H37Z" />
<glyph unicode="G" glyph-name="G" horiz-adv-x="682" d="M337 -10Q211 -10 140 61T68 262Q68 358 95 441T174 588T299 688T463 724Q526 724 574 713T668 681L628 589Q591 607 550 619T460 631Q397 631 346 603T257 526T200 411T180 269Q180 187 221 135T353 83Q387
83 415 88T464 99L506 291H369L389 383H632L555 28Q509 12 458 1T337 -10Z" />
<glyph unicode="H" glyph-name="H" horiz-adv-x="686" d="M37 0L188 714H295L232 418H522L584 714H690L539 0H433L502 326H213L144 0H37Z" />
<glyph unicode="I" glyph-name="I" horiz-adv-x="341" d="M-23 0L-10 60L76 86L191 628L116 653L128 714H398L385 653L297 628L182 86L259 60L247 0H-23Z" />
<glyph unicode="J" glyph-name="J" horiz-adv-x="290" d="M-76 -196Q-102 -196 -122 -193T-156 -184L-154 -93Q-139 -97 -121 -100T-81 -103Q-35 -103 -3 -75T44 18L192 714H298L148 5Q125 -103 69 -149T-76 -196Z" />
<glyph unicode="K" glyph-name="K" horiz-adv-x="577" d="M37 0L188 714H294L220 368L286 444L539 714H667L363 392L524 0H406L278 329L201 276L143 0H37Z" />
<glyph unicode="L" glyph-name="L" horiz-adv-x="490" d="M37 0L188 714H294L162 93H429L409 0H37Z" />
<glyph unicode="M" glyph-name="M" horiz-adv-x="853" d="M36 0L187 714H334L392 145H396L698 714H856L707 0H603L688 399Q701 459 714 514T737 605H735L410 0H320L257 604H253Q251 584 246 550T234 476T219 400L135 0H36Z" />
<glyph unicode="N" glyph-name="N" horiz-adv-x="721" d="M36 0L187 714H305L509 143H512Q515 166 520 199T532 269T546 337L627 714H726L575 0H459L252 577H248Q246 560 241 525T228 449T213 373L135 0H36Z" />
<glyph unicode="O" glyph-name="O" horiz-adv-x="724" d="M333 -10Q205 -10 137 64T68 266Q68 355 92 437T163 585T278 687T434 725Q558 725 625 651T693 448Q693 357 671 275T603 128T491 27T333 -10ZM339 83Q394 83 438 111T515 190T564 306T581 448Q581 535
540 583T427 632Q371 632 326 604T248 525T198 408T180 267Q180 179 222 131T339 83Z" />
<glyph unicode="P" glyph-name="P" horiz-adv-x="580" d="M37 0L188 714H360Q440 714 488 690T559 623T581 522Q581 399 499 336T268 272H201L143 0H37ZM281 361Q369 361 421 400T473 518Q473 573 443 598T350 623H275L220 361H281Z" />
<glyph unicode="Q" glyph-name="Q" horiz-adv-x="724" d="M349 -9Q345 -10 341 -10T333 -10Q205 -10 137 64T68 266Q68 355 92 437T163 585T278 687T434 725Q558 725 625 651T693 448Q693 348 665 260T584 106T451 11L582 -170H450L349 -9ZM339 83Q413 83 467
132T551 264T581 448Q581 535 540 583T427 632Q371 632 326 604T248 525T198 408T180 267Q180 179 222 131T339 83Z" />
<glyph unicode="R" glyph-name="R" horiz-adv-x="584" d="M37 0L188 714H350Q459 714 516 668T573 529Q573 449 532 393T402 311L522 0H405L304 289H204L143 0H37ZM289 379Q378 379 421 418T464 522Q464 577 433 599T340 622H275L223 379H289Z" />
<glyph unicode="S" glyph-name="S" horiz-adv-x="512" d="M188 -10Q135 -10 94 -1T19 26V127Q54 109 95 96T189 82Q230 82 264 94T320 132T341 198Q341 238 315 265T232 327Q196 349 168 374T122 433T104 514Q104 579 135 626T221 698T342 724Q398 724 442 713T526
680L486 593Q456 608 419 619T342 631Q287 631 252 602T217 522Q217 478 241 455T314 401Q356 375 387 349T434 289T451 208Q451 136 418 88T325 15T188 -10Z" />
<glyph unicode="T" glyph-name="T" horiz-adv-x="510" d="M146 0L277 621H88L108 714H593L574 621H385L253 0H146Z" />
<glyph unicode="U" glyph-name="U" horiz-adv-x="681" d="M299 -10Q187 -10 132 42T76 189Q76 206 78 229T87 277L180 714H286L193 274Q188 253 186 231T183 193Q183 141 214 112T306 83Q388 83 428 126T487 255L585 714H692L592 246Q576 168 541 111T447 22T299 -10Z" />
<glyph unicode="V" glyph-name="V" horiz-adv-x="563" d="M164 0L91 714H196L235 268Q239 230 240 189T241 114H244Q257 149 274 187T314 269L539 714H655L279 0H164Z" />
<glyph unicode="W" glyph-name="W" horiz-adv-x="867" d="M130 0L102 714H205L216 292Q217 252 216 208T211 123H214Q229 162 248 211T285 300L477 714H580L597 301Q599 260 599 211T598 123H602Q615 162 631 208T665 295L845 714H956L635 0H521L503 420Q499 504
500 569H496Q486 536 473 504T439 426L243 0H130Z" />
<glyph unicode="X" glyph-name="X" horiz-adv-x="550" d="M-53 0L235 377L111 714H220L311 447L512 714H631L362 370L496 0H382L285 296L65 0H-53Z" />
<glyph unicode="Y" glyph-name="Y" horiz-adv-x="525" d="M149 0L207 269L92 714H199L278 376L497 714H617L312 267L257 0H149Z" />
<glyph unicode="Z" glyph-name="Z" horiz-adv-x="532" d="M-16 0L0 78L425 621H125L145 714H577L562 635L135 93H457L438 0H-16Z" />
<glyph unicode="[" glyph-name="bracketleft" horiz-adv-x="302" d="M-12 -158L174 714H379L361 633H252L102 -77H210L193 -158H-12Z" />
<glyph unicode="\" glyph-name="backslash" horiz-adv-x="375" d="M214 0L108 714H202L309 0H214Z" />
<glyph unicode="]" glyph-name="bracketright" horiz-adv-x="302" d="M-71 -158L-53 -77H55L205 633H97L114 714H319L133 -158H-71Z" />
<glyph unicode="^" glyph-name="asciicircum" d="M32 263L270 719H327L532 263H444L293 607L122 263H32Z" />
<glyph unicode="_" glyph-name="underscore" horiz-adv-x="396" d="M-92 -158L-77 -90H321L306 -158H-92Z" />
<glyph unicode="`" glyph-name="grave" horiz-adv-x="291" d="M258 606Q239 625 217 652T175 706T146 756V766H257Q267 730 285 692T323 618V606H258Z" />
<glyph unicode="a" glyph-name="a" horiz-adv-x="576" d="M194 -10Q132 -10 90 36T47 177Q47 250 65 316T119 435T201 518T307 549Q359 549 392 523T442 460H447L477 539H558L443 0H362L373 91H369Q336 49 293 20T194 -10ZM232 77Q267 77 299 102T358 172T397
269Q403 295 405 318T408 363Q408 406 385 434T321 462Q285 462 255 439T202 375T167 284T154 178Q154 127 174 102T232 77Z" />
<glyph unicode="b" glyph-name="b" horiz-adv-x="584" d="M278 -10Q224 -10 191 16T141 78H136L105 0H25L186 760H291L256 592Q249 561 242 531T227 477T218 447H222Q255 488 294 518T387 548Q451 548 493 503T536 362Q536 290 518 224T467 105T385 21T278 -10ZM265
77Q301 77 331 101T383 166T417 257T429 360Q429 462 350 462Q316 462 285 437T228 371T188 279T173 178Q173 133 196 105T265 77Z" />
<glyph unicode="c" glyph-name="c" horiz-adv-x="462" d="M247 -10Q159 -10 103 39T47 190Q47 263 66 327T122 442T211 520T329 549Q369 549 404 542T470 520L440 436Q418 445 391 453T332 462Q278 462 238 425T176 326T154 195Q154 138 182 108T262 77Q298 77
329 87T393 112V24Q363 9 327 0T247 -10Z" />
<glyph unicode="d" glyph-name="d" horiz-adv-x="583" d="M194 -10Q132 -10 90 35T47 178Q47 249 65 315T117 434T199 517T307 548Q359 548 390 522T439 460H443Q447 485 451 518T463 585L500 760H604L443 0H360L370 91H366Q332 48 291 19T194 -10ZM234 77Q267
77 298 101T355 167T394 259T409 360Q409 406 387 434T318 462Q282 462 252 438T200 372T166 281T154 178Q154 77 234 77Z" />
<glyph unicode="e" glyph-name="e" horiz-adv-x="516" d="M247 -10Q153 -10 100 44T47 195Q47 260 65 323T120 437T208 518T326 549Q406 549 447 513T488 417Q488 363 455 320T353 253T174 228H155Q153 209 153 196Q153 139 181 107T267 74Q306 74 340 84T418
116V30Q378 12 340 1T247 -10ZM180 307Q239 307 285 318T358 352T385 411Q385 436 369 451T320 466Q274 466 231 424T169 307H180Z" />
<glyph unicode="f" glyph-name="f" horiz-adv-x="334" d="M-40 -240Q-61 -240 -79 -237T-111 -229V-142Q-96 -147 -83 -150T-55 -153Q-20 -153 0 -127T32 -48L139 459H50L60 506L156 541L167 587Q182 655 206 693T267 748T354 765Q382 765 409 759T455 745L427
665Q413 671 397 675T360 679Q325 679 304 658T271 584L261 539H374L357 459H245L135 -62Q117 -143 78 -191T-40 -240Z" />
<glyph unicode="g" glyph-name="g" horiz-adv-x="583" d="M187 -240Q135 -240 94 -231T21 -206V-111Q51 -128 95 -140T183 -153Q242 -153 279 -125T332 -33L340 -1Q345 20 352 47T365 91H361Q329 50 289 20T193 -10Q130 -10 89 36T47 177Q47 248 65 314T117 434T198
518T306 549Q360 549 392 523T443 460H447L478 539H559L438 -26Q412 -144 349 -192T187 -240ZM235 77Q267 77 298 101T354 167T393 258T408 360Q408 406 387 434T319 462Q283 462 253 438T200 372T166 281T154 178Q154 77 235 77Z" />
<glyph unicode="h" glyph-name="h" horiz-adv-x="586" d="M25 0L186 760H291L253 582Q247 551 237 515T218 447H222Q251 484 293 516T395 548Q460 548 496 512T532 405Q532 386 529 366T521 322L452 0H347L417 331Q425 373 425 395Q425 462 360 462Q326 462 291
437T226 361T179 230L130 0H25Z" />
<glyph unicode="i" glyph-name="i" horiz-adv-x="270" d="M218 622Q194 622 179 634T163 673Q163 703 180 723T230 743Q256 743 270 731T284 694Q284 661 265 642T218 622ZM25 0L140 539H245L130 0H25Z" />
<glyph unicode="j" glyph-name="j" horiz-adv-x="270" d="M218 622Q194 622 179 634T163 673Q163 703 180 723T231 743Q284 743 284 694Q284 661 265 642T218 622ZM-58 -240Q-99 -240 -127 -229V-142Q-114 -147 -100 -150T-69 -153Q-7 -153 13 -60L140 539H245L115
-72Q99 -147 60 -193T-58 -240Z" />
<glyph unicode="k" glyph-name="k" horiz-adv-x="517" d="M24 0L185 760H291L224 447Q211 383 199 343T182 288H185L429 539H552L318 304L460 0H343L237 237L169 187L130 0H24Z" />
<glyph unicode="l" glyph-name="l" horiz-adv-x="270" d="M24 0L186 760H291L130 0H24Z" />
<glyph unicode="m" glyph-name="m" horiz-adv-x="884" d="M25 0L140 539H223L213 439H217Q236 466 261 491T318 533T390 549Q445 549 475 518T513 432H517Q547 478 592 513T698 549Q762 549 795 513T829 410Q829 387 827 366T818 322L751 0H644L715 331Q719 352
721 367T724 397Q724 428 709 445T662 462Q612 462 563 406T490 238L440 0H335L405 331Q413 373 413 395Q413 427 399 444T353 462Q304 462 254 405T179 230L130 0H25Z" />
<glyph unicode="n" glyph-name="n" horiz-adv-x="586" d="M22 0L138 541H226L215 441H217Q236 468 261 493T320 535T395 551Q461 551 497 514T534 410Q534 388 531 365T523 321L454 0H344L415 332Q419 352 421 367T424 397Q424 460 360 460Q327 460 292 435T228
359T181 230L132 0H22Z" />
<glyph unicode="o" glyph-name="o" horiz-adv-x="569" d="M249 -9Q157 -9 102 47T47 199Q47 263 64 325T115 437T201 517T321 547Q416 547 469 491T523 337Q523 274 506 213T455 101T370 21T249 -9ZM257 78Q302 78 338 111T395 204T416 344Q416 373 407 399T376
443T319 460Q267 460 230 422T173 324T153 196Q153 140 180 109T257 78Z" />
<glyph unicode="p" glyph-name="p" horiz-adv-x="584" d="M-25 -240L140 539H223L213 444H217Q249 486 291 517T389 548Q451 548 493 503T536 361Q536 289 518 223T467 104T385 21T278 -10Q225 -10 194 16T144 78H140Q138 55 134 26T124 -28L79 -240H-25ZM265
77Q301 77 331 101T383 166T417 257T429 360Q429 462 350 462Q316 462 285 437T228 371T188 279T173 178Q173 133 196 105T265 77Z" />
<glyph unicode="q" glyph-name="q" horiz-adv-x="583" d="M332 -31Q335 -17 341 5T353 50T365 91H361Q329 50 289 20T193 -10Q131 -10 89 36T47 177Q47 248 65 314T117 434T199 518T308 549Q359 549 391 523T442 460H447L478 539H558L392 -240H288L332 -31ZM234
77Q268 77 299 102T355 169T394 261T408 360Q408 403 387 432T319 462Q283 462 253 438T201 372T167 281T154 178Q154 77 234 77Z" />
<glyph unicode="r" glyph-name="r" horiz-adv-x="405" d="M25 0L140 539H223L213 439H218Q250 484 288 516T383 549Q396 549 411 548T438 543L415 445Q403 448 391 450T364 452Q318 452 281 423T219 346T182 245L130 0H25Z" />
<glyph unicode="s" glyph-name="s" horiz-adv-x="444" d="M161 -10Q111 -10 74 -1T7 23V116Q36 99 75 86T156 73Q208 73 238 93T268 150Q268 176 250 194T180 242Q125 273 97 306T68 390Q68 464 119 506T258 549Q306 549 348 538T424 509L390 429Q363 443 331
453T259 464Q221 464 198 447T174 399Q174 375 191 357T258 312Q308 284 341 251T375 162Q375 78 317 34T161 -10Z" />
<glyph unicode="t" glyph-name="t" horiz-adv-x="355" d="M189 -10Q132 -10 95 16T57 110Q57 140 65 176L125 459H45L54 508L146 547L209 659H273L247 539H383L366 459H231L171 175Q168 164 166 151T164 125Q164 103 176 90T214 76Q232 76 249 79T287 90V10Q272
3 245 -3T189 -10Z" />
<glyph unicode="u" glyph-name="u" horiz-adv-x="586" d="M190 -10Q127 -10 91 26T55 130Q55 151 58 174T66 221L134 539H240L169 207Q161 166 161 143Q161 111 176 94T226 77Q259 77 294 102T360 178T408 309L456 539H561L446 0H363L373 100H368Q349 73 324 48T265
6T190 -10Z" />
<glyph unicode="v" glyph-name="v" horiz-adv-x="480" d="M112 0L49 539H153L181 244Q183 222 185 192T188 134T189 91H193Q203 113 215 142T241 199T264 245L418 539H531L240 0H112Z" />
<glyph unicode="w" glyph-name="w" horiz-adv-x="742" d="M81 0L58 539H159L165 266Q167 216 166 173T161 95H165Q173 117 184 146T206 203T226 248L359 539H473L485 259Q486 223 486 179T484 95H489Q501 132 520 183T560 282L674 539H784L533 0H411L399 279Q397
316 398 357T400 442H395Q382 405 368 370T333 289L201 0H81Z" />
<glyph unicode="x" glyph-name="x" horiz-adv-x="497" d="M-41 0L192 277L78 539H187L262 351L408 539H531L306 272L428 0H318L236 196L82 0H-41Z" />
<glyph unicode="y" glyph-name="y" horiz-adv-x="482" d="M-17 -240Q-41 -240 -57 -238T-87 -230V-146Q-73 -149 -58 -151T-25 -154Q18 -154 47 -129T101 -56L129 -6L49 539H153L186 277Q190 248 192 214T195 148T197 95H200Q206 111 218 139T244 199T271 254L418
539H532L194 -86Q152 -164 103 -202T-17 -240Z" />
<glyph unicode="z" glyph-name="z" horiz-adv-x="448" d="M-17 0L-4 68L314 459H94L112 539H449L433 460L121 80H364L347 0H-17Z" />
<glyph unicode="{" glyph-name="braceleft" horiz-adv-x="351" d="M221 -158Q70 -158 70 -45Q70 -29 72 -13T79 21L102 122Q104 136 106 148T109 172Q109 242 7 242L25 326Q83 326 118 347T163 418L195 569Q212 647 254 680T382 714H407L389 630Q347 630 323 616T289
555L254 403Q243 351 213 320T125 279V277Q165 265 183 238T202 172Q202 159 200 143T194 111L173 14Q170 3 169 -7T167 -26Q167 -54 186 -64T238 -74V-158H221Z" />
<glyph unicode="|" glyph-name="bar" horiz-adv-x="551" d="M249 -237V759H331V-237H249Z" />
<glyph unicode="}" glyph-name="braceright" horiz-adv-x="351" d="M-41 -74Q4 -74 31 -60T68 1L102 153Q114 205 144 236T232 276V279Q192 291 174 317T155 383Q155 397 157 412T164 444L185 542Q188 553 189 563T191 582Q191 610 170 620T109 630L125 714H134Q287
714 287 601Q287 585 285 569T278 535L255 434Q252 419 250 407T247 384Q247 314 349 314L332 230Q273 230 239 209T193 138L161 -13Q144 -95 101 -126T-29 -158H-41V-74Z" />
<glyph unicode="~" glyph-name="asciitilde" horiz-adv-x="572" d="M286 314Q250 329 226 335T179 341Q151 341 120 324T65 282V370Q114 423 186 423Q215 423 244 417T319 391Q356 376 380 370T425 364Q454 364 485 381T540 423V336Q491 282 419 282Q390 282 361
288T286 314Z" />
<glyph unicode="&#xa0;" glyph-name="uni00A0" horiz-adv-x="260" />
<glyph unicode="&#xa1;" glyph-name="exclamdown" horiz-adv-x="268" d="M171 402Q144 402 129 417T113 459Q113 495 133 520T195 546Q223 546 237 530T252 488Q252 456 233 429T171 402ZM-18 -182L114 321H189L107 -182H-18Z" />
<glyph unicode="&#xa2;" glyph-name="cent" horiz-adv-x="551" d="M233 94Q173 110 136 158T99 287Q99 377 128 454T213 581T346 643L362 724H433L415 643Q476 638 523 617L492 533Q470 542 444 550T385 558Q331 558 291 521T229 423T206 291Q206 235 235 204T315
173Q351 173 382 183T445 208V120Q417 106 382 97T303 86L283 -10H211L233 94Z" />
<glyph unicode="&#xa3;" glyph-name="sterling" horiz-adv-x="551" d="M7 88Q51 98 84 129T131 224L150 311H53L70 389H166L198 543Q219 638 276 681T416 724Q469 724 512 711T586 682L546 600Q521 613 488 624T417 636Q378 636 347 615T302 532L272 389H440L424
311H255L237 228Q225 171 199 141T141 94H483L463 0H-10L7 88Z" />
<glyph unicode="&#xa4;" glyph-name="currency" horiz-adv-x="551" d="M393 196Q372 182 346 174T292 166Q263 166 237 174T189 197L127 136L74 190L136 251Q105 297 105 353Q105 408 136 455L73 517L127 572L189 510Q211 524 237 532T292 541Q320 541 345 533T393
509L456 572L511 519L448 456Q462 434 470 408T479 353Q479 324 471 298T448 250L510 189L456 135L393 196ZM292 243Q339 243 371 275T404 353Q404 400 372 432T292 464Q246 464 214 432T182 353Q182 307 214 275T292 243Z" />
<glyph unicode="&#xa5;" glyph-name="yen" horiz-adv-x="551" d="M165 0L191 122H55L71 195H206L221 269H86L102 342H207L109 714H213L289 377L508 714H620L365 342H473L457 269H320L305 195H442L427 122H290L264 0H165Z" />
<glyph unicode="&#xa6;" glyph-name="brokenbar" horiz-adv-x="551" d="M249 373V759H331V373H249ZM249 -237V149H331V-237H249Z" />
<glyph unicode="&#xa7;" glyph-name="section" horiz-adv-x="486" d="M173 -6Q122 -6 84 3T22 26V111Q50 95 90 82T174 69Q233 69 263 89T294 146Q294 167 274 185T202 227Q146 253 114 286T81 374Q81 428 113 463T190 522Q167 538 152 562T136 620Q136 683 188
724T331 765Q379 765 419 755T492 728L461 656Q430 670 398 679T328 689Q292 689 263 674T234 624Q234 600 255 583T325 544Q380 519 413 487T446 401Q446 349 416 311T340 249Q361 233 376 211T391 155Q391 82 335 38T173 -6ZM282 283Q309 299 331 326T354 388Q354
417 330 439T250 484Q220 474 196 448T171 386Q171 355 195 333T282 283Z" />
<glyph unicode="&#xa8;" glyph-name="dieresis" horiz-adv-x="554" d="M445 628Q424 628 411 639T397 674Q397 701 412 718T456 736Q502 736 502 693Q502 663 486 646T445 628ZM264 628Q242 628 229 639T215 674Q215 701 230 718T274 736Q320 736 320 693Q320
663 304 646T264 628Z" />
<glyph unicode="&#xa9;" glyph-name="copyright" horiz-adv-x="832" d="M416 -10Q336 -10 269 17T153 93T76 210T49 357Q49 436 76 503T153 619T270 696T416 724Q492 724 558 697T675 621T754 504T783 357Q783 277 756 210T680 94T563 17T416 -10ZM416 46Q479
46 534 69T632 133T698 232T722 357Q722 421 700 477T636 577T539 644T416 668Q327 668 258 628T149 518T109 357Q109 270 148 200T257 88T416 46ZM431 132Q331 132 282 193T232 357Q232 422 255 473T324 553T435 582Q500 582 558 552L529 489Q479 515 436 515Q377
515 345 473T312 357Q312 281 340 240T435 198Q458 198 486 204T540 221V156Q516 145 491 139T431 132Z" />
<glyph unicode="&#xaa;" glyph-name="ordfeminine" horiz-adv-x="350" d="M173 378Q135 378 108 406T80 495Q80 535 90 575T120 648T171 701T243 721Q275 721 293 707T322 671H326L344 715H398L326 384H272L278 436H275Q256 411 232 395T173 378ZM197 437Q223
437 242 454T275 497T294 552T301 603Q301 630 288 646T249 663Q219 663 197 638T163 576T151 499Q151 437 197 437Z" />
<glyph unicode="&#xab;" glyph-name="guillemotleft" horiz-adv-x="502" d="M148 51L40 270V282L233 481L291 428L149 267L227 84L148 51ZM352 51L249 256V269L434 477L495 428L358 255L431 84L352 51Z" />
<glyph unicode="&#xac;" glyph-name="logicalnot" horiz-adv-x="572" d="M539 393V126H458V312H65V393H539Z" />
<glyph unicode="&#xad;" glyph-name="uni00AD" horiz-adv-x="316" d="M24 221L45 314H286L266 221H24Z" />
<glyph unicode="&#xae;" glyph-name="registered" horiz-adv-x="832" d="M416 -10Q336 -10 269 17T153 93T76 210T49 357Q49 436 76 503T153 619T270 696T416 724Q492 724 558 697T675 621T754 504T783 357Q783 277 756 210T680 94T563 17T416 -10ZM416 46Q479
46 534 69T632 133T698 232T722 357Q722 421 700 477T636 577T539 644T416 668Q327 668 258 628T149 518T109 357Q109 270 148 200T257 88T416 46ZM278 138V576H407Q489 576 527 544T565 446Q565 399 541 372T487 332L603 138H516L417 310H355V138H278ZM405 373Q444
373 465 393T487 444Q487 479 468 495T404 511H355V373H405Z" />
<glyph unicode="&#xaf;" glyph-name="overscore" horiz-adv-x="425" d="M97 760L115 836H542L524 760H97Z" />
<glyph unicode="&#xb0;" glyph-name="degree" horiz-adv-x="428" d="M214 408Q140 408 95 452T50 566Q50 635 94 679T214 724Q286 724 331 680T377 566Q377 496 332 452T214 408ZM215 477Q258 477 280 501T303 566Q303 607 280 631T215 656Q171 656 148 632T125
566Q125 526 148 502T215 477Z" />
<glyph unicode="&#xb1;" glyph-name="plusminus" horiz-adv-x="572" d="M343 404H539V323H343V122H261V323H65V404H261V606H343V404ZM65 0V82H540V0H65Z" />
<glyph unicode="&#xb2;" glyph-name="uni00B2" horiz-adv-x="361" d="M67 416L80 478L210 587Q267 635 294 666T321 734Q321 757 307 770T268 784Q223 784 174 745L138 801Q170 827 206 840T285 853Q347 853 376 821T405 749Q405 713 393 685T352 628T278 563L186
488H371L356 416H67Z" />
<glyph unicode="&#xb3;" glyph-name="uni00B3" horiz-adv-x="361" d="M198 408Q164 408 133 415T78 435V509Q105 494 136 484T197 474Q243 474 267 493T292 548Q292 606 217 606H166L179 668H225Q269 668 296 685T323 735Q323 788 264 787Q238 787 216 778T172
754L140 810Q167 829 201 841T279 853Q344 853 374 824T404 752Q404 705 376 678T301 639V635Q337 626 355 603T374 546Q374 483 327 446T198 408Z" />
<glyph unicode="&#xb4;" glyph-name="acute" horiz-adv-x="280" d="M114 619Q140 647 171 689T225 766H344V757Q330 739 302 711T241 653T183 606H114V619Z" />
<glyph unicode="&#xb5;" glyph-name="uni00B5" horiz-adv-x="592" d="M-25 -240L140 539H245L176 208Q167 167 167 145Q167 77 232 77Q266 77 301 102T366 178T413 307L463 539H567L452 0H369L380 95H375Q346 55 307 23T211 -10Q158 -10 134 32H130Q128 17 125
-5T118 -49T111 -85L79 -240H-25Z" />
<glyph unicode="&#xb6;" glyph-name="paragraph" horiz-adv-x="655" d="M364 273Q334 264 293 264Q231 264 185 287T114 364T88 509Q88 605 116 659T193 737T308 760H588V-127H524V676H428V-127H364V273Z" />
<glyph unicode="&#xb7;" glyph-name="middot" horiz-adv-x="265" d="M135 280Q105 280 91 296T76 337Q76 371 95 397T159 424Q184 424 200 410T216 366Q216 332 195 306T135 280Z" />
<glyph unicode="&#xb8;" glyph-name="cedilla" horiz-adv-x="205" d="M-36 -240Q-52 -240 -66 -238T-90 -233V-172Q-67 -178 -46 -178Q26 -178 26 -129Q26 -109 9 -99T-41 -84L6 0H72L46 -51Q71 -58 91 -76T112 -130Q112 -177 75 -208T-36 -240Z" />
<glyph unicode="&#xb9;" glyph-name="uni00B9" horiz-adv-x="361" d="M235 649Q241 676 249 706T263 756Q255 748 244 739T221 721L166 685L131 742L289 843H362L271 415H186L235 649Z" />
<glyph unicode="&#xba;" glyph-name="ordmasculine" horiz-adv-x="348" d="M210 378Q154 378 120 411T85 511Q85 565 104 613T161 691T256 721Q321 721 350 684T379 590Q379 553 370 516T341 448T289 397T210 378ZM216 438Q247 438 267 460T298 518T308 590Q308
627 293 643T252 660Q220 660 199 638T168 582T157 511Q157 438 216 438Z" />
<glyph unicode="&#xbb;" glyph-name="guillemotright" horiz-adv-x="502" d="M269 51L211 104L353 264L276 448L354 481L462 261V248L269 51ZM68 55L7 104L144 275L71 448L150 481L253 275V262L68 55Z" />
<glyph unicode="&#xbc;" glyph-name="onequarter" horiz-adv-x="762" d="M92 0L622 714H712L182 0H92ZM207 520Q213 547 221 577T235 627Q227 619 216 610T193 592L138 556L103 613L261 714H334L243 286H158L207 520ZM552 1L571 91H392L404 153L638 432H725L666
157H727L714 91H652L633 1H552ZM484 157H585L605 245Q611 269 615 289T627 334Q620 322 604 301T577 268L484 157Z" />
<glyph unicode="&#xbd;" glyph-name="onehalf" horiz-adv-x="830" d="M93 0L623 714H713L183 0H93ZM207 520Q213 547 221 577T235 627Q227 619 216 610T193 592L138 556L103 613L261 714H334L243 286H158L207 520ZM449 1L462 63L592 172Q649 220 676 251T703 319Q703
342 689 355T650 369Q605 369 556 330L520 386Q552 412 588 425T667 438Q729 438 758 406T787 334Q787 298 775 270T734 213T660 148L568 73H753L738 1H449Z" />
<glyph unicode="&#xbe;" glyph-name="threequarters" horiz-adv-x="814" d="M172 278Q138 278 107 285T52 305V379Q79 364 110 354T171 344Q217 344 241 363T266 418Q266 476 191 476H140L153 538H199Q243 538 270 555T297 605Q297 658 238 657Q212 657 190 648T146
624L114 680Q141 699 175 711T253 723Q318 723 348 694T378 622Q378 575 350 548T275 509V505Q311 496 329 473T348 416Q348 353 301 316T172 278ZM146 0L676 714H766L236 0H146ZM604 0L623 90H444L456 152L690 431H777L718 156H779L766 90H704L685 0H604ZM536
156H637L657 244Q663 268 667 288T679 333Q672 321 656 300T629 267L536 156Z" />
<glyph unicode="&#xbf;" glyph-name="questiondown" horiz-adv-x="439" d="M306 546Q336 546 350 530T365 489Q365 455 345 428T281 401Q256 401 241 416T225 460Q225 494 245 520T306 546ZM315 320Q307 276 294 244T256 183T195 127Q163 104 138 83T97 37T82
-21Q82 -60 103 -81T168 -103Q205 -103 241 -90T313 -60L349 -139Q307 -162 257 -177T154 -192Q73 -192 25 -152T-23 -34Q-23 36 15 84T121 181Q157 207 177 226T209 266T228 320H315Z" />
<glyph unicode="&#xc0;" glyph-name="Agrave" horiz-adv-x="581" d="M-58 0L326 714H446L529 0H424L402 207H164L57 0H-58ZM212 301H393L378 461Q375 496 372 537T368 612H366Q351 577 333 539T294 460L212 301ZM400 781Q381 800 359 827T317 881T288 931V941H399Q409
905 427 867T465 793V781H400Z" />
<glyph unicode="&#xc1;" glyph-name="Aacute" horiz-adv-x="581" d="M-58 0L326 714H446L529 0H424L402 207H164L57 0H-58ZM212 301H393L378 461Q375 496 372 537T368 612H366Q351 577 333 539T294 460L212 301ZM338 794Q364 822 395 864T449 941H568V932Q554
914 526 886T465 828T407 781H338V794Z" />
<glyph unicode="&#xc2;" glyph-name="Acircumflex" horiz-adv-x="581" d="M-58 0L326 714H446L529 0H424L402 207H164L57 0H-58ZM212 301H393L378 461Q375 496 372 537T368 612H366Q351 577 333 539T294 460L212 301ZM223 794Q241 810 268 836T323 890T365 941H473Q488
903 513 863T558 794V781H490Q473 797 452 820T411 869Q382 843 353 821T296 781H223V794Z" />
<glyph unicode="&#xc3;" glyph-name="Atilde" horiz-adv-x="581" d="M-58 0L326 714H446L529 0H424L402 207H164L57 0H-58ZM212 301H393L378 461Q375 496 372 537T368 612H366Q351 577 333 539T294 460L212 301ZM223 781Q251 915 344 915Q374 915 398 902T443
876T482 862Q502 862 514 874T538 916H600Q567 782 476 782Q448 782 425 795T380 822T338 836Q319 836 307 822T285 781H223Z" />
<glyph unicode="&#xc4;" glyph-name="Adieresis" horiz-adv-x="581" d="M-58 0L326 714H446L529 0H424L402 207H164L57 0H-58ZM212 301H393L378 461Q375 496 372 537T368 612H366Q351 577 333 539T294 460L212 301ZM497 803Q476 803 463 814T449 849Q449 876 464
893T508 911Q554 911 554 868Q554 838 538 821T497 803ZM316 803Q294 803 281 814T267 849Q267 876 282 893T326 911Q372 911 372 868Q372 838 356 821T316 803Z" />
<glyph unicode="&#xc5;" glyph-name="Aring" horiz-adv-x="581" d="M-58 0L326 714H446L529 0H424L402 207H164L57 0H-58ZM212 301H393L378 461Q375 496 372 537T368 612H366Q351 577 333 539T294 460L212 301ZM406 781Q356 781 325 809T294 889Q294 940 326 968T406
996Q455 996 487 968T520 890Q520 838 487 810T406 781ZM406 836Q430 836 444 850T459 889Q459 913 445 927T406 942Q384 942 369 928T353 889Q353 865 367 851T406 836Z" />
<glyph unicode="&#xc6;" glyph-name="AE" horiz-adv-x="845" d="M-59 0L396 714H883L864 622H597L554 418H803L784 327H535L486 93H752L732 0H359L402 207H190L61 0H-59ZM250 301H422L490 622H449L250 301Z" />
<glyph unicode="&#xc7;" glyph-name="Ccedilla" horiz-adv-x="594" d="M325 -10Q202 -10 135 64T68 265Q68 329 83 394T128 519T204 624T312 697T453 724Q509 724 553 714T638 681L595 593Q566 609 532 620T453 631Q383 631 332 599T247 514T197 396T180 269Q180
181 222 132T345 83Q386 83 426 92T505 115V22Q469 9 426 0T325 -10ZM243 -240Q227 -240 213 -238T189 -233V-172Q212 -178 233 -178Q305 -178 305 -129Q305 -109 288 -99T238 -84L285 0H351L325 -51Q350 -58 370 -76T391 -130Q391 -177 354 -208T243 -240Z" />
<glyph unicode="&#xc8;" glyph-name="Egrave" horiz-adv-x="522" d="M37 0L188 714H560L541 622H275L232 418H480L462 327H213L162 93H429L409 0H37ZM384 781Q365 800 343 827T301 881T272 931V941H383Q393 905 411 867T449 793V781H384Z" />
<glyph unicode="&#xc9;" glyph-name="Eacute" horiz-adv-x="522" d="M37 0L188 714H560L541 622H275L232 418H480L462 327H213L162 93H429L409 0H37ZM322 794Q348 822 379 864T433 941H552V932Q538 914 510 886T449 828T391 781H322V794Z" />
<glyph unicode="&#xca;" glyph-name="Ecircumflex" horiz-adv-x="522" d="M37 0L188 714H560L541 622H275L232 418H480L462 327H213L162 93H429L409 0H37ZM207 794Q225 810 252 836T307 890T349 941H457Q472 903 497 863T542 794V781H474Q457 797 436 820T395
869Q366 843 337 821T280 781H207V794Z" />
<glyph unicode="&#xcb;" glyph-name="Edieresis" horiz-adv-x="522" d="M37 0L188 714H560L541 622H275L232 418H480L462 327H213L162 93H429L409 0H37ZM481 803Q460 803 447 814T433 849Q433 876 448 893T492 911Q538 911 538 868Q538 838 522 821T481 803ZM300
803Q278 803 265 814T251 849Q251 876 266 893T310 911Q356 911 356 868Q356 838 340 821T300 803Z" />
<glyph unicode="&#xcc;" glyph-name="Igrave" horiz-adv-x="341" d="M-23 0L-10 60L76 86L191 628L116 653L128 714H398L385 653L297 628L182 86L259 60L247 0H-23ZM278 781Q259 800 237 827T195 881T166 931V941H277Q287 905 305 867T343 793V781H278Z" />
<glyph unicode="&#xcd;" glyph-name="Iacute" horiz-adv-x="341" d="M-23 0L-10 60L76 86L191 628L116 653L128 714H398L385 653L297 628L182 86L259 60L247 0H-23ZM216 794Q242 822 273 864T327 941H446V932Q432 914 404 886T343 828T285 781H216V794Z" />
<glyph unicode="&#xce;" glyph-name="Icircumflex" horiz-adv-x="341" d="M-23 0L-10 60L76 86L191 628L116 653L128 714H398L385 653L297 628L182 86L259 60L247 0H-23ZM101 794Q119 810 146 836T201 890T243 941H351Q366 903 391 863T436 794V781H368Q351 797
330 820T289 869Q260 843 231 821T174 781H101V794Z" />
<glyph unicode="&#xcf;" glyph-name="Idieresis" horiz-adv-x="341" d="M-23 0L-10 60L76 86L191 628L116 653L128 714H398L385 653L297 628L182 86L259 60L247 0H-23ZM375 803Q354 803 341 814T327 849Q327 876 342 893T386 911Q432 911 432 868Q432 838 416
821T375 803ZM194 803Q172 803 159 814T145 849Q145 876 160 893T204 911Q250 911 250 868Q250 838 234 821T194 803Z" />
<glyph unicode="&#xd0;" glyph-name="Eth" horiz-adv-x="670" d="M37 0L102 308H29L49 399H121L188 714H364Q493 714 566 644T639 433Q639 306 591 209T451 56T226 0H37ZM231 91Q328 91 394 137T494 260T528 432Q528 532 480 577T352 623H275L228 399H373L353
308H208L162 91H231Z" />
<glyph unicode="&#xd1;" glyph-name="Ntilde" horiz-adv-x="721" d="M36 0L187 714H305L509 143H512Q515 166 520 199T532 269T546 337L627 714H726L575 0H459L252 577H248Q246 560 241 525T228 449T213 373L135 0H36ZM298 781Q326 915 419 915Q449 915 473 902T518
876T557 862Q577 862 589 874T613 916H675Q642 782 551 782Q523 782 500 795T455 822T413 836Q394 836 382 822T360 781H298Z" />
<glyph unicode="&#xd2;" glyph-name="Ograve" horiz-adv-x="724" d="M333 -10Q205 -10 137 64T68 266Q68 355 92 437T163 585T278 687T434 725Q558 725 625 651T693 448Q693 357 671 275T603 128T491 27T333 -10ZM339 83Q394 83 438 111T515 190T564 306T581 448Q581
535 540 583T427 632Q371 632 326 604T248 525T198 408T180 267Q180 179 222 131T339 83ZM471 781Q452 800 430 827T388 881T359 931V941H470Q480 905 498 867T536 793V781H471Z" />
<glyph unicode="&#xd3;" glyph-name="Oacute" horiz-adv-x="724" d="M333 -10Q205 -10 137 64T68 266Q68 355 92 437T163 585T278 687T434 725Q558 725 625 651T693 448Q693 357 671 275T603 128T491 27T333 -10ZM339 83Q394 83 438 111T515 190T564 306T581 448Q581
535 540 583T427 632Q371 632 326 604T248 525T198 408T180 267Q180 179 222 131T339 83ZM410 794Q436 822 467 864T521 941H640V932Q626 914 598 886T537 828T479 781H410V794Z" />
<glyph unicode="&#xd4;" glyph-name="Ocircumflex" horiz-adv-x="724" d="M333 -10Q205 -10 137 64T68 266Q68 355 92 437T163 585T278 687T434 725Q558 725 625 651T693 448Q693 357 671 275T603 128T491 27T333 -10ZM339 83Q394 83 438 111T515 190T564 306T581
448Q581 535 540 583T427 632Q371 632 326 604T248 525T198 408T180 267Q180 179 222 131T339 83ZM294 794Q312 810 339 836T394 890T436 941H544Q559 903 584 863T629 794V781H561Q544 797 523 820T482 869Q453 843 424 821T367 781H294V794Z" />
<glyph unicode="&#xd5;" glyph-name="Otilde" horiz-adv-x="724" d="M333 -10Q205 -10 137 64T68 266Q68 355 92 437T163 585T278 687T434 725Q558 725 625 651T693 448Q693 357 671 275T603 128T491 27T333 -10ZM339 83Q394 83 438 111T515 190T564 306T581 448Q581
535 540 583T427 632Q371 632 326 604T248 525T198 408T180 267Q180 179 222 131T339 83ZM295 781Q323 915 416 915Q446 915 470 902T515 876T554 862Q574 862 586 874T610 916H672Q639 782 548 782Q520 782 497 795T452 822T410 836Q391 836 379 822T357 781H295Z"
/>
<glyph unicode="&#xd6;" glyph-name="Odieresis" horiz-adv-x="724" d="M333 -10Q205 -10 137 64T68 266Q68 355 92 437T163 585T278 687T434 725Q558 725 625 651T693 448Q693 357 671 275T603 128T491 27T333 -10ZM339 83Q394 83 438 111T515 190T564 306T581
448Q581 535 540 583T427 632Q371 632 326 604T248 525T198 408T180 267Q180 179 222 131T339 83ZM574 803Q553 803 540 814T526 849Q526 876 541 893T585 911Q631 911 631 868Q631 838 615 821T574 803ZM393 803Q371 803 358 814T344 849Q344 876 359 893T403
911Q449 911 449 868Q449 838 433 821T393 803Z" />
<glyph unicode="&#xd7;" glyph-name="multiply" horiz-adv-x="572" d="M466 574L524 517L360 353L522 189L466 132L301 294L140 132L82 190L244 353L81 516L139 574L302 411L466 574Z" />
<glyph unicode="&#xd8;" glyph-name="Oslash" horiz-adv-x="724" d="M117 -41L55 8L119 87Q93 122 81 167T68 266Q68 355 92 437T163 585T278 687T434 725Q526 725 591 677L651 752L713 703L646 620Q669 588 681 544T693 448Q693 357 671 275T603 128T491 27T333
-10Q240 -10 176 33L117 -41ZM527 599Q508 615 483 624T426 634Q370 634 324 605T246 526T196 409T178 267Q178 218 193 178L527 599ZM339 82Q395 82 440 110T517 189T566 306T583 448Q583 470 580 490T572 526L239 112Q257 98 282 90T339 82Z" />
<glyph unicode="&#xd9;" glyph-name="Ugrave" horiz-adv-x="681" d="M299 -10Q187 -10 132 42T76 189Q76 206 78 229T87 277L180 714H286L193 274Q188 253 186 231T183 193Q183 141 214 112T306 83Q388 83 428 126T487 255L585 714H692L592 246Q576 168 541 111T447
22T299 -10ZM449 781Q430 800 408 827T366 881T337 931V941H448Q458 905 476 867T514 793V781H449Z" />
<glyph unicode="&#xda;" glyph-name="Uacute" horiz-adv-x="681" d="M299 -10Q187 -10 132 42T76 189Q76 206 78 229T87 277L180 714H286L193 274Q188 253 186 231T183 193Q183 141 214 112T306 83Q388 83 428 126T487 255L585 714H692L592 246Q576 168 541 111T447
22T299 -10ZM387 794Q413 822 444 864T498 941H617V932Q603 914 575 886T514 828T456 781H387V794Z" />
<glyph unicode="&#xdb;" glyph-name="Ucircumflex" horiz-adv-x="681" d="M299 -10Q187 -10 132 42T76 189Q76 206 78 229T87 277L180 714H286L193 274Q188 253 186 231T183 193Q183 141 214 112T306 83Q388 83 428 126T487 255L585 714H692L592 246Q576 168 541
111T447 22T299 -10ZM272 794Q290 810 317 836T372 890T414 941H522Q537 903 562 863T607 794V781H539Q522 797 501 820T460 869Q431 843 402 821T345 781H272V794Z" />
<glyph unicode="&#xdc;" glyph-name="Udieresis" horiz-adv-x="681" d="M299 -10Q187 -10 132 42T76 189Q76 206 78 229T87 277L180 714H286L193 274Q188 253 186 231T183 193Q183 141 214 112T306 83Q388 83 428 126T487 255L585 714H692L592 246Q576 168 541
111T447 22T299 -10ZM551 803Q530 803 517 814T503 849Q503 876 518 893T562 911Q608 911 608 868Q608 838 592 821T551 803ZM370 803Q348 803 335 814T321 849Q321 876 336 893T380 911Q426 911 426 868Q426 838 410 821T370 803Z" />
<glyph unicode="&#xdd;" glyph-name="Yacute" horiz-adv-x="525" d="M149 0L207 269L92 714H199L278 376L497 714H617L312 267L257 0H149ZM307 794Q333 822 364 864T418 941H537V932Q523 914 495 886T434 828T376 781H307V794Z" />
<glyph unicode="&#xde;" glyph-name="Thorn" horiz-adv-x="579" d="M37 0L188 714H294L269 594H332Q451 594 502 541T554 401Q554 278 471 215T239 151H175L143 0H37ZM253 242Q340 242 392 280T445 398Q445 453 415 478T321 503H250L194 242H253Z" />
<glyph unicode="&#xdf;" glyph-name="germandbls" horiz-adv-x="606" d="M-60 -240Q-98 -240 -126 -229V-142Q-99 -152 -71 -152Q-40 -152 -19 -131T13 -58L145 566Q167 667 225 716T389 765Q474 765 525 728T576 624Q576 568 547 533T475 468Q445 448 422 429T399
384Q399 365 419 348T458 317Q497 285 520 253T543 172Q543 112 516 72T443 11T337 -10Q291 -10 258 -1T201 24V115Q224 99 256 86T323 73Q380 73 408 98T436 161Q436 191 421 210T371 259Q330 290 311 317T292 378Q292 429 321 458T389 513Q422 534 445 557T469
613Q469 645 445 662T380 680Q321 680 291 649T250 561L119 -60Q101 -143 61 -191T-60 -240Z" />
<glyph unicode="&#xe0;" glyph-name="agrave" horiz-adv-x="576" d="M194 -10Q132 -10 90 36T47 177Q47 250 65 316T119 435T201 518T307 549Q359 549 392 523T442 460H447L477 539H558L443 0H362L373 91H369Q336 49 293 20T194 -10ZM232 77Q267 77 299 102T358
172T397 269Q403 295 405 318T408 363Q408 406 385 434T321 462Q285 462 255 439T202 375T167 284T154 178Q154 127 174 102T232 77ZM360 606Q341 625 319 652T277 706T248 756V766H359Q369 730 387 692T425 618V606H360Z" />
<glyph unicode="&#xe1;" glyph-name="aacute" horiz-adv-x="576" d="M194 -10Q132 -10 90 36T47 177Q47 250 65 316T119 435T201 518T307 549Q359 549 392 523T442 460H447L477 539H558L443 0H362L373 91H369Q336 49 293 20T194 -10ZM232 77Q267 77 299 102T358
172T397 269Q403 295 405 318T408 363Q408 406 385 434T321 462Q285 462 255 439T202 375T167 284T154 178Q154 127 174 102T232 77ZM298 619Q324 647 355 689T409 766H528V757Q514 739 486 711T425 653T367 606H298V619Z" />
<glyph unicode="&#xe2;" glyph-name="acircumflex" horiz-adv-x="576" d="M194 -10Q132 -10 90 36T47 177Q47 250 65 316T119 435T201 518T307 549Q359 549 392 523T442 460H447L477 539H558L443 0H362L373 91H369Q336 49 293 20T194 -10ZM232 77Q267 77 299 102T358
172T397 269Q403 295 405 318T408 363Q408 406 385 434T321 462Q285 462 255 439T202 375T167 284T154 178Q154 127 174 102T232 77ZM183 619Q201 635 228 661T283 715T325 766H433Q448 728 473 688T518 619V606H450Q433 622 412 645T371 694Q342 668 313 646T256
606H183V619Z" />
<glyph unicode="&#xe3;" glyph-name="atilde" horiz-adv-x="576" d="M194 -10Q132 -10 90 36T47 177Q47 250 65 316T119 435T201 518T307 549Q359 549 392 523T442 460H447L477 539H558L443 0H362L373 91H369Q336 49 293 20T194 -10ZM232 77Q267 77 299 102T358
172T397 269Q403 295 405 318T408 363Q408 406 385 434T321 462Q285 462 255 439T202 375T167 284T154 178Q154 127 174 102T232 77ZM183 606Q211 740 304 740Q334 740 358 727T403 701T442 687Q462 687 474 699T498 741H560Q527 607 436 607Q408 607 385 620T340
647T298 661Q279 661 267 647T245 606H183Z" />
<glyph unicode="&#xe4;" glyph-name="adieresis" horiz-adv-x="576" d="M194 -10Q132 -10 90 36T47 177Q47 250 65 316T119 435T201 518T307 549Q359 549 392 523T442 460H447L477 539H558L443 0H362L373 91H369Q336 49 293 20T194 -10ZM232 77Q267 77 299 102T358
172T397 269Q403 295 405 318T408 363Q408 406 385 434T321 462Q285 462 255 439T202 375T167 284T154 178Q154 127 174 102T232 77ZM456 628Q435 628 422 639T408 674Q408 701 423 718T467 736Q513 736 513 693Q513 663 497 646T456 628ZM275 628Q253 628 240
639T226 674Q226 701 241 718T285 736Q331 736 331 693Q331 663 315 646T275 628Z" />
<glyph unicode="&#xe5;" glyph-name="aring" horiz-adv-x="576" d="M194 -10Q132 -10 90 36T47 177Q47 250 65 316T119 435T201 518T307 549Q359 549 392 523T442 460H447L477 539H558L443 0H362L373 91H369Q336 49 293 20T194 -10ZM232 77Q267 77 299 102T358
172T397 269Q403 295 405 318T408 363Q408 406 385 434T321 462Q285 462 255 439T202 375T167 284T154 178Q154 127 174 102T232 77ZM366 606Q316 606 285 634T254 714Q254 765 286 793T366 821Q415 821 447 793T480 715Q480 663 447 635T366 606ZM366 661Q390
661 404 675T419 714Q419 738 405 752T366 767Q344 767 329 753T313 714Q313 690 327 676T366 661Z" />
<glyph unicode="&#xe6;" glyph-name="ae" horiz-adv-x="835" d="M182 -10Q122 -10 85 38T47 177Q47 251 66 318T119 437T199 519T300 549Q349 549 378 524T425 460H430L462 539H528L516 477Q541 509 580 529T670 549Q731 549 771 515T812 417Q812 363 780 320T678
253T500 228H478Q477 209 477 196Q477 141 504 108T594 74Q631 74 668 86T742 116V28Q702 10 662 0T576 -10Q524 -10 486 7T426 60L414 0H345L356 91H352Q314 45 276 18T182 -10ZM505 307Q564 307 610 318T683 352T710 410Q710 439 693 452T650 466Q599 466 556
424T492 307H505ZM220 77Q254 77 285 101T341 169T380 265Q387 291 390 315T393 361Q393 406 373 434T316 462Q282 462 253 439T201 375T167 284T154 179Q154 126 172 102T220 77Z" />
<glyph unicode="&#xe7;" glyph-name="ccedilla" horiz-adv-x="462" d="M247 -10Q159 -10 103 39T47 190Q47 263 66 327T122 442T211 520T329 549Q369 549 404 542T470 520L440 436Q418 445 391 453T332 462Q278 462 238 425T176 326T154 195Q154 138 182 108T262
77Q298 77 329 87T393 112V24Q363 9 327 0T247 -10ZM148 -240Q132 -240 118 -238T94 -233V-172Q117 -178 138 -178Q210 -178 210 -129Q210 -109 193 -99T143 -84L190 0H256L230 -51Q255 -58 275 -76T296 -130Q296 -177 259 -208T148 -240Z" />
<glyph unicode="&#xe8;" glyph-name="egrave" horiz-adv-x="516" d="M247 -10Q153 -10 100 44T47 195Q47 260 65 323T120 437T208 518T326 549Q406 549 447 513T488 417Q488 363 455 320T353 253T174 228H155Q153 209 153 196Q153 139 181 107T267 74Q306 74 340
84T418 116V30Q378 12 340 1T247 -10ZM180 307Q239 307 285 318T358 352T385 411Q385 436 369 451T320 466Q274 466 231 424T169 307H180ZM337 606Q318 625 296 652T254 706T225 756V766H336Q346 730 364 692T402 618V606H337Z" />
<glyph unicode="&#xe9;" glyph-name="eacute" horiz-adv-x="516" d="M247 -10Q153 -10 100 44T47 195Q47 260 65 323T120 437T208 518T326 549Q406 549 447 513T488 417Q488 363 455 320T353 253T174 228H155Q153 209 153 196Q153 139 181 107T267 74Q306 74 340
84T418 116V30Q378 12 340 1T247 -10ZM180 307Q239 307 285 318T358 352T385 411Q385 436 369 451T320 466Q274 466 231 424T169 307H180ZM275 619Q301 647 332 689T386 766H505V757Q491 739 463 711T402 653T344 606H275V619Z" />
<glyph unicode="&#xea;" glyph-name="ecircumflex" horiz-adv-x="516" d="M247 -10Q153 -10 100 44T47 195Q47 260 65 323T120 437T208 518T326 549Q406 549 447 513T488 417Q488 363 455 320T353 253T174 228H155Q153 209 153 196Q153 139 181 107T267 74Q306
74 340 84T418 116V30Q378 12 340 1T247 -10ZM180 307Q239 307 285 318T358 352T385 411Q385 436 369 451T320 466Q274 466 231 424T169 307H180ZM160 619Q178 635 205 661T260 715T302 766H410Q425 728 450 688T495 619V606H427Q410 622 389 645T348 694Q319 668
290 646T233 606H160V619Z" />
<glyph unicode="&#xeb;" glyph-name="edieresis" horiz-adv-x="516" d="M247 -10Q153 -10 100 44T47 195Q47 260 65 323T120 437T208 518T326 549Q406 549 447 513T488 417Q488 363 455 320T353 253T174 228H155Q153 209 153 196Q153 139 181 107T267 74Q306 74
340 84T418 116V30Q378 12 340 1T247 -10ZM180 307Q239 307 285 318T358 352T385 411Q385 436 369 451T320 466Q274 466 231 424T169 307H180ZM690 628Q669 628 656 639T642 674Q642 701 657 718T701 736Q747 736 747 693Q747 663 731 646T690 628ZM509 628Q487
628 474 639T460 674Q460 701 475 718T519 736Q565 736 565 693Q565 663 549 646T509 628Z" />
<glyph unicode="&#xec;" glyph-name="igrave" horiz-adv-x="270" d="M25 0L140 539H245L130 0H25ZM463 606Q444 625 422 652T380 706T351 756V766H462Q472 730 490 692T528 618V606H463Z" />
<glyph unicode="&#xed;" glyph-name="iacute" horiz-adv-x="270" d="M25 0L140 539H245L130 0H25ZM145 619Q171 647 202 689T256 766H375V757Q361 739 333 711T272 653T214 606H145V619Z" />
<glyph unicode="&#xee;" glyph-name="icircumflex" horiz-adv-x="270" d="M25 0L140 539H245L130 0H25ZM286 619Q304 635 331 661T386 715T428 766H536Q551 728 576 688T621 619V606H553Q536 622 515 645T474 694Q445 668 416 646T359 606H286V619Z" />
<glyph unicode="&#xef;" glyph-name="idieresis" horiz-adv-x="270" d="M25 0L140 539H245L130 0H25ZM304 628Q283 628 270 639T256 674Q256 701 271 718T315 736Q361 736 361 693Q361 663 345 646T304 628ZM123 628Q101 628 88 639T74 674Q74 701 89 718T133
736Q179 736 179 693Q179 663 163 646T123 628Z" />
<glyph unicode="&#xf0;" glyph-name="eth" horiz-adv-x="572" d="M240 -10Q149 -10 95 40T41 187Q41 264 71 330T159 436T294 477Q349 477 382 455T431 402H435Q434 454 421 502T368 596L243 526L210 586L320 646Q306 659 289 671T252 696L303 765Q329 749 354
732T402 693L525 761L559 702L450 641Q486 594 506 535T527 395Q527 320 512 248T464 118T375 25T240 -10ZM245 74Q288 74 318 95T368 148T396 217T405 284Q405 311 395 336T363 378T303 394Q249 394 215 363T164 283T148 184Q148 135 171 105T245 74Z" />
<glyph unicode="&#xf1;" glyph-name="ntilde" horiz-adv-x="586" d="M22 0L138 541H226L215 441H217Q236 468 261 493T320 535T395 551Q461 551 497 514T534 410Q534 388 531 365T523 321L454 0H344L415 332Q419 352 421 367T424 397Q424 460 360 460Q327 460
292 435T228 359T181 230L132 0H22ZM190 606Q218 740 311 740Q341 740 365 727T410 701T449 687Q469 687 481 699T505 741H567Q534 607 443 607Q415 607 392 620T347 647T305 661Q286 661 274 647T252 606H190Z" />
<glyph unicode="&#xf2;" glyph-name="ograve" horiz-adv-x="569" d="M249 -9Q157 -9 102 47T47 199Q47 263 64 325T115 437T201 517T321 547Q416 547 469 491T523 337Q523 274 506 213T455 101T370 21T249 -9ZM257 78Q302 78 338 111T395 204T416 344Q416 373
407 399T376 443T319 460Q267 460 230 422T173 324T153 196Q153 140 180 109T257 78ZM343 606Q324 625 302 652T260 706T231 756V766H342Q352 730 370 692T408 618V606H343Z" />
<glyph unicode="&#xf3;" glyph-name="oacute" horiz-adv-x="569" d="M249 -9Q157 -9 102 47T47 199Q47 263 64 325T115 437T201 517T321 547Q416 547 469 491T523 337Q523 274 506 213T455 101T370 21T249 -9ZM257 78Q302 78 338 111T395 204T416 344Q416 373
407 399T376 443T319 460Q267 460 230 422T173 324T153 196Q153 140 180 109T257 78ZM281 619Q307 647 338 689T392 766H511V757Q497 739 469 711T408 653T350 606H281V619Z" />
<glyph unicode="&#xf4;" glyph-name="ocircumflex" horiz-adv-x="569" d="M249 -9Q157 -9 102 47T47 199Q47 263 64 325T115 437T201 517T321 547Q416 547 469 491T523 337Q523 274 506 213T455 101T370 21T249 -9ZM257 78Q302 78 338 111T395 204T416 344Q416
373 407 399T376 443T319 460Q267 460 230 422T173 324T153 196Q153 140 180 109T257 78ZM166 619Q184 635 211 661T266 715T308 766H416Q431 728 456 688T501 619V606H433Q416 622 395 645T354 694Q325 668 296 646T239 606H166V619Z" />
<glyph unicode="&#xf5;" glyph-name="otilde" horiz-adv-x="569" d="M249 -9Q157 -9 102 47T47 199Q47 263 64 325T115 437T201 517T321 547Q416 547 469 491T523 337Q523 274 506 213T455 101T370 21T249 -9ZM257 78Q302 78 338 111T395 204T416 344Q416 373
407 399T376 443T319 460Q267 460 230 422T173 324T153 196Q153 140 180 109T257 78ZM166 606Q194 740 287 740Q317 740 341 727T386 701T425 687Q445 687 457 699T481 741H543Q510 607 419 607Q391 607 368 620T323 647T281 661Q262 661 250 647T228 606H166Z"
/>
<glyph unicode="&#xf6;" glyph-name="odieresis" horiz-adv-x="569" d="M249 -9Q157 -9 102 47T47 199Q47 263 64 325T115 437T201 517T321 547Q416 547 469 491T523 337Q523 274 506 213T455 101T370 21T249 -9ZM257 78Q302 78 338 111T395 204T416 344Q416 373
407 399T376 443T319 460Q267 460 230 422T173 324T153 196Q153 140 180 109T257 78ZM696 628Q675 628 662 639T648 674Q648 701 663 718T707 736Q753 736 753 693Q753 663 737 646T696 628ZM515 628Q493 628 480 639T466 674Q466 701 481 718T525 736Q571 736
571 693Q571 663 555 646T515 628Z" />
<glyph unicode="&#xf7;" glyph-name="divide" horiz-adv-x="572" d="M302 458Q277 458 260 473T243 523Q243 559 260 573T302 587Q326 587 343 573T361 523Q361 489 344 474T302 458ZM65 312V393H540V312H65ZM302 117Q277 117 260 132T243 182Q243 218 260 232T302
246Q326 246 343 232T361 182Q361 148 344 133T302 117Z" />
<glyph unicode="&#xf8;" glyph-name="oslash" horiz-adv-x="569" d="M84 -42L27 3L82 71Q48 122 48 199Q48 263 65 325T116 437T201 517T321 547Q392 547 440 516L485 572L543 528L491 469Q507 445 514 412T522 343Q522 279 506 217T455 103T370 22T250 -9Q184
-9 134 21L84 -42ZM382 443Q372 451 357 456T319 462Q265 462 228 426T171 333T150 212Q150 180 156 162L382 443ZM257 75Q303 75 339 109T397 200T420 329Q420 357 416 372L192 93Q215 75 257 75Z" />
<glyph unicode="&#xf9;" glyph-name="ugrave" horiz-adv-x="586" d="M190 -10Q127 -10 91 26T55 130Q55 151 58 174T66 221L134 539H240L169 207Q161 166 161 143Q161 111 176 94T226 77Q259 77 294 102T360 178T408 309L456 539H561L446 0H363L373 100H368Q349
73 324 48T265 6T190 -10ZM365 606Q346 625 324 652T282 706T253 756V766H364Q374 730 392 692T430 618V606H365Z" />
<glyph unicode="&#xfa;" glyph-name="uacute" horiz-adv-x="586" d="M190 -10Q127 -10 91 26T55 130Q55 151 58 174T66 221L134 539H240L169 207Q161 166 161 143Q161 111 176 94T226 77Q259 77 294 102T360 178T408 309L456 539H561L446 0H363L373 100H368Q349
73 324 48T265 6T190 -10ZM304 619Q330 647 361 689T415 766H534V757Q520 739 492 711T431 653T373 606H304V619Z" />
<glyph unicode="&#xfb;" glyph-name="ucircumflex" horiz-adv-x="586" d="M190 -10Q127 -10 91 26T55 130Q55 151 58 174T66 221L134 539H240L169 207Q161 166 161 143Q161 111 176 94T226 77Q259 77 294 102T360 178T408 309L456 539H561L446 0H363L373 100H368Q349
73 324 48T265 6T190 -10ZM188 619Q206 635 233 661T288 715T330 766H438Q453 728 478 688T523 619V606H455Q438 622 417 645T376 694Q347 668 318 646T261 606H188V619Z" />
<glyph unicode="&#xfc;" glyph-name="udieresis" horiz-adv-x="586" d="M190 -10Q127 -10 91 26T55 130Q55 151 58 174T66 221L134 539H240L169 207Q161 166 161 143Q161 111 176 94T226 77Q259 77 294 102T360 178T408 309L456 539H561L446 0H363L373 100H368Q349
73 324 48T265 6T190 -10ZM462 628Q441 628 428 639T414 674Q414 701 429 718T473 736Q519 736 519 693Q519 663 503 646T462 628ZM281 628Q259 628 246 639T232 674Q232 701 247 718T291 736Q337 736 337 693Q337 663 321 646T281 628Z" />
<glyph unicode="&#xfd;" glyph-name="yacute" horiz-adv-x="482" d="M-17 -240Q-41 -240 -57 -238T-87 -230V-146Q-73 -149 -58 -151T-25 -154Q18 -154 47 -129T101 -56L129 -6L49 539H153L186 277Q190 248 192 214T195 148T197 95H200Q206 111 218 139T244 199T271
254L418 539H532L194 -86Q152 -164 103 -202T-17 -240ZM233 619Q259 647 290 689T344 766H463V757Q449 739 421 711T360 653T302 606H233V619Z" />
<glyph unicode="&#xfe;" glyph-name="thorn" horiz-adv-x="584" d="M-25 -240L186 760H291L255 590Q246 550 236 513T218 447H222Q256 490 296 519T388 548Q455 548 495 501T536 361Q536 292 519 226T470 106T390 22T281 -10Q228 -10 195 16T144 78H139Q138 56
134 26T124 -28L79 -240H-25ZM265 77Q302 77 332 101T383 166T417 257T429 360Q429 462 349 462Q314 462 281 436T222 365T183 265Q179 244 176 222T173 178Q173 133 195 105T265 77Z" />
<glyph unicode="&#xff;" glyph-name="ydieresis" horiz-adv-x="482" d="M-17 -240Q-41 -240 -57 -238T-87 -230V-146Q-73 -149 -58 -151T-25 -154Q18 -154 47 -129T101 -56L129 -6L49 539H153L186 277Q190 248 192 214T195 148T197 95H200Q206 111 218 139T244
199T271 254L418 539H532L194 -86Q152 -164 103 -202T-17 -240ZM647 628Q626 628 613 639T599 674Q599 701 614 718T658 736Q704 736 704 693Q704 663 688 646T647 628ZM466 628Q444 628 431 639T417 674Q417 701 432 718T476 736Q522 736 522 693Q522 663 506
646T466 628Z" />
<glyph unicode="&#x2013;" glyph-name="endash" horiz-adv-x="480" d="M24 224L44 314H451L432 224H24Z" />
<glyph unicode="&#x2014;" glyph-name="emdash" horiz-adv-x="960" d="M24 224L44 314H931L912 224H24Z" />
<glyph unicode="&#x2018;" glyph-name="quoteleft" horiz-adv-x="186" d="M59 480Q83 533 118 596T189 714H269Q243 655 217 588T171 469H62L59 480Z" />
<glyph unicode="&#x2019;" glyph-name="quoteright" horiz-adv-x="186" d="M58 469Q84 528 111 595T155 714H264L268 703Q244 650 209 587T137 469H58Z" />
<glyph unicode="&#x201a;" glyph-name="quotesinglbase" horiz-adv-x="253" d="M-49 -129Q-23 -70 3 -3T49 116H157L161 105Q137 52 102 -11T30 -129H-49Z" />
<glyph unicode="&#x201c;" glyph-name="quotedblleft" horiz-adv-x="380" d="M252 480Q276 533 312 596T384 714H463Q437 655 410 588T365 469H256L252 480ZM59 480Q83 533 118 596T189 714H269Q243 655 217 588T171 469H62L59 480Z" />
<glyph unicode="&#x201d;" glyph-name="quotedblright" horiz-adv-x="380" d="M252 469Q278 528 304 595T349 714H458L462 703Q439 650 403 587T331 469H252ZM58 469Q84 528 111 595T155 714H264L268 703Q244 650 209 587T137 469H58Z" />
<glyph unicode="&#x201e;" glyph-name="quotedblbase" horiz-adv-x="447" d="M144 -129Q170 -70 197 -3T242 116H351L355 105Q331 52 295 -11T225 -129H144ZM-49 -129Q-23 -70 3 -3T49 116H157L161 105Q137 52 102 -11T30 -129H-49Z" />
<glyph unicode="&#x2022;" glyph-name="bullet" horiz-adv-x="376" d="M208 232Q157 232 123 263T88 365Q88 437 122 467T208 498Q258 498 293 468T328 365Q328 294 293 263T208 232Z" />
<glyph unicode="&#x2039;" glyph-name="guilsinglleft" horiz-adv-x="298" d="M148 51L40 268V281L233 481L291 428L149 265L227 84L148 51Z" />
<glyph unicode="&#x203a;" glyph-name="guilsinglright" horiz-adv-x="298" d="M65 51L7 104L149 267L71 448L150 481L257 263V252L65 51Z" />
</font>
</defs>
</svg>
