<?xml version="1.0" standalone="no"?>
<!DOCTYPE svg PUBLIC "-//W3C//DTD SVG 1.1//EN" "http://www.w3.org/Graphics/SVG/1.1/DTD/svg11.dtd">
<svg xmlns="http://www.w3.org/2000/svg">
<defs >
<font id="Rajdhani" horiz-adv-x="482" ><font-face
    font-family="Rajdhani Medium"
    units-per-em="1000"
    panose-1="2 0 0 0 0 0 0 0 0 0"
    ascent="930"
    descent="-346"
    alphabetic="0" />
<glyph unicode=" " glyph-name="space" horiz-adv-x="254" />
<glyph unicode="!" glyph-name="exclam" horiz-adv-x="237" d="M78 513V629Q78 643 92 643H145Q159 643 159 629V513Q159 418 153 328T145 226T132 214H105Q92 214 91 229Q87 268 83 366T78 513ZM157 135V14Q157 0 143 0H95Q82 0 82 15V135Q82 148 95 148H143Q157
148 157 135Z" />
<glyph unicode="&quot;" glyph-name="quotedbl" horiz-adv-x="337" d="M94 429H86Q73 429 71 445L55 629Q55 643 68 643H112Q126 643 124 629L109 444Q108 429 94 429ZM251 429H242Q230 429 228 445L212 629Q212 643 225 643H269Q283 643 281 629L266 444Q264
429 251 429Z" />
<glyph unicode="#" glyph-name="numbersign" horiz-adv-x="675" d="M612 485Q626 485 626 471V438Q626 424 612 424H512L457 219H550Q564 219 564 205V172Q564 158 550 158H440L402 15Q398 0 385 0H351Q337 0 341 18L379 158H211L173 15Q169 0 155 0H123Q107 0
113 18L151 158H63Q49 158 49 172V205Q49 219 63 219H167L222 424H125Q110 424 110 438V471Q110 485 125 485H239L277 628Q280 643 293 643H325Q343 643 337 625L299 485H467L505 628Q510 643 524 643H554Q570 643 566 625L528 485H612ZM395 219L450 424H283L228
219H395Z" />
<glyph unicode="$" glyph-name="dollar" horiz-adv-x="511" d="M281 -98H247Q233 -98 233 -84V0H209Q142 0 103 40T63 148V176Q63 190 76 190H122Q135 190 135 176V154Q135 64 224 64H287Q376 64 376 156V203Q376 250 350 269T271 290L216 291Q144 294 103 326T62
441V496Q62 565 101 604T209 644H233V729Q233 743 247 743H281Q295 743 295 729V644H302Q367 644 406 604T445 496V471Q445 456 431 456H386Q372 456 372 471V490Q372 580 283 580H224Q135 580 135 486V439Q135 394 160 377T239 357L301 355Q369 352 409 319T449
206V148Q449 79 410 40T302 0H295V-84Q295 -98 281 -98Z" />
<glyph unicode="%" glyph-name="percent" horiz-adv-x="724" d="M555 252H536Q498 252 484 237T470 182V117Q470 79 484 63T536 47H555Q592 47 606 63T620 117V182Q620 221 606 236T555 252ZM527 299H562Q674 299 674 185V115Q674 0 562 0H527Q415 0 415 115V185Q415
299 527 299ZM189 599H170Q133 599 119 584T105 530V464Q105 425 119 410T170 394H189Q226 394 240 410T254 464V530Q254 568 240 583T189 599ZM162 646H197Q309 646 309 532V462Q309 348 197 348H162Q50 348 50 462V532Q50 646 162 646ZM242 0H213Q197 0 204 16Q218
53 333 322T463 628Q470 643 481 643H510Q526 643 519 626L261 15Q255 0 242 0Z" />
<glyph unicode="&amp;" glyph-name="ampersand" horiz-adv-x="603" d="M218 65H284Q351 65 361 125L204 308Q132 304 132 219V149Q132 65 218 65ZM284 0H209Q140 0 101 38T62 146V223Q62 273 88 310T166 351Q122 404 122 468V497Q122 566 163 604T273 643H300Q369
643 408 605T447 497V455Q447 440 434 440H389Q375 440 375 455V496Q375 581 295 581H279Q196 581 196 496V467Q196 418 240 369L298 302H532Q547 302 547 288V251Q547 238 532 238H352L546 11Q549 8 548 4T542 0H484Q470 0 461 10L407 73Q382 0 284 0Z" />
<glyph unicode="&apos;" glyph-name="quotesingle" horiz-adv-x="186" d="M98 445H88Q75 445 74 458L59 615Q58 628 72 628H114Q128 628 127 615L113 458Q109 445 98 445Z" />
<glyph unicode="(" glyph-name="parenleft" horiz-adv-x="290" d="M213 588H210Q164 588 139 559T114 476V65Q114 11 139 -18T211 -47H213Q227 -47 227 -60V-91Q227 -102 213 -102H210Q137 -102 95 -58T53 71V470Q53 555 95 599T210 643H214Q227 643 227 632V601Q227
588 213 588Z" />
<glyph unicode=")" glyph-name="parenright" horiz-adv-x="290" d="M53 -91V-60Q53 -47 66 -47H69Q114 -47 139 -18T165 65V476Q165 530 140 559T69 588H66Q53 588 53 601V632Q53 643 66 643H69Q142 643 184 599T227 470V71Q227 -14 185 -58T69 -102H66Q53 -102 53 -91Z" />
<glyph unicode="*" glyph-name="asterisk" horiz-adv-x="404" d="M173 616V630Q173 643 186 643H216Q230 643 230 630V616Q230 549 202 499Q259 549 304 563L318 567Q331 571 335 559L344 530Q349 517 335 513L322 509Q258 488 202 499Q203 498 215 491T239 476Q278
448 303 410Q310 400 300 392L275 374Q264 368 256 377L249 388Q208 442 202 499Q202 494 194 468Q179 417 157 387L149 375Q142 365 130 373L106 391Q95 397 103 410L111 420Q145 468 202 499Q124 494 82 507L68 511Q55 516 60 528L70 557Q73 569 87 565Q160 540
202 499Q202 500 198 508T191 528T182 552Q173 581 173 616Z" />
<glyph unicode="+" glyph-name="plus" horiz-adv-x="535" d="M300 352H450Q465 352 465 337V305Q465 291 450 291H300V139Q300 123 285 123H251Q236 123 236 139V291H85Q70 291 70 305V337Q70 352 85 352H236V503Q236 519 251 519H285Q300 519 300 503V352Z" />
<glyph unicode="," glyph-name="comma" horiz-adv-x="194" d="M136 135V56Q136 34 121 -2L81 -96Q76 -104 69 -104Q59 -104 59 -91V135Q59 148 72 148H123Q136 148 136 135Z" />
<glyph unicode="-" glyph-name="hyphen" horiz-adv-x="312" d="M258 289H54Q40 289 40 303V336Q40 350 54 350H258Q272 350 272 336V303Q272 289 258 289Z" />
<glyph unicode="." glyph-name="period" horiz-adv-x="194" d="M136 135V14Q136 0 123 0H72Q59 0 59 14V135Q59 148 72 148H123Q136 148 136 135Z" />
<glyph unicode="/" glyph-name="slash" horiz-adv-x="400" d="M106 0H65Q47 0 53 16Q69 56 166 326T276 628Q282 643 295 643H337Q354 643 347 626L125 15Q120 0 106 0Z" />
<glyph unicode="0" glyph-name="zero" horiz-adv-x="520" d="M219 64H301Q385 64 385 151V492Q385 579 301 579H219Q136 579 136 492V151Q136 64 219 64ZM310 0H210Q142 0 103 39T63 148V495Q63 564 102 603T210 643H310Q378 643 417 604T457 495V148Q457 78 418
39T310 0Z" />
<glyph unicode="1" glyph-name="one" horiz-adv-x="322" d="M33 505V545Q33 560 45 567L161 634Q177 643 187 643H229Q243 643 243 629V14Q243 0 229 0H184Q170 0 170 14V565L51 497Q33 487 33 505Z" />
<glyph unicode="2" glyph-name="two" d="M57 14V104Q57 171 113 214L306 366Q356 404 356 460V496Q356 581 270 581H209Q125 581 125 496V455Q125 440 111 440H66Q53 440 53 455V497Q53 566 92 604T200 643H280Q349 643 388 605T427 497V456Q427 378 365 329L169
174Q136 148 136 111V65H415Q429 65 429 51V14Q429 0 415 0H71Q57 0 57 14Z" />
<glyph unicode="3" glyph-name="three" horiz-adv-x="500" d="M223 354H281Q366 354 366 439V496Q366 581 281 581H212Q128 581 128 496V464Q128 449 114 449H69Q55 449 55 464V497Q55 566 94 604T203 643H290Q359 643 398 605T438 497V438Q438 349 356 323Q438
302 438 209V146Q438 77 399 39T290 0H203Q134 0 95 38T55 146V186Q55 201 69 201H114Q128 201 128 186V147Q128 62 212 62H281Q366 62 366 147V208Q366 293 281 293H223Q209 293 209 307V340Q209 354 223 354Z" />
<glyph unicode="4" glyph-name="four" horiz-adv-x="526" d="M342 191V584L116 191H342ZM397 0H355Q342 0 342 14V127H64Q43 127 43 148V172Q43 189 50 202L294 623Q303 643 324 643H389Q411 643 411 622V191H485Q499 191 499 178V142Q499 127 485 127H411V14Q411
0 397 0Z" />
<glyph unicode="5" glyph-name="five" horiz-adv-x="489" d="M278 352H204Q162 352 149 328T123 303H77Q63 303 63 317V629Q63 643 77 643H408Q423 643 423 629V589Q423 575 408 575H136V362Q155 412 221 412H293Q361 412 398 375T436 269V148Q436 78 397 39T289
0H207Q138 0 99 39T59 148V179Q59 194 73 194H118Q132 194 132 179V149Q132 62 215 62H280Q365 62 365 149V260Q365 307 344 329T278 352Z" />
<glyph unicode="6" glyph-name="six" horiz-adv-x="505" d="M213 64H290Q374 64 374 151V239Q374 326 290 326H129V151Q129 64 213 64ZM299 0H204Q135 0 96 39T56 148V495Q56 564 95 603T204 643H398Q412 643 412 629V592Q412 579 398 579H213Q129 579 129 492V390H299Q368
390 407 351T446 242V148Q446 78 407 39T299 0Z" />
<glyph unicode="7" glyph-name="seven" horiz-adv-x="395" d="M135 0H88Q72 0 80 17L297 576H31Q17 576 17 590V629Q17 643 31 643H361Q375 643 375 629V587Q375 571 367 555L158 13Q153 0 135 0Z" />
<glyph unicode="8" glyph-name="eight" horiz-adv-x="526" d="M219 64H307Q391 64 391 148V208Q391 294 307 294H219Q135 294 135 208V148Q135 64 219 64ZM219 353H307Q391 353 391 440V495Q391 579 307 579H219Q135 579 135 495V440Q135 353 219 353ZM316 0H210Q141
0 102 37T63 143V204Q63 294 133 324Q63 351 63 444V500Q63 569 102 606T210 643H316Q385 643 424 606T463 500V444Q463 398 444 367T393 324Q463 295 463 203V143Q463 75 424 38T316 0Z" />
<glyph unicode="9" glyph-name="nine" horiz-adv-x="505" d="M209 314H370V492Q370 579 286 579H209Q126 579 126 492V400Q126 314 209 314ZM295 0H98Q83 0 83 14V51Q83 64 98 64H286Q370 64 370 151V250H200Q132 250 93 289T53 397V495Q53 564 92 603T200 643H295Q364
643 403 604T442 495V148Q442 78 403 39T295 0Z" />
<glyph unicode=":" glyph-name="colon" horiz-adv-x="194" d="M136 497V376Q136 362 123 362H72Q59 362 59 377V496Q59 510 72 510H123Q136 510 136 497ZM136 135V14Q136 0 123 0H72Q59 0 59 15V135Q59 148 72 148H123Q136 148 136 135Z" />
<glyph unicode=";" glyph-name="semicolon" horiz-adv-x="194" d="M136 135V56Q136 34 121 -2L81 -96Q76 -104 69 -104Q59 -104 59 -91V135Q59 148 72 148H123Q136 148 136 135ZM136 497V376Q136 362 123 362H72Q59 362 59 377V496Q59 510 72 510H123Q136 510 136 497Z" />
<glyph unicode="&lt;" glyph-name="less" horiz-adv-x="528" d="M462 486V450Q462 435 449 431L128 324L449 216Q462 214 462 198V161Q462 145 445 151L83 282Q66 289 66 306V341Q66 359 83 365L445 496Q462 502 462 486Z" />
<glyph unicode="=" glyph-name="equal" horiz-adv-x="542" d="M88 444H453Q469 444 469 429V398Q469 383 453 383H88Q73 383 73 398V429Q73 444 88 444ZM88 259H453Q469 259 469 244V214Q469 199 453 199H88Q73 199 73 214V244Q73 259 88 259Z" />
<glyph unicode="&gt;" glyph-name="greater" horiz-adv-x="542" d="M73 450V486Q73 502 90 496L452 365Q469 359 469 341V306Q469 289 452 282L90 151Q73 145 73 161V198Q73 214 86 216L407 324L86 431Q73 435 73 450Z" />
<glyph unicode="?" glyph-name="question" horiz-adv-x="471" d="M276 135V14Q276 0 263 0H212Q199 0 199 15V135Q199 148 212 148H263Q276 148 276 135ZM274 262V228Q274 214 260 214H218Q204 214 204 228V260Q204 299 215 320T259 369L301 405Q338 436 338 474V495Q338
580 252 580H218Q134 580 134 495V459Q134 445 120 445H75Q62 445 62 459V496Q62 565 101 603T209 642H261Q330 642 369 604T409 496V470Q409 418 362 379L310 335Q287 315 281 301T274 262Z" />
<glyph unicode="@" glyph-name="at" horiz-adv-x="751" d="M508 -58H327Q223 -58 149 9T75 189V354Q75 465 147 534T319 603H517Q590 603 635 560T680 447V217Q680 157 643 120T546 83H507Q488 83 475 93T462 122V137H458Q433 84 354 84Q293 84 256 122T219 228V312Q219
381 257 420T359 460H510Q524 460 524 446V141Q524 131 538 131H543Q631 131 631 222V443Q631 497 599 526T513 556H322Q237 556 181 500T124 351V194Q124 101 182 45T326 -11H508Q522 -11 522 -24V-44Q522 -58 508 -58ZM462 233V393Q462 403 452 403H368Q284 403
284 316V228Q284 141 368 141H370Q415 141 438 165T462 233Z" />
<glyph unicode="A" glyph-name="A" horiz-adv-x="540" d="M87 0H37Q24 0 28 14L215 629Q219 643 234 643H306Q321 643 325 629L512 14Q516 0 503 0H452Q441 0 438 14L391 160H149L102 14Q98 0 87 0ZM268 568L165 222H375L272 568H268Z" />
<glyph unicode="B" glyph-name="B" horiz-adv-x="549" d="M162 62H326Q412 62 412 147V212Q412 297 320 297H162Q152 297 152 288V72Q152 62 162 62ZM162 358H316Q404 358 404 443V496Q404 581 319 581H162Q152 581 152 571V367Q152 358 162 358ZM79 14V629Q79
643 93 643H328Q397 643 436 605T475 497V442Q475 353 391 327Q429 324 456 294T483 213V146Q483 77 444 39T335 0H93Q79 0 79 14Z" />
<glyph unicode="C" glyph-name="C" horiz-adv-x="541" d="M337 0H217Q148 0 109 39T69 148V495Q69 565 108 604T217 643H337Q406 643 445 604T485 495V446Q485 432 471 432H426Q412 432 412 446V492Q412 579 328 579H225Q142 579 142 492V151Q142 64 225 64H328Q412
64 412 151V197Q412 211 426 211H471Q485 211 485 197V148Q485 78 446 39T337 0Z" />
<glyph unicode="D" glyph-name="D" horiz-adv-x="556" d="M162 64H330Q414 64 414 151V492Q414 579 330 579H162Q152 579 152 570V73Q152 64 162 64ZM79 14V629Q79 643 93 643H339Q408 643 447 604T487 495V148Q487 79 448 40T339 0H93Q79 0 79 14Z" />
<glyph unicode="E" glyph-name="E" horiz-adv-x="480" d="M407 0H93Q79 0 79 14V629Q79 643 93 643H407Q421 643 421 629V593Q421 579 407 579H162Q152 579 152 570V368Q152 359 162 359H376Q390 359 390 345V309Q390 295 376 295H162Q152 295 152 286V73Q152
64 162 64H407Q421 64 421 50V14Q421 0 407 0Z" />
<glyph unicode="F" glyph-name="F" horiz-adv-x="457" d="M138 0H93Q79 0 79 14V629Q79 643 93 643H404Q418 643 418 629V593Q418 579 404 579H162Q152 579 152 570V352Q152 343 162 343H376Q390 343 390 329V293Q390 279 376 279H162Q152 279 152 269V14Q152 0 138 0Z" />
<glyph unicode="G" glyph-name="G" horiz-adv-x="541" d="M325 0H217Q148 0 109 39T69 148V495Q69 565 108 604T217 643H325Q394 643 433 604T472 495V454Q472 439 458 439H413Q399 439 399 454V492Q399 579 316 579H225Q142 579 142 492V151Q142 64 225 64H316Q399
64 399 151V263Q399 273 390 273H291Q277 273 277 286V323Q277 337 291 337H452Q472 337 472 316V148Q472 78 433 39T325 0Z" />
<glyph unicode="H" glyph-name="H" horiz-adv-x="572" d="M138 0H93Q79 0 79 14V629Q79 643 93 643H138Q152 643 152 629V366Q152 357 162 357H410Q420 357 420 366V629Q420 643 434 643H479Q493 643 493 629V14Q493 0 479 0H434Q420 0 420 14V284Q420 293 410
293H162Q152 293 152 284V14Q152 0 138 0Z" />
<glyph unicode="I" glyph-name="I" horiz-adv-x="241" d="M157 629V14Q157 0 143 0H98Q84 0 84 14V629Q84 643 98 643H143Q157 643 157 629Z" />
<glyph unicode="J" glyph-name="J" horiz-adv-x="505" d="M373 643H418Q431 643 431 630V148Q431 78 392 39T284 0H184Q115 0 76 39T36 148V234Q36 248 50 248H95Q109 248 109 234V151Q109 64 193 64H275Q359 64 359 151V629Q359 643 373 643Z" />
<glyph unicode="K" glyph-name="K" horiz-adv-x="538" d="M138 0H93Q79 0 79 14V629Q79 643 93 643H138Q152 643 152 629V284H155Q162 305 177 325L401 629Q410 643 427 643H481Q498 643 486 628L288 360L514 16Q525 0 505 0H464Q443 0 435 14L243 307L152 198V14Q152
0 138 0Z" />
<glyph unicode="L" glyph-name="L" horiz-adv-x="451" d="M414 0H93Q79 0 79 14V629Q79 643 93 643H138Q152 643 152 629V75Q152 66 162 66H414Q428 66 428 51V14Q428 0 414 0Z" />
<glyph unicode="M" glyph-name="M" horiz-adv-x="705" d="M531 643H612Q626 643 626 629V14Q626 0 612 0H568Q554 0 554 14V545H550L395 153Q389 140 377 140H329Q316 140 312 153L154 546H150V14Q150 0 137 0H93Q79 0 79 14V629Q79 643 93 643H174Q183 643 186
635L350 221H355L519 635Q521 643 531 643Z" />
<glyph unicode="N" glyph-name="N" horiz-adv-x="581" d="M137 0H93Q79 0 79 14V629Q79 643 93 643H134Q146 643 150 635L426 150H430V629Q430 643 444 643H488Q502 643 502 629V14Q502 0 488 0H451Q440 0 430 13L155 493H151V14Q151 0 137 0Z" />
<glyph unicode="O" glyph-name="O" horiz-adv-x="553" d="M225 64H327Q411 64 411 151V492Q411 579 327 579H225Q142 579 142 492V151Q142 64 225 64ZM336 0H217Q148 0 109 39T69 148V495Q69 565 108 604T217 643H336Q405 643 444 604T484 495V148Q484 79 445 40T336 0Z" />
<glyph unicode="P" glyph-name="P" horiz-adv-x="526" d="M138 0H93Q79 0 79 14V629Q79 643 93 643H327Q396 643 435 604T474 495V384Q474 314 435 275T327 236H162Q152 236 152 227V14Q152 0 138 0ZM162 301H317Q401 301 401 387V492Q401 579 317 579H162Q152
579 152 570V310Q152 301 162 301Z" />
<glyph unicode="Q" glyph-name="Q" horiz-adv-x="560" d="M229 64H331Q415 64 415 151V492Q415 579 331 579H229Q146 579 146 492V151Q146 64 229 64ZM421 -133H380Q362 -133 354 -119L282 0H220Q152 0 113 39T73 148V495Q73 564 112 603T220 643H339Q408 643
447 604T487 495V148Q487 84 453 46T359 2L430 -117Q434 -124 431 -128T421 -133Z" />
<glyph unicode="R" glyph-name="R" horiz-adv-x="537" d="M138 0H93Q79 0 79 14V629Q79 643 93 643H323Q392 643 432 604T472 495V404Q472 348 445 312T370 263V259L486 16Q495 0 476 0H431Q414 0 406 14L294 256H162Q152 256 152 247V14Q152 0 138 0ZM162 317H313Q399
317 399 403V492Q399 579 313 579H162Q152 579 152 570V326Q152 317 162 317Z" />
<glyph unicode="S" glyph-name="S" horiz-adv-x="555" d="M72 148V180Q72 194 86 194H131Q145 194 145 180V154Q145 64 234 64H322Q411 64 411 156V190Q411 262 292 284Q242 293 192 305T107 351T72 446V495Q72 564 111 603T220 643H331Q399 643 439 604T479 495V470Q479
455 466 455H420Q407 455 407 470V488Q407 579 318 579H233Q144 579 144 484V444Q144 393 211 374Q241 366 277 360T349 343T416 317T464 270T483 193V148Q483 79 443 40T335 0H220Q152 0 112 39T72 148Z" />
<glyph unicode="T" glyph-name="T" horiz-adv-x="427" d="M236 0H191Q177 0 177 14V570Q177 579 167 579H31Q16 579 16 593V629Q16 643 31 643H396Q411 643 411 629V593Q411 579 396 579H260Q250 579 250 570V14Q250 0 236 0Z" />
<glyph unicode="U" glyph-name="U" horiz-adv-x="554" d="M421 643H466Q480 643 480 630V148Q480 78 441 39T333 0H222Q153 0 114 39T74 148V629Q74 643 88 643H133Q147 643 147 629V151Q147 64 230 64H324Q408 64 408 151V629Q408 643 421 643Z" />
<glyph unicode="V" glyph-name="V" horiz-adv-x="506" d="M289 0H218Q205 0 201 14L24 628Q21 643 37 643H86Q99 643 102 629L251 82H255L404 629Q407 643 420 643H470Q485 643 482 628L305 14Q301 0 289 0Z" />
<glyph unicode="W" glyph-name="W" horiz-adv-x="797" d="M249 0H172Q158 0 155 14L27 629Q24 643 40 643H94Q109 643 110 629L211 78H217L352 630Q355 643 368 643H428Q441 643 444 630L581 78H587L687 628Q690 643 704 643H758Q774 643 771 628L642 14Q639 0
626 0H549Q535 0 532 14L401 551H397L265 14Q262 0 249 0Z" />
<glyph unicode="X" glyph-name="X" horiz-adv-x="514" d="M93 0H41Q34 0 32 4T32 15L207 336L41 628Q37 634 40 638T50 643H100Q116 643 122 629L256 383H260L392 629Q400 643 414 643H466Q473 643 475 639T475 628L308 337L482 15Q486 9 484 5T474 0H421Q407
0 402 13L259 281H255L113 13Q106 0 93 0Z" />
<glyph unicode="Y" glyph-name="Y" horiz-adv-x="500" d="M272 0H227Q213 0 213 14V241L23 628Q20 635 23 639T32 643H88Q99 643 105 629L248 326H253L395 629Q399 643 411 643H468Q485 643 477 628L286 241V14Q286 0 272 0Z" />
<glyph unicode="Z" glyph-name="Z" horiz-adv-x="493" d="M44 14V50Q44 68 50 76L360 571V575H71Q57 575 57 589V629Q57 643 71 643H425Q439 643 439 629V581Q439 565 431 553L129 72V68H435Q449 68 449 55V15Q449 0 435 0H58Q44 0 44 14Z" />
<glyph unicode="[" glyph-name="bracketleft" horiz-adv-x="297" d="M217 -100H81Q67 -100 67 -86V629Q67 643 81 643H217Q231 643 231 629V604Q231 590 217 590H139Q129 590 129 580V-37Q129 -47 139 -47H217Q231 -47 231 -61V-87Q231 -100 217 -100Z" />
<glyph unicode="\" glyph-name="backslash" horiz-adv-x="400" d="M63 643H106Q118 643 125 628Q139 591 236 322T347 16Q353 0 336 0H294Q282 0 275 15L53 626Q47 643 63 643Z" />
<glyph unicode="]" glyph-name="bracketright" horiz-adv-x="297" d="M60 -87V-61Q60 -47 74 -47H152Q162 -47 162 -37V580Q162 590 152 590H74Q60 590 60 604V629Q60 643 74 643H210Q223 643 223 629V-86Q223 -100 210 -100H74Q60 -100 60 -87Z" />
<glyph unicode="^" glyph-name="asciicircum" horiz-adv-x="479" d="M105 364H65Q46 364 55 380L183 623Q192 643 213 643H265Q286 643 295 623L423 380Q432 364 413 364H373Q361 364 353 378L239 597L125 378Q117 364 105 364Z" />
<glyph unicode="_" glyph-name="underscore" horiz-adv-x="372" d="M358 -103H14Q0 -103 0 -89V-71Q0 -57 14 -57H358Q372 -57 372 -71V-89Q372 -103 358 -103Z" />
<glyph unicode="`" glyph-name="grave" horiz-adv-x="277" d="M206 574H173Q161 574 153 584L66 689Q62 695 64 699T72 703H133Q147 703 154 690L212 588Q220 574 206 574Z" />
<glyph unicode="a" glyph-name="a" horiz-adv-x="507" d="M259 0H207Q138 0 99 39T59 148V362Q59 432 98 471T207 510H424Q438 510 438 496V14Q438 0 424 0H379Q365 0 365 14V53H361Q336 0 259 0ZM365 156V437Q365 446 355 446H215Q132 446 132 359V151Q132 64
215 64H272Q317 64 341 88T365 156Z" />
<glyph unicode="b" glyph-name="b" horiz-adv-x="510" d="M152 64H294Q379 64 379 151V365Q379 452 294 452H235Q190 452 166 428T142 361V73Q142 64 152 64ZM69 14V689Q69 703 83 703H128Q142 703 142 689V463H146Q171 516 248 516H304Q372 516 411 477T451 369V148Q451
78 412 39T304 0H83Q69 0 69 14Z" />
<glyph unicode="c" glyph-name="c" horiz-adv-x="399" d="M366 50V13Q366 0 352 0H207Q138 0 99 39T59 148V362Q59 432 98 471T207 510H352Q366 510 366 496V459Q366 446 352 446H215Q132 446 132 359V151Q132 64 215 64H352Q366 64 366 50Z" />
<glyph unicode="d" glyph-name="d" horiz-adv-x="510" d="M262 0H203Q135 0 97 39T59 148V362Q59 432 97 471T203 510H262Q340 510 365 457H369V689Q369 703 382 703H428Q441 703 441 689V14Q441 0 428 0H382Q369 0 369 14V53H365Q340 0 262 0ZM369 156V354Q369
398 345 422T276 446H215Q132 446 132 359V151Q132 64 215 64H276Q321 64 345 88T369 156Z" />
<glyph unicode="e" glyph-name="e" horiz-adv-x="492" d="M419 0H207Q138 0 99 39T59 148V362Q59 432 98 471T207 510H291Q360 510 399 471T438 362V235Q438 220 424 220H141Q131 220 131 211V150Q131 63 215 63H419Q433 63 433 49V13Q433 0 419 0ZM141 273H357Q367
273 367 283V360Q367 446 283 446H215Q131 446 131 360V283Q131 273 141 273Z" />
<glyph unicode="f" glyph-name="f" horiz-adv-x="318" d="M197 510H285Q300 510 300 497V460Q300 446 285 446H197Q188 446 188 437V14Q188 0 173 0H129Q115 0 115 14V437Q115 446 105 446H46Q32 446 32 460V497Q32 510 46 510H105Q115 510 115 519V556Q115 627
150 665T252 703H286Q300 703 300 690V653Q300 639 286 639H261Q220 639 204 619T188 553V519Q188 510 197 510Z" />
<glyph unicode="g" glyph-name="g" horiz-adv-x="510" d="M262 27H206Q138 27 100 66T62 175V362Q62 432 101 471T210 510H427Q441 510 441 496V0Q441 -69 402 -108T293 -148H109Q94 -148 94 -134V-97Q94 -83 109 -83H284Q368 -83 368 3V80H364Q338 27 262 27ZM368
183V437Q368 446 358 446H219Q135 446 135 359V178Q135 91 219 91H275Q320 91 344 115T368 183Z" />
<glyph unicode="h" glyph-name="h" horiz-adv-x="512" d="M128 0H83Q69 0 69 14V689Q69 703 83 703H128Q142 703 142 689V457H146Q171 510 248 510H304Q372 510 410 471T448 362V14Q448 0 434 0H389Q375 0 375 14V359Q375 446 291 446H235Q190 446 166 422T142
354V14Q142 0 128 0Z" />
<glyph unicode="i" glyph-name="i" horiz-adv-x="221" d="M74 594V688Q74 702 87 702H133Q147 702 147 688V594Q147 580 133 580H87Q74 580 74 594ZM74 14V496Q74 510 87 510H133Q147 510 147 496V14Q147 0 133 0H88Q74 0 74 14Z" />
<glyph unicode="j" glyph-name="j" horiz-adv-x="221" d="M74 594V688Q74 702 87 702H133Q147 702 147 688V594Q147 580 133 580H87Q74 580 74 594ZM-1 -148H-42Q-56 -148 -56 -134V-97Q-56 -83 -42 -83H-19Q74 -83 74 11V496Q74 510 88 510H133Q147 510 147 496V1Q147
-68 108 -108T-1 -148Z" />
<glyph unicode="k" glyph-name="k" horiz-adv-x="443" d="M358 510H408Q416 510 418 506T416 494L269 266V262L431 16Q435 9 432 5T421 0H374Q355 0 346 14L192 252Q186 262 192 273L334 497Q340 510 358 510ZM128 0H83Q69 0 69 14V689Q69 703 83 703H128Q142
703 142 689V14Q142 0 128 0Z" />
<glyph unicode="l" glyph-name="l" horiz-adv-x="221" d="M133 0H88Q74 0 74 14V689Q74 703 88 703H133Q147 703 147 689V14Q147 0 133 0Z" />
<glyph unicode="m" glyph-name="m" horiz-adv-x="777" d="M128 0H83Q69 0 69 14V496Q69 510 83 510H128Q142 510 142 496V457H146Q174 510 252 510H289Q377 510 411 442Q427 475 461 492T534 510H569Q637 510 675 471T713 362V14Q713 0 699 0H654Q640 0 640 14V359Q640
446 556 446H523Q478 446 454 421T429 351V14Q429 0 415 0H370Q356 0 356 14V359Q356 446 272 446H235Q190 446 166 422T142 354V14Q142 0 128 0Z" />
<glyph unicode="n" glyph-name="n" horiz-adv-x="512" d="M128 0H83Q69 0 69 14V496Q69 510 83 510H128Q142 510 142 496V457H146Q171 510 248 510H304Q372 510 410 471T448 362V14Q448 0 434 0H389Q375 0 375 14V359Q375 446 291 446H235Q190 446 166 422T142
354V14Q142 0 128 0Z" />
<glyph unicode="o" glyph-name="o" horiz-adv-x="500" d="M293 0H207Q138 0 99 39T59 148V362Q59 432 98 471T207 510H293Q362 510 401 471T441 362V148Q441 78 402 39T293 0ZM215 64H285Q369 64 369 150V360Q369 446 285 446H215Q131 446 131 360V150Q131 64 215 64Z" />
<glyph unicode="p" glyph-name="p" horiz-adv-x="510" d="M128 -146H83Q69 -146 69 -132V496Q69 510 83 510H128Q142 510 142 496V457H146Q171 510 248 510H308Q376 510 413 471T451 362V148Q451 78 414 39T308 0H248Q171 0 146 53H142V-132Q142 -146 128 -146ZM235
64H294Q379 64 379 151V359Q379 446 294 446H235Q190 446 166 422T142 354V156Q142 112 166 88T235 64Z" />
<glyph unicode="q" glyph-name="q" horiz-adv-x="507" d="M365 159V437Q365 446 355 446H215Q132 446 132 359V151Q132 64 215 64H270Q316 64 340 89T365 159ZM256 0H207Q138 0 99 39T59 148V362Q59 432 98 471T207 510H424Q438 510 438 496V-132Q438 -146 424
-146H379Q365 -146 365 -132V54H361Q332 0 256 0Z" />
<glyph unicode="r" glyph-name="r" horiz-adv-x="323" d="M128 0H83Q69 0 69 14V496Q69 510 83 510H128Q142 510 142 496V456H146Q156 478 184 494T250 510H289Q302 510 302 496V459Q302 452 299 449T289 446H235Q190 446 166 419T142 345V14Q142 0 128 0Z" />
<glyph unicode="s" glyph-name="s" horiz-adv-x="433" d="M242 0H64Q50 0 50 14V49Q50 62 64 62H232Q310 62 310 120V139Q310 192 259 212L141 262Q90 283 68 311T46 387Q46 510 181 510H345Q359 510 359 496V461Q359 448 345 448H194Q158 448 140 433T121 398V381Q121
339 178 317L296 264Q348 244 366 211T385 120Q385 0 242 0Z" />
<glyph unicode="t" glyph-name="t" horiz-adv-x="349" d="M88 446H33Q19 446 19 459V496Q19 510 33 510H88Q98 510 98 519V605Q98 619 112 619H157Q170 619 170 605V519Q170 510 181 510H287Q302 510 302 496V459Q302 446 287 446H181Q170 446 170 437V149Q170
64 258 64H297Q312 64 312 50V13Q312 0 297 0H249Q180 0 139 38T98 146V437Q98 446 88 446Z" />
<glyph unicode="u" glyph-name="u" horiz-adv-x="512" d="M264 0H208Q140 0 102 39T64 148V496Q64 510 78 510H123Q137 510 137 496V151Q137 64 220 64H277Q322 64 346 88T370 156V496Q370 510 384 510H429Q443 510 443 496V14Q443 0 429 0H384Q370 0 370 14V53H366Q341
0 264 0Z" />
<glyph unicode="v" glyph-name="v" horiz-adv-x="431" d="M30 510H77Q90 510 93 496L213 73H218L337 496Q341 510 354 510H401Q415 510 411 496L267 15Q264 0 249 0H181Q167 0 163 15L20 496Q16 510 30 510Z" />
<glyph unicode="w" glyph-name="w" horiz-adv-x="686" d="M227 0H166Q152 0 149 14L21 496Q18 510 31 510H82Q95 510 98 496L195 88H201L304 496Q307 510 320 510H366Q380 510 384 496L484 88H490L588 496Q591 510 604 510H655Q668 510 665 496L537 14Q534 0 520
0H458Q445 0 442 14L345 412H340L244 14Q241 0 227 0Z" />
<glyph unicode="x" glyph-name="x" horiz-adv-x="427" d="M89 0H33Q17 0 25 14L165 260L30 496Q22 510 37 510H93Q106 510 114 496L212 307H216L309 496Q316 510 330 510H385Q402 510 392 496L261 261L403 14Q412 0 396 0H338Q327 0 319 14L216 211H212L109 14Q103
0 89 0Z" />
<glyph unicode="y" glyph-name="y" horiz-adv-x="463" d="M110 -157H66Q52 -157 52 -143V-106Q52 -92 66 -92H91Q155 -92 181 -56Q202 -27 219 27H190Q178 27 173 41L26 496Q22 510 36 510H84Q97 510 101 496L230 84H234L363 496Q366 510 379 510H425Q442 510
437 495L288 20Q263 -65 225 -111T110 -157Z" />
<glyph unicode="z" glyph-name="z" horiz-adv-x="418" d="M33 14V33Q33 51 43 64L290 442V446H55Q41 446 41 461V496Q41 510 55 510H362Q377 510 377 496V463Q377 445 368 436L129 68V64H371Q385 64 385 49V14Q385 0 371 0H48Q33 0 33 14Z" />
<glyph unicode="{" glyph-name="braceleft" horiz-adv-x="303" d="M227 643H232Q246 643 246 629V602Q246 588 232 588H229Q192 588 178 567T164 501V367Q164 289 107 270Q164 254 164 174V40Q164 -5 178 -26T229 -47H232Q246 -47 246 -61V-88Q246 -102 232 -102H227Q103
-102 103 46V169Q103 238 47 238Q33 238 33 252V288Q33 302 47 302Q103 302 103 372V495Q103 643 227 643Z" />
<glyph unicode="|" glyph-name="bar" horiz-adv-x="214" d="M134 629V14Q134 0 120 0H93Q80 0 80 14V629Q80 643 93 643H120Q134 643 134 629Z" />
<glyph unicode="}" glyph-name="braceright" horiz-adv-x="303" d="M176 495V372Q176 302 232 302Q246 302 246 288V252Q246 238 232 238Q176 238 176 169V46Q176 -102 52 -102H47Q33 -102 33 -88V-61Q33 -47 47 -47H50Q86 -47 100 -26T115 40V174Q115 254 172
270Q115 289 115 367V501Q115 546 101 567T50 588H47Q33 588 33 602V629Q33 643 47 643H52Q176 643 176 495Z" />
<glyph unicode="~" glyph-name="asciitilde" horiz-adv-x="535" d="M331 279T265 294T171 309T114 297T81 285Q70 285 70 297V327Q70 342 91 352Q128 367 165 367T268 352T362 336T422 348T455 361Q465 361 465 349V318Q465 303 444 294Q407 279 369 279Z" />
<glyph unicode="&#xa0;" glyph-name="uni00A0" horiz-adv-x="254" />
<glyph unicode="&#xa1;" glyph-name="exclamdown" horiz-adv-x="237" d="M143 495H95Q82 495 82 508V628Q82 643 95 643H143Q157 643 157 629V508Q157 495 143 495ZM105 429H132Q143 429 145 417T150 360Q159 225 159 130V14Q159 0 145 0H92Q78 0 78 14V130Q78
225 84 315T91 414Q92 429 105 429Z" />
<glyph unicode="&#xa2;" glyph-name="cent" horiz-adv-x="419" d="M276 -91H240Q227 -91 227 -77V0H201Q135 0 97 40T59 148V362Q59 430 97 470T201 510H227V597Q227 611 240 611H276Q289 611 289 598V510H360Q382 510 382 496V459Q382 446 367 446H215Q132 446
132 359V151Q132 64 215 64H367Q382 64 382 51V14Q382 0 367 0H289V-78Q289 -91 276 -91Z" />
<glyph unicode="&#xa3;" glyph-name="sterling" horiz-adv-x="536" d="M140 61H456Q469 61 469 47V14Q469 0 456 0H47Q33 0 33 14V47Q33 61 47 61H57Q76 61 90 80T104 129V266H47Q33 266 33 281V314Q33 327 47 327H104V497Q104 566 143 604T252 643H317Q386 643
425 605T464 497V470Q464 456 450 456H405Q391 456 391 470V496Q391 581 307 581H261Q175 581 175 496V327H322Q336 327 336 314V281Q336 266 322 266H175V138Q175 103 164 84T140 65V61Z" />
<glyph unicode="&#xa5;" glyph-name="yen" horiz-adv-x="512" d="M278 0H233Q219 0 219 14V165H54Q39 165 39 180V203Q39 218 54 218H217V245L186 310H54Q39 310 39 324V348Q39 363 54 363H160L28 629Q22 643 36 643H95Q104 643 110 629L253 320H257L401 629Q407
643 417 643H475Q490 643 483 629L352 363H457Q472 363 472 348V324Q472 310 457 310H326L294 245V218H457Q472 218 472 203V180Q472 165 457 165H292V14Q292 0 278 0Z" />
<glyph unicode="&#xa6;" glyph-name="brokenbar" horiz-adv-x="209" d="M133 629V388Q133 374 119 374H90Q76 374 76 388V629Q76 643 90 643H119Q133 643 133 629ZM133 255V14Q133 0 119 0H90Q76 0 76 14V255Q76 269 90 269H119Q133 269 133 255Z" />
<glyph unicode="&#xa7;" glyph-name="section" horiz-adv-x="464" d="M336 302Q336 332 320 347T271 370L191 385Q151 395 128 412V346Q128 288 192 274L272 259Q314 251 336 235V302ZM258 0H84Q70 0 70 14V51Q70 64 84 64H254Q299 64 315 83T331 133T314 179T259
201L159 220Q60 240 60 342V515Q60 573 93 608T199 643H362Q376 643 376 629V592Q376 579 362 579H201Q133 579 133 512Q133 483 148 468T204 444L304 425Q404 405 404 306V135Q404 0 258 0Z" />
<glyph unicode="&#xa8;" glyph-name="dieresis" horiz-adv-x="366" d="M63 588V689Q63 703 76 703H118Q132 703 132 690V588Q132 574 118 574H76Q63 574 63 588ZM233 588V689Q233 703 247 703H289Q303 703 303 690V588Q303 574 289 574H247Q233 574 233 588Z" />
<glyph unicode="&#xa9;" glyph-name="copyright" horiz-adv-x="717" d="M493 402V380Q493 369 483 369H451Q441 369 441 380V396Q441 439 425 453T365 468H351Q307 468 291 454T275 396V244Q275 201 291 187T351 172H365Q409 172 425 186T441 244V263Q441 274
451 274H483Q493 274 493 263V237Q493 125 375 125H341Q223 125 223 237V402Q223 514 341 514H375Q493 514 493 402ZM211 48H506Q595 48 595 138V505Q595 595 506 595H211Q122 595 122 505V138Q122 48 211 48ZM200 643H517Q577 643 612 608T648 512V131Q648 70
613 35T517 0H200Q140 0 105 35T70 131V512Q70 572 105 607T200 643Z" />
<glyph unicode="&#xab;" glyph-name="guillemotleft" horiz-adv-x="438" d="M379 129V96Q379 87 375 85T363 88L223 216Q209 228 209 243V269Q209 283 223 295L363 423Q370 429 374 427T379 416V383Q379 371 367 363L252 256L367 149Q379 141 379 129ZM228 129V96Q228
87 224 85T213 88L73 216Q59 227 59 243V269Q59 283 73 295L213 423Q220 429 224 427T228 416V383Q228 372 217 363L102 256L217 149Q228 140 228 129Z" />
<glyph unicode="&#xae;" glyph-name="registered" horiz-adv-x="450" d="M240 615H201V555H240Q256 555 256 572V600Q256 615 240 615ZM168 473V632Q168 645 181 645H242Q289 645 289 600V571Q289 539 265 530L291 476Q298 460 283 460H273Q264 460 260 469L233
528H201V473Q201 460 188 460H181Q168 460 168 473ZM174 424H276Q347 424 347 498V606Q347 679 276 679H174Q102 679 102 606V498Q102 424 174 424ZM281 391H168Q121 391 94 418T66 492V611Q66 658 94 685T168 713H281Q328 713 355 686T383 611V492Q383 445 356
418T281 391Z" />
<glyph unicode="&#xaf;" glyph-name="overscore" horiz-adv-x="355" d="M278 613H77Q63 613 63 627V651Q63 665 77 665H278Q292 665 292 651V627Q292 613 278 613Z" />
<glyph unicode="&#xb0;" glyph-name="degree" horiz-adv-x="321" d="M184 511H136Q87 511 87 560V657Q87 704 136 704H184Q207 704 220 692T234 657V560Q234 537 221 524T184 511ZM167 545Q184 545 190 551T196 574V639Q196 657 190 662T167 668H154Q136 668 131
663T125 639V574Q125 557 130 551T154 545H167Z" />
<glyph unicode="&#xb1;" glyph-name="plusminus" horiz-adv-x="535" d="M300 406H450Q465 406 465 391V361Q465 346 450 346H300V248Q300 233 285 233H251Q236 233 236 248V346H85Q70 346 70 361V391Q70 406 85 406H236V503Q236 519 251 519H285Q300 519 300 503V406ZM85
183H450Q465 183 465 169V138Q465 123 450 123H85Q70 123 70 138V169Q70 183 85 183Z" />
<glyph unicode="&#xb4;" glyph-name="acute" horiz-adv-x="277" d="M145 703H205Q212 703 214 699T212 689L124 584Q116 574 104 574H72Q59 574 65 588L123 690Q130 703 145 703Z" />
<glyph unicode="&#xb6;" glyph-name="paragraph" horiz-adv-x="522" d="M221 0H186Q173 0 173 14V321Q116 321 83 350T50 441V523Q50 643 184 643H425Q440 643 440 630V14Q440 0 426 0H392Q378 0 378 14V576Q378 585 368 585H245Q234 585 234 576V14Q234 0 221 0Z" />
<glyph unicode="&#xb7;" glyph-name="middot" horiz-adv-x="207" d="M142 379V258Q142 244 129 244H78Q65 244 65 258V378Q65 392 78 392H129Q142 392 142 379Z" />
<glyph unicode="&#xb8;" glyph-name="cedilla" horiz-adv-x="259" d="M120 -47Q196 -47 196 -111V-125Q196 -188 111 -188H80Q67 -188 67 -175V-161Q67 -148 80 -148H104Q132 -148 143 -142T154 -119V-117Q154 -99 144 -93T104 -86H88Q70 -86 64 -71T70 -42L125
20H179L120 -43V-47Z" />
<glyph unicode="&#xbb;" glyph-name="guillemotright" horiz-adv-x="438" d="M209 383V416Q209 424 213 426T224 423L365 295Q379 283 379 269V243Q379 228 365 216L224 88Q218 82 214 85T209 96V129Q209 141 221 149L336 256L221 363Q209 371 209 383ZM59 383V416Q59
424 63 426T74 423L214 295Q228 283 228 269V243Q228 227 214 216L74 88Q67 82 63 84T59 96V129Q59 140 70 149L185 256L70 363Q59 372 59 383Z" />
<glyph unicode="&#xbf;" glyph-name="questiondown" horiz-adv-x="471" d="M195 507V628Q195 642 208 642H259Q272 642 272 627V507Q272 494 259 494H208Q195 494 195 507ZM197 380V414Q197 428 210 428H253Q267 428 267 414V382Q267 344 256 322T212 273L170
237Q133 207 133 168V147Q133 62 218 62H252Q336 62 336 147V183Q336 197 350 197H395Q409 197 409 183V146Q409 77 370 39T261 0H209Q140 0 101 38T62 146V172Q62 223 108 263L161 307Q184 327 190 341T197 380Z" />
<glyph unicode="&#xc0;" glyph-name="Agrave" horiz-adv-x="539" d="M283 707H250Q238 707 230 717L143 822Q139 828 141 832T150 836H210Q225 836 231 823L289 721Q297 707 283 707ZM87 0H37Q24 0 28 14L215 629Q219 643 234 643H306Q321 643 325 629L512 14Q516
0 503 0H452Q441 0 438 14L391 160H149L102 14Q98 0 87 0ZM268 568L165 222H375L272 568H268Z" />
<glyph unicode="&#xc1;" glyph-name="Aacute" horiz-adv-x="539" d="M328 836H388Q395 836 397 832T395 822L308 717Q298 707 288 707H255Q241 707 249 721L307 823Q313 836 328 836ZM87 0H37Q24 0 28 14L215 629Q219 643 234 643H306Q321 643 325 629L512 14Q516
0 503 0H452Q441 0 438 14L391 160H149L102 14Q98 0 87 0ZM268 568L165 222H375L272 568H268Z" />
<glyph unicode="&#xc2;" glyph-name="Acircumflex" horiz-adv-x="539" d="M365 707H331Q321 707 317 715L270 803L222 715Q219 707 209 707H175Q162 707 169 719L232 826Q239 836 253 836H287Q300 836 307 826L371 719Q378 707 365 707ZM87 0H37Q24 0 28 14L215
629Q219 643 234 643H306Q321 643 325 629L512 14Q516 0 503 0H452Q441 0 438 14L391 160H149L102 14Q98 0 87 0ZM268 568L165 222H375L272 568H268Z" />
<glyph unicode="&#xc3;" glyph-name="Atilde" horiz-adv-x="539" d="M216 702Q160 702 160 779V818Q160 828 169 828H190Q199 828 199 818V792Q199 763 204 753T221 743T240 751T259 786T284 823T324 832Q381 832 381 754V715Q381 704 372 704H350Q341 704 341
715V742Q341 771 336 780T318 790T300 784T290 766Q269 721 257 712T216 702ZM87 0H37Q24 0 28 14L215 629Q219 643 234 643H306Q321 643 325 629L512 14Q516 0 503 0H452Q441 0 438 14L391 160H149L102 14Q98 0 87 0ZM268 568L165 222H375L272 568H268Z" />
<glyph unicode="&#xc4;" glyph-name="Adieresis" horiz-adv-x="539" d="M150 721V822Q150 836 163 836H206Q218 836 218 823V721Q218 707 206 707H163Q150 707 150 721ZM321 721V822Q321 836 334 836H377Q389 836 389 823V721Q389 707 377 707H334Q321 707 321
721ZM87 0H37Q24 0 28 14L215 629Q219 643 234 643H306Q321 643 325 629L512 14Q516 0 503 0H452Q441 0 438 14L391 160H149L102 14Q98 0 87 0ZM268 568L165 222H375L272 568H268Z" />
<glyph unicode="&#xc5;" glyph-name="Aring" horiz-adv-x="539" d="M284 697H253Q187 697 187 765V806Q187 872 253 872H284Q316 872 333 855T351 806V765Q351 733 334 715T284 697ZM262 730H274Q314 730 314 773V796Q314 839 275 839H262Q222 839 222 796V773Q222
730 262 730ZM87 0H37Q24 0 28 14L215 629Q219 643 234 643H306Q321 643 325 629L512 14Q516 0 503 0H452Q441 0 438 14L391 160H149L102 14Q98 0 87 0ZM268 568L165 222H375L272 568H268Z" />
<glyph unicode="&#xc6;" glyph-name="AE" horiz-adv-x="775" d="M63 0H12Q-4 0 4 15L324 629Q332 643 347 643H703Q716 643 716 629V593Q716 579 703 579H458Q447 579 447 570V368Q447 359 458 359H671Q686 359 686 345V309Q686 295 671 295H458Q447 295 447 286V73Q447
64 458 64H703Q716 64 716 50V14Q716 0 703 0H388Q375 0 375 14V161H159L81 14Q75 0 63 0ZM375 226V570H371L189 226H375Z" />
<glyph unicode="&#xc7;" glyph-name="Ccedilla" horiz-adv-x="541" d="M471 432H426Q412 432 412 446V492Q412 579 328 579H225Q142 579 142 492V151Q142 64 225 64H328Q412 64 412 151V197Q412 211 426 211H471Q485 211 485 197V148Q485 78 446 39T337 0H323L279
-46V-50Q356 -50 356 -115V-128Q356 -192 270 -192H239Q226 -192 226 -179V-165Q226 -152 239 -152H263Q292 -152 303 -146T314 -123V-120Q314 -102 304 -96T263 -90H247Q229 -90 224 -75T230 -46L270 0H217Q148 0 109 39T69 148V495Q69 565 108 604T217 643H337Q406
643 445 604T485 495V446Q485 432 471 432Z" />
<glyph unicode="&#xc8;" glyph-name="Egrave" horiz-adv-x="480" d="M273 707H240Q228 707 220 717L133 822Q129 828 131 832T140 836H200Q215 836 221 823L279 721Q287 707 273 707ZM407 0H93Q79 0 79 14V629Q79 643 93 643H407Q421 643 421 629V593Q421 579
407 579H162Q152 579 152 570V368Q152 359 162 359H376Q390 359 390 345V309Q390 295 376 295H162Q152 295 152 286V73Q152 64 162 64H407Q421 64 421 50V14Q421 0 407 0Z" />
<glyph unicode="&#xc9;" glyph-name="Eacute" horiz-adv-x="480" d="M297 836H357Q364 836 366 832T364 822L276 717Q268 707 257 707H224Q210 707 218 721L275 823Q282 836 297 836ZM407 0H93Q79 0 79 14V629Q79 643 93 643H407Q421 643 421 629V593Q421 579
407 579H162Q152 579 152 570V368Q152 359 162 359H376Q390 359 390 345V309Q390 295 376 295H162Q152 295 152 286V73Q152 64 162 64H407Q421 64 421 50V14Q421 0 407 0Z" />
<glyph unicode="&#xca;" glyph-name="Ecircumflex" horiz-adv-x="480" d="M345 707H310Q300 707 297 715L249 803L202 715Q198 707 188 707H154Q141 707 148 719L212 826Q219 836 232 836H266Q280 836 287 826L350 719Q357 707 345 707ZM407 0H93Q79 0 79 14V629Q79
643 93 643H407Q421 643 421 629V593Q421 579 407 579H162Q152 579 152 570V368Q152 359 162 359H376Q390 359 390 345V309Q390 295 376 295H162Q152 295 152 286V73Q152 64 162 64H407Q421 64 421 50V14Q421 0 407 0Z" />
<glyph unicode="&#xcb;" glyph-name="Edieresis" horiz-adv-x="480" d="M130 721V822Q130 836 143 836H186Q199 836 199 823V721Q199 707 186 707H143Q130 707 130 721ZM301 721V822Q301 836 314 836H357Q370 836 370 823V721Q370 707 357 707H314Q301 707 301
721ZM407 0H93Q79 0 79 14V629Q79 643 93 643H407Q421 643 421 629V593Q421 579 407 579H162Q152 579 152 570V368Q152 359 162 359H376Q390 359 390 345V309Q390 295 376 295H162Q152 295 152 286V73Q152 64 162 64H407Q421 64 421 50V14Q421 0 407 0Z" />
<glyph unicode="&#xcc;" glyph-name="Igrave" horiz-adv-x="241" d="M137 707H104Q93 707 85 717L-2 822Q-6 828 -4 832T4 836H64Q79 836 86 823L144 721Q152 707 137 707ZM157 629V14Q157 0 143 0H98Q84 0 84 14V629Q84 643 98 643H143Q157 643 157 629Z" />
<glyph unicode="&#xcd;" glyph-name="Iacute" horiz-adv-x="241" d="M176 836H237Q244 836 246 832T243 822L156 717Q148 707 136 707H103Q91 707 97 721L155 823Q162 836 176 836ZM157 629V14Q157 0 143 0H98Q84 0 84 14V629Q84 643 98 643H143Q157 643 157 629Z" />
<glyph unicode="&#xce;" glyph-name="Icircumflex" horiz-adv-x="240" d="M215 707H181Q171 707 167 715L120 803L73 715Q69 707 58 707H25Q12 707 19 719L82 826Q89 836 103 836H137Q150 836 157 826L220 719Q227 707 215 707ZM157 629V14Q157 0 143 0H98Q84
0 84 14V629Q84 643 98 643H143Q157 643 157 629Z" />
<glyph unicode="&#xcf;" glyph-name="Idieresis" horiz-adv-x="240" d="M0 721V822Q0 836 13 836H56Q69 836 69 823V721Q69 707 56 707H13Q0 707 0 721ZM171 721V822Q171 836 184 836H227Q240 836 240 823V721Q240 707 227 707H184Q171 707 171 721ZM157 629V14Q157
0 143 0H98Q84 0 84 14V629Q84 643 98 643H143Q157 643 157 629Z" />
<glyph unicode="&#xd0;" glyph-name="Eth" horiz-adv-x="529" d="M168 64H336Q420 64 420 151V492Q420 579 336 579H168Q158 579 158 570V362Q158 353 168 353H294Q308 353 308 339V309Q308 296 294 296H168Q158 296 158 286V73Q158 64 168 64ZM345 0H99Q85 0
85 14V286Q85 296 75 296H38Q24 296 24 309V339Q24 353 38 353H75Q85 353 85 362V629Q85 643 99 643H345Q414 643 453 604T493 495V148Q493 78 454 39T345 0Z" />
<glyph unicode="&#xd1;" glyph-name="Ntilde" horiz-adv-x="581" d="M236 702Q181 702 181 779V818Q181 828 190 828H211Q220 828 220 818V792Q220 763 225 753T242 743T261 751T280 786T305 823T346 832Q402 832 402 754V715Q402 704 392 704H371Q362 704 362
715V742Q362 771 357 780T339 790T321 784T310 766Q290 721 277 712T236 702ZM137 0H93Q79 0 79 14V629Q79 643 93 643H134Q146 643 150 635L426 150H430V629Q430 643 444 643H488Q502 643 502 629V14Q502 0 488 0H451Q440 0 430 13L155 493H151V14Q151 0 137 0Z"
/>
<glyph unicode="&#xd2;" glyph-name="Ograve" horiz-adv-x="553" d="M296 707H262Q251 707 243 717L156 822Q146 836 162 836H222Q237 836 244 823L302 721Q310 707 296 707ZM225 64H327Q411 64 411 151V492Q411 579 327 579H225Q142 579 142 492V151Q142 64 225
64ZM336 0H217Q148 0 109 39T69 148V495Q69 565 108 604T217 643H336Q405 643 444 604T484 495V148Q484 79 445 40T336 0Z" />
<glyph unicode="&#xd3;" glyph-name="Oacute" horiz-adv-x="553" d="M324 836H385Q391 836 393 832T391 822L304 717Q296 707 284 707H251Q237 707 245 721L303 823Q309 836 324 836ZM225 64H327Q411 64 411 151V492Q411 579 327 579H225Q142 579 142 492V151Q142
64 225 64ZM336 0H217Q148 0 109 39T69 148V495Q69 565 108 604T217 643H336Q405 643 444 604T484 495V148Q484 79 445 40T336 0Z" />
<glyph unicode="&#xd4;" glyph-name="Ocircumflex" horiz-adv-x="553" d="M373 707H339Q328 707 325 715L277 803L230 715Q226 707 216 707H182Q170 707 177 719L240 826Q247 836 260 836H295Q308 836 315 826L378 719Q385 707 373 707ZM225 64H327Q411 64 411
151V492Q411 579 327 579H225Q142 579 142 492V151Q142 64 225 64ZM336 0H217Q148 0 109 39T69 148V495Q69 565 108 604T217 643H336Q405 643 444 604T484 495V148Q484 79 445 40T336 0Z" />
<glyph unicode="&#xd5;" glyph-name="Otilde" horiz-adv-x="553" d="M277 722T264 712T222 702Q166 702 166 779V818Q166 828 175 828H196Q205 828 205 818V792Q205 763 210 753T227 743T246 751T265 786T290 823T331 832Q386 832 386 754V715Q386 704 378 704H357Q347
704 347 715V742Q347 771 342 780T324 790T306 784T296 766T289 753Q277 722 264 712ZM225 64H327Q411 64 411 151V492Q411 579 327 579H225Q142 579 142 492V151Q142 64 225 64ZM336 0H217Q148 0 109 39T69 148V495Q69 565 108 604T217 643H336Q405 643 444 604T484
495V148Q484 79 445 40T336 0Z" />
<glyph unicode="&#xd6;" glyph-name="Odieresis" horiz-adv-x="553" d="M156 721V822Q156 836 169 836H212Q225 836 225 823V721Q225 707 212 707H169Q156 707 156 721ZM327 721V822Q327 836 340 836H383Q396 836 396 823V721Q396 707 383 707H340Q327 707 327
721ZM225 64H327Q411 64 411 151V492Q411 579 327 579H225Q142 579 142 492V151Q142 64 225 64ZM336 0H217Q148 0 109 39T69 148V495Q69 565 108 604T217 643H336Q405 643 444 604T484 495V148Q484 79 445 40T336 0Z" />
<glyph unicode="&#xd7;" glyph-name="multiply" horiz-adv-x="501" d="M295 321L405 211Q417 200 405 190L381 166Q371 156 359 166L250 276L140 166Q130 156 119 166L95 190Q83 200 94 211L204 321L95 431Q84 442 95 452L119 476Q129 488 140 476L250 367L359
476Q371 488 381 476L405 452Q416 442 405 431L295 321Z" />
<glyph unicode="&#xd8;" glyph-name="Oslash" horiz-adv-x="565" d="M491 495V148Q491 78 452 39T344 0H221Q151 0 110 41L87 9Q78 -3 66 5L52 16Q41 24 50 37L84 84Q73 114 73 148V495Q73 565 112 604T221 643H344Q415 643 454 601L477 633Q487 645 498 637L513
627Q524 620 515 606L481 558Q491 528 491 495ZM146 492V171L410 539Q390 579 335 579H230Q146 579 146 492ZM419 151V472L155 104Q173 64 230 64H335Q419 64 419 151Z" />
<glyph unicode="&#xd9;" glyph-name="Ugrave" horiz-adv-x="554" d="M301 707H268Q256 707 248 717L161 822Q157 828 159 832T167 836H228Q242 836 249 823L307 721Q315 707 301 707ZM421 643H466Q480 643 480 630V148Q480 78 441 39T333 0H222Q153 0 114 39T74
148V629Q74 643 88 643H133Q147 643 147 629V151Q147 64 230 64H324Q408 64 408 151V629Q408 643 421 643Z" />
<glyph unicode="&#xda;" glyph-name="Uacute" horiz-adv-x="554" d="M328 836H388Q395 836 397 832T395 822L307 717Q300 707 288 707H255Q241 707 249 721L306 823Q313 836 328 836ZM421 643H466Q480 643 480 630V148Q480 78 441 39T333 0H222Q153 0 114 39T74
148V629Q74 643 88 643H133Q147 643 147 629V151Q147 64 230 64H324Q408 64 408 151V629Q408 643 421 643Z" />
<glyph unicode="&#xdb;" glyph-name="Ucircumflex" horiz-adv-x="554" d="M374 707H340Q330 707 326 715L278 803L231 715Q227 707 217 707H184Q170 707 177 719L241 826Q248 836 261 836H295Q309 836 316 826L379 719Q386 707 374 707ZM421 643H466Q480 643 480
630V148Q480 78 441 39T333 0H222Q153 0 114 39T74 148V629Q74 643 88 643H133Q147 643 147 629V151Q147 64 230 64H324Q408 64 408 151V629Q408 643 421 643Z" />
<glyph unicode="&#xdc;" glyph-name="Udieresis" horiz-adv-x="554" d="M157 721V822Q157 836 170 836H213Q226 836 226 823V721Q226 707 213 707H170Q157 707 157 721ZM328 721V822Q328 836 341 836H384Q397 836 397 823V721Q397 707 384 707H341Q328 707 328
721ZM421 643H466Q480 643 480 630V148Q480 78 441 39T333 0H222Q153 0 114 39T74 148V629Q74 643 88 643H133Q147 643 147 629V151Q147 64 230 64H324Q408 64 408 151V629Q408 643 421 643Z" />
<glyph unicode="&#xdd;" glyph-name="Yacute" horiz-adv-x="500" d="M301 836H362Q368 836 370 832T368 822L281 717Q273 707 261 707H228Q214 707 222 721L280 823Q287 836 301 836ZM272 0H227Q213 0 213 14V241L23 628Q20 635 23 639T32 643H88Q99 643 105 629L248
326H253L395 629Q399 643 411 643H468Q485 643 477 628L286 241V14Q286 0 272 0Z" />
<glyph unicode="&#xde;" glyph-name="Thorn" horiz-adv-x="502" d="M187 197H284Q368 197 368 283V359Q368 446 284 446H187Q177 446 177 437V206Q177 197 187 197ZM164 0H118Q105 0 105 14V629Q105 643 118 643H164Q177 643 177 629V519Q177 510 188 510H294Q362
510 401 471T441 362V280Q441 210 402 171T294 132H188Q177 132 177 123V14Q177 0 164 0Z" />
<glyph unicode="&#xdf;" glyph-name="germandbls" horiz-adv-x="541" d="M263 354H305Q347 354 371 376T395 441V494Q395 580 310 580H229Q145 580 145 494V14Q145 0 131 0H86Q72 0 72 14V495Q72 565 111 604T220 643H319Q388 643 427 604T467 494V438Q467 355
392 323Q431 314 454 281T477 204V144Q477 75 438 38T329 0H245Q231 0 231 13V49Q231 62 245 62H320Q405 62 405 149V204Q405 246 379 268T309 291H263Q249 291 249 304V340Q249 354 263 354Z" />
<glyph unicode="&#xe0;" glyph-name="agrave" horiz-adv-x="507" d="M301 574H267Q256 574 248 584L161 689Q156 695 158 699T167 703H228Q242 703 249 690L307 588Q315 574 301 574ZM259 0H207Q138 0 99 39T59 148V362Q59 432 98 471T207 510H424Q438 510 438
496V14Q438 0 424 0H379Q365 0 365 14V53H361Q336 0 259 0ZM365 156V437Q365 446 355 446H215Q132 446 132 359V151Q132 64 215 64H272Q317 64 341 88T365 156Z" />
<glyph unicode="&#xe1;" glyph-name="aacute" horiz-adv-x="507" d="M316 703H376Q383 703 385 699T383 689L296 584Q286 574 275 574H243Q229 574 237 588L295 690Q301 703 316 703ZM259 0H207Q138 0 99 39T59 148V362Q59 432 98 471T207 510H424Q438 510 438
496V14Q438 0 424 0H379Q365 0 365 14V53H361Q336 0 259 0ZM365 156V437Q365 446 355 446H215Q132 446 132 359V151Q132 64 215 64H272Q317 64 341 88T365 156Z" />
<glyph unicode="&#xe2;" glyph-name="acircumflex" horiz-adv-x="507" d="M360 574H326Q316 574 312 582L265 670L217 582Q214 574 203 574H170Q157 574 164 586L227 693Q234 703 248 703H282Q295 703 302 693L365 586Q372 574 360 574ZM259 0H207Q138 0 99 39T59
148V362Q59 432 98 471T207 510H424Q438 510 438 496V14Q438 0 424 0H379Q365 0 365 14V53H361Q336 0 259 0ZM365 156V437Q365 446 355 446H215Q132 446 132 359V151Q132 64 215 64H272Q317 64 341 88T365 156Z" />
<glyph unicode="&#xe3;" glyph-name="atilde" horiz-adv-x="508" d="M161 653V691Q161 702 171 702H192Q201 702 201 691V665Q201 637 206 627T223 617T242 625T261 660T286 696T326 705Q382 705 382 628V588Q382 577 373 577H352Q343 577 343 588V615Q343 644
338 654T323 664T309 663T301 656T294 646T282 618T259 586T218 576Q161 576 161 653ZM259 0H207Q138 0 99 39T59 148V362Q59 432 98 471T207 510H424Q438 510 438 496V14Q438 0 424 0H379Q365 0 365 14V53H361Q336 0 259 0ZM365 156V437Q365 446 355 446H215Q132
446 132 359V151Q132 64 215 64H272Q317 64 341 88T365 156Z" />
<glyph unicode="&#xe4;" glyph-name="adieresis" horiz-adv-x="507" d="M150 588V689Q150 703 162 703H205Q218 703 218 690V588Q218 574 205 574H162Q150 574 150 588ZM321 588V689Q321 703 333 703H376Q389 703 389 690V588Q389 574 376 574H333Q321 574 321
588ZM259 0H207Q138 0 99 39T59 148V362Q59 432 98 471T207 510H424Q438 510 438 496V14Q438 0 424 0H379Q365 0 365 14V53H361Q336 0 259 0ZM365 156V437Q365 446 355 446H215Q132 446 132 359V151Q132 64 215 64H272Q317 64 341 88T365 156Z" />
<glyph unicode="&#xe5;" glyph-name="aring" horiz-adv-x="507" d="M365 156V437Q365 446 355 446H215Q132 446 132 359V151Q132 64 215 64H272Q317 64 341 88T365 156ZM259 0H207Q138 0 99 39T59 148V362Q59 432 98 471T207 510H424Q438 510 438 496V14Q438 0
424 0H379Q365 0 365 14V53H361Q336 0 259 0ZM211 659V623Q211 601 220 593T251 585H266Q288 585 297 593T306 623V659Q306 681 297 689T266 697H251Q229 697 220 689T211 659ZM179 615V669Q179 727 242 727H275Q340 727 340 669V615Q340 556 275 556H242Q179 556
179 615Z" />
<glyph unicode="&#xe6;" glyph-name="ae" horiz-adv-x="784" d="M432 194V151Q432 64 516 64H712Q726 64 726 50V13Q726 0 712 0H507Q419 0 385 64Q353 0 253 0H205Q137 0 97 38T57 145V165Q57 234 96 272T205 310H351Q359 310 359 318V360Q359 446 276 446H119Q105
446 105 460V496Q105 510 119 510H274Q365 510 397 447Q428 510 518 510H579Q648 510 687 471T726 362V218Q726 203 712 203H442Q432 203 432 194ZM661 266V359Q661 446 577 446H521Q432 446 432 362V266Q432 256 442 256H651Q661 256 661 266ZM360 152V245Q360
254 350 254H214Q126 254 126 167V149Q126 61 214 61H267Q360 61 360 152Z" />
<glyph unicode="&#xe7;" glyph-name="ccedilla" horiz-adv-x="399" d="M352 446H215Q132 446 132 359V151Q132 64 215 64H352Q366 64 366 50V13Q366 0 352 0H286L245 -43V-47Q322 -47 322 -111V-125Q322 -188 236 -188H206Q193 -188 193 -175V-161Q193 -153 195
-151T206 -148H229Q258 -148 269 -142T280 -119V-117Q280 -99 269 -93T229 -86H213Q195 -86 190 -71T196 -42L233 0H207Q138 0 99 39T59 148V362Q59 432 98 471T207 510H352Q366 510 366 496V459Q366 446 352 446Z" />
<glyph unicode="&#xe8;" glyph-name="egrave" horiz-adv-x="492" d="M275 574H242Q230 574 223 584L135 689Q131 695 133 699T142 703H202Q217 703 224 690L281 588Q289 574 275 574ZM419 0H207Q138 0 99 39T59 148V362Q59 432 98 471T207 510H291Q360 510 399
471T438 362V235Q438 220 424 220H141Q131 220 131 211V150Q131 63 215 63H419Q433 63 433 49V13Q433 0 419 0ZM141 273H357Q367 273 367 283V360Q367 446 283 446H215Q131 446 131 360V283Q131 273 141 273Z" />
<glyph unicode="&#xe9;" glyph-name="eacute" horiz-adv-x="492" d="M294 703H354Q361 703 363 699T361 689L274 584Q264 574 254 574H221Q207 574 215 588L273 690Q279 703 294 703ZM419 0H207Q138 0 99 39T59 148V362Q59 432 98 471T207 510H291Q360 510 399
471T438 362V235Q438 220 424 220H141Q131 220 131 211V150Q131 63 215 63H419Q433 63 433 49V13Q433 0 419 0ZM141 273H357Q367 273 367 283V360Q367 446 283 446H215Q131 446 131 360V283Q131 273 141 273Z" />
<glyph unicode="&#xea;" glyph-name="ecircumflex" horiz-adv-x="492" d="M346 574H312Q302 574 298 582L251 670L204 582Q200 574 190 574H156Q143 574 150 586L213 693Q220 703 234 703H268Q281 703 288 693L352 586Q359 574 346 574ZM419 0H207Q138 0 99 39T59
148V362Q59 432 98 471T207 510H291Q360 510 399 471T438 362V235Q438 220 424 220H141Q131 220 131 211V150Q131 63 215 63H419Q433 63 433 49V13Q433 0 419 0ZM141 273H357Q367 273 367 283V360Q367 446 283 446H215Q131 446 131 360V283Q131 273 141 273Z" />
<glyph unicode="&#xeb;" glyph-name="edieresis" horiz-adv-x="492" d="M131 588V689Q131 703 144 703H187Q200 703 200 690V588Q200 574 187 574H144Q131 574 131 588ZM302 588V689Q302 703 315 703H358Q371 703 371 690V588Q371 574 358 574H315Q302 574 302
588ZM419 0H207Q138 0 99 39T59 148V362Q59 432 98 471T207 510H291Q360 510 399 471T438 362V235Q438 220 424 220H141Q131 220 131 211V150Q131 63 215 63H419Q433 63 433 49V13Q433 0 419 0ZM141 273H357Q367 273 367 283V360Q367 446 283 446H215Q131 446 131
360V283Q131 273 141 273Z" />
<glyph unicode="&#xec;" glyph-name="igrave" horiz-adv-x="221" d="M126 574H93Q82 574 74 584L-13 689Q-17 695 -15 699T-7 703H53Q68 703 75 690L133 588Q141 574 126 574ZM74 14V496Q74 510 87 510H133Q147 510 147 496V14Q147 0 133 0H88Q74 0 74 14Z" />
<glyph unicode="&#xed;" glyph-name="iacute" horiz-adv-x="220" d="M167 703H226Q233 703 235 699T233 689L146 584Q138 574 126 574H93Q79 574 87 588L145 690Q152 703 167 703ZM74 14V496Q74 510 87 510H133Q147 510 147 496V14Q147 0 133 0H88Q74 0 74 14Z" />
<glyph unicode="&#xee;" glyph-name="icircumflex" horiz-adv-x="220" d="M206 574H171Q161 574 158 582L110 670L63 582Q59 574 49 574H15Q2 574 9 586L73 693Q80 703 93 703H127Q141 703 148 693L211 586Q218 574 206 574ZM74 14V496Q74 510 87 510H133Q147
510 147 496V14Q147 0 133 0H88Q74 0 74 14Z" />
<glyph unicode="&#xef;" glyph-name="idieresis" horiz-adv-x="220" d="M-10 588V689Q-10 703 3 703H46Q59 703 59 690V588Q59 574 46 574H3Q-10 574 -10 588ZM161 588V689Q161 703 174 703H217Q230 703 230 690V588Q230 574 217 574H174Q161 574 161 588ZM74
14V496Q74 510 87 510H133Q147 510 147 496V14Q147 0 133 0H88Q74 0 74 14Z" />
<glyph unicode="&#xf0;" glyph-name="eth" horiz-adv-x="494" d="M434 336V148Q434 78 395 39T287 0H207Q138 0 99 39T59 148V262Q59 332 98 371T207 410H259Q297 410 325 396T365 357H369Q366 395 340 427L241 538L147 460Q137 453 128 462L112 482Q104 491 114
501L205 578L132 660Q120 674 134 685L156 701Q168 711 179 698L252 618L348 699Q361 707 368 698L384 678Q392 666 383 657L288 578L393 461Q434 416 434 336ZM361 151V254Q361 346 272 346H219Q177 346 155 324T132 259V151Q132 64 215 64H277Q361 64 361 151Z"
/>
<glyph unicode="&#xf1;" glyph-name="ntilde" horiz-adv-x="512" d="M144 653V691Q144 702 153 702H174Q183 702 183 691V665Q183 637 188 627T205 617T224 625T243 660T268 696T308 705Q364 705 364 628V588Q364 577 356 577H335Q325 577 325 588V615Q325 644
320 654T305 664T291 663T283 656T276 646T265 618T242 586T200 576Q144 576 144 653ZM128 0H83Q69 0 69 14V496Q69 510 83 510H128Q142 510 142 496V457H146Q171 510 248 510H304Q372 510 410 471T448 362V14Q448 0 434 0H389Q375 0 375 14V359Q375 446 291 446H235Q190
446 166 422T142 354V14Q142 0 128 0Z" />
<glyph unicode="&#xf2;" glyph-name="ograve" horiz-adv-x="500" d="M270 574H237Q227 574 217 584L130 689Q126 695 128 699T137 703H197Q212 703 219 690L276 588Q284 574 270 574ZM293 0H207Q138 0 99 39T59 148V362Q59 432 98 471T207 510H293Q362 510 401
471T441 362V148Q441 78 402 39T293 0ZM215 64H285Q369 64 369 150V360Q369 446 285 446H215Q131 446 131 360V150Q131 64 215 64Z" />
<glyph unicode="&#xf3;" glyph-name="oacute" horiz-adv-x="500" d="M305 703H366Q372 703 374 699T372 689L285 584Q275 574 265 574H232Q218 574 226 588L284 690Q291 703 305 703ZM293 0H207Q138 0 99 39T59 148V362Q59 432 98 471T207 510H293Q362 510 401
471T441 362V148Q441 78 402 39T293 0ZM215 64H285Q369 64 369 150V360Q369 446 285 446H215Q131 446 131 360V150Q131 64 215 64Z" />
<glyph unicode="&#xf4;" glyph-name="ocircumflex" horiz-adv-x="500" d="M345 574H311Q301 574 297 582L250 670L202 582Q199 574 188 574H155Q142 574 149 586L212 693Q219 703 233 703H267Q280 703 287 693L350 586Q357 574 345 574ZM293 0H207Q138 0 99 39T59
148V362Q59 432 98 471T207 510H293Q362 510 401 471T441 362V148Q441 78 402 39T293 0ZM215 64H285Q369 64 369 150V360Q369 446 285 446H215Q131 446 131 360V150Q131 64 215 64Z" />
<glyph unicode="&#xf5;" glyph-name="otilde" horiz-adv-x="500" d="M136 653V691Q136 702 145 702H166Q175 702 175 691V665Q175 637 180 627T197 617T216 625T235 660T260 696T300 705Q356 705 356 628V588Q356 577 348 577H327Q317 577 317 588V615Q317 644
312 654T297 664T283 663T275 656T268 646T257 618T234 586T192 576Q136 576 136 653ZM293 0H207Q138 0 99 39T59 148V362Q59 432 98 471T207 510H293Q362 510 401 471T441 362V148Q441 78 402 39T293 0ZM215 64H285Q369 64 369 150V360Q369 446 285 446H215Q131
446 131 360V150Q131 64 215 64Z" />
<glyph unicode="&#xf6;" glyph-name="odieresis" horiz-adv-x="500" d="M130 588V689Q130 703 143 703H186Q199 703 199 690V588Q199 574 186 574H143Q130 574 130 588ZM301 588V689Q301 703 314 703H357Q370 703 370 690V588Q370 574 357 574H314Q301 574 301
588ZM293 0H207Q138 0 99 39T59 148V362Q59 432 98 471T207 510H293Q362 510 401 471T441 362V148Q441 78 402 39T293 0ZM215 64H285Q369 64 369 150V360Q369 446 285 446H215Q131 446 131 360V150Q131 64 215 64Z" />
<glyph unicode="&#xf7;" glyph-name="divide" horiz-adv-x="496" d="M221 151V208Q221 222 235 222H262Q276 222 276 208V151Q276 137 262 137H235Q221 137 221 151ZM409 294H88Q73 294 73 308V334Q73 347 88 347H409Q423 347 423 334V308Q423 294 409 294ZM221
433V491Q221 505 235 505H262Q276 505 276 491V433Q276 419 262 419H235Q221 419 221 433Z" />
<glyph unicode="&#xf8;" glyph-name="oslash" horiz-adv-x="521" d="M452 362V148Q452 79 413 40T304 0H217Q133 0 94 56L60 22Q49 12 40 22L28 34Q18 44 28 54L75 101Q69 122 69 148V362Q69 431 108 470T217 510H304Q388 510 427 453L461 487Q471 498 481 488L493
476Q503 466 493 456L446 409Q452 388 452 362ZM142 359V168L372 398Q357 446 295 446H226Q142 446 142 359ZM378 151V341L148 110Q165 64 226 64H295Q378 64 378 151Z" />
<glyph unicode="&#xf9;" glyph-name="ugrave" horiz-adv-x="512" d="M274 574H241Q229 574 221 584L134 689Q130 695 132 699T141 703H201Q216 703 222 690L280 588Q288 574 274 574ZM264 0H208Q140 0 102 39T64 148V496Q64 510 78 510H123Q137 510 137 496V151Q137
64 220 64H277Q322 64 346 88T370 156V496Q370 510 384 510H429Q443 510 443 496V14Q443 0 429 0H384Q370 0 370 14V53H366Q341 0 264 0Z" />
<glyph unicode="&#xfa;" glyph-name="uacute" horiz-adv-x="512" d="M306 703H367Q373 703 375 699T373 689L286 584Q276 574 266 574H233Q219 574 227 588L285 690Q291 703 306 703ZM264 0H208Q140 0 102 39T64 148V496Q64 510 78 510H123Q137 510 137 496V151Q137
64 220 64H277Q322 64 346 88T370 156V496Q370 510 384 510H429Q443 510 443 496V14Q443 0 429 0H384Q370 0 370 14V53H366Q341 0 264 0Z" />
<glyph unicode="&#xfb;" glyph-name="ucircumflex" horiz-adv-x="512" d="M349 574H315Q304 574 301 582L253 670L206 582Q202 574 192 574H158Q146 574 153 586L216 693Q223 703 237 703H270Q284 703 291 693L354 586Q361 574 349 574ZM264 0H208Q140 0 102 39T64
148V496Q64 510 78 510H123Q137 510 137 496V151Q137 64 220 64H277Q322 64 346 88T370 156V496Q370 510 384 510H429Q443 510 443 496V14Q443 0 429 0H384Q370 0 370 14V53H366Q341 0 264 0Z" />
<glyph unicode="&#xfc;" glyph-name="udieresis" horiz-adv-x="512" d="M134 588V689Q134 703 146 703H189Q202 703 202 690V588Q202 574 189 574H146Q134 574 134 588ZM305 588V689Q305 703 317 703H360Q373 703 373 690V588Q373 574 360 574H317Q305 574 305
588ZM264 0H208Q140 0 102 39T64 148V496Q64 510 78 510H123Q137 510 137 496V151Q137 64 220 64H277Q322 64 346 88T370 156V496Q370 510 384 510H429Q443 510 443 496V14Q443 0 429 0H384Q370 0 370 14V53H366Q341 0 264 0Z" />
<glyph unicode="&#xfd;" glyph-name="yacute" horiz-adv-x="463" d="M287 703H347Q354 703 356 699T354 689L266 584Q258 574 246 574H214Q201 574 207 588L265 690Q272 703 287 703ZM110 -157H66Q52 -157 52 -143V-106Q52 -92 66 -92H91Q155 -92 181 -56Q202
-27 219 27H190Q178 27 173 41L26 496Q22 510 36 510H84Q97 510 101 496L230 84H234L363 496Q366 510 379 510H425Q442 510 437 495L288 20Q263 -65 225 -111T110 -157Z" />
<glyph unicode="&#xfe;" glyph-name="thorn" horiz-adv-x="514" d="M238 64H298Q382 64 382 151V359Q382 446 298 446H238Q193 446 169 422T145 354V156Q145 112 169 88T238 64ZM145 53V-119Q145 -133 131 -133H86Q72 -133 72 -119V689Q72 703 86 703H131Q145
703 145 689V457H149Q174 510 251 510H307Q376 510 415 471T455 362V148Q455 79 416 40T307 0H251Q174 0 149 53H145Z" />
<glyph unicode="&#xff;" glyph-name="ydieresis" horiz-adv-x="463" d="M112 588V689Q112 703 125 703H168Q181 703 181 690V588Q181 574 168 574H125Q112 574 112 588ZM283 588V689Q283 703 296 703H339Q352 703 352 690V588Q352 574 339 574H296Q283 574 283
588ZM110 -157H66Q52 -157 52 -143V-106Q52 -92 66 -92H91Q155 -92 181 -56Q202 -27 219 27H190Q178 27 173 41L26 496Q22 510 36 510H84Q97 510 101 496L230 84H234L363 496Q366 510 379 510H425Q442 510 437 495L288 20Q263 -65 225 -111T110 -157Z" />
<glyph unicode="&#x2013;" glyph-name="endash" horiz-adv-x="405" d="M351 296H54Q40 296 40 310V336Q40 350 54 350H351Q365 350 365 336V310Q365 296 351 296Z" />
<glyph unicode="&#x2014;" glyph-name="emdash" horiz-adv-x="565" d="M40 310V336Q40 350 54 350H511Q525 350 525 336V310Q525 296 511 296H54Q40 296 40 310Z" />
<glyph unicode="&#x2018;" glyph-name="quoteleft" horiz-adv-x="181" d="M55 418V475Q55 496 70 541L103 635Q108 643 115 643Q125 643 125 631V418Q125 405 112 405H69Q55 405 55 418Z" />
<glyph unicode="&#x2019;" glyph-name="quoteright" horiz-adv-x="181" d="M125 630V572Q125 549 111 507L77 412Q74 405 66 405Q55 405 55 417V629Q55 643 69 643H112Q125 643 125 630Z" />
<glyph unicode="&#x201a;" glyph-name="quotesinglbase" horiz-adv-x="187" d="M129 118V61Q129 40 114 -5L81 -99Q76 -107 69 -107Q59 -107 59 -95V118Q59 131 72 131H115Q129 131 129 118Z" />
<glyph unicode="&#x201c;" glyph-name="quotedblleft" horiz-adv-x="334" d="M209 418V475Q209 501 224 541L257 635Q260 643 268 643Q279 643 279 631V418Q279 405 266 405H222Q209 405 209 418ZM55 418V475Q55 496 70 541L103 635Q108 643 115 643Q125 643 125
631V418Q125 405 112 405H69Q55 405 55 418Z" />
<glyph unicode="&#x201d;" glyph-name="quotedblright" horiz-adv-x="334" d="M125 630V572Q125 549 111 507L77 412Q74 405 66 405Q55 405 55 417V629Q55 643 69 643H112Q125 643 125 630ZM279 630V572Q279 547 264 507L231 412Q228 405 219 405T209 417V629Q209
643 222 643H266Q279 643 279 630Z" />
<glyph unicode="&#x201e;" glyph-name="quotedblbase" horiz-adv-x="341" d="M129 118V60Q129 40 114 -5L81 -100Q77 -107 68 -107T59 -95V117Q59 131 72 131H115Q129 131 129 118ZM282 118V60Q282 37 268 -5L234 -100Q231 -107 223 -107Q212 -107 212 -95V117Q212
131 226 131H269Q282 131 282 118Z" />
<glyph unicode="&#x2022;" glyph-name="bullet" horiz-adv-x="279" d="M197 372V267Q197 231 161 231H118Q82 231 82 267V372Q82 408 118 408H161Q197 408 197 372Z" />
<glyph unicode="&#x2039;" glyph-name="guilsinglleft" horiz-adv-x="287" d="M228 132V96Q228 87 224 85T213 88L73 216Q59 227 59 243V269Q59 283 73 295L213 423Q220 429 224 427T228 416V379Q228 368 217 359L107 256L217 153Q228 143 228 132Z" />
<glyph unicode="&#x203a;" glyph-name="guilsinglright" horiz-adv-x="287" d="M59 379V416Q59 424 63 426T74 423L214 295Q228 283 228 269V243Q228 227 214 216L74 88Q67 82 63 84T59 96V132Q59 143 70 153L181 256L70 359Q59 368 59 379Z" />
</font>
</defs>
</svg>
