<?xml version="1.0" standalone="no"?>
<!DOCTYPE svg PUBLIC "-//W3C//DTD SVG 1.1//EN" "http://www.w3.org/Graphics/SVG/1.1/DTD/svg11.dtd">
<svg xmlns="http://www.w3.org/2000/svg">
<defs >
<font id="Rajdhani" horiz-adv-x="487" ><font-face
    font-family="Rajdhani SemiBold"
    units-per-em="1000"
    panose-1="2 0 0 0 0 0 0 0 0 0"
    ascent="930"
    descent="-346"
    alphabetic="0" />
<glyph unicode=" " glyph-name="space" horiz-adv-x="238" />
<glyph unicode="!" glyph-name="exclam" horiz-adv-x="238" d="M65 492V626Q65 643 82 643H155Q172 643 172 626V492Q172 374 157 239Q154 221 139 221H98Q83 221 80 239Q65 374 65 492ZM169 139V17Q169 0 153 0H86Q70 0 70 18V139Q70 155 86 155H153Q169 155 169 139Z" />
<glyph unicode="&quot;" glyph-name="quotedbl" horiz-adv-x="344" d="M97 422H85Q70 422 68 441L47 627Q46 643 62 643H121Q137 643 136 627L116 440Q111 422 97 422ZM258 422H247Q230 422 230 441L209 627Q206 643 224 643H283Q300 643 297 627L277 440Q274
422 258 422Z" />
<glyph unicode="#" glyph-name="numbersign" horiz-adv-x="672" d="M613 493Q630 493 630 476V431Q630 413 613 413H514L467 230H557Q574 230 574 212V167Q574 150 557 150H446L412 18Q408 0 393 0H346Q328 0 332 20L366 150H224L190 18Q184 0 168 0H123Q104 0
110 20L144 150H60Q43 150 43 167V212Q43 230 60 230H164L211 413H116Q98 413 98 431V476Q98 493 116 493H232L266 625Q269 643 285 643H331Q351 643 345 623L312 493H454L488 625Q492 643 510 643H553Q572 643 568 623L534 493H613ZM386 230L433 413H291L244 230H386Z"
/>
<glyph unicode="$" glyph-name="dollar" horiz-adv-x="518" d="M288 -98H242Q225 -98 225 -81V0H208Q137 0 96 41T55 156V179Q55 197 73 197H136Q153 197 153 179V164Q153 122 172 104T234 85H286Q328 85 347 104T366 168V200Q366 242 340 257T262 276Q188 279
159 287T106 312Q55 347 55 441V488Q55 561 95 602T208 644H225V726Q225 743 242 743H288Q305 743 305 726V644H310Q378 644 417 602T457 488V466Q457 448 440 448H377Q359 448 359 466V479Q359 521 341 539T279 558H233Q189 558 171 539T153 472V438Q153 400 178
385T257 367L308 365Q378 361 421 326T464 204V156Q464 83 423 42T310 0H305V-81Q305 -98 288 -98Z" />
<glyph unicode="%" glyph-name="percent" horiz-adv-x="732" d="M560 244H540Q509 244 498 232T487 189V114Q487 83 498 71T540 58H560Q590 58 601 70T613 114V189Q613 220 602 232T560 244ZM526 302H572Q681 302 681 192V110Q681 0 572 0H526Q417 0 417 110V192Q417
302 526 302ZM193 587H172Q142 587 131 575T119 532V456Q119 425 130 413T172 401H193Q223 401 234 413T245 456V532Q245 562 234 574T193 587ZM159 645H205Q314 645 314 535V453Q314 343 205 343H159Q50 343 50 453V535Q50 645 159 645ZM255 0H216Q198 0 204 18Q227
78 329 324T453 625Q461 643 475 643H515Q534 643 527 624L278 18Q272 0 255 0Z" />
<glyph unicode="&amp;" glyph-name="ampersand" horiz-adv-x="610" d="M220 86H275Q331 86 338 137L203 294Q145 291 145 216V159Q145 86 220 86ZM275 0H206Q133 0 92 40T51 153V222Q51 272 77 310T153 352Q112 405 112 469V490Q112 562 155 602T273 643H303Q376
643 417 603T458 490V451Q458 433 441 433H378Q361 433 361 451V488Q361 560 294 560H282Q212 560 212 488V467Q212 422 256 373L309 312H538Q555 312 555 294V243Q555 226 538 226H381L560 14Q564 10 563 5T555 0H475Q455 0 446 12L397 70Q374 0 275 0Z" />
<glyph unicode="&apos;" glyph-name="quotesingle" horiz-adv-x="187" d="M100 447H87Q70 447 69 463L50 605Q47 619 65 619H122Q131 619 134 616T137 605L118 462Q115 447 100 447Z" />
<glyph unicode="(" glyph-name="parenleft" horiz-adv-x="297" d="M223 572H219Q129 572 129 458V83Q129 -31 221 -31H223Q239 -31 239 -46V-89Q239 -97 236 -99T223 -102H219Q139 -102 94 -54T48 94V448Q48 546 94 594T220 643H223Q233 643 236 641T239 630V587Q239
572 223 572Z" />
<glyph unicode=")" glyph-name="parenright" horiz-adv-x="297" d="M48 -89V-46Q48 -31 64 -31H66Q110 -31 134 -3T158 83V458Q158 515 134 543T66 572H64Q48 572 48 587V630Q48 643 64 643H66Q146 643 192 595T239 448V94Q239 -5 193 -53T66 -102H64Q48 -102 48 -89Z" />
<glyph unicode="*" glyph-name="asterisk" horiz-adv-x="401" d="M163 616V627Q163 643 180 643H219Q235 643 235 627V616Q235 560 201 492Q202 492 208 499T223 514T244 533Q273 556 307 566L319 570Q334 574 339 559L351 522Q356 505 340 501Q283 480 201 492Q204
492 230 478Q286 445 311 404Q322 391 308 382L276 359Q261 351 253 363Q215 407 201 492Q190 412 159 369L152 359Q143 347 129 357L98 380Q82 389 94 403Q129 455 201 492Q117 477 72 493L60 497Q45 503 51 518L63 556Q68 572 84 565Q141 552 201 492Q163 568
163 616Z" />
<glyph unicode="+" glyph-name="plus" horiz-adv-x="549" d="M317 362H460Q479 362 479 342V300Q479 281 460 281H317V136Q317 116 297 116H252Q233 116 233 136V281H89Q70 281 70 300V342Q70 362 89 362H233V506Q233 526 252 526H297Q317 526 317 506V362Z" />
<glyph unicode="," glyph-name="comma" horiz-adv-x="199" d="M150 139V61Q150 37 131 1L78 -96Q74 -105 63 -105Q49 -105 49 -89V139Q49 155 66 155H134Q150 155 150 139Z" />
<glyph unicode="-" glyph-name="hyphen" horiz-adv-x="312" d="M255 279H57Q40 279 40 297V341Q40 359 57 359H255Q272 359 272 341V297Q272 279 255 279Z" />
<glyph unicode="." glyph-name="period" horiz-adv-x="199" d="M150 139V17Q150 0 134 0H66Q49 0 49 17V139Q49 155 66 155H134Q150 155 150 139Z" />
<glyph unicode="/" glyph-name="slash" horiz-adv-x="404" d="M114 0H57Q36 0 43 18Q65 74 155 320T268 625Q276 643 291 643H349Q368 643 362 624L137 18Q131 0 114 0Z" />
<glyph unicode="0" glyph-name="zero" horiz-adv-x="528" d="M229 85H300Q372 85 372 159V484Q372 558 300 558H229Q157 558 157 484V159Q157 85 229 85ZM314 0H214Q140 0 99 41T58 155V488Q58 562 99 602T214 643H314Q387 643 428 603T469 488V155Q469 82 428 41T314 0Z" />
<glyph unicode="1" glyph-name="one" horiz-adv-x="327" d="M28 486V545Q28 561 42 569L146 632Q165 643 178 643H238Q255 643 255 626V17Q255 0 239 0H174Q157 0 157 17V539L48 476Q28 467 28 486Z" />
<glyph unicode="2" glyph-name="two" d="M52 17V109Q52 171 105 213L294 367Q342 405 342 455V488Q342 560 267 560H218Q180 560 163 543T146 488V451Q146 433 129 433H65Q48 433 48 451V490Q48 563 89 603T204 643H282Q355 643 396 603T437 490V449Q437 371 376
321L184 164Q161 145 161 119V87H421Q439 87 439 70V17Q439 0 421 0H70Q52 0 52 17Z" />
<glyph unicode="3" glyph-name="three" horiz-adv-x="504" d="M221 363H276Q350 363 350 436V488Q350 560 276 560H217Q180 560 163 543T145 488V459Q145 442 128 442H64Q47 442 47 459V490Q47 563 88 603T203 643H290Q364 643 405 603T446 490V435Q446 347 366
323Q446 304 446 211V153Q446 80 405 40T290 0H203Q129 0 88 40T47 153V188Q47 206 64 206H128Q145 206 145 188V155Q145 118 162 101T217 83H276Q350 83 350 155V210Q350 283 276 283H221Q204 283 204 300V345Q204 363 221 363Z" />
<glyph unicode="4" glyph-name="four" horiz-adv-x="533" d="M331 208V562L134 208H331ZM407 0H348Q331 0 331 17V122H67Q38 122 38 151V182Q38 204 47 221L270 618Q278 633 285 638T306 643H394Q423 643 423 614V208H496Q513 208 513 191V141Q513 122 496 122H423V17Q423
0 407 0Z" />
<glyph unicode="5" glyph-name="five" horiz-adv-x="497" d="M276 340H214Q195 340 183 333T166 318Q155 295 139 295H76Q59 295 59 312V626Q59 643 76 643H415Q433 643 433 626V569Q433 552 415 552H157V370Q174 419 241 419H300Q372 419 410 382T448 271V155Q448
82 407 41T293 0H208Q134 0 94 41T53 155V181Q53 199 70 199H133Q150 199 150 181V156Q150 83 222 83H279Q353 83 353 156V257Q353 302 336 321T276 340Z" />
<glyph unicode="6" glyph-name="six" horiz-adv-x="515" d="M224 85H292Q364 85 364 159V239Q364 313 292 313H152V159Q152 85 224 85ZM306 0H210Q136 0 95 41T54 155V488Q54 562 95 602T210 643H409Q426 643 426 626V574Q426 558 409 558H224Q152 558 152 484V398H306Q380
398 421 358T462 243V155Q462 82 421 41T306 0Z" />
<glyph unicode="7" glyph-name="seven" horiz-adv-x="412" d="M151 0H82Q63 0 73 19L287 553H35Q18 553 18 571V626Q18 643 35 643H374Q392 643 392 626V564Q392 548 381 522L179 16Q173 0 151 0Z" />
<glyph unicode="8" glyph-name="eight" horiz-adv-x="533" d="M227 85H306Q343 85 360 102T378 156V210Q378 285 306 285H227Q155 285 155 210V156Q155 119 172 102T227 85ZM227 363H306Q378 363 378 438V487Q378 524 361 541T306 558H227Q190 558 173 541T155
487V438Q155 363 227 363ZM320 0H214Q140 0 99 38T58 149V203Q58 295 127 323Q58 351 58 444V495Q58 567 99 605T214 643H320Q394 643 434 605T475 495V444Q475 398 457 366T407 323Q475 296 475 202V149Q475 76 435 38T320 0Z" />
<glyph unicode="9" glyph-name="nine" horiz-adv-x="515" d="M219 326H359V484Q359 558 286 558H219Q147 558 147 484V399Q147 326 219 326ZM300 0H97Q78 0 78 17V69Q78 85 97 85H286Q358 85 358 159V240H204Q130 240 89 280T48 394V488Q48 562 89 602T204 643H300Q374
643 415 603T456 488V155Q456 82 415 41T300 0Z" />
<glyph unicode=":" glyph-name="colon" horiz-adv-x="199" d="M150 494V372Q150 355 134 355H66Q49 355 49 374V493Q49 510 66 510H134Q150 510 150 494ZM150 139V17Q150 0 134 0H66Q49 0 49 18V139Q49 155 66 155H134Q150 155 150 139Z" />
<glyph unicode=";" glyph-name="semicolon" horiz-adv-x="199" d="M150 139V61Q150 37 131 1L78 -96Q74 -105 63 -105Q49 -105 49 -89V139Q49 155 66 155H134Q150 155 150 139ZM150 494V372Q150 355 134 355H66Q49 355 49 374V493Q49 510 66 510H134Q150 510 150 494Z" />
<glyph unicode="&lt;" glyph-name="less" horiz-adv-x="544" d="M477 493V443Q477 424 461 420L149 325L461 231Q477 227 477 208V158Q477 138 457 146L89 272Q68 279 68 303V347Q68 371 89 378L457 505Q477 513 477 493Z" />
<glyph unicode="=" glyph-name="equal" horiz-adv-x="554" d="M91 456H463Q481 456 481 437V396Q481 377 463 377H91Q80 377 76 381T72 396V437Q72 448 76 452T91 456ZM91 266H463Q481 266 481 247V206Q481 186 463 186H91Q72 186 72 206V247Q72 266 91 266Z" />
<glyph unicode="&gt;" glyph-name="greater" horiz-adv-x="554" d="M72 443V493Q72 513 92 505L460 378Q481 371 481 347V303Q481 279 460 272L92 146Q72 138 72 158V208Q72 227 88 231L399 325L88 420Q72 424 72 443Z" />
<glyph unicode="?" glyph-name="question" horiz-adv-x="469" d="M282 139V17Q282 0 266 0H198Q181 0 181 18V139Q181 155 198 155H266Q282 155 282 139ZM281 268V238Q281 221 263 221H204Q187 221 187 238V267Q187 304 198 325T238 370L287 411Q322 439 322 473V487Q322
559 247 559H220Q183 559 166 542T149 487V458Q149 440 131 440H68Q51 440 51 458V489Q51 562 92 602T206 642H262Q335 642 376 602T417 489V468Q417 418 372 378L312 330Q292 313 287 301T281 268Z" />
<glyph unicode="@" glyph-name="at" horiz-adv-x="749" d="M500 -58H320Q213 -58 140 8T67 184V357Q67 464 136 533T308 603H509Q588 603 638 556T688 435V216Q688 157 651 120T554 83H507Q484 83 468 94T452 127V138H448Q424 84 346 84Q285 84 248 123T210 233V305Q210
378 249 419T353 460H515Q532 460 532 443V154Q532 143 549 143H550Q628 143 628 223V430Q628 484 593 514T503 544H313Q229 544 178 493T126 352V193Q126 104 180 53T319 1H500Q517 1 517 -16V-41Q517 -58 500 -58ZM452 242V374Q452 385 441 385H368Q296 385 296
311V231Q296 158 368 158H370Q452 158 452 242Z" />
<glyph unicode="A" glyph-name="A" horiz-adv-x="548" d="M108 0H36Q22 0 26 17L200 626Q205 643 224 643H324Q344 643 348 626L522 17Q526 0 511 0H440Q431 0 428 3T422 17L384 147H164L126 17Q122 0 108 0ZM272 547L184 227H365L276 547H272Z" />
<glyph unicode="B" glyph-name="B" horiz-adv-x="552" d="M181 83H321Q396 83 396 155V217Q396 289 317 289H181Q170 289 170 279V93Q170 83 181 83ZM181 369H311Q387 369 387 442V488Q387 560 313 560H181Q170 560 170 550V379Q170 369 181 369ZM73 17V626Q73
643 90 643H327Q401 643 442 603T483 490V441Q483 354 401 329Q440 324 465 295T491 217V153Q491 80 450 40T336 0H90Q73 0 73 17Z" />
<glyph unicode="C" glyph-name="C" horiz-adv-x="540" d="M334 0H218Q144 0 104 41T63 155V488Q63 562 103 602T218 643H334Q407 643 448 603T489 488V440Q489 422 471 422H408Q391 422 391 440V484Q391 558 319 558H232Q160 558 160 484V159Q160 85 232 85H319Q391
85 391 159V203Q391 221 408 221H471Q489 221 489 203V155Q489 82 448 41T334 0Z" />
<glyph unicode="D" glyph-name="D" horiz-adv-x="555" d="M181 85H322Q394 85 394 159V484Q394 558 322 558H181Q170 558 170 548V96Q170 85 181 85ZM73 17V626Q73 643 90 643H336Q409 643 450 603T492 488V155Q492 82 451 41T336 0H90Q73 0 73 17Z" />
<glyph unicode="E" glyph-name="E" horiz-adv-x="480" d="M410 0H90Q73 0 73 17V626Q73 643 90 643H410Q426 643 426 626V575Q426 558 410 558H182Q170 558 170 548V379Q170 369 182 369H375Q393 369 393 352V301Q393 284 375 284H182Q170 284 170 274V96Q170
85 182 85H410Q426 85 426 68V17Q426 0 410 0Z" />
<glyph unicode="F" glyph-name="F" horiz-adv-x="454" d="M153 0H90Q73 0 73 17V626Q73 643 90 643H404Q421 643 421 626V575Q421 558 404 558H182Q170 558 170 548V359Q170 348 182 348H375Q393 348 393 331V281Q393 263 375 263H182Q170 263 170 253V17Q170 0 153 0Z" />
<glyph unicode="G" glyph-name="G" horiz-adv-x="543" d="M325 0H218Q144 0 104 41T63 155V488Q63 562 103 602T218 643H325Q399 643 439 603T480 488V452Q480 434 463 434H400Q383 434 383 452V484Q383 558 311 558H232Q160 558 160 484V159Q160 85 232 85H311Q383
85 383 159V249Q383 259 372 259H291Q274 259 274 276V327Q274 344 291 344H459Q480 344 480 323V155Q480 82 439 41T325 0Z" />
<glyph unicode="H" glyph-name="H" horiz-adv-x="574" d="M153 0H90Q73 0 73 17V626Q73 643 90 643H153Q170 643 170 626V376Q170 366 182 366H393Q403 366 403 376V626Q403 643 420 643H484Q501 643 501 626V17Q501 0 484 0H420Q403 0 403 17V270Q403 280 393
280H182Q170 280 170 270V17Q170 0 153 0Z" />
<glyph unicode="I" glyph-name="I" horiz-adv-x="253" d="M175 626V17Q175 0 158 0H95Q78 0 78 17V626Q78 643 95 643H158Q175 643 175 626Z" />
<glyph unicode="J" glyph-name="J" horiz-adv-x="513" d="M365 643H428Q445 643 445 627V155Q445 82 404 41T290 0H190Q116 0 75 41T34 155V245Q34 262 52 262H115Q132 262 132 245V159Q132 85 204 85H275Q347 85 347 159V626Q347 643 365 643Z" />
<glyph unicode="K" glyph-name="K" horiz-adv-x="548" d="M153 0H90Q73 0 73 17V626Q73 643 90 643H153Q170 643 170 626V309H173Q183 336 199 359L390 626Q401 643 422 643H496Q517 643 503 624L308 359L528 20Q540 0 516 0H460Q433 0 422 17L249 288L170 195V17Q170
0 153 0Z" />
<glyph unicode="L" glyph-name="L" horiz-adv-x="450" d="M414 0H90Q73 0 73 17V626Q73 643 90 643H153Q170 643 170 626V97Q170 87 182 87H414Q431 87 431 69V17Q431 0 414 0Z" />
<glyph unicode="M" glyph-name="M" horiz-adv-x="715" d="M513 643H625Q642 643 642 626V17Q642 0 625 0H563Q546 0 546 17V522H542L412 156Q406 140 390 140H326Q311 140 305 156L172 523H168V17Q168 7 165 4T151 0H90Q73 0 73 17V626Q73 643 90 643H202Q213
643 218 632L355 246H360L498 632Q500 643 513 643Z" />
<glyph unicode="N" glyph-name="N" horiz-adv-x="583" d="M152 0H90Q73 0 73 17V626Q73 643 90 643H146Q162 643 168 632L410 197H414V626Q414 643 431 643H493Q510 643 510 626V17Q510 0 493 0H439Q423 0 413 16L173 446H169V17Q169 0 152 0Z" />
<glyph unicode="O" glyph-name="O" horiz-adv-x="552" d="M232 85H319Q392 85 392 159V484Q392 558 319 558H232Q160 558 160 484V159Q160 85 232 85ZM334 0H218Q144 0 104 41T63 155V488Q63 562 103 602T218 643H334Q408 643 449 603T490 488V155Q490 82 449 41T334 0Z" />
<glyph unicode="P" glyph-name="P" horiz-adv-x="528" d="M153 0H90Q73 0 73 17V626Q73 643 90 643H328Q401 643 442 603T483 488V384Q483 311 442 270T328 229H182Q170 229 170 219V17Q170 0 153 0ZM181 315H314Q385 315 385 389V484Q385 558 314 558H181Q170
558 170 548V325Q170 315 181 315Z" />
<glyph unicode="Q" glyph-name="Q" horiz-adv-x="564" d="M239 85H326Q398 85 398 159V484Q398 558 326 558H239Q167 558 167 484V159Q167 85 239 85ZM426 -133H370Q348 -133 338 -116L270 0H224Q150 0 109 41T68 155V488Q68 562 109 602T224 643H340Q414 643
454 603T495 488V155Q495 90 463 51T371 3L438 -112Q443 -122 439 -127T426 -133Z" />
<glyph unicode="R" glyph-name="R" horiz-adv-x="542" d="M153 0H90Q73 0 73 17V626Q73 643 90 643H324Q397 643 438 602T480 487V403Q480 288 385 258V254L496 20Q507 0 483 0H421Q397 0 390 17L283 247H182Q170 247 170 237V17Q170 0 153 0ZM181 327H308Q382
327 382 400V484Q382 558 308 558H181Q170 558 170 548V337Q170 327 181 327Z" />
<glyph unicode="S" glyph-name="S" horiz-adv-x="548" d="M61 156V182Q61 199 78 199H142Q159 199 159 182V164Q159 122 177 104T239 85H308Q351 85 370 104T389 168V191Q389 223 365 241T304 265T225 281T146 304T86 353T61 445V487Q61 560 102 601T217 643H323Q397
643 438 602T480 487V465Q480 448 463 448H399Q382 448 382 465V478Q382 521 364 539T302 558H239Q196 558 178 539T159 472V441Q159 396 224 380Q253 373 287 368T357 353T421 327T468 277T486 195V156Q486 83 445 42T330 0H218Q145 0 103 41T61 156Z" />
<glyph unicode="T" glyph-name="T" horiz-adv-x="434" d="M249 0H186Q168 0 168 17V548Q168 558 158 558H32Q14 558 14 575V626Q14 643 32 643H403Q421 643 421 626V575Q421 558 403 558H277Q266 558 266 548V17Q266 0 249 0Z" />
<glyph unicode="U" glyph-name="U" horiz-adv-x="557" d="M409 643H472Q490 643 490 627V155Q490 82 449 41T334 0H223Q150 0 109 41T68 155V626Q68 643 85 643H148Q165 643 165 626V159Q165 85 237 85H319Q392 85 392 159V626Q392 643 409 643Z" />
<glyph unicode="V" glyph-name="V" horiz-adv-x="513" d="M307 0H208Q191 0 187 17L21 624Q15 643 36 643H107Q123 643 126 626L255 104H259L387 626Q391 643 407 643H477Q498 643 493 624L326 17Q322 0 307 0Z" />
<glyph unicode="W" glyph-name="W" horiz-adv-x="802" d="M267 0H161Q143 0 140 17L21 626Q19 643 38 643H115Q134 643 135 626L216 102H222L340 628Q342 643 358 643H442Q458 643 461 628L580 102H586L667 625Q668 643 687 643H764Q784 643 781 625L662 17Q659
0 642 0H536Q519 0 516 17L403 523H399L286 17Q283 0 267 0Z" />
<glyph unicode="X" glyph-name="X" horiz-adv-x="526" d="M114 0H40Q32 0 29 5T29 18L194 333L36 625Q32 632 35 637T47 643H118Q138 643 146 626L261 394H265L380 626Q389 643 406 643H480Q488 643 491 637T492 624L332 333L497 19Q501 11 498 6T486 0H411Q395
0 388 16L265 260H261L138 16Q131 0 114 0Z" />
<glyph unicode="Y" glyph-name="Y" horiz-adv-x="508" d="M286 0H222Q205 0 205 17V238L18 625Q14 633 18 638T29 643H109Q122 643 129 626L252 351H258L379 626Q385 643 399 643H479Q487 643 490 638T490 625L303 238V17Q303 0 286 0Z" />
<glyph unicode="Z" glyph-name="Z" horiz-adv-x="506" d="M46 17V64Q46 90 55 101L344 548V552H79Q61 552 61 569V626Q61 643 79 643H433Q450 643 450 626V560Q450 538 439 521L161 95V91H443Q460 91 460 75V19Q460 0 443 0H63Q46 0 46 17Z" />
<glyph unicode="[" glyph-name="bracketleft" horiz-adv-x="309" d="M228 -99H88Q72 -99 72 -81V626Q72 643 88 643H228Q245 643 245 626V592Q245 575 228 575H163Q152 575 152 564V-21Q152 -31 163 -31H228Q245 -31 245 -48V-82Q245 -99 228 -99Z" />
<glyph unicode="\" glyph-name="backslash" horiz-adv-x="404" d="M55 643H114Q130 643 137 625Q160 566 250 320T362 18Q369 0 348 0H291Q274 0 268 18L43 624Q36 643 55 643Z" />
<glyph unicode="]" glyph-name="bracketright" horiz-adv-x="309" d="M60 -82V-48Q60 -31 77 -31H142Q153 -31 153 -21V564Q153 575 142 575H77Q60 575 60 592V626Q60 643 77 643H217Q233 643 233 626V-81Q233 -99 217 -99H77Q60 -99 60 -82Z" />
<glyph unicode="^" glyph-name="asciicircum" horiz-adv-x="494" d="M120 363H63Q41 363 51 381L175 618Q183 633 190 638T212 643H281Q296 643 303 638T318 618L442 381Q452 363 430 363H373Q358 363 350 380L246 581L143 380Q134 363 120 363Z" />
<glyph unicode="_" glyph-name="underscore" horiz-adv-x="372" d="M355 -107H17Q0 -107 0 -89V-68Q0 -51 17 -51H355Q372 -51 372 -68V-89Q372 -107 355 -107Z" />
<glyph unicode="`" glyph-name="grave" horiz-adv-x="287" d="M218 574H170Q156 574 147 586L62 686Q57 694 59 698T70 703H149Q166 703 174 687L225 591Q235 574 218 574Z" />
<glyph unicode="a" glyph-name="a" horiz-adv-x="512" d="M247 0H208Q134 0 94 41T53 155V355Q53 429 93 469T208 510H432Q450 510 450 493V17Q450 0 432 0H369Q352 0 352 17V53H348Q324 0 247 0ZM352 170V415Q352 425 341 425H222Q150 425 150 351V159Q150 85
222 85H270Q352 85 352 170Z" />
<glyph unicode="b" glyph-name="b" horiz-adv-x="518" d="M171 85H295Q367 85 367 159V355Q367 429 295 429H242Q160 429 160 345V96Q160 85 171 85ZM63 17V686Q63 703 80 703H143Q160 703 160 686V460H164Q189 514 265 514H309Q383 514 424 474T465 360V155Q465
82 424 41T309 0H80Q63 0 63 17Z" />
<glyph unicode="c" glyph-name="c" horiz-adv-x="405" d="M373 68V16Q373 0 355 0H208Q134 0 94 41T53 155V355Q53 429 93 469T208 510H355Q373 510 373 493V441Q373 425 355 425H222Q150 425 150 351V159Q150 85 222 85H355Q373 85 373 68Z" />
<glyph unicode="d" glyph-name="d" horiz-adv-x="518" d="M253 0H202Q130 0 92 40T53 155V355Q53 430 91 470T202 510H253Q330 510 353 457H357V686Q357 703 374 703H438Q455 703 455 686V17Q455 0 438 0H374Q357 0 357 17V53H353Q330 0 253 0ZM357 170V340Q357
425 275 425H222Q150 425 150 351V159Q150 85 222 85H275Q357 85 357 170Z" />
<glyph unicode="e" glyph-name="e" horiz-adv-x="493" d="M424 0H208Q134 0 94 41T53 155V355Q53 429 93 469T208 510H290Q364 510 405 470T446 355V228Q446 210 428 210H160Q149 210 149 200V157Q149 84 222 84H424Q442 84 442 66V16Q442 0 424 0ZM160 278H339Q349
278 349 288V352Q349 390 332 407T277 425H222Q184 425 167 408T150 352V288Q150 278 160 278Z" />
<glyph unicode="f" glyph-name="f" horiz-adv-x="335" d="M217 510H301Q319 510 319 494V442Q319 425 301 425H217Q207 425 207 415V17Q207 0 189 0H126Q109 0 109 17V415Q109 425 98 425H45Q28 425 28 442V494Q28 503 31 506T45 510H98Q109 510 109 520V549Q109
623 147 663T258 703H302Q319 703 319 687V635Q319 618 302 618H272Q236 618 222 601T207 544V520Q207 510 217 510Z" />
<glyph unicode="g" glyph-name="g" horiz-adv-x="514" d="M249 25H204Q132 25 94 65T55 180V355Q55 429 96 469T210 510H434Q452 510 452 493V-2Q452 -75 411 -115T296 -156H108Q91 -156 91 -140V-88Q91 -71 108 -71H281Q354 -71 354 3V79H350Q325 25 249 25ZM354
195V415Q354 425 343 425H224Q153 425 153 351V185Q153 111 224 111H272Q354 111 354 195Z" />
<glyph unicode="h" glyph-name="h" horiz-adv-x="517" d="M143 0H80Q63 0 63 17V686Q63 703 80 703H143Q160 703 160 686V457H164Q188 510 265 510H309Q382 510 421 470T460 355V17Q460 0 442 0H379Q362 0 362 17V351Q362 425 289 425H242Q160 425 160 340V17Q160
0 143 0Z" />
<glyph unicode="i" glyph-name="i" horiz-adv-x="233" d="M68 595V686Q68 702 84 702H149Q165 702 165 686V595Q165 578 149 578H84Q68 578 68 595ZM68 17V493Q68 510 84 510H148Q165 510 165 493V17Q165 7 162 4T149 0H85Q68 0 68 17Z" />
<glyph unicode="j" glyph-name="j" horiz-adv-x="233" d="M68 595V686Q68 702 84 702H149Q165 702 165 686V595Q165 578 149 578H84Q68 578 68 595ZM9 -156H-44Q-61 -156 -61 -139V-88Q-61 -71 -44 -71H-18Q29 -71 48 -51T68 16V493Q68 510 85 510H148Q165 510
165 493V-1Q165 -74 124 -115T9 -156Z" />
<glyph unicode="k" glyph-name="k" horiz-adv-x="456" d="M353 510H425Q434 510 437 505T435 490L294 266V262L446 20Q451 12 448 6T433 0H368Q345 0 334 17L193 248Q186 261 193 275L324 494Q333 510 353 510ZM143 0H80Q63 0 63 17V686Q63 703 80 703H143Q160
703 160 686V17Q160 0 143 0Z" />
<glyph unicode="l" glyph-name="l" horiz-adv-x="233" d="M148 0H85Q68 0 68 17V686Q68 703 85 703H148Q165 703 165 686V17Q165 0 148 0Z" />
<glyph unicode="m" glyph-name="m" horiz-adv-x="787" d="M143 0H80Q63 0 63 17V493Q63 510 80 510H143Q160 510 160 493V457H164Q193 510 270 510H303Q390 510 427 444Q443 476 476 493T547 510H579Q652 510 690 470T729 355V17Q729 0 712 0H648Q631 0 631 17V351Q631
425 559 425H530Q447 425 447 338V17Q447 0 429 0H366Q349 0 349 17V351Q349 425 277 425H242Q160 425 160 340V17Q160 0 143 0Z" />
<glyph unicode="n" glyph-name="n" horiz-adv-x="517" d="M143 0H80Q63 0 63 17V493Q63 510 80 510H143Q160 510 160 493V457H164Q188 510 265 510H309Q382 510 421 470T460 355V17Q460 0 442 0H379Q362 0 362 17V351Q362 425 289 425H242Q160 425 160 340V17Q160
0 143 0Z" />
<glyph unicode="o" glyph-name="o" horiz-adv-x="504" d="M296 0H208Q134 0 94 41T53 155V355Q53 429 93 469T208 510H296Q369 510 410 470T452 355V155Q452 82 411 41T296 0ZM222 85H283Q355 85 355 158V352Q355 425 283 425H222Q184 425 167 408T150 352V158Q150
120 167 103T222 85Z" />
<glyph unicode="p" glyph-name="p" horiz-adv-x="518" d="M143 -141H80Q63 -141 63 -124V493Q63 510 80 510H143Q160 510 160 493V457H164Q188 510 265 510H316Q388 510 426 470T465 355V155Q465 81 427 41T316 0H265Q188 0 164 53H160V-124Q160 -141 143 -141ZM242
85H295Q367 85 367 159V351Q367 425 295 425H242Q160 425 160 340V170Q160 85 242 85Z" />
<glyph unicode="q" glyph-name="q" horiz-adv-x="512" d="M352 172V415Q352 425 341 425H222Q150 425 150 351V159Q150 85 222 85H268Q352 85 352 172ZM245 0H208Q134 0 94 41T53 155V355Q53 429 93 469T208 510H432Q450 510 450 493V-124Q450 -141 432 -141H369Q352
-141 352 -124V55H348Q321 0 245 0Z" />
<glyph unicode="r" glyph-name="r" horiz-adv-x="335" d="M143 0H80Q63 0 63 17V493Q63 510 80 510H143Q160 510 160 493V455H164Q174 480 202 495T266 510H303Q320 510 320 493V441Q320 422 303 425H243Q160 425 160 334V17Q160 0 143 0Z" />
<glyph unicode="s" glyph-name="s" horiz-adv-x="435" d="M245 0H61Q44 0 44 17V66Q44 82 61 82H229Q294 82 294 127V139Q294 179 247 200L138 252Q87 276 64 305T41 381Q41 510 184 510H350Q366 510 366 493V444Q366 427 350 427H204Q174 427 158 417T142 389V378Q142
346 193 322L303 266Q355 243 374 212T394 130Q394 0 245 0Z" />
<glyph unicode="t" glyph-name="t" horiz-adv-x="351" d="M78 425H30Q20 425 17 428T13 441V493Q13 510 30 510H78Q88 510 88 520V610Q88 627 106 627H169Q186 627 186 610V520Q186 510 197 510H290Q308 510 308 493V441Q308 425 290 425H197Q186 425 186 415V158Q186
85 261 85H300Q318 85 318 68V16Q318 0 300 0H246Q172 0 130 40T88 153V415Q88 425 78 425Z" />
<glyph unicode="u" glyph-name="u" horiz-adv-x="517" d="M252 0H207Q135 0 97 40T58 155V493Q58 510 75 510H138Q155 510 155 493V159Q155 85 227 85H275Q357 85 357 170V493Q357 510 374 510H437Q455 510 455 493V17Q455 0 437 0H374Q357 0 357 17V53H353Q329 0 252 0Z" />
<glyph unicode="v" glyph-name="v" horiz-adv-x="448" d="M31 510H98Q114 510 117 493L221 91H228L330 493Q334 510 351 510H417Q435 510 429 493L294 18Q290 0 272 0H176Q158 0 154 18L19 493Q15 510 31 510Z" />
<glyph unicode="w" glyph-name="w" horiz-adv-x="691" d="M242 0H156Q141 0 136 17L21 493Q17 510 33 510H105Q123 510 125 493L198 115H205L293 493Q296 510 312 510H378Q395 510 399 493L485 115H492L565 493Q568 510 585 510H657Q674 510 669 493L554 17Q551
0 534 0H448Q432 0 428 17L348 388H341L262 17Q259 0 242 0Z" />
<glyph unicode="x" glyph-name="x" horiz-adv-x="443" d="M111 0H35Q13 0 24 17L157 260L27 493Q16 510 36 510H113Q132 510 139 493L220 321H224L300 493Q307 510 325 510H401Q422 510 411 493L285 261L421 17Q431 0 412 0H333Q316 0 309 17L224 194H220L136
17Q129 0 111 0Z" />
<glyph unicode="y" glyph-name="y" horiz-adv-x="467" d="M123 -162H70Q53 -162 53 -145V-94Q53 -76 70 -76H93Q154 -76 177 -52T217 27H177Q162 27 156 44L23 493Q19 510 36 510H103Q119 510 123 493L232 101H236L345 493Q348 510 365 510H429Q448 510 445 492L308
11Q285 -73 243 -117T123 -162Z" />
<glyph unicode="z" glyph-name="z" horiz-adv-x="432" d="M32 17V43Q32 68 46 86L277 421V425H58Q40 425 40 443V493Q40 510 58 510H374Q391 510 391 493V447Q391 423 379 409L160 89V85H383Q401 85 401 67V17Q401 0 383 0H50Q32 0 32 17Z" />
<glyph unicode="{" glyph-name="braceleft" horiz-adv-x="308" d="M231 643H237Q254 643 254 626V589Q254 572 237 572H234Q201 572 188 555T174 498V368Q174 289 115 270Q174 253 174 173V43Q174 4 187 -13T234 -31H237Q254 -31 254 -48V-85Q254 -102 237 -102H231Q95
-102 95 53V166Q95 227 46 227Q28 227 28 245V296Q28 313 46 313Q95 313 95 375V488Q95 643 231 643Z" />
<glyph unicode="|" glyph-name="bar" horiz-adv-x="222" d="M146 626V17Q146 0 128 0H94Q77 0 77 17V626Q77 643 94 643H128Q146 643 146 626Z" />
<glyph unicode="}" glyph-name="braceright" horiz-adv-x="308" d="M188 488V375Q188 313 237 313Q254 313 254 296V245Q254 227 233 227Q188 227 188 166V53Q188 -102 52 -102H46Q28 -102 28 -85V-48Q28 -31 46 -31H49Q82 -31 95 -14T108 43V173Q108 253 167
270Q108 290 108 368V498Q108 537 95 554T49 572H46Q28 572 28 589V626Q28 643 46 643H52Q188 643 188 488Z" />
<glyph unicode="~" glyph-name="asciitilde" horiz-adv-x="549" d="M339 269T271 284T175 300T117 287T82 273Q70 273 70 286V329Q70 349 94 360Q133 375 170 375T273 360T370 344T433 357T467 371Q479 371 479 359V315Q479 295 455 284Q420 269 380 269Z" />
<glyph unicode="&#xa0;" glyph-name="uni00A0" horiz-adv-x="238" />
<glyph unicode="&#xa1;" glyph-name="exclamdown" horiz-adv-x="238" d="M153 488H86Q70 488 70 505V625Q70 643 86 643H153Q169 643 169 626V504Q169 488 153 488ZM98 423H139Q154 423 157 405Q172 255 172 151V17Q172 0 155 0H82Q65 0 65 17V151Q65 255 80 405Q83
423 98 423Z" />
<glyph unicode="&#xa2;" glyph-name="cent" horiz-adv-x="424" d="M281 -93H233Q216 -93 216 -76V0H199Q130 0 92 41T53 155V355Q53 427 91 468T199 510H216V592Q216 609 233 609H281Q297 609 297 593V510H357Q367 510 376 506T386 493V441Q386 425 368 425H222Q150
425 150 351V159Q150 85 222 85H368Q386 85 386 69V17Q386 0 368 0H297V-77Q297 -93 281 -93Z" />
<glyph unicode="&#xa3;" glyph-name="sterling" horiz-adv-x="546" d="M154 81H464Q481 81 481 63V17Q481 0 464 0H46Q28 0 28 17V63Q28 81 46 81H54Q73 81 85 99T98 147V258H46Q28 258 28 276V322Q28 339 46 339H98V490Q98 563 139 603T254 643H319Q392 643 433
603T474 490V464Q474 446 457 446H394Q376 446 376 464V488Q376 526 359 543T304 560H268Q194 560 194 488V339H324Q341 339 341 322V276Q341 258 324 258H194V159Q194 126 182 106T154 85V81Z" />
<glyph unicode="&#xa5;" glyph-name="yen" horiz-adv-x="526" d="M295 0H231Q214 0 214 17V160H61Q42 160 42 178V208Q42 228 61 228H211V245L181 307H61Q42 307 42 325V355Q42 375 61 375H149L26 626Q19 643 37 643H118Q126 643 129 640Q131 637 261 341H265L390
626Q394 636 397 639T409 643H489Q507 643 500 626L378 375H464Q483 375 483 355V325Q483 315 479 311T464 307H345L315 245V228H464Q483 228 483 208V178Q483 168 479 164T464 160H312V17Q312 0 295 0Z" />
<glyph unicode="&#xa6;" glyph-name="brokenbar" horiz-adv-x="219" d="M145 626V390Q145 373 127 373H92Q74 373 74 390V626Q74 643 92 643H127Q145 643 145 626ZM145 253V17Q145 0 127 0H92Q74 0 74 17V253Q74 271 92 271H127Q145 271 145 253Z" />
<glyph unicode="&#xa7;" glyph-name="section" horiz-adv-x="476" d="M325 302Q325 347 270 360L207 374Q172 383 151 395V345Q151 295 207 283L268 270Q300 264 325 250V302ZM261 0H91Q73 0 73 17V69Q73 85 91 85H254Q291 85 304 99T318 137T303 173T251 193L157
212Q60 234 60 339V512Q60 573 97 608T210 643H374Q390 643 390 626V574Q390 558 374 558H213Q158 558 158 507Q158 485 172 472T225 451L318 432Q416 410 416 308V136Q416 72 378 36T261 0Z" />
<glyph unicode="&#xa8;" glyph-name="dieresis" horiz-adv-x="389" d="M58 591V686Q58 703 75 703H134Q150 703 150 687V591Q150 574 134 574H75Q58 574 58 591ZM238 591V686Q238 703 254 703H314Q330 703 330 687V591Q330 574 314 574H254Q238 574 238 591Z" />
<glyph unicode="&#xa9;" glyph-name="copyright" horiz-adv-x="711" d="M492 403V378Q492 366 480 366H439Q427 366 427 378V393Q427 431 414 442T361 454H351Q311 454 299 443T287 393V250Q287 210 299 199T351 187H361Q402 187 414 198T427 250V266Q427 279
439 279H480Q492 279 492 266V239Q492 130 378 130H335Q280 130 251 157T221 239V403Q221 512 335 512H378Q492 512 492 403ZM213 60H498Q579 60 579 139V504Q579 583 498 583H213Q132 583 132 504V139Q132 60 213 60ZM195 643H516Q576 643 610 609T645 515V128Q645
68 611 34T516 0H195Q136 0 102 34T67 128V515Q67 575 101 609T195 643Z" />
<glyph unicode="&#xab;" glyph-name="guillemotleft" horiz-adv-x="445" d="M393 139V95Q393 86 388 83T375 87L231 209Q214 222 214 240V273Q214 292 231 303L375 425Q382 432 387 429T393 417V374Q393 360 377 349L268 256L377 164Q393 152 393 139ZM231 139V95Q231
86 226 84T213 87L69 209Q53 221 53 240V273Q53 291 69 303L213 425Q221 431 226 429T231 417V374Q231 359 216 349L107 256L216 164Q231 152 231 139Z" />
<glyph unicode="&#xae;" glyph-name="registered" horiz-adv-x="462" d="M244 610H209V555H244Q258 555 258 569V597Q258 610 244 610ZM171 470V629Q171 638 174 641T187 645H247Q297 645 297 599V566Q297 534 275 525L298 475Q308 455 288 455H278Q267 455 262
466L236 523H209V470Q209 461 206 458T194 455H187Q177 455 174 458T171 470ZM173 421H288Q354 421 354 487V612Q354 678 288 678H173Q108 678 108 612V487Q108 421 173 421ZM297 380H165Q119 380 92 406T64 478V621Q64 666 91 692T165 718H297Q343 718 370 692T397
621V478Q397 433 370 407T297 380Z" />
<glyph unicode="&#xaf;" glyph-name="overscore" horiz-adv-x="350" d="M275 605H76Q58 605 58 622V656Q58 673 76 673H275Q292 673 292 656V622Q292 605 275 605Z" />
<glyph unicode="&#xb0;" glyph-name="degree" horiz-adv-x="348" d="M201 510H146Q97 510 97 559V656Q97 703 146 703H201Q224 703 237 691T251 656V559Q251 536 238 523T201 510ZM180 551Q196 551 201 556T206 576V637Q206 653 201 658T180 663H167Q151 663 146
658T141 637V576Q141 561 146 556T167 551H180Z" />
<glyph unicode="&#xb1;" glyph-name="plusminus" horiz-adv-x="549" d="M317 423H460Q479 423 479 404V363Q479 344 460 344H317V259Q317 240 297 240H252Q233 240 233 259V344H89Q70 344 70 363V404Q70 423 89 423H233V506Q233 526 252 526H297Q317 526 317 506V423ZM89
195H460Q479 195 479 177V135Q479 116 460 116H89Q70 116 70 135V177Q70 195 89 195Z" />
<glyph unicode="&#xb4;" glyph-name="acute" horiz-adv-x="287" d="M139 703H217Q226 703 228 699T225 686L140 586Q131 574 117 574H70Q54 574 62 591L113 687Q121 703 139 703Z" />
<glyph unicode="&#xb6;" glyph-name="paragraph" horiz-adv-x="533" d="M238 0H191Q174 0 174 17V320Q120 320 85 350T50 442V520Q50 584 89 613T189 643H437Q455 643 455 627V17Q455 0 438 0H391Q374 0 374 17V558Q374 568 363 568H266Q255 568 255 558V17Q255 0 238 0Z" />
<glyph unicode="&#xb7;" glyph-name="middot" horiz-adv-x="207" d="M154 379V258Q154 240 138 240H69Q53 240 53 258V379Q53 395 69 395H138Q154 395 154 379Z" />
<glyph unicode="&#xb8;" glyph-name="cedilla" horiz-adv-x="262" d="M128 -42Q204 -42 204 -112V-127Q204 -193 114 -193H77Q67 -193 65 -190T62 -178V-161Q62 -152 64 -149T77 -146H105Q133 -146 143 -140T153 -119V-117Q153 -101 143 -96T105 -90H85Q67 -90
61 -73T67 -41L120 20H185L128 -38V-42Z" />
<glyph unicode="&#xbb;" glyph-name="guillemotright" horiz-adv-x="445" d="M214 374V417Q214 426 219 428T231 425L376 303Q393 291 393 273V240Q393 222 376 209L231 87Q224 81 219 83T214 95V139Q214 152 229 164L338 256L229 349Q214 359 214 374ZM53 374V417Q53
426 57 428T70 425L215 303Q231 291 231 273V240Q231 221 215 209L70 87Q62 81 58 83T53 95V139Q53 152 67 164L177 256L67 349Q53 359 53 374Z" />
<glyph unicode="&#xbf;" glyph-name="questiondown" horiz-adv-x="469" d="M187 503V625Q187 642 203 642H272Q287 642 287 624V504Q287 487 272 487H203Q187 487 187 503ZM188 374V404Q188 422 205 422H264Q281 422 281 404V375Q281 339 270 318T230 272L181
231Q146 203 146 169V155Q146 83 220 83H247Q320 83 320 155V184Q320 202 337 202H400Q417 202 417 184V153Q417 80 376 40T262 0H206Q133 0 92 40T51 153V174Q51 224 97 264L156 312Q176 330 182 342T188 374Z" />
<glyph unicode="&#xc0;" glyph-name="Agrave" horiz-adv-x="547" d="M295 707H247Q233 707 224 719L140 819Q134 826 136 831T148 836H226Q243 836 251 820L303 724Q312 707 295 707ZM108 0H36Q22 0 26 17L200 626Q205 643 224 643H324Q344 643 348 626L522 17Q526
0 511 0H440Q431 0 428 3T422 17L384 147H164L126 17Q122 0 108 0ZM272 547L184 227H365L276 547H272Z" />
<glyph unicode="&#xc1;" glyph-name="Aacute" horiz-adv-x="547" d="M318 836H396Q405 836 407 831T405 819L320 719Q311 707 298 707H249Q234 707 241 724L293 820Q301 836 318 836ZM108 0H36Q22 0 26 17L200 626Q205 643 224 643H324Q344 643 348 626L522 17Q526
0 511 0H440Q431 0 428 3T422 17L384 147H164L126 17Q122 0 108 0ZM272 547L184 227H365L276 547H272Z" />
<glyph unicode="&#xc2;" glyph-name="Acircumflex" horiz-adv-x="547" d="M376 707H330Q319 707 314 717L274 795L233 717Q230 707 218 707H173Q158 707 166 719L229 826Q236 836 250 836H298Q312 836 319 826L383 719Q391 707 376 707ZM108 0H36Q22 0 26 17L200
626Q205 643 224 643H324Q344 643 348 626L522 17Q526 0 511 0H440Q431 0 428 3T422 17L384 147H164L126 17Q122 0 108 0ZM272 547L184 227H365L276 547H272Z" />
<glyph unicode="&#xc3;" glyph-name="Atilde" horiz-adv-x="547" d="M227 702Q159 702 159 779V818Q159 828 169 828H199Q209 828 209 818V798Q209 773 213 764T227 755T243 762T263 794Q285 832 322 832Q389 832 389 755V717Q389 705 380 705H350Q340 705 340
717V736Q340 762 336 770T322 779T307 774T297 760T290 750T282 734Q264 702 227 702ZM108 0H36Q22 0 26 17L200 626Q205 643 224 643H324Q344 643 348 626L522 17Q526 0 511 0H440Q431 0 428 3T422 17L384 147H164L126 17Q122 0 108 0ZM272 547L184 227H365L276
547H272Z" />
<glyph unicode="&#xc4;" glyph-name="Adieresis" horiz-adv-x="547" d="M138 724V819Q138 836 154 836H214Q229 836 229 820V724Q229 707 214 707H154Q138 707 138 724ZM318 724V819Q318 836 333 836H394Q409 836 409 820V724Q409 707 394 707H333Q318 707 318
724ZM108 0H36Q22 0 26 17L200 626Q205 643 224 643H324Q344 643 348 626L522 17Q526 0 511 0H440Q431 0 428 3T422 17L384 147H164L126 17Q122 0 108 0ZM272 547L184 227H365L276 547H272Z" />
<glyph unicode="&#xc5;" glyph-name="Aring" horiz-adv-x="547" d="M294 700H251Q191 700 191 762V813Q191 873 251 873H294Q323 873 339 857T356 813V762Q356 732 340 716T294 700ZM265 740H279Q297 740 304 748T311 774V798Q311 817 304 825T280 833H266Q233
833 233 798V774Q233 740 265 740ZM108 0H36Q22 0 26 17L200 626Q205 643 224 643H324Q344 643 348 626L522 17Q526 0 511 0H440Q431 0 428 3T422 17L384 147H164L126 17Q122 0 108 0ZM272 547L184 227H365L276 547H272Z" />
<glyph unicode="&#xc6;" glyph-name="AE" horiz-adv-x="778" d="M86 0H16Q-3 0 5 18L306 626Q314 643 333 643H709Q726 643 726 626V575Q726 558 709 558H481Q470 558 470 548V379Q470 369 481 369H674Q692 369 692 352V301Q692 284 674 284H481Q470 284 470 274V96Q470
85 481 85H709Q726 85 726 68V17Q726 0 709 0H389Q372 0 372 17V147H174L108 17Q101 0 86 0ZM372 234V548H368L212 234H372Z" />
<glyph unicode="&#xc7;" glyph-name="Ccedilla" horiz-adv-x="540" d="M471 422H408Q391 422 391 440V484Q391 558 319 558H232Q160 558 160 484V159Q160 85 232 85H319Q391 85 391 159V203Q391 221 408 221H471Q489 221 489 203V155Q489 82 448 41T334 0H325L283
-44V-48Q359 -48 359 -117V-133Q359 -200 269 -200H231Q216 -200 216 -184V-168Q216 -158 219 -155T231 -151H260Q288 -151 298 -146T308 -126V-123Q308 -107 298 -101T260 -95H239Q221 -95 215 -78T222 -46L262 0H218Q144 0 104 41T63 155V488Q63 562 103 602T218
643H334Q407 643 448 603T489 488V440Q489 422 471 422Z" />
<glyph unicode="&#xc8;" glyph-name="Egrave" horiz-adv-x="480" d="M276 707H228Q214 707 205 719L121 819Q116 826 118 831T129 836H207Q225 836 232 820L284 724Q292 707 276 707ZM410 0H90Q73 0 73 17V626Q73 643 90 643H410Q426 643 426 626V575Q426 558
410 558H182Q170 558 170 548V379Q170 369 182 369H375Q393 369 393 352V301Q393 284 375 284H182Q170 284 170 274V96Q170 85 182 85H410Q426 85 426 68V17Q426 0 410 0Z" />
<glyph unicode="&#xc9;" glyph-name="Eacute" horiz-adv-x="480" d="M283 836H362Q370 836 372 831T370 819L286 719Q276 707 262 707H215Q198 707 207 724L258 820Q266 836 283 836ZM410 0H90Q73 0 73 17V626Q73 643 90 643H410Q426 643 426 626V575Q426 558
410 558H182Q170 558 170 548V379Q170 369 182 369H375Q393 369 393 352V301Q393 284 375 284H182Q170 284 170 274V96Q170 85 182 85H410Q426 85 426 68V17Q426 0 410 0Z" />
<glyph unicode="&#xca;" glyph-name="Ecircumflex" horiz-adv-x="480" d="M351 707H305Q293 707 289 717L249 795L209 717Q204 707 193 707H147Q141 707 139 710T140 719L204 826Q211 836 225 836H273Q287 836 294 826L357 719Q365 707 351 707ZM410 0H90Q73 0
73 17V626Q73 643 90 643H410Q426 643 426 626V575Q426 558 410 558H182Q170 558 170 548V379Q170 369 182 369H375Q393 369 393 352V301Q393 284 375 284H182Q170 284 170 274V96Q170 85 182 85H410Q426 85 426 68V17Q426 0 410 0Z" />
<glyph unicode="&#xcb;" glyph-name="Edieresis" horiz-adv-x="480" d="M114 724V819Q114 836 129 836H190Q206 836 206 820V724Q206 707 190 707H129Q114 707 114 724ZM293 724V819Q293 836 309 836H369Q386 836 386 820V724Q386 707 369 707H309Q293 707 293
724ZM410 0H90Q73 0 73 17V626Q73 643 90 643H410Q426 643 426 626V575Q426 558 410 558H182Q170 558 170 548V379Q170 369 182 369H375Q393 369 393 352V301Q393 284 375 284H182Q170 284 170 274V96Q170 85 182 85H410Q426 85 426 68V17Q426 0 410 0Z" />
<glyph unicode="&#xcc;" glyph-name="Igrave" horiz-adv-x="253" d="M151 707H103Q89 707 80 719L-4 819Q-9 826 -7 831T4 836H82Q100 836 107 820L159 724Q168 707 151 707ZM175 626V17Q175 0 158 0H95Q78 0 78 17V626Q78 643 95 643H158Q175 643 175 626Z" />
<glyph unicode="&#xcd;" glyph-name="Iacute" horiz-adv-x="253" d="M171 836H249Q258 836 260 831T257 819L173 719Q164 707 150 707H102Q86 707 94 724L145 820Q154 836 171 836ZM175 626V17Q175 0 158 0H95Q78 0 78 17V626Q78 643 95 643H158Q175 643 175 626Z" />
<glyph unicode="&#xce;" glyph-name="Icircumflex" horiz-adv-x="252" d="M228 707H181Q171 707 166 717L125 795L85 717Q81 707 69 707H25Q10 707 17 719L80 826Q87 836 102 836H150Q164 836 171 826L234 719Q242 707 228 707ZM175 626V17Q175 0 158 0H95Q78
0 78 17V626Q78 643 95 643H158Q175 643 175 626Z" />
<glyph unicode="&#xcf;" glyph-name="Idieresis" horiz-adv-x="252" d="M-10 724V819Q-10 836 6 836H66Q83 836 83 820V724Q83 707 66 707H6Q-10 707 -10 724ZM170 724V819Q170 836 186 836H246Q263 836 263 820V724Q263 707 246 707H186Q170 707 170 724ZM175
626V17Q175 0 158 0H95Q78 0 78 17V626Q78 643 95 643H158Q175 643 175 626Z" />
<glyph unicode="&#xd0;" glyph-name="Eth" horiz-adv-x="546" d="M191 85H331Q404 85 404 159V484Q404 558 331 558H191Q180 558 180 548V370Q180 360 191 360H294Q311 360 311 343V303Q311 286 294 286H191Q180 286 180 276V96Q180 85 191 85ZM346 0H99Q82 0
82 17V276Q82 286 72 286H40Q23 286 23 303V343Q23 360 40 360H72Q82 360 82 370V626Q82 643 99 643H346Q420 643 461 603T502 488V155Q502 82 461 41T346 0Z" />
<glyph unicode="&#xd1;" glyph-name="Ntilde" horiz-adv-x="583" d="M244 702Q178 702 178 779V818Q178 828 187 828H216Q227 828 227 818V798Q227 772 231 764T245 755T261 762T280 792T307 824T340 832Q407 832 407 755V717Q407 705 397 705H368Q358 705 358
717V736Q358 762 354 770T339 779T325 774T315 760T308 750T306 746Q293 720 279 711T244 702ZM152 0H90Q73 0 73 17V626Q73 643 90 643H146Q162 643 168 632L410 197H414V626Q414 643 431 643H493Q510 643 510 626V17Q510 0 493 0H439Q423 0 413 16L173 446H169V17Q169
0 152 0Z" />
<glyph unicode="&#xd2;" glyph-name="Ograve" horiz-adv-x="552" d="M301 707H253Q239 707 230 719L146 819Q141 826 143 831T154 836H232Q250 836 257 820L309 724Q318 707 301 707ZM232 85H319Q392 85 392 159V484Q392 558 319 558H232Q160 558 160 484V159Q160
85 232 85ZM334 0H218Q144 0 104 41T63 155V488Q63 562 103 602T218 643H334Q408 643 449 603T490 488V155Q490 82 449 41T334 0Z" />
<glyph unicode="&#xd3;" glyph-name="Oacute" horiz-adv-x="552" d="M312 836H390Q398 836 400 831T398 819L314 719Q305 707 291 707H243Q226 707 235 724L287 820Q294 836 312 836ZM232 85H319Q392 85 392 159V484Q392 558 319 558H232Q160 558 160 484V159Q160
85 232 85ZM334 0H218Q144 0 104 41T63 155V488Q63 562 103 602T218 643H334Q408 643 449 603T490 488V155Q490 82 449 41T334 0Z" />
<glyph unicode="&#xd4;" glyph-name="Ocircumflex" horiz-adv-x="552" d="M380 707H334Q323 707 319 717L278 795L238 717Q234 707 222 707H177Q162 707 170 719L233 826Q240 836 254 836H303Q317 836 324 826L386 719Q394 707 380 707ZM232 85H319Q392 85 392
159V484Q392 558 319 558H232Q160 558 160 484V159Q160 85 232 85ZM334 0H218Q144 0 104 41T63 155V488Q63 562 103 602T218 643H334Q408 643 449 603T490 488V155Q490 82 449 41T334 0Z" />
<glyph unicode="&#xd5;" glyph-name="Otilde" horiz-adv-x="552" d="M228 702Q161 702 161 779V818Q161 828 171 828H201Q211 828 211 818V798Q211 772 215 764T229 755T245 762T264 792T291 824T324 832Q391 832 391 755V717Q391 705 382 705H352Q342 705 342
717V736Q342 762 338 770T324 779T309 774T290 746Q277 720 263 711T228 702ZM232 85H319Q392 85 392 159V484Q392 558 319 558H232Q160 558 160 484V159Q160 85 232 85ZM334 0H218Q144 0 104 41T63 155V488Q63 562 103 602T218 643H334Q408 643 449 603T490 488V155Q490
82 449 41T334 0Z" />
<glyph unicode="&#xd6;" glyph-name="Odieresis" horiz-adv-x="552" d="M140 724V819Q140 836 156 836H216Q232 836 232 820V724Q232 707 216 707H156Q140 707 140 724ZM320 724V819Q320 836 336 836H396Q412 836 412 820V724Q412 707 396 707H336Q320 707 320
724ZM232 85H319Q392 85 392 159V484Q392 558 319 558H232Q160 558 160 484V159Q160 85 232 85ZM334 0H218Q144 0 104 41T63 155V488Q63 562 103 602T218 643H334Q408 643 449 603T490 488V155Q490 82 449 41T334 0Z" />
<glyph unicode="&#xd7;" glyph-name="multiply" horiz-adv-x="510" d="M315 322L420 216Q433 203 420 189L386 157Q374 142 360 156L255 262L149 156Q135 142 123 157L90 189Q76 203 89 216L195 322L90 426Q77 440 90 453L123 486Q136 501 150 486L255 382L359
486Q373 500 386 486L419 453Q432 440 419 426L315 322Z" />
<glyph unicode="&#xd8;" glyph-name="Oslash" horiz-adv-x="572" d="M502 488V155Q502 82 461 41T347 0H225Q157 0 117 35L97 7Q86 -7 71 2L54 15Q40 26 50 41L82 86Q70 116 70 155V488Q70 562 110 602T225 643H347Q415 643 456 608L475 635Q486 650 501 640L518
628Q532 618 523 603L490 557Q502 527 502 488ZM167 484V205L397 526Q382 558 333 558H239Q167 558 167 484ZM405 159V438L175 117Q192 85 239 85H333Q405 85 405 159Z" />
<glyph unicode="&#xd9;" glyph-name="Ugrave" horiz-adv-x="557" d="M306 707H258Q244 707 235 719L151 819Q145 826 147 831T159 836H237Q254 836 263 820L314 724Q322 707 306 707ZM409 643H472Q490 643 490 627V155Q490 82 449 41T334 0H223Q150 0 109 41T68
155V626Q68 643 85 643H148Q165 643 165 626V159Q165 85 237 85H319Q392 85 392 159V626Q392 643 409 643Z" />
<glyph unicode="&#xda;" glyph-name="Uacute" horiz-adv-x="557" d="M319 836H398Q406 836 408 831T406 819L321 719Q312 707 298 707H250Q234 707 242 724L294 820Q302 836 319 836ZM409 643H472Q490 643 490 627V155Q490 82 449 41T334 0H223Q150 0 109 41T68
155V626Q68 643 85 643H148Q165 643 165 626V159Q165 85 237 85H319Q392 85 392 159V626Q392 643 409 643Z" />
<glyph unicode="&#xdb;" glyph-name="Ucircumflex" horiz-adv-x="557" d="M382 707H337Q325 707 321 717L280 795L240 717Q235 707 224 707H179Q164 707 172 719L235 826Q242 836 256 836H305Q319 836 326 826L389 719Q397 707 382 707ZM409 643H472Q490 643 490
627V155Q490 82 449 41T334 0H223Q150 0 109 41T68 155V626Q68 643 85 643H148Q165 643 165 626V159Q165 85 237 85H319Q392 85 392 159V626Q392 643 409 643Z" />
<glyph unicode="&#xdc;" glyph-name="Udieresis" horiz-adv-x="557" d="M143 724V819Q143 836 159 836H219Q234 836 234 820V724Q234 707 219 707H159Q143 707 143 724ZM323 724V819Q323 836 338 836H399Q414 836 414 820V724Q414 707 399 707H338Q323 707 323
724ZM409 643H472Q490 643 490 627V155Q490 82 449 41T334 0H223Q150 0 109 41T68 155V626Q68 643 85 643H148Q165 643 165 626V159Q165 85 237 85H319Q392 85 392 159V626Q392 643 409 643Z" />
<glyph unicode="&#xdd;" glyph-name="Yacute" horiz-adv-x="508" d="M293 836H372Q380 836 382 831T380 819L296 719Q286 707 272 707H225Q207 707 217 724L268 820Q276 836 293 836ZM286 0H222Q205 0 205 17V238L18 625Q14 633 18 638T29 643H109Q122 643 129
626L252 351H258L379 626Q385 643 399 643H479Q487 643 490 638T490 625L303 238V17Q303 0 286 0Z" />
<glyph unicode="&#xde;" glyph-name="Thorn" horiz-adv-x="503" d="M201 218H282Q320 218 337 235T354 291V351Q354 425 282 425H201Q191 425 191 415V228Q191 218 201 218ZM174 0H110Q93 0 93 17V626Q93 643 110 643H174Q191 643 191 626V520Q191 510 202 510H297Q370
510 411 470T453 355V287Q453 213 412 173T297 132H202Q191 132 191 122V17Q191 0 174 0Z" />
<glyph unicode="&#xdf;" glyph-name="germandbls" horiz-adv-x="542" d="M271 362H301Q379 362 379 436V487Q379 560 305 560H234Q163 560 163 487V17Q163 0 146 0H82Q65 0 65 17V488Q65 562 106 602T220 643H319Q392 643 433 602T474 487V432Q474 349 402 322Q441
314 462 281T484 203V149Q484 76 444 38T329 0H256Q238 0 238 16V66Q238 83 256 83H315Q389 83 389 156V205Q389 279 307 279H271Q254 279 254 295V345Q254 362 271 362Z" />
<glyph unicode="&#xe0;" glyph-name="agrave" horiz-adv-x="512" d="M309 574H261Q247 574 238 586L154 686Q148 694 150 698T162 703H240Q258 703 266 687L318 591Q326 574 309 574ZM247 0H208Q134 0 94 41T53 155V355Q53 429 93 469T208 510H432Q450 510 450
493V17Q450 0 432 0H369Q352 0 352 17V53H348Q324 0 247 0ZM352 170V415Q352 425 341 425H222Q150 425 150 351V159Q150 85 222 85H270Q352 85 352 170Z" />
<glyph unicode="&#xe1;" glyph-name="aacute" horiz-adv-x="512" d="M309 703H387Q395 703 397 699T395 686L311 586Q302 574 287 574H240Q224 574 232 591L284 687Q291 703 309 703ZM247 0H208Q134 0 94 41T53 155V355Q53 429 93 469T208 510H432Q450 510 450
493V17Q450 0 432 0H369Q352 0 352 17V53H348Q324 0 247 0ZM352 170V415Q352 425 341 425H222Q150 425 150 351V159Q150 85 222 85H270Q352 85 352 170Z" />
<glyph unicode="&#xe2;" glyph-name="acircumflex" horiz-adv-x="512" d="M369 574H323Q311 574 307 584L267 662L227 584Q222 574 211 574H165Q159 574 157 578T158 586L222 693Q229 703 243 703H291Q305 703 312 693L375 586Q383 574 369 574ZM247 0H208Q134
0 94 41T53 155V355Q53 429 93 469T208 510H432Q450 510 450 493V17Q450 0 432 0H369Q352 0 352 17V53H348Q324 0 247 0ZM352 170V415Q352 425 341 425H222Q150 425 150 351V159Q150 85 222 85H270Q352 85 352 170Z" />
<glyph unicode="&#xe3;" glyph-name="atilde" horiz-adv-x="513" d="M158 652V690Q158 701 168 701H197Q206 701 206 690V671Q206 646 211 637T225 628T241 635T261 667Q285 705 320 705Q387 705 387 628V590Q387 578 378 578H348Q338 578 338 590V608Q338 634
334 642T319 651T304 646T287 618Q264 575 225 575Q158 575 158 652ZM247 0H208Q134 0 94 41T53 155V355Q53 429 93 469T208 510H432Q450 510 450 493V17Q450 0 432 0H369Q352 0 352 17V53H348Q324 0 247 0ZM352 170V415Q352 425 341 425H222Q150 425 150 351V159Q150
85 222 85H270Q352 85 352 170Z" />
<glyph unicode="&#xe4;" glyph-name="adieresis" horiz-adv-x="512" d="M136 591V686Q136 703 152 703H212Q228 703 228 687V591Q228 574 212 574H152Q136 574 136 591ZM316 591V686Q316 703 332 703H392Q408 703 408 687V591Q408 574 392 574H332Q316 574 316
591ZM247 0H208Q134 0 94 41T53 155V355Q53 429 93 469T208 510H432Q450 510 450 493V17Q450 0 432 0H369Q352 0 352 17V53H348Q324 0 247 0ZM352 170V415Q352 425 341 425H222Q150 425 150 351V159Q150 85 222 85H270Q352 85 352 170Z" />
<glyph unicode="&#xe5;" glyph-name="aring" horiz-adv-x="512" d="M352 170V415Q352 425 341 425H222Q150 425 150 351V159Q150 85 222 85H270Q352 85 352 170ZM247 0H208Q134 0 94 41T53 155V355Q53 429 93 469T208 510H432Q450 510 450 493V17Q450 0 432 0H369Q352
0 352 17V53H348Q324 0 247 0ZM222 657V624Q222 605 229 598T256 591H271Q290 591 297 598T305 624V657Q305 677 298 683T272 690H256Q237 690 230 684T222 657ZM184 612V672Q184 724 241 724H286Q344 724 344 672V612Q344 557 286 557H241Q184 557 184 612Z" />
<glyph unicode="&#xe6;" glyph-name="ae" horiz-adv-x="770" d="M440 189V159Q440 85 513 85H703Q721 85 721 68V16Q721 0 703 0H498Q412 0 375 61Q342 0 239 0H205Q133 0 92 39T50 150V166Q50 239 90 277T205 315H335Q343 315 343 323V352Q343 425 271 425H111Q94
425 94 442V493Q94 510 111 510H268Q361 510 392 451Q423 510 513 510H566Q639 510 680 470T721 355V217Q721 199 703 199H452Q440 199 440 189ZM635 278V351Q635 425 562 425H516Q440 425 440 353V278Q440 267 451 267H624Q635 267 635 278ZM343 164V234Q343 244
332 244H220Q179 244 161 226T142 170V156Q142 117 160 99T220 80H261Q343 80 343 164Z" />
<glyph unicode="&#xe7;" glyph-name="ccedilla" horiz-adv-x="405" d="M355 425H222Q150 425 150 351V159Q150 85 222 85H355Q373 85 373 68V16Q373 0 355 0H292L255 -38V-42Q331 -42 331 -112V-127Q331 -193 241 -193H204Q194 -193 191 -190T188 -178V-161Q188
-146 204 -146H232Q260 -146 270 -140T280 -119V-117Q280 -101 271 -96T232 -90H211Q193 -90 187 -73T194 -41L229 0H208Q134 0 94 41T53 155V355Q53 429 93 469T208 510H355Q373 510 373 493V441Q373 425 355 425Z" />
<glyph unicode="&#xe8;" glyph-name="egrave" horiz-adv-x="493" d="M282 574H234Q220 574 212 586L127 686Q121 694 123 698T135 703H213Q231 703 239 687L291 591Q298 574 282 574ZM424 0H208Q134 0 94 41T53 155V355Q53 429 93 469T208 510H290Q364 510 405
470T446 355V228Q446 210 428 210H160Q149 210 149 200V157Q149 84 222 84H424Q442 84 442 66V16Q442 0 424 0ZM160 278H339Q349 278 349 288V352Q349 390 332 407T277 425H222Q184 425 167 408T150 352V288Q150 278 160 278Z" />
<glyph unicode="&#xe9;" glyph-name="eacute" horiz-adv-x="493" d="M289 703H366Q375 703 377 699T374 686L290 586Q281 574 266 574H219Q202 574 211 591L263 687Q271 703 289 703ZM424 0H208Q134 0 94 41T53 155V355Q53 429 93 469T208 510H290Q364 510 405
470T446 355V228Q446 210 428 210H160Q149 210 149 200V157Q149 84 222 84H424Q442 84 442 66V16Q442 0 424 0ZM160 278H339Q349 278 349 288V352Q349 390 332 407T277 425H222Q184 425 167 408T150 352V288Q150 278 160 278Z" />
<glyph unicode="&#xea;" glyph-name="ecircumflex" horiz-adv-x="493" d="M354 574H309Q297 574 293 584L253 662L212 584Q208 574 197 574H151Q137 574 145 586L207 693Q214 703 228 703H277Q291 703 298 693L361 586Q369 574 354 574ZM424 0H208Q134 0 94 41T53
155V355Q53 429 93 469T208 510H290Q364 510 405 470T446 355V228Q446 210 428 210H160Q149 210 149 200V157Q149 84 222 84H424Q442 84 442 66V16Q442 0 424 0ZM160 278H339Q349 278 349 288V352Q349 390 332 407T277 425H222Q184 425 167 408T150 352V288Q150
278 160 278Z" />
<glyph unicode="&#xeb;" glyph-name="edieresis" horiz-adv-x="493" d="M117 591V686Q117 703 133 703H192Q209 703 209 687V591Q209 574 192 574H133Q117 574 117 591ZM296 591V686Q296 703 313 703H372Q389 703 389 687V591Q389 574 372 574H313Q296 574 296
591ZM424 0H208Q134 0 94 41T53 155V355Q53 429 93 469T208 510H290Q364 510 405 470T446 355V228Q446 210 428 210H160Q149 210 149 200V157Q149 84 222 84H424Q442 84 442 66V16Q442 0 424 0ZM160 278H339Q349 278 349 288V352Q349 390 332 407T277 425H222Q184
425 167 408T150 352V288Q150 278 160 278Z" />
<glyph unicode="&#xec;" glyph-name="igrave" horiz-adv-x="233" d="M140 574H92Q78 574 69 586L-15 686Q-20 694 -18 698T-7 703H71Q89 703 96 687L148 591Q156 574 140 574ZM68 17V493Q68 510 84 510H148Q165 510 165 493V17Q165 7 162 4T149 0H85Q68 0 68 17Z" />
<glyph unicode="&#xed;" glyph-name="iacute" horiz-adv-x="232" d="M162 703H240Q248 703 250 699T248 686L164 586Q155 574 140 574H93Q76 574 85 591L137 687Q144 703 162 703ZM68 17V493Q68 510 84 510H148Q165 510 165 493V17Q165 7 162 4T149 0H85Q68 0 68 17Z" />
<glyph unicode="&#xee;" glyph-name="icircumflex" horiz-adv-x="232" d="M218 574H172Q161 574 157 584L116 662L76 584Q72 574 60 574H15Q0 574 8 586L71 693Q78 703 92 703H141Q155 703 162 693L224 586Q232 574 218 574ZM68 17V493Q68 510 84 510H148Q165
510 165 493V17Q165 7 162 4T149 0H85Q68 0 68 17Z" />
<glyph unicode="&#xef;" glyph-name="idieresis" horiz-adv-x="232" d="M-20 591V686Q-20 703 -4 703H56Q73 703 73 687V591Q73 574 56 574H-4Q-20 574 -20 591ZM160 591V686Q160 703 176 703H236Q253 703 253 687V591Q253 574 236 574H176Q160 574 160 591ZM68
17V493Q68 510 84 510H148Q165 510 165 493V17Q165 7 162 4T149 0H85Q68 0 68 17Z" />
<glyph unicode="&#xf0;" glyph-name="eth" horiz-adv-x="500" d="M443 323V155Q443 82 402 41T288 0H208Q134 0 94 41T53 155V255Q53 329 93 369T208 410H247Q283 410 313 396T354 357H358Q352 391 327 422L234 526L147 453Q134 443 123 457L100 484Q92 495 103
506L188 578L122 651Q107 667 125 682L156 705Q172 716 186 701L250 630L340 706Q354 717 363 706L386 677Q398 661 385 652L297 578L398 467Q443 415 443 323ZM345 159V240Q345 325 270 325H229Q150 325 150 251V159Q150 85 222 85H274Q345 85 345 159Z" />
<glyph unicode="&#xf1;" glyph-name="ntilde" horiz-adv-x="517" d="M139 652V690Q139 701 149 701H179Q189 701 189 690V671Q189 645 193 637T207 628T223 635T242 665T269 697T302 705Q369 705 369 628V590Q369 578 360 578H330Q320 578 320 590V608Q320 634
316 642T302 651T286 646T268 618Q255 592 241 584T206 575Q139 575 139 652ZM143 0H80Q63 0 63 17V493Q63 510 80 510H143Q160 510 160 493V457H164Q188 510 265 510H309Q382 510 421 470T460 355V17Q460 0 442 0H379Q362 0 362 17V351Q362 425 289 425H242Q160
425 160 340V17Q160 0 143 0Z" />
<glyph unicode="&#xf2;" glyph-name="ograve" horiz-adv-x="504" d="M280 574H232Q218 574 209 586L125 686Q120 694 122 698T133 703H212Q229 703 237 687L288 591Q298 574 280 574ZM296 0H208Q134 0 94 41T53 155V355Q53 429 93 469T208 510H296Q369 510 410
470T452 355V155Q452 82 411 41T296 0ZM222 85H283Q355 85 355 158V352Q355 425 283 425H222Q184 425 167 408T150 352V158Q150 120 167 103T222 85Z" />
<glyph unicode="&#xf3;" glyph-name="oacute" horiz-adv-x="504" d="M296 703H374Q383 703 385 699T382 686L298 586Q288 574 274 574H227Q210 574 219 591L270 687Q279 703 296 703ZM296 0H208Q134 0 94 41T53 155V355Q53 429 93 469T208 510H296Q369 510 410
470T452 355V155Q452 82 411 41T296 0ZM222 85H283Q355 85 355 158V352Q355 425 283 425H222Q184 425 167 408T150 352V158Q150 120 167 103T222 85Z" />
<glyph unicode="&#xf4;" glyph-name="ocircumflex" horiz-adv-x="504" d="M354 574H308Q296 574 292 584L252 662L212 584Q207 574 196 574H150Q144 574 142 578T143 586L207 693Q214 703 228 703H276Q290 703 297 693L360 586Q368 574 354 574ZM296 0H208Q134
0 94 41T53 155V355Q53 429 93 469T208 510H296Q369 510 410 470T452 355V155Q452 82 411 41T296 0ZM222 85H283Q355 85 355 158V352Q355 425 283 425H222Q184 425 167 408T150 352V158Q150 120 167 103T222 85Z" />
<glyph unicode="&#xf5;" glyph-name="otilde" horiz-adv-x="504" d="M131 652V690Q131 701 141 701H171Q181 701 181 690V671Q181 645 185 637T199 628T215 635T234 665T261 697T294 705Q361 705 361 628V590Q361 578 352 578H322Q312 578 312 590V608Q312 634
308 642T294 651T278 646T260 618Q247 592 233 584T198 575Q131 575 131 652ZM296 0H208Q134 0 94 41T53 155V355Q53 429 93 469T208 510H296Q369 510 410 470T452 355V155Q452 82 411 41T296 0ZM222 85H283Q355 85 355 158V352Q355 425 283 425H222Q184 425 167
408T150 352V158Q150 120 167 103T222 85Z" />
<glyph unicode="&#xf6;" glyph-name="odieresis" horiz-adv-x="504" d="M116 591V686Q116 703 132 703H192Q208 703 208 687V591Q208 574 192 574H132Q116 574 116 591ZM296 591V686Q296 703 312 703H372Q388 703 388 687V591Q388 574 372 574H312Q296 574 296
591ZM296 0H208Q134 0 94 41T53 155V355Q53 429 93 469T208 510H296Q369 510 410 470T452 355V155Q452 82 411 41T296 0ZM222 85H283Q355 85 355 158V352Q355 425 283 425H222Q184 425 167 408T150 352V158Q150 120 167 103T222 85Z" />
<glyph unicode="&#xf7;" glyph-name="divide" horiz-adv-x="481" d="M207 155V209Q207 225 224 225H258Q276 225 276 209V155Q276 138 258 138H224Q207 138 207 155ZM393 287H90Q72 287 72 304V338Q72 355 90 355H393Q409 355 409 338V304Q409 287 393 287ZM207
433V486Q207 504 224 504H258Q276 504 276 486V433Q276 416 258 416H224Q207 416 207 433Z" />
<glyph unicode="&#xf8;" glyph-name="oslash" horiz-adv-x="520" d="M460 355V155Q460 82 419 41T304 0H217Q136 0 94 50L63 19Q49 6 39 19L25 32Q12 44 25 57L68 100Q61 124 61 155V355Q61 429 102 469T217 510H304Q386 510 428 460L458 490Q469 504 482 491L496
478Q510 466 496 453L453 410Q460 386 460 355ZM159 351V191L356 388Q343 425 290 425H231Q159 425 159 351ZM362 159V319L165 121Q178 85 231 85H290Q362 85 362 159Z" />
<glyph unicode="&#xf9;" glyph-name="ugrave" horiz-adv-x="517" d="M284 574H235Q220 574 213 586L129 686Q123 694 125 698T136 703H214Q232 703 240 687L292 591Q300 574 284 574ZM252 0H207Q135 0 97 40T58 155V493Q58 510 75 510H138Q155 510 155 493V159Q155
85 227 85H275Q357 85 357 170V493Q357 510 374 510H437Q455 510 455 493V17Q455 0 437 0H374Q357 0 357 17V53H353Q329 0 252 0Z" />
<glyph unicode="&#xfa;" glyph-name="uacute" horiz-adv-x="517" d="M296 703H375Q383 703 385 699T383 686L298 586Q289 574 274 574H228Q210 574 219 591L271 687Q279 703 296 703ZM252 0H207Q135 0 97 40T58 155V493Q58 510 75 510H138Q155 510 155 493V159Q155
85 227 85H275Q357 85 357 170V493Q357 510 374 510H437Q455 510 455 493V17Q455 0 437 0H374Q357 0 357 17V53H353Q329 0 252 0Z" />
<glyph unicode="&#xfb;" glyph-name="ucircumflex" horiz-adv-x="517" d="M358 574H312Q301 574 296 584L256 662L216 584Q212 574 200 574H155Q140 574 148 586L210 693Q217 703 232 703H280Q295 703 302 693L364 586Q372 574 358 574ZM252 0H207Q135 0 97 40T58
155V493Q58 510 75 510H138Q155 510 155 493V159Q155 85 227 85H275Q357 85 357 170V493Q357 510 374 510H437Q455 510 455 493V17Q455 0 437 0H374Q357 0 357 17V53H353Q329 0 252 0Z" />
<glyph unicode="&#xfc;" glyph-name="udieresis" horiz-adv-x="517" d="M120 591V686Q120 703 136 703H196Q212 703 212 687V591Q212 574 196 574H136Q120 574 120 591ZM300 591V686Q300 703 316 703H376Q392 703 392 687V591Q392 574 376 574H316Q300 574 300
591ZM252 0H207Q135 0 97 40T58 155V493Q58 510 75 510H138Q155 510 155 493V159Q155 85 227 85H275Q357 85 357 170V493Q357 510 374 510H437Q455 510 455 493V17Q455 0 437 0H374Q357 0 357 17V53H353Q329 0 252 0Z" />
<glyph unicode="&#xfd;" glyph-name="yacute" horiz-adv-x="467" d="M276 703H354Q363 703 365 699T362 686L278 586Q269 574 254 574H207Q190 574 199 591L251 687Q259 703 276 703ZM123 -162H70Q53 -162 53 -145V-94Q53 -76 70 -76H93Q154 -76 177 -52T217 27H177Q162
27 156 44L23 493Q19 510 36 510H103Q119 510 123 493L232 101H236L345 493Q348 510 365 510H429Q448 510 445 492L308 11Q285 -73 243 -117T123 -162Z" />
<glyph unicode="&#xfe;" glyph-name="thorn" horiz-adv-x="520" d="M245 85H297Q369 85 369 159V351Q369 425 297 425H245Q163 425 163 340V170Q163 85 245 85ZM163 53V-116Q163 -133 146 -133H82Q65 -133 65 -116V686Q65 703 82 703H146Q163 703 163 686V457H167Q190
510 267 510H312Q385 510 426 470T467 355V155Q467 82 426 41T312 0H267Q190 0 167 53H163Z" />
<glyph unicode="&#xff;" glyph-name="ydieresis" horiz-adv-x="467" d="M99 591V686Q99 703 114 703H175Q191 703 191 687V591Q191 574 175 574H114Q99 574 99 591ZM278 591V686Q278 703 294 703H354Q371 703 371 687V591Q371 574 354 574H294Q278 574 278 591ZM123
-162H70Q53 -162 53 -145V-94Q53 -76 70 -76H93Q154 -76 177 -52T217 27H177Q162 27 156 44L23 493Q19 510 36 510H103Q119 510 123 493L232 101H236L345 493Q348 510 365 510H429Q448 510 445 492L308 11Q285 -73 243 -117T123 -162Z" />
<glyph unicode="&#x2013;" glyph-name="endash" horiz-adv-x="400" d="M343 291H57Q40 291 40 308V341Q40 359 57 359H343Q360 359 360 341V308Q360 291 343 291Z" />
<glyph unicode="&#x2014;" glyph-name="emdash" horiz-adv-x="597" d="M40 308V341Q40 359 57 359H540Q557 359 557 341V308Q557 291 540 291H57Q40 291 40 308Z" />
<glyph unicode="&#x2018;" glyph-name="quoteleft" horiz-adv-x="183" d="M47 420V465Q47 492 65 537L108 634Q112 643 122 643Q136 643 136 627V421Q136 404 120 404H63Q47 404 47 420Z" />
<glyph unicode="&#x2019;" glyph-name="quoteright" horiz-adv-x="183" d="M136 627V582Q136 554 118 511L75 413Q70 404 60 404Q47 404 47 420V626Q47 643 63 643H120Q136 643 136 627Z" />
<glyph unicode="&#x201a;" glyph-name="quotesinglbase" horiz-adv-x="187" d="M139 113V69Q139 43 120 -3L78 -101Q73 -109 63 -109Q49 -109 49 -94V113Q49 129 66 129H122Q139 129 139 113Z" />
<glyph unicode="&#x201c;" glyph-name="quotedblleft" horiz-adv-x="340" d="M204 420V465Q204 494 223 537L265 634Q271 643 280 643Q294 643 294 627V421Q294 404 278 404H221Q204 404 204 420ZM47 420V465Q47 492 65 537L108 634Q112 643 122 643Q136 643 136
627V421Q136 404 120 404H63Q47 404 47 420Z" />
<glyph unicode="&#x201d;" glyph-name="quotedblright" horiz-adv-x="340" d="M136 627V582Q136 554 118 511L75 413Q70 404 60 404Q47 404 47 420V626Q47 643 63 643H120Q136 643 136 627ZM294 627V582Q294 557 275 511L233 413Q228 404 218 404Q204 404 204
420V626Q204 643 221 643H278Q294 643 294 627Z" />
<glyph unicode="&#x201e;" glyph-name="quotedblbase" horiz-adv-x="345" d="M139 113V68Q139 43 120 -4L78 -101Q74 -110 63 -110Q49 -110 49 -94V112Q49 129 66 129H122Q139 129 139 113ZM296 113V68Q296 41 278 -4L235 -101Q230 -110 220 -110Q207 -110 207
-94V112Q207 129 223 129H280Q296 129 296 113Z" />
<glyph unicode="&#x2022;" glyph-name="bullet" horiz-adv-x="286" d="M215 362V278Q215 226 162 226H123Q71 226 71 278V362Q71 414 123 414H162Q187 414 201 401T215 362Z" />
<glyph unicode="&#x2039;" glyph-name="guilsinglleft" horiz-adv-x="284" d="M231 144V95Q231 86 226 84T213 87L69 209Q53 221 53 240V273Q53 291 69 303L213 425Q221 431 226 429T231 417V368Q231 353 216 343L115 256L216 169Q231 159 231 144Z" />
<glyph unicode="&#x203a;" glyph-name="guilsinglright" horiz-adv-x="284" d="M53 368V417Q53 426 57 428T70 425L215 303Q231 291 231 273V240Q231 221 215 209L70 87Q62 81 58 83T53 95V144Q53 158 67 169L169 256L67 343Q53 353 53 368Z" />
</font>
</defs>
</svg>
