<?xml version="1.0" standalone="no"?>
<!DOCTYPE svg PUBLIC "-//W3C//DTD SVG 1.1//EN" "http://www.w3.org/Graphics/SVG/1.1/DTD/svg11.dtd">
<svg xmlns="http://www.w3.org/2000/svg">
<defs >
<font id="Rajdhani" horiz-adv-x="477" ><font-face
    font-family="Rajdhani"
    units-per-em="1000"
    panose-1="2 0 0 0 0 0 0 0 0 0"
    ascent="930"
    descent="-346"
    alphabetic="0" />
<glyph unicode=" " glyph-name="space" horiz-adv-x="267" />
<glyph unicode="!" glyph-name="exclam" horiz-adv-x="237" d="M90 533V631Q90 643 100 643H137Q148 643 148 631V533Q148 455 143 350T136 226T126 208H111Q103 208 100 221Q98 241 94 347T90 533ZM145 131V12Q145 0 135 0H103Q92 0 92 12V131Q92 142 103 142H135Q145
142 145 131Z" />
<glyph unicode="&quot;" glyph-name="quotedbl" horiz-adv-x="330" d="M91 435H86Q74 435 74 448L63 631Q63 643 74 643H104Q116 643 114 631L103 448Q103 435 91 435ZM244 435H239Q227 435 227 448L216 631Q214 643 227 643H256Q267 643 267 631L256 448Q255
435 244 435Z" />
<glyph unicode="#" glyph-name="numbersign" horiz-adv-x="677" d="M611 477Q622 477 622 466V444Q622 433 611 433H510L447 210H544Q556 210 556 199V177Q556 166 544 166H435L392 13Q389 0 378 0H356Q345 0 349 16L391 166H201L158 13Q155 0 144 0H122Q111 0
115 16L157 166H66Q55 166 55 177V199Q55 210 66 210H169L231 433H133Q121 433 121 444V466Q121 477 133 477H243L286 630Q289 643 301 643H320Q334 643 330 627L288 477H477L520 630Q524 643 536 643H554Q568 643 564 627L522 477H611ZM403 210L465 433H276L213
210H403Z" />
<glyph unicode="$" glyph-name="dollar" horiz-adv-x="504" d="M275 -98H252Q241 -98 241 -86V0H209Q145 0 107 38T69 142V173Q69 184 80 184H109Q119 184 119 173V145Q119 45 216 45H288Q385 45 385 146V205Q385 258 359 279T279 301L216 302Q146 304 108 334T69
440V503Q69 568 107 606T209 645H241V731Q241 743 252 743H275Q286 743 286 731V645H295Q358 645 395 607T433 503V475Q433 463 423 463H394Q383 463 383 475V499Q383 599 286 599H216Q119 599 119 497V439Q119 389 144 369T223 347H295Q360 345 397 314T435 208V142Q435
76 397 38T295 0H286V-86Q286 -98 275 -98Z" />
<glyph unicode="%" glyph-name="percent" horiz-adv-x="717" d="M550 259H532Q488 259 472 241T455 176V120Q455 75 472 56T532 37H550Q593 37 609 56T626 120V176Q626 222 610 240T550 259ZM528 296H553Q612 296 639 267T667 178V118Q667 0 553 0H528Q413 0 413
118V178Q413 296 528 296ZM186 610H168Q125 610 109 592T92 528V471Q92 426 108 407T168 388H186Q229 388 245 407T262 471V528Q262 573 246 591T186 610ZM165 647H190Q304 647 304 530V470Q304 351 190 351H165Q50 351 50 470V530Q50 647 165 647ZM230 0H211Q199
0 205 16T337 322T471 630Q478 643 487 643H506Q520 643 512 628L246 13Q240 0 230 0Z" />
<glyph unicode="&amp;" glyph-name="ampersand" horiz-adv-x="597" d="M216 45H292Q370 45 382 115L204 319Q121 314 121 221V141Q121 45 216 45ZM292 0H212Q147 0 109 37T71 139V224Q71 274 97 311T177 350Q131 406 131 468V504Q131 569 169 606T273 643H297Q362
643 400 606T438 504V458Q438 446 427 446H398Q387 446 387 458V503Q387 599 295 599H276Q230 599 206 575T182 503V468Q182 437 191 415T225 366L288 294H527Q539 294 539 283V259Q539 248 527 248H326L533 9Q539 0 530 0H492Q482 0 475 8L416 75Q388 0 292 0Z"
/>
<glyph unicode="&apos;" glyph-name="quotesingle" horiz-adv-x="186" d="M96 443H90Q78 443 78 455L67 625Q67 636 78 636H107Q120 636 118 625L108 454Q104 443 96 443Z" />
<glyph unicode="(" glyph-name="parenleft" horiz-adv-x="283" d="M216 634V612Q216 602 205 602H202Q154 602 128 574T102 492V49Q102 -4 128 -32T202 -61H205Q216 -61 216 -71V-93Q216 -102 205 -102H202Q135 -102 96 -62T56 52V489Q56 562 95 602T202 643H206Q216
643 216 634Z" />
<glyph unicode=")" glyph-name="parenright" horiz-adv-x="283" d="M56 -93V-71Q56 -61 68 -61H71Q119 -61 145 -33T171 49V492Q171 545 145 573T71 602H68Q56 602 56 612V634Q56 643 68 643H71Q137 643 176 603T216 489V52Q216 -21 177 -61T71 -102H68Q56 -102 56 -93Z" />
<glyph unicode="*" glyph-name="asterisk" horiz-adv-x="406" d="M181 617V632Q181 643 192 643H214Q225 643 225 632V617Q225 549 203 505Q260 551 318 565Q328 569 331 558L338 537Q342 527 330 523L315 519Q250 498 203 505Q258 466 286 428L296 415Q301 407
293 400L275 388Q266 381 260 390L251 403Q211 457 203 505Q177 432 155 403L146 389Q140 381 131 387L113 400Q104 405 111 416Q161 482 203 505Q126 505 75 524Q65 527 68 537L76 558Q78 568 89 564Q164 544 203 505Q181 571 181 617Z" />
<glyph unicode="+" glyph-name="plus" horiz-adv-x="523" d="M285 343H441Q453 343 453 332V310Q453 299 441 299H285V141Q285 129 273 129H250Q238 129 238 141V299H82Q70 299 70 310V332Q70 343 82 343H238V501Q238 513 250 513H273Q285 513 285 501V343Z" />
<glyph unicode="," glyph-name="comma" horiz-adv-x="191" d="M123 131V53Q123 34 112 -4L83 -95Q82 -102 75 -102T67 -93V131Q67 142 78 142H113Q123 142 123 131Z" />
<glyph unicode="-" glyph-name="hyphen" horiz-adv-x="312" d="M260 298H52Q40 298 40 309V331Q40 342 52 342H260Q272 342 272 331V309Q272 298 260 298Z" />
<glyph unicode="." glyph-name="period" horiz-adv-x="191" d="M123 131V12Q123 0 113 0H78Q67 0 67 12V131Q67 142 78 142H113Q123 142 123 131Z" />
<glyph unicode="/" glyph-name="slash" horiz-adv-x="396" d="M99 0H72Q57 0 62 12T171 317T283 630Q287 643 299 643H326Q339 643 334 628L115 13Q110 0 99 0Z" />
<glyph unicode="0" glyph-name="zero" horiz-adv-x="514" d="M211 45H303Q349 45 373 70T397 144V499Q397 547 373 572T303 598H211Q165 598 141 573T117 499V144Q117 96 141 71T211 45ZM307 0H207Q142 0 104 38T66 142V501Q66 567 104 605T207 643H307Q372 643
409 605T447 501V142Q447 76 410 38T307 0Z" />
<glyph unicode="1" glyph-name="one" horiz-adv-x="317" d="M36 522V544Q36 557 48 565L174 636Q184 643 195 643H221Q232 643 232 631V12Q232 0 221 0H192Q182 0 182 12V589L53 516Q36 505 36 522Z" />
<glyph unicode="2" glyph-name="two" horiz-adv-x="478" d="M60 11V99Q60 169 120 214L317 364Q368 403 368 464V503Q368 599 273 599H201Q107 599 107 503V458Q107 446 96 446H67Q56 446 56 458V504Q56 569 94 606T197 643H278Q343 643 380 607T418 504V462Q418
384 355 336L156 183Q114 151 114 104V46H410Q421 46 421 35V11Q421 0 410 0H72Q60 0 60 11Z" />
<glyph unicode="3" glyph-name="three" horiz-adv-x="496" d="M225 346H285Q380 346 380 441V503Q380 599 285 599H208Q113 599 113 503V467Q113 456 103 456H74Q63 456 63 467V504Q63 569 101 606T204 643H289Q354 643 392 606T430 504V440Q430 348 347 324Q430
301 430 207V139Q430 74 392 37T289 0H204Q139 0 101 37T63 139V184Q63 196 74 196H103Q113 196 113 184V140Q113 44 208 44H285Q380 44 380 140V206Q380 302 285 302H225Q214 302 214 313V335Q214 346 225 346Z" />
<glyph unicode="4" glyph-name="four" horiz-adv-x="520" d="M351 176V603L99 176H351ZM389 0H362Q351 0 351 12V131H61Q46 131 46 145V163Q46 172 53 186L315 628Q324 643 339 643H386Q400 643 400 628V176H475Q486 176 486 166V142Q486 131 475 131H400V12Q400
0 389 0Z" />
<glyph unicode="5" glyph-name="five" horiz-adv-x="482" d="M280 362H194Q170 362 154 354T133 336Q120 311 109 311H77Q67 311 67 322V631Q67 643 77 643H402Q414 643 414 632V607Q414 596 402 596H117V356Q135 405 203 405H287Q352 405 389 369T426 267V142Q426
76 388 38T285 0H205Q140 0 103 38T65 142V177Q65 189 75 189H104Q115 189 115 177V143Q115 96 139 70T209 44H281Q327 44 351 69T376 143V263Q376 362 280 362Z" />
<glyph unicode="6" glyph-name="six" horiz-adv-x="497" d="M203 45H288Q334 45 358 70T382 144V240Q382 287 358 312T288 338H109V144Q109 96 133 71T203 45ZM292 0H199Q134 0 96 38T58 142V501Q58 567 96 605T199 643H389Q400 643 400 632V608Q400 598 389 598H203Q157
598 133 573T109 499V383H292Q357 383 395 345T433 242V142Q433 76 395 38T292 0Z" />
<glyph unicode="7" glyph-name="seven" horiz-adv-x="380" d="M122 0H94Q80 0 87 15L306 597H27Q16 597 16 607V632Q16 643 27 643H349Q360 643 360 632V607Q360 597 355 584L140 11Q136 0 122 0Z" />
<glyph unicode="8" glyph-name="eight" horiz-adv-x="519" d="M211 45H308Q403 45 403 141V206Q403 302 308 302H211Q117 302 117 206V141Q117 45 211 45ZM211 345H308Q354 345 378 370T403 442V502Q403 598 308 598H211Q117 598 117 502V442Q117 345 211 345ZM312
0H207Q142 0 104 36T66 138V204Q66 295 139 324Q66 353 66 443V505Q66 570 104 606T207 643H312Q377 643 414 607T452 505V443Q452 351 380 324Q452 296 452 204V138Q452 73 415 37T312 0Z" />
<glyph unicode="9" glyph-name="nine" horiz-adv-x="497" d="M201 303H381V499Q381 547 357 572T286 598H201Q155 598 131 573T107 499V402Q107 354 131 329T201 303ZM290 0H99Q87 0 87 11V35Q87 45 99 45H286Q332 45 356 70T380 144V258H197Q132 258 94 296T56
400V501Q56 567 94 605T197 643H290Q355 643 393 605T431 501V142Q431 76 393 38T290 0Z" />
<glyph unicode=":" glyph-name="colon" horiz-adv-x="191" d="M123 499V379Q123 368 113 368H78Q67 368 67 379V499Q67 510 78 510H113Q123 510 123 499ZM123 131V12Q123 0 113 0H78Q67 0 67 12V131Q67 142 78 142H113Q123 142 123 131Z" />
<glyph unicode=";" glyph-name="semicolon" horiz-adv-x="191" d="M123 131V53Q123 34 112 -4L83 -95Q82 -102 75 -102T67 -93V131Q67 142 78 142H113Q123 142 123 131ZM123 499V379Q123 368 113 368H78Q67 368 67 379V499Q67 510 78 510H113Q123 510 123 499Z" />
<glyph unicode="&lt;" glyph-name="less" horiz-adv-x="513" d="M448 480V456Q448 444 439 442L109 322L439 203Q448 201 448 189V164Q448 152 434 156L78 292Q65 296 65 309V336Q65 348 78 353L434 488Q448 494 448 480Z" />
<glyph unicode="=" glyph-name="equal" horiz-adv-x="531" d="M86 432H445Q457 432 457 421V400Q457 389 445 389H86Q74 389 74 400V421Q74 432 86 432ZM86 253H445Q457 253 457 242V221Q457 210 445 210H86Q74 210 74 221V242Q74 253 86 253Z" />
<glyph unicode="&gt;" glyph-name="greater" horiz-adv-x="531" d="M74 456V480Q74 494 88 488L445 353Q457 348 457 336V309Q457 296 445 292L88 156Q74 152 74 164V189Q74 200 84 203L413 322L84 442Q74 444 74 456Z" />
<glyph unicode="?" glyph-name="question" horiz-adv-x="473" d="M271 131V12Q271 0 261 0H225Q215 0 215 12V131Q215 142 225 142H261Q271 142 271 131ZM268 256V220Q268 208 258 208H230Q219 208 219 220V253Q219 294 230 316T277 369L313 400Q352 433 352 474V502Q352
598 257 598H216Q122 598 122 502V460Q122 448 111 448H82Q71 448 71 460V503Q71 568 109 605T212 642H261Q326 642 364 605T402 503V472Q402 418 354 379L308 340Q281 318 275 302T268 256Z" />
<glyph unicode="@" glyph-name="at" horiz-adv-x="753" d="M515 -58H333Q232 -58 158 9T83 193V351Q83 466 156 534T330 603H524Q591 603 631 563T672 457V218Q672 157 635 120T538 83H508Q493 83 483 92T472 117V137H468Q441 85 361 85Q300 85 264 122T227 225V318Q227
384 264 422T364 460H506Q517 460 517 448V130Q517 121 528 121H537Q583 121 608 147T633 221V455Q633 507 604 536T523 566H330Q244 566 183 507T122 350V195Q122 98 183 39T332 -21H515Q526 -21 526 -31V-47Q526 -58 515 -58ZM472 225V409Q472 418 462 418H368Q322
418 298 393T274 319V225Q274 177 298 152T368 126H369Q417 126 444 152T472 225Z" />
<glyph unicode="A" glyph-name="A" horiz-adv-x="533" d="M68 0H37Q26 0 30 12L229 631Q232 643 243 643H290Q300 643 304 631L503 12Q506 0 496 0H464Q454 0 451 12L397 172H135L81 12Q77 0 68 0ZM264 588L149 217H384L268 588H264Z" />
<glyph unicode="B" glyph-name="B" horiz-adv-x="546" d="M145 44H331Q426 44 426 140V209Q426 304 322 304H145Q135 304 135 296V53Q135 44 145 44ZM145 348H321Q368 348 393 373T419 444V503Q419 599 324 599H145Q135 599 135 590V357Q135 348 145 348ZM85 12V631Q85
643 95 643H328Q393 643 431 606T469 504V443Q469 352 383 326Q420 324 448 292T476 209V139Q476 74 438 37T335 0H95Q85 0 85 12Z" />
<glyph unicode="C" glyph-name="C" horiz-adv-x="542" d="M341 0H215Q150 0 113 38T75 142V501Q75 567 112 605T215 643H341Q406 643 443 605T481 501V452Q481 440 470 440H442Q431 440 431 452V499Q431 547 407 572T336 598H219Q173 598 149 572T125 499V144Q125
97 149 71T219 45H336Q382 45 406 70T431 144V191Q431 203 442 203H470Q481 203 481 191V142Q481 76 444 38T341 0Z" />
<glyph unicode="D" glyph-name="D" horiz-adv-x="557" d="M145 45H337Q383 45 407 70T432 144V499Q432 547 408 572T337 598H145Q135 598 135 589V54Q135 45 145 45ZM85 12V631Q85 643 95 643H342Q407 643 444 605T482 501V142Q482 76 445 38T342 0H95Q85 0 85 12Z" />
<glyph unicode="E" glyph-name="E" horiz-adv-x="481" d="M404 0H95Q85 0 85 12V631Q85 643 95 643H404Q416 643 416 632V609Q416 598 404 598H145Q135 598 135 589V359Q135 350 145 350H376Q387 350 387 339V316Q387 305 376 305H145Q135 305 135 296V54Q135
45 145 45H404Q416 45 416 34V11Q416 0 404 0Z" />
<glyph unicode="F" glyph-name="F" horiz-adv-x="459" d="M124 0H95Q85 0 85 12V631Q85 643 95 643H403Q415 643 415 632V609Q415 598 403 598H145Q135 598 135 589V346Q135 338 145 338H376Q387 338 387 327V303Q387 292 376 292H145Q135 292 135 284V12Q135 0 124 0Z" />
<glyph unicode="G" glyph-name="G" horiz-adv-x="539" d="M324 0H215Q150 0 113 38T75 142V501Q75 567 112 605T215 643H324Q389 643 427 605T465 501V456Q465 444 454 444H425Q414 444 414 456V499Q414 547 390 572T320 598H219Q173 598 149 572T125 499V144Q125
97 149 71T219 45H320Q366 45 390 70T414 144V276Q414 285 405 285H290Q279 285 279 296V319Q279 330 290 330H446Q465 330 465 310V142Q465 76 427 38T324 0Z" />
<glyph unicode="H" glyph-name="H" horiz-adv-x="570" d="M124 0H95Q85 0 85 12V631Q85 643 95 643H124Q135 643 135 631V358Q135 349 145 349H425Q435 349 435 358V631Q435 643 445 643H474Q485 643 485 631V12Q485 0 474 0H445Q435 0 435 12V295Q435 304 425
304H145Q135 304 135 295V12Q135 0 124 0Z" />
<glyph unicode="I" glyph-name="I" horiz-adv-x="230" d="M140 631V12Q140 0 129 0H100Q90 0 90 12V631Q90 643 100 643H129Q140 643 140 631Z" />
<glyph unicode="J" glyph-name="J" horiz-adv-x="499" d="M380 643H408Q419 643 419 632V142Q419 76 382 38T279 0H179Q114 0 76 38T38 142V225Q38 236 49 236H78Q89 236 89 225V144Q89 96 113 71T183 45H274Q320 45 344 70T369 144V631Q369 643 380 643Z" />
<glyph unicode="K" glyph-name="K" horiz-adv-x="530" d="M124 0H95Q85 0 85 12V631Q85 643 95 643H124Q135 643 135 631V262H139Q145 278 157 295L411 631Q420 643 432 643H467Q480 643 471 631L270 362L502 12Q510 0 496 0H468Q453 0 446 12L238 324L135 200V12Q135
0 124 0Z" />
<glyph unicode="L" glyph-name="L" horiz-adv-x="451" d="M413 0H95Q85 0 85 12V631Q85 643 95 643H124Q135 643 135 631V56Q135 47 145 47H413Q425 47 425 36V11Q425 0 413 0Z" />
<glyph unicode="M" glyph-name="M" horiz-adv-x="696" d="M547 643H601Q611 643 611 631V12Q611 0 601 0H572Q561 0 561 12V566H557L380 151Q374 140 365 140H332Q322 140 318 151L138 567H134V12Q134 0 124 0H95Q85 0 85 12V631Q85 643 95 643H149Q156 643 158
637L346 198H350L538 637Q540 643 547 643Z" />
<glyph unicode="N" glyph-name="N" horiz-adv-x="579" d="M124 0H95Q85 0 85 12V631Q85 643 95 643H122Q131 643 134 637L441 109H445V631Q445 643 456 643H484Q495 643 495 631V12Q495 0 484 0H461Q452 0 445 11L139 535H135V12Q135 0 124 0Z" />
<glyph unicode="O" glyph-name="O" horiz-adv-x="553" d="M219 45H333Q379 45 403 70T428 144V499Q428 547 404 572T333 598H219Q173 598 149 572T125 499V144Q125 97 149 71T219 45ZM338 0H215Q150 0 113 38T75 142V501Q75 567 112 605T215 643H338Q403 643 440
605T478 501V142Q478 76 441 38T338 0Z" />
<glyph unicode="P" glyph-name="P" horiz-adv-x="524" d="M124 0H95Q85 0 85 12V631Q85 643 95 643H325Q390 643 428 605T466 501V384Q466 318 428 280T325 242H145Q135 242 135 234V12Q135 0 124 0ZM145 288H321Q367 288 391 313T415 386V499Q415 547 391 572T321
598H145Q135 598 135 589V296Q135 288 145 288Z" />
<glyph unicode="Q" glyph-name="Q" horiz-adv-x="556" d="M221 45H335Q381 45 405 70T430 144V499Q430 547 406 572T335 598H221Q175 598 151 573T127 499V144Q127 96 151 71T221 45ZM416 -133H388Q375 -133 368 -121L294 0H217Q152 0 114 38T76 142V501Q76 567
114 605T217 643H339Q404 643 442 605T480 501V142Q480 79 445 41T348 1L423 -120Q430 -133 416 -133Z" />
<glyph unicode="R" glyph-name="R" horiz-adv-x="534" d="M124 0H95Q85 0 85 12V631Q85 643 95 643H323Q388 643 426 605T464 501V406Q464 350 436 314T358 268V264L477 12Q483 0 470 0H439Q426 0 421 12L303 264H145Q135 264 135 255V12Q135 0 124 0ZM145 307H318Q364
307 389 332T414 405V499Q414 546 389 572T318 598H145Q135 598 135 589V316Q135 307 145 307Z" />
<glyph unicode="S" glyph-name="S" horiz-adv-x="562" d="M81 142V178Q81 189 92 189H121Q132 189 132 178V145Q132 45 229 45H333Q430 45 430 146V188Q430 232 394 257T307 293T205 316T117 360T81 446V501Q81 567 119 605T222 643H338Q403 643 441 605T479 501V473Q479
462 468 462H439Q428 462 428 473V498Q428 598 331 598H228Q132 598 132 496V446Q132 377 255 353Q306 343 357 330T445 283T481 191V142Q481 76 443 38T340 0H222Q157 0 119 38T81 142Z" />
<glyph unicode="T" glyph-name="T" horiz-adv-x="420" d="M225 0H196Q185 0 185 12V589Q185 598 175 598H30Q18 598 18 609V632Q18 643 30 643H390Q402 643 402 632V609Q402 598 390 598H245Q235 598 235 589V12Q235 0 225 0Z" />
<glyph unicode="U" glyph-name="U" horiz-adv-x="552" d="M433 643H461Q472 643 472 632V142Q472 76 435 38T332 0H220Q155 0 118 38T80 142V631Q80 643 90 643H119Q130 643 130 631V144Q130 97 154 71T224 45H327Q373 45 397 70T422 144V631Q422 643 433 643Z" />
<glyph unicode="V" glyph-name="V" horiz-adv-x="500" d="M273 0H227Q217 0 214 12L28 631Q24 643 37 643H68Q78 643 81 631L248 62H252L419 631Q422 643 432 643H463Q475 643 472 631L286 12Q283 0 273 0Z" />
<glyph unicode="W" glyph-name="W" horiz-adv-x="794" d="M233 0H183Q172 0 169 12L32 631Q29 643 42 643H75Q86 643 88 631L207 57H212L364 632Q366 643 377 643H415Q427 643 429 632L582 57H587L705 631Q707 643 719 643H753Q765 643 762 631L625 12Q623 0 612
0H561Q550 0 547 12L399 576H395L246 12Q243 0 233 0Z" />
<glyph unicode="X" glyph-name="X" horiz-adv-x="504" d="M75 0H41Q30 0 35 12L218 339L45 631Q42 636 44 639T52 643H83Q96 643 101 631L251 374H255L403 631Q410 643 420 643H453Q466 643 460 631L287 340L469 12Q476 0 463 0H429Q420 0 414 10L254 300H250L90
10Q84 0 75 0Z" />
<glyph unicode="Y" glyph-name="Y" horiz-adv-x="493" d="M261 0H232Q221 0 221 12V243L27 631Q21 643 34 643H70Q79 643 84 631L244 304H249L408 631Q413 643 422 643H459Q470 643 466 631L271 243V12Q271 0 261 0Z" />
<glyph unicode="Z" glyph-name="Z" horiz-adv-x="482" d="M42 11V37Q42 49 46 54L373 592V596H65Q53 596 53 607V632Q53 643 65 643H418Q430 643 430 632V599Q430 590 425 582L101 51V47H428Q440 47 440 37V11Q440 0 428 0H53Q42 0 42 11Z" />
<glyph unicode="[" glyph-name="bracketleft" horiz-adv-x="287" d="M207 -101H74Q64 -101 64 -89V631Q64 643 74 643H207Q218 643 218 632V614Q218 603 207 603H118Q109 603 109 594V-52Q109 -61 118 -61H207Q218 -61 218 -72V-90Q218 -101 207 -101Z" />
<glyph unicode="\" glyph-name="backslash" horiz-adv-x="396" d="M70 643H98Q108 643 114 628Q130 593 334 14Q340 0 324 0H298Q287 0 282 13L63 628Q56 643 70 643Z" />
<glyph unicode="]" glyph-name="bracketright" horiz-adv-x="287" d="M60 -90V-72Q60 -61 72 -61H160Q170 -61 170 -52V594Q170 603 160 603H72Q60 603 60 614V632Q60 643 72 643H204Q215 643 215 631V-89Q215 -101 204 -101H72Q60 -101 60 -90Z" />
<glyph unicode="^" glyph-name="asciicircum" horiz-adv-x="465" d="M91 364H67Q60 364 58 368T59 378L190 628Q198 643 214 643H251Q268 643 275 628L406 378Q410 372 408 368T398 364H374Q363 364 357 376L232 612L108 376Q100 364 91 364Z" />
<glyph unicode="_" glyph-name="underscore" horiz-adv-x="372" d="M360 -99H12Q0 -99 0 -88V-73Q0 -63 12 -63H360Q372 -63 372 -73V-88Q372 -99 360 -99Z" />
<glyph unicode="`" glyph-name="grave" horiz-adv-x="269" d="M195 574H175Q165 574 159 583L69 692Q65 696 67 699T74 703H119Q132 703 137 692L200 586Q206 574 195 574Z" />
<glyph unicode="a" glyph-name="a" horiz-adv-x="502" d="M269 0H205Q140 0 103 38T65 142V368Q65 434 102 472T205 510H417Q427 510 427 498V12Q427 0 417 0H388Q377 0 377 12V52H373Q347 0 269 0ZM377 143V456Q377 465 367 465H209Q163 465 139 439T115 366V144Q115
97 139 71T209 45H274Q322 45 349 70T377 143Z" />
<glyph unicode="b" glyph-name="b" horiz-adv-x="504" d="M135 45H294Q340 45 364 70T389 144V375Q389 422 365 447T294 473H228Q180 473 153 448T125 375V54Q125 45 135 45ZM75 12V691Q75 703 85 703H114Q125 703 125 691V466H129Q157 518 233 518H299Q364 518
401 480T439 377V142Q439 76 402 38T299 0H85Q75 0 75 12Z" />
<glyph unicode="c" glyph-name="c" horiz-adv-x="394" d="M360 34V11Q360 0 349 0H205Q140 0 103 38T65 142V368Q65 434 102 472T205 510H349Q360 510 360 499V475Q360 465 349 465H209Q163 465 139 439T115 366V144Q115 97 139 71T209 45H349Q360 45 360 34Z" />
<glyph unicode="d" glyph-name="d" horiz-adv-x="504" d="M270 0H203Q139 0 102 38T65 142V368Q65 434 102 472T203 510H270Q347 510 375 458H379V691Q379 703 389 703H418Q429 703 429 691V12Q429 0 418 0H389Q379 0 379 12V52H375Q347 0 270 0ZM379 143V367Q379
414 352 439T276 465H209Q163 465 139 439T115 366V144Q115 97 139 71T209 45H276Q324 45 351 70T379 143Z" />
<glyph unicode="e" glyph-name="e" horiz-adv-x="492" d="M414 0H205Q140 0 103 38T65 142V368Q65 434 102 472T205 510H291Q356 510 394 472T432 368V241Q432 229 420 229H124Q115 229 115 220V143Q115 96 139 71T209 45H414Q425 45 425 34V11Q425 0 414 0ZM124
269H373Q382 269 382 278V367Q382 414 358 439T288 465H209Q163 465 139 440T115 367V278Q115 269 124 269Z" />
<glyph unicode="f" glyph-name="f" horiz-adv-x="303" d="M180 510H271Q283 510 283 499V476Q283 465 271 465H180Q171 465 171 456V12Q171 0 160 0H131Q120 0 120 12V456Q120 465 111 465H47Q36 465 36 476V499Q36 510 47 510H111Q120 510 120 519V563Q120 703
247 703H271Q283 703 283 692V669Q283 658 271 658H252Q207 658 189 634T171 561V519Q171 510 180 510Z" />
<glyph unicode="g" glyph-name="g" horiz-adv-x="506" d="M273 29H208Q144 29 107 67T69 170V368Q69 434 106 472T209 510H421Q432 510 432 498V2Q432 -64 394 -102T291 -140H109Q98 -140 98 -129V-105Q98 -95 109 -95H287Q333 -95 357 -70T381 4V81H377Q352 29
273 29ZM381 172V456Q381 465 372 465H214Q168 465 144 440T119 366V172Q119 125 143 100T214 74H278Q326 74 353 99T381 172Z" />
<glyph unicode="h" glyph-name="h" horiz-adv-x="507" d="M114 0H85Q75 0 75 12V691Q75 703 85 703H114Q125 703 125 691V458H129Q157 510 233 510H299Q363 510 400 472T437 368V12Q437 0 427 0H398Q387 0 387 12V366Q387 413 363 439T293 465H228Q180 465 153
440T125 367V12Q125 0 114 0Z" />
<glyph unicode="i" glyph-name="i" horiz-adv-x="210" d="M80 594V690Q80 701 90 701H120Q130 701 130 690V594Q130 582 120 582H90Q80 582 80 594ZM80 12V498Q80 510 90 510H119Q130 510 130 498V12Q130 0 120 0H90Q80 0 80 12Z" />
<glyph unicode="j" glyph-name="j" horiz-adv-x="210" d="M80 594V690Q80 701 90 701H120Q130 701 130 690V594Q130 582 120 582H90Q80 582 80 594ZM-11 -140H-40Q-52 -140 -52 -129V-105Q-52 -95 -40 -95H-19Q80 -95 80 8V498Q80 510 90 510H119Q130 510 130
498V2Q130 -64 92 -102T-11 -140Z" />
<glyph unicode="k" glyph-name="k" horiz-adv-x="431" d="M362 510H393Q399 510 401 507T399 498L246 266V262L417 12Q421 7 419 4T411 0H380Q365 0 357 12L192 255Q188 263 192 271L342 500Q348 510 362 510ZM114 0H85Q75 0 75 12V691Q75 703 85 703H114Q125
703 125 691V12Q125 0 114 0Z" />
<glyph unicode="l" glyph-name="l" horiz-adv-x="210" d="M119 0H90Q80 0 80 12V691Q80 703 90 703H119Q130 703 130 691V12Q130 0 119 0Z" />
<glyph unicode="m" glyph-name="m" horiz-adv-x="769" d="M114 0H85Q75 0 75 12V498Q75 510 85 510H114Q125 510 125 498V458H129Q158 510 235 510H276Q364 510 398 440Q413 475 449 492T523 510H560Q625 510 662 472T699 368V12Q699 0 688 0H659Q648 0 648 12V366Q648
414 624 439T554 465H517Q469 465 441 438T413 363V12Q413 0 402 0H373Q362 0 362 12V366Q362 414 338 439T268 465H228Q180 465 153 440T125 367V12Q125 0 114 0Z" />
<glyph unicode="n" glyph-name="n" horiz-adv-x="507" d="M114 0H85Q75 0 75 12V498Q75 510 85 510H114Q125 510 125 498V458H129Q157 510 233 510H299Q363 510 400 472T437 368V12Q437 0 427 0H398Q387 0 387 12V366Q387 413 363 439T293 465H228Q180 465 153
440T125 367V12Q125 0 114 0Z" />
<glyph unicode="o" glyph-name="o" horiz-adv-x="496" d="M291 0H205Q140 0 103 38T65 142V368Q65 434 102 472T205 510H291Q356 510 394 472T432 368V142Q432 76 394 38T291 0ZM209 45H287Q333 45 357 70T382 143V367Q382 414 358 439T287 465H209Q163 465 139
440T115 367V143Q115 96 139 71T209 45Z" />
<glyph unicode="p" glyph-name="p" horiz-adv-x="504" d="M114 -149H85Q75 -149 75 -138V498Q75 510 85 510H114Q125 510 125 498V458H129Q157 510 233 510H301Q365 510 402 472T439 368V142Q439 76 402 38T301 0H233Q157 0 129 52H125V-138Q125 -149 114 -149ZM228
45H294Q340 45 364 70T389 144V366Q389 414 365 439T294 465H228Q180 465 153 440T125 367V143Q125 96 152 71T228 45Z" />
<glyph unicode="q" glyph-name="q" horiz-adv-x="502" d="M377 148V456Q377 465 367 465H209Q163 465 139 439T115 366V144Q115 97 139 71T209 45H272Q321 45 349 73T377 148ZM265 0H205Q140 0 103 38T65 142V368Q65 434 102 472T205 510H417Q427 510 427 498V-138Q427
-149 417 -149H388Q377 -149 377 -138V54H373Q360 30 340 17T304 2T265 0Z" />
<glyph unicode="r" glyph-name="r" horiz-adv-x="313" d="M114 0H85Q75 0 75 12V498Q75 510 85 510H114Q125 510 125 498V456H129Q140 477 168 493T237 510H276Q287 510 287 499V475Q287 464 276 465H229Q180 465 153 435T125 354V12Q125 0 114 0Z" />
<glyph unicode="s" glyph-name="s" horiz-adv-x="431" d="M240 0H66Q55 0 55 11V34Q55 44 66 44H235Q325 44 325 114V138Q325 203 269 223L144 271Q93 291 72 318T50 393Q50 510 179 510H341Q352 510 352 499V476Q352 466 341 466H184Q143 466 123 448T102 406V383Q102
355 117 339T165 312L290 262Q342 245 359 212T377 118T344 29T240 0Z" />
<glyph unicode="t" glyph-name="t" horiz-adv-x="347" d="M97 465H36Q25 465 25 475V499Q25 510 36 510H97Q106 510 106 519V600Q106 612 117 612H146Q157 612 157 600V519Q157 510 166 510H285Q296 510 296 499V475Q296 465 285 465H166Q157 465 157 456V141Q157
95 183 70T256 45H295Q306 45 306 34V11Q306 0 295 0H252Q186 0 146 37T106 139V456Q106 465 97 465Z" />
<glyph unicode="u" glyph-name="u" horiz-adv-x="507" d="M274 0H208Q144 0 107 38T70 142V498Q70 510 80 510H109Q120 510 120 498V144Q120 97 144 71T214 45H279Q327 45 354 70T382 143V498Q382 510 393 510H422Q432 510 432 498V12Q432 0 422 0H393Q382 0 382
12V52H378Q352 0 274 0Z" />
<glyph unicode="v" glyph-name="v" horiz-adv-x="416" d="M28 510H59Q69 510 72 498L206 56H210L343 498Q347 510 356 510H388Q399 510 395 498L244 12Q241 0 230 0H186Q175 0 171 12L20 498Q17 510 28 510Z" />
<glyph unicode="w" glyph-name="w" horiz-adv-x="683" d="M214 0H174Q164 0 161 12L21 498Q18 510 29 510H61Q72 510 74 498L192 63H197L313 498Q315 510 327 510H356Q368 510 370 498L484 63H489L608 498Q611 510 621 510H653Q665 510 661 498L522 12Q519 0 508
0H468Q457 0 454 12L343 434H338L228 12Q225 0 214 0Z" />
<glyph unicode="x" glyph-name="x" horiz-adv-x="413" d="M69 0H32Q19 0 27 12L172 260L34 498Q26 510 39 510H75Q86 510 92 498L205 294H209L317 498Q324 510 334 510H370Q383 510 375 498L240 262L387 12Q394 0 382 0H342Q334 0 328 12L209 226H205L86 12Q79 0 69 0Z" />
<glyph unicode="y" glyph-name="y" horiz-adv-x="459" d="M99 -152H62Q51 -152 51 -141V-117Q51 -106 62 -106H89Q119 -106 140 -98T177 -66T198 -30Q212 1 221 27H202Q191 27 188 39L29 498Q25 510 37 510H68Q78 510 81 498L228 69H232L379 498Q382 510 392 510H422Q434
510 431 498Q252 -26 245 -44T217 -93Q179 -152 99 -152Z" />
<glyph unicode="z" glyph-name="z" horiz-adv-x="405" d="M34 11V25Q34 36 40 44L302 461V465H52Q41 465 41 476V499Q41 510 52 510H352Q364 510 364 499V477Q364 468 359 460L101 49V45H359Q371 45 371 34V11Q371 0 359 0H46Q34 0 34 11Z" />
<glyph unicode="{" glyph-name="braceleft" horiz-adv-x="298" d="M223 643H228Q239 643 239 632V613Q239 602 228 602H224Q185 602 170 578T154 504V366Q154 288 100 270Q154 254 154 174V37Q154 -12 169 -36T224 -61H228Q239 -61 239 -72V-91Q239 -102 228 -102H223Q167
-102 139 -65T110 40V171Q110 212 95 229T48 247Q36 247 36 258V282Q36 293 48 293Q79 293 94 310T110 369V501Q110 569 138 606T223 643Z" />
<glyph unicode="|" glyph-name="bar" horiz-adv-x="207" d="M124 631V12Q124 0 113 0H93Q82 0 82 12V631Q82 643 93 643H113Q124 643 124 631Z" />
<glyph unicode="}" glyph-name="braceright" horiz-adv-x="298" d="M166 501V369Q166 328 181 311T228 293Q239 293 239 282V258Q239 247 228 247Q197 247 182 230T166 171V40Q166 -28 138 -65T53 -102H48Q36 -102 36 -91V-72Q36 -61 48 -61H52Q90 -61 105 -37T121
37V174Q121 253 175 270Q121 289 121 366V504Q121 553 106 577T52 602H48Q36 602 36 613V632Q36 643 48 643H53Q109 643 137 606T166 501Z" />
<glyph unicode="~" glyph-name="asciitilde" horiz-adv-x="523" d="M325 288T259 302T168 317T111 306T79 295Q70 295 70 306V325Q70 337 89 345Q126 360 162 360T263 345T355 330T412 341T444 352Q453 352 453 341V322Q453 311 435 303Q400 288 363 288Z" />
<glyph unicode="&#xa0;" glyph-name="uni00A0" horiz-adv-x="267" />
<glyph unicode="&#xa1;" glyph-name="exclamdown" horiz-adv-x="237" d="M135 501H103Q92 501 92 512V631Q92 643 103 643H135Q145 643 145 631V512Q145 501 135 501ZM111 435H126Q134 435 136 417T143 294T148 110V12Q148 0 137 0H100Q90 0 90 12V110Q90 189
94 295T100 422Q103 435 111 435Z" />
<glyph unicode="&#xa2;" glyph-name="cent" horiz-adv-x="414" d="M271 -90H247Q236 -90 236 -79V0H203Q139 0 102 38T65 142V368Q65 433 102 471T203 510H236V601Q236 613 247 613H271Q282 613 282 601V510H363Q378 510 378 499V475Q378 465 367 465H209Q163
465 139 439T115 366V144Q115 97 139 71T209 45H367Q378 45 378 35V11Q378 0 367 0H282V-79Q282 -90 271 -90Z" />
<glyph unicode="&#xa3;" glyph-name="sterling" horiz-adv-x="528" d="M127 44H448Q459 44 459 33V11Q459 0 448 0H48Q36 0 36 11V33Q36 44 48 44H59Q79 44 94 64T109 114V273H48Q36 273 36 284V307Q36 317 48 317H109V504Q109 569 147 606T250 643H315Q380 643
417 607T455 504V476Q455 464 444 464H416Q405 464 405 476V503Q405 599 310 599H254Q159 599 159 503V317H321Q333 317 333 307V284Q333 273 321 273H159V119Q159 70 140 54Q133 48 127 48V44Z" />
<glyph unicode="&#xa5;" glyph-name="yen" horiz-adv-x="499" d="M263 0H235Q224 0 224 12V170H48Q36 170 36 182V199Q36 210 48 210H223V245L189 312H48Q36 312 36 324V341Q36 352 48 352H170L30 631Q25 643 36 643H74Q82 643 87 631L247 301H251L411 631Q416
643 424 643H462Q475 643 468 631L329 352H450Q462 352 462 341V324Q462 312 450 312H309L275 245V210H450Q462 210 462 199V182Q462 170 450 170H274V12Q274 0 263 0Z" />
<glyph unicode="&#xa6;" glyph-name="brokenbar" horiz-adv-x="201" d="M122 631V386Q122 375 112 375H89Q78 375 78 386V631Q78 643 89 643H112Q122 643 122 631ZM122 257V12Q122 0 112 0H89Q78 0 78 12V257Q78 268 89 268H112Q122 268 122 257Z" />
<glyph unicode="&#xa7;" glyph-name="section" horiz-adv-x="454" d="M345 303Q345 337 328 354T273 378L176 396Q133 405 108 427V347Q108 280 180 266L276 249Q321 241 345 221V303ZM256 0H78Q67 0 67 11V35Q67 45 78 45H253Q306 45 324 68T343 130T325 184T267
207L161 226Q60 247 60 345V518Q60 643 190 643H351Q363 643 363 632V608Q363 598 351 598H191Q152 598 131 577T110 519T126 464T185 438L291 419Q394 399 394 304V134Q394 0 256 0Z" />
<glyph unicode="&#xa8;" glyph-name="dieresis" horiz-adv-x="345" d="M66 586V692Q66 703 77 703H105Q115 703 115 692V586Q115 574 105 574H77Q66 574 66 586ZM230 586V692Q230 703 240 703H268Q278 703 278 692V586Q278 574 268 574H240Q230 574 230 586Z" />
<glyph unicode="&#xa9;" glyph-name="copyright" horiz-adv-x="723" d="M494 402V382Q494 372 485 372H463Q453 372 453 382V398Q453 445 435 462T368 479H350Q302 479 284 462T265 398V239Q265 193 284 176T350 158H368Q416 158 434 175T453 239V261Q453 271
463 271H485Q494 271 494 261V235Q494 122 373 122H346Q225 122 225 235V402Q225 516 346 516H373Q494 516 494 402ZM210 38H513Q560 38 585 64T610 138V505Q610 553 585 579T513 605H210Q163 605 138 579T113 505V138Q113 90 138 64T210 38ZM205 643H518Q579 643
614 607T650 510V133Q650 72 615 36T518 0H205Q144 0 108 36T72 133V510Q72 571 108 607T205 643Z" />
<glyph unicode="&#xab;" glyph-name="guillemotleft" horiz-adv-x="431" d="M366 120V96Q366 89 363 87T353 90L217 223Q206 234 206 246V265Q206 277 217 288L353 421Q359 427 362 425T366 415V391Q366 381 358 374L238 255L358 137Q366 129 366 120ZM226 120V96Q226
89 222 87T212 90L76 223Q65 234 65 246V265Q65 277 76 288L212 421Q218 427 222 425T226 415V391Q226 382 217 374L97 255L217 137Q226 128 226 120Z" />
<glyph unicode="&#xae;" glyph-name="registered" horiz-adv-x="439" d="M236 620H193V556H236Q254 556 254 574V602Q254 620 236 620ZM165 475V634Q165 646 176 646H237Q258 646 270 634T282 601V575Q282 542 257 533L284 476Q290 464 279 464H269Q260 464 258
471L231 531H193V475Q193 464 183 464H176Q165 464 165 475ZM174 428H264Q341 428 341 508V600Q341 680 264 680H174Q137 680 117 659T97 600V508Q97 470 117 449T174 428ZM267 400H172Q125 400 97 428T68 505V603Q68 651 96 679T172 708H267Q314 708 342 680T371
603V505Q371 457 343 429T267 400Z" />
<glyph unicode="&#xaf;" glyph-name="overscore" horiz-adv-x="358" d="M280 620H78Q66 620 66 631V648Q66 658 78 658H280Q292 658 292 648V631Q292 620 280 620Z" />
<glyph unicode="&#xb0;" glyph-name="degree" horiz-adv-x="298" d="M169 511H127Q78 511 78 560V657Q78 704 127 704H169Q192 704 205 692T219 657V560Q219 537 206 524T169 511ZM155 540Q174 540 180 546T186 572V641Q186 660 180 666T155 673H143Q124 673 118
667T111 641V572Q111 554 117 547T143 540H155Z" />
<glyph unicode="&#xb1;" glyph-name="plusminus" horiz-adv-x="523" d="M285 391H441Q453 391 453 380V359Q453 348 441 348H285V239Q285 227 273 227H250Q238 227 238 239V348H82Q70 348 70 359V380Q70 391 82 391H238V501Q238 513 250 513H273Q285 513 285 501V391ZM82
173H441Q453 173 453 162V141Q453 129 441 129H82Q70 129 70 141V162Q70 173 82 173Z" />
<glyph unicode="&#xb4;" glyph-name="acute" horiz-adv-x="269" d="M150 703H195Q200 703 201 700T200 692L110 583Q102 574 93 574H74Q63 574 69 586L132 692Q138 703 150 703Z" />
<glyph unicode="&#xb6;" glyph-name="paragraph" horiz-adv-x="513" d="M206 0H182Q171 0 171 12V322Q50 324 50 440V525Q50 643 179 643H415Q426 643 426 632V12Q426 0 415 0H392Q381 0 381 12V591Q381 600 371 600H226Q216 600 216 591V12Q216 0 206 0Z" />
<glyph unicode="&#xb7;" glyph-name="middot" horiz-adv-x="207" d="M131 378V259Q131 247 121 247H86Q75 247 75 259V378Q75 390 86 390H121Q131 390 131 378Z" />
<glyph unicode="&#xb8;" glyph-name="cedilla" horiz-adv-x="257" d="M112 -50Q190 -50 190 -111V-123Q190 -183 108 -183H83Q72 -183 72 -173V-160Q72 -150 83 -150H103Q156 -150 156 -118V-116Q156 -97 145 -90T103 -83H90Q72 -83 67 -70T74 -44L130 20H174L112
-46V-50Z" />
<glyph unicode="&#xbb;" glyph-name="guillemotright" horiz-adv-x="431" d="M206 391V415Q206 422 209 424T218 421L355 288Q366 277 366 265V246Q366 234 355 223L218 90Q213 84 210 86T206 96V120Q206 129 214 137L334 255L214 374Q206 381 206 391ZM65 391V415Q65
422 68 424T78 421L214 288Q226 276 226 265V246Q226 235 214 223L78 90Q72 84 69 86T65 96V120Q65 129 73 137L193 255L73 374Q65 381 65 391Z" />
<glyph unicode="&#xbf;" glyph-name="questiondown" horiz-adv-x="473" d="M202 511V630Q202 642 213 642H248Q258 642 258 630V511Q258 500 248 500H213Q202 500 202 511ZM205 386V422Q205 434 215 434H243Q254 434 254 422V389Q254 348 243 326T196 273L160
242Q121 209 121 168V140Q121 44 216 44H257Q351 44 351 140V182Q351 194 362 194H391Q402 194 402 182V139Q402 74 364 37T261 0H212Q147 0 109 37T71 139V170Q71 224 119 263L164 302Q191 324 198 340T205 386Z" />
<glyph unicode="&#xc0;" glyph-name="Agrave" horiz-adv-x="532" d="M273 707H252Q242 707 236 716L146 825Q142 830 144 833T152 836H196Q208 836 214 825L277 719Q283 707 273 707ZM68 0H37Q26 0 30 12L229 631Q232 643 243 643H290Q300 643 304 631L503 12Q506
0 496 0H464Q454 0 451 12L397 172H135L81 12Q77 0 68 0ZM264 588L149 217H384L268 588H264Z" />
<glyph unicode="&#xc1;" glyph-name="Aacute" horiz-adv-x="532" d="M336 836H381Q386 836 388 833T386 825L296 716Q290 707 280 707H260Q249 707 255 719L318 825Q324 836 336 836ZM68 0H37Q26 0 30 12L229 631Q232 643 243 643H290Q300 643 304 631L503 12Q506
0 496 0H464Q454 0 451 12L397 172H135L81 12Q77 0 68 0ZM264 588L149 217H384L268 588H264Z" />
<glyph unicode="&#xc2;" glyph-name="Acircumflex" horiz-adv-x="532" d="M356 707H332Q322 707 320 713L266 810L213 713Q211 707 201 707H177Q165 707 172 718L236 827Q242 836 255 836H277Q291 836 297 827L360 718Q367 707 356 707ZM68 0H37Q26 0 30 12L229
631Q232 643 243 643H290Q300 643 304 631L503 12Q506 0 496 0H464Q454 0 451 12L397 172H135L81 12Q77 0 68 0ZM264 588L149 217H384L268 588H264Z" />
<glyph unicode="&#xc3;" glyph-name="Atilde" horiz-adv-x="532" d="M268 724T255 713T213 702T173 720T160 780V819Q160 828 168 828H182Q191 828 191 819V786Q191 755 196 744T217 733T238 742T256 781T279 821T319 831T360 813T373 754V713Q373 703 365 703H351Q342
703 342 713V747Q342 779 337 790T316 801T295 794T279 755ZM68 0H37Q26 0 30 12L229 631Q232 643 243 643H290Q300 643 304 631L503 12Q506 0 496 0H464Q454 0 451 12L397 172H135L81 12Q77 0 68 0ZM264 588L149 217H384L268 588H264Z" />
<glyph unicode="&#xc4;" glyph-name="Adieresis" horiz-adv-x="532" d="M160 719V825Q160 836 171 836H199Q209 836 209 825V719Q209 707 199 707H171Q160 707 160 719ZM323 719V825Q323 836 334 836H362Q372 836 372 825V719Q372 707 362 707H334Q323 707 323
719ZM68 0H37Q26 0 30 12L229 631Q232 643 243 643H290Q300 643 304 631L503 12Q506 0 496 0H464Q454 0 451 12L397 172H135L81 12Q77 0 68 0ZM264 588L149 217H384L268 588H264Z" />
<glyph unicode="&#xc5;" glyph-name="Aring" horiz-adv-x="532" d="M274 695H255Q183 695 183 768V799Q183 872 255 872H274Q309 872 328 853T348 799V768Q348 733 329 714T274 695ZM259 722H270Q317 722 317 773V794Q317 844 270 844H259Q213 844 213 794V773Q213
722 259 722ZM68 0H37Q26 0 30 12L229 631Q232 643 243 643H290Q300 643 304 631L503 12Q506 0 496 0H464Q454 0 451 12L397 172H135L81 12Q77 0 68 0ZM264 588L149 217H384L268 588H264Z" />
<glyph unicode="&#xc6;" glyph-name="AE" horiz-adv-x="773" d="M42 0H8Q-2 0 2 12L341 631Q348 643 359 643H697Q708 643 708 632V609Q708 598 697 598H437Q428 598 428 589V359Q428 350 437 350H669Q680 350 680 339V316Q680 305 669 305H437Q428 305 428 296V54Q428
45 437 45H697Q708 45 708 34V11Q708 0 697 0H388Q377 0 377 12V172H147L58 12Q51 0 42 0ZM377 219V589H373L170 219H377Z" />
<glyph unicode="&#xc7;" glyph-name="Ccedilla" horiz-adv-x="542" d="M470 440H442Q431 440 431 452V499Q431 547 407 572T336 598H219Q173 598 149 572T125 499V144Q125 97 149 71T219 45H336Q382 45 406 70T431 144V191Q431 203 442 203H470Q481 203 481 191V142Q481
76 444 38T341 0H321L275 -48V-52Q315 -52 334 -66T353 -113V-125Q353 -185 271 -185H246Q236 -185 236 -174V-162Q236 -152 246 -152H266Q295 -152 307 -145T319 -120V-118Q319 -99 308 -92T266 -85H254Q236 -85 231 -72T237 -45L278 0H215Q150 0 113 38T75 142V501Q75
567 112 605T215 643H341Q406 643 443 605T481 501V452Q481 440 470 440Z" />
<glyph unicode="&#xc8;" glyph-name="Egrave" horiz-adv-x="481" d="M271 707H250Q240 707 234 716L144 825Q137 836 149 836H194Q206 836 212 825L275 719Q281 707 271 707ZM404 0H95Q85 0 85 12V631Q85 643 95 643H404Q416 643 416 632V609Q416 598 404 598H145Q135
598 135 589V359Q135 350 145 350H376Q387 350 387 339V316Q387 305 376 305H145Q135 305 135 296V54Q135 45 145 45H404Q416 45 416 34V11Q416 0 404 0Z" />
<glyph unicode="&#xc9;" glyph-name="Eacute" horiz-adv-x="481" d="M308 836H353Q358 836 360 833T358 825L268 716Q262 707 252 707H232Q221 707 227 719L290 825Q296 836 308 836ZM404 0H95Q85 0 85 12V631Q85 643 95 643H404Q416 643 416 632V609Q416 598
404 598H145Q135 598 135 589V359Q135 350 145 350H376Q387 350 387 339V316Q387 305 376 305H145Q135 305 135 296V54Q135 45 145 45H404Q416 45 416 34V11Q416 0 404 0Z" />
<glyph unicode="&#xca;" glyph-name="Ecircumflex" horiz-adv-x="481" d="M339 707H315Q305 707 303 713L250 810L196 713Q194 707 184 707H160Q148 707 155 718L219 827Q225 836 239 836H260Q274 836 280 827L344 718Q351 707 339 707ZM404 0H95Q85 0 85 12V631Q85
643 95 643H404Q416 643 416 632V609Q416 598 404 598H145Q135 598 135 589V359Q135 350 145 350H376Q387 350 387 339V316Q387 305 376 305H145Q135 305 135 296V54Q135 45 145 45H404Q416 45 416 34V11Q416 0 404 0Z" />
<glyph unicode="&#xcb;" glyph-name="Edieresis" horiz-adv-x="481" d="M144 719V825Q144 836 154 836H182Q193 836 193 825V719Q193 707 182 707H154Q144 707 144 719ZM307 719V825Q307 836 317 836H345Q356 836 356 825V719Q356 707 345 707H317Q307 707 307
719ZM404 0H95Q85 0 85 12V631Q85 643 95 643H404Q416 643 416 632V609Q416 598 404 598H145Q135 598 135 589V359Q135 350 145 350H376Q387 350 387 339V316Q387 305 376 305H145Q135 305 135 296V54Q135 45 145 45H404Q416 45 416 34V11Q416 0 404 0Z" />
<glyph unicode="&#xcc;" glyph-name="Igrave" horiz-adv-x="230" d="M126 707H106Q96 707 89 716L0 825Q-9 836 5 836H49Q62 836 67 825L130 719Q136 707 126 707ZM140 631V12Q140 0 129 0H100Q90 0 90 12V631Q90 643 100 643H129Q140 643 140 631Z" />
<glyph unicode="&#xcd;" glyph-name="Iacute" horiz-adv-x="231" d="M181 836H226Q231 836 233 833T231 825L141 716Q135 707 125 707H105Q94 707 100 719L163 825Q168 836 181 836ZM140 631V12Q140 0 129 0H100Q90 0 90 12V631Q90 643 100 643H129Q140 643 140 631Z" />
<glyph unicode="&#xce;" glyph-name="Icircumflex" horiz-adv-x="229" d="M204 707H180Q172 707 168 713L115 810L61 713Q59 707 49 707H26Q14 707 21 718L84 827Q90 836 104 836H126Q139 836 145 827L209 718Q216 707 204 707ZM140 631V12Q140 0 129 0H100Q90
0 90 12V631Q90 643 100 643H129Q140 643 140 631Z" />
<glyph unicode="&#xcf;" glyph-name="Idieresis" horiz-adv-x="230" d="M9 719V825Q9 836 19 836H47Q58 836 58 825V719Q58 707 47 707H19Q9 707 9 719ZM172 719V825Q172 836 182 836H210Q221 836 221 825V719Q221 707 210 707H182Q172 707 172 719ZM140 631V12Q140
0 129 0H100Q90 0 90 12V631Q90 643 100 643H129Q140 643 140 631Z" />
<glyph unicode="&#xd0;" glyph-name="Eth" horiz-adv-x="514" d="M147 45H340Q386 45 410 70T435 144V499Q435 547 411 572T340 598H147Q138 598 138 589V355Q138 346 147 346H295Q306 346 306 335V315Q306 304 295 304H147Q138 304 138 296V54Q138 45 147 45ZM345
0H98Q88 0 88 12V296Q88 304 78 304H36Q25 304 25 315V335Q25 346 36 346H78Q88 346 88 355V631Q88 643 98 643H345Q410 643 447 605T485 501V142Q485 76 448 38T345 0Z" />
<glyph unicode="&#xd1;" glyph-name="Ntilde" horiz-adv-x="579" d="M291 724T278 713T237 702T196 720T183 780V819Q183 828 192 828H206Q214 828 214 819V786Q214 756 220 745T240 733T261 742T279 781T303 821T343 831T384 813T397 754V713Q397 703 388 703H374Q366
703 366 713V747Q366 778 360 789T339 801T319 794T309 777T305 765T304 762T302 759Q291 724 278 713ZM124 0H95Q85 0 85 12V631Q85 643 95 643H122Q131 643 134 637L441 109H445V631Q445 643 456 643H484Q495 643 495 631V12Q495 0 484 0H461Q452 0 445 11L139
535H135V12Q135 0 124 0Z" />
<glyph unicode="&#xd2;" glyph-name="Ograve" horiz-adv-x="553" d="M291 707H270Q260 707 254 716L164 825Q157 836 169 836H214Q226 836 232 825L295 719Q301 707 291 707ZM219 45H333Q379 45 403 70T428 144V499Q428 547 404 572T333 598H219Q173 598 149 572T125
499V144Q125 97 149 71T219 45ZM338 0H215Q150 0 113 38T75 142V501Q75 567 112 605T215 643H338Q403 643 440 605T478 501V142Q478 76 441 38T338 0Z" />
<glyph unicode="&#xd3;" glyph-name="Oacute" horiz-adv-x="553" d="M335 836H380Q392 836 385 825L295 716Q289 707 278 707H258Q248 707 254 719L317 825Q322 836 335 836ZM219 45H333Q379 45 403 70T428 144V499Q428 547 404 572T333 598H219Q173 598 149 572T125
499V144Q125 97 149 71T219 45ZM338 0H215Q150 0 113 38T75 142V501Q75 567 112 605T215 643H338Q403 643 440 605T478 501V142Q478 76 441 38T338 0Z" />
<glyph unicode="&#xd4;" glyph-name="Ocircumflex" horiz-adv-x="553" d="M366 707H342Q332 707 330 713L277 810L223 713Q221 707 211 707H187Q176 707 183 718L246 827Q252 836 266 836H288Q301 836 307 827L371 718Q378 707 366 707ZM219 45H333Q379 45 403
70T428 144V499Q428 547 404 572T333 598H219Q173 598 149 572T125 499V144Q125 97 149 71T219 45ZM338 0H215Q150 0 113 38T75 142V501Q75 567 112 605T215 643H338Q403 643 440 605T478 501V142Q478 76 441 38T338 0Z" />
<glyph unicode="&#xd5;" glyph-name="Otilde" horiz-adv-x="553" d="M277 724T264 713T223 702T182 720T169 780V819Q169 828 178 828H192Q200 828 200 819V786Q200 756 206 745T227 733T248 742T266 781T289 821T329 831T370 813T383 754V713Q383 703 374 703H360Q352
703 352 713V747Q352 778 346 789T325 801T305 794T288 755ZM219 45H333Q379 45 403 70T428 144V499Q428 547 404 572T333 598H219Q173 598 149 572T125 499V144Q125 97 149 71T219 45ZM338 0H215Q150 0 113 38T75 142V501Q75 567 112 605T215 643H338Q403 643
440 605T478 501V142Q478 76 441 38T338 0Z" />
<glyph unicode="&#xd6;" glyph-name="Odieresis" horiz-adv-x="553" d="M170 719V825Q170 836 181 836H208Q219 836 219 825V719Q219 707 208 707H181Q170 707 170 719ZM333 719V825Q333 836 344 836H372Q382 836 382 825V719Q382 707 372 707H344Q333 707 333
719ZM219 45H333Q379 45 403 70T428 144V499Q428 547 404 572T333 598H219Q173 598 149 572T125 499V144Q125 97 149 71T219 45ZM338 0H215Q150 0 113 38T75 142V501Q75 567 112 605T215 643H338Q403 643 440 605T478 501V142Q478 76 441 38T338 0Z" />
<glyph unicode="&#xd7;" glyph-name="multiply" horiz-adv-x="493" d="M279 321L393 208Q401 199 393 191L376 174Q368 166 359 174L246 288L132 174Q124 166 116 174L99 191Q90 199 99 208L212 321L99 434Q91 443 99 451L116 468Q124 476 132 468L246 355L359
468Q368 476 376 468L392 451Q401 443 392 434L279 321Z" />
<glyph unicode="&#xd8;" glyph-name="Oslash" horiz-adv-x="559" d="M482 501V142Q482 76 444 38T342 0H217Q143 0 106 48L79 11Q71 2 62 8L50 16Q42 23 49 33L86 85Q77 110 77 142V501Q77 567 114 605T217 643H342Q416 643 453 595L479 631Q486 641 496 635L508
627Q516 620 509 610L473 559Q482 533 482 501ZM127 499V141L421 551Q401 598 337 598H222Q176 598 152 573T127 499ZM431 144V501L137 92Q159 45 222 45H337Q383 45 407 70T431 144Z" />
<glyph unicode="&#xd9;" glyph-name="Ugrave" horiz-adv-x="552" d="M296 707H276Q266 707 260 716L170 825Q166 830 168 833T175 836H220Q232 836 238 825L301 719Q307 707 296 707ZM433 643H461Q472 643 472 632V142Q472 76 435 38T332 0H220Q155 0 118 38T80
142V631Q80 643 90 643H119Q130 643 130 631V144Q130 97 154 71T224 45H327Q373 45 397 70T422 144V631Q422 643 433 643Z" />
<glyph unicode="&#xda;" glyph-name="Uacute" horiz-adv-x="552" d="M336 836H380Q385 836 387 833T386 825L296 716Q288 707 279 707H259Q249 707 255 719L318 825Q324 836 336 836ZM433 643H461Q472 643 472 632V142Q472 76 435 38T332 0H220Q155 0 118 38T80
142V631Q80 643 90 643H119Q130 643 130 631V144Q130 97 154 71T224 45H327Q373 45 397 70T422 144V631Q422 643 433 643Z" />
<glyph unicode="&#xdb;" glyph-name="Ucircumflex" horiz-adv-x="552" d="M366 707H342Q332 707 330 713L276 810L223 713Q221 707 211 707H187Q175 707 182 718L246 827Q252 836 266 836H287Q301 836 307 827L371 718Q378 707 366 707ZM433 643H461Q472 643 472
632V142Q472 76 435 38T332 0H220Q155 0 118 38T80 142V631Q80 643 90 643H119Q130 643 130 631V144Q130 97 154 71T224 45H327Q373 45 397 70T422 144V631Q422 643 433 643Z" />
<glyph unicode="&#xdc;" glyph-name="Udieresis" horiz-adv-x="552" d="M170 719V825Q170 836 181 836H208Q219 836 219 825V719Q219 707 208 707H181Q170 707 170 719ZM333 719V825Q333 836 344 836H372Q382 836 382 825V719Q382 707 372 707H344Q333 707 333
719ZM433 643H461Q472 643 472 632V142Q472 76 435 38T332 0H220Q155 0 118 38T80 142V631Q80 643 90 643H119Q130 643 130 631V144Q130 97 154 71T224 45H327Q373 45 397 70T422 144V631Q422 643 433 643Z" />
<glyph unicode="&#xdd;" glyph-name="Yacute" horiz-adv-x="493" d="M308 836H353Q358 836 360 833T358 825L269 716Q262 707 252 707H232Q221 707 227 719L290 825Q296 836 308 836ZM261 0H232Q221 0 221 12V243L27 631Q21 643 34 643H70Q79 643 84 631L244 304H249L408
631Q413 643 422 643H459Q470 643 466 631L271 243V12Q271 0 261 0Z" />
<glyph unicode="&#xde;" glyph-name="Thorn" horiz-adv-x="501" d="M175 178H286Q332 178 356 203T381 276V366Q381 414 357 439T286 465H175Q166 465 166 456V187Q166 178 175 178ZM155 0H126Q115 0 115 12V631Q115 643 126 643H155Q166 643 166 631V519Q166
510 175 510H291Q356 510 393 472T431 368V274Q431 209 394 171T291 133H175Q166 133 166 124V12Q166 0 155 0Z" />
<glyph unicode="&#xdf;" glyph-name="germandbls" horiz-adv-x="540" d="M255 347H309Q356 347 383 373T410 445V500Q410 547 386 572T315 598H224Q178 598 154 573T129 500V12Q129 0 119 0H90Q79 0 79 12V501Q79 567 116 605T219 643H320Q385 643 422 605T460
501V443Q460 358 384 325Q423 315 446 282T470 204V140Q470 74 433 37T330 0H236Q224 0 224 11V34Q224 44 236 44H325Q371 44 395 69T420 143V204Q420 249 389 275T311 302H255Q244 302 244 312V336Q244 347 255 347Z" />
<glyph unicode="&#xe0;" glyph-name="agrave" horiz-adv-x="502" d="M293 574H273Q264 574 256 583L167 692Q163 696 164 699T172 703H216Q230 703 234 692L298 586Q302 574 293 574ZM269 0H205Q140 0 103 38T65 142V368Q65 434 102 472T205 510H417Q427 510 427
498V12Q427 0 417 0H388Q377 0 377 12V52H373Q347 0 269 0ZM377 143V456Q377 465 367 465H209Q163 465 139 439T115 366V144Q115 97 139 71T209 45H274Q322 45 349 70T377 143Z" />
<glyph unicode="&#xe1;" glyph-name="aacute" horiz-adv-x="502" d="M322 703H367Q372 703 374 700T372 692L282 583Q276 574 265 574H245Q235 574 241 586L304 692Q310 703 322 703ZM269 0H205Q140 0 103 38T65 142V368Q65 434 102 472T205 510H417Q427 510 427
498V12Q427 0 417 0H388Q377 0 377 12V52H373Q347 0 269 0ZM377 143V456Q377 465 367 465H209Q163 465 139 439T115 366V144Q115 97 139 71T209 45H274Q322 45 349 70T377 143Z" />
<glyph unicode="&#xe2;" glyph-name="acircumflex" horiz-adv-x="502" d="M352 574H328Q318 574 316 580L263 677L209 580Q207 574 197 574H173Q162 574 169 585L232 694Q238 703 252 703H274Q287 703 293 694L357 585Q364 574 352 574ZM269 0H205Q140 0 103 38T65
142V368Q65 434 102 472T205 510H417Q427 510 427 498V12Q427 0 417 0H388Q377 0 377 12V52H373Q347 0 269 0ZM377 143V456Q377 465 367 465H209Q163 465 139 439T115 366V144Q115 97 139 71T209 45H274Q322 45 349 70T377 143Z" />
<glyph unicode="&#xe3;" glyph-name="atilde" horiz-adv-x="504" d="M165 654V693Q165 702 173 702H187Q196 702 196 693V660Q196 629 201 618T222 607T243 616T261 655T284 696T324 706T365 688T378 628V587Q378 577 370 577H356Q347 577 347 587V621Q347 652
341 663T321 675T301 668T291 651T287 639T286 636T284 633Q273 598 260 587T218 576T178 594T165 654ZM269 0H205Q140 0 103 38T65 142V368Q65 434 102 472T205 510H417Q427 510 427 498V12Q427 0 417 0H388Q377 0 377 12V52H373Q347 0 269 0ZM377 143V456Q377
465 367 465H209Q163 465 139 439T115 366V144Q115 97 139 71T209 45H274Q322 45 349 70T377 143Z" />
<glyph unicode="&#xe4;" glyph-name="adieresis" horiz-adv-x="502" d="M161 586V692Q161 703 172 703H199Q210 703 210 692V586Q210 574 199 574H172Q161 574 161 586ZM324 586V692Q324 703 335 703H363Q373 703 373 692V586Q373 574 363 574H335Q324 574 324
586ZM269 0H205Q140 0 103 38T65 142V368Q65 434 102 472T205 510H417Q427 510 427 498V12Q427 0 417 0H388Q377 0 377 12V52H373Q347 0 269 0ZM377 143V456Q377 465 367 465H209Q163 465 139 439T115 366V144Q115 97 139 71T209 45H274Q322 45 349 70T377 143Z"
/>
<glyph unicode="&#xe5;" glyph-name="aring" horiz-adv-x="502" d="M377 143V456Q377 465 367 465H209Q163 465 139 439T115 366V144Q115 97 139 71T209 45H274Q322 45 349 70T377 143ZM269 0H205Q140 0 103 38T65 142V368Q65 434 102 472T205 510H417Q427 510
427 498V12Q427 0 417 0H388Q377 0 377 12V52H373Q347 0 269 0ZM202 661V623Q202 599 212 590T247 580H261Q286 580 296 589T307 623V661Q307 685 297 694T261 703H247Q222 703 212 694T202 661ZM174 619V666Q174 730 242 730H266Q336 730 336 666V619Q336 554
266 554H242Q174 554 174 619Z" />
<glyph unicode="&#xe6;" glyph-name="ae" horiz-adv-x="795" d="M425 198V144Q425 96 449 71T519 45H720Q731 45 731 34V11Q731 0 720 0H515Q425 0 394 66Q362 0 266 0H204Q140 0 102 37T64 140V165Q64 230 101 267T204 305H366Q374 305 374 313V367Q374 414 350
439T280 465H126Q114 465 114 476V499Q114 510 126 510H279Q370 510 400 444Q433 510 523 510H591Q656 510 693 472T731 368V219Q731 207 720 207H434Q425 207 425 198ZM685 255V366Q685 414 661 439T590 465H526Q479 465 452 441T425 370V255Q425 247 434 247H675Q685
247 685 255ZM375 142V255Q375 264 365 264H209Q113 264 113 165V143Q113 44 209 44H272Q320 44 347 69T375 142Z" />
<glyph unicode="&#xe7;" glyph-name="ccedilla" horiz-adv-x="394" d="M349 465H209Q163 465 139 439T115 366V144Q115 97 139 71T209 45H349Q360 45 360 34V11Q360 0 349 0H280L236 -46V-50Q276 -50 295 -64T314 -111V-123Q314 -183 232 -183H208Q196 -183 196
-173V-160Q196 -150 208 -150H227Q280 -150 280 -118V-116Q280 -97 269 -90T227 -83H215Q197 -83 192 -70T198 -44L237 0H205Q140 0 103 38T65 142V368Q65 434 102 472T205 510H349Q360 510 360 499V475Q360 465 349 465Z" />
<glyph unicode="&#xe8;" glyph-name="egrave" horiz-adv-x="492" d="M269 574H249Q240 574 232 583L142 692Q138 696 140 699T148 703H192Q204 703 210 692L273 586Q279 574 269 574ZM414 0H205Q140 0 103 38T65 142V368Q65 434 102 472T205 510H291Q356 510 394
472T432 368V241Q432 229 420 229H124Q115 229 115 220V143Q115 96 139 71T209 45H414Q425 45 425 34V11Q425 0 414 0ZM124 269H373Q382 269 382 278V367Q382 414 358 439T288 465H209Q163 465 139 440T115 367V278Q115 269 124 269Z" />
<glyph unicode="&#xe9;" glyph-name="eacute" horiz-adv-x="492" d="M299 703H344Q349 703 351 700T349 692L259 583Q253 574 242 574H223Q212 574 218 586L281 692Q286 703 299 703ZM414 0H205Q140 0 103 38T65 142V368Q65 434 102 472T205 510H291Q356 510 394
472T432 368V241Q432 229 420 229H124Q115 229 115 220V143Q115 96 139 71T209 45H414Q425 45 425 34V11Q425 0 414 0ZM124 269H373Q382 269 382 278V367Q382 414 358 439T288 465H209Q163 465 139 440T115 367V278Q115 269 124 269Z" />
<glyph unicode="&#xea;" glyph-name="ecircumflex" horiz-adv-x="492" d="M339 574H315Q305 574 303 580L249 677L196 580Q194 574 184 574H160Q148 574 155 585L219 694Q225 703 239 703H260Q274 703 280 694L344 585Q351 574 339 574ZM414 0H205Q140 0 103 38T65
142V368Q65 434 102 472T205 510H291Q356 510 394 472T432 368V241Q432 229 420 229H124Q115 229 115 220V143Q115 96 139 71T209 45H414Q425 45 425 34V11Q425 0 414 0ZM124 269H373Q382 269 382 278V367Q382 414 358 439T288 465H209Q163 465 139 440T115 367V278Q115
269 124 269Z" />
<glyph unicode="&#xeb;" glyph-name="edieresis" horiz-adv-x="492" d="M143 586V692Q143 703 154 703H182Q192 703 192 692V586Q192 574 182 574H154Q143 574 143 586ZM307 586V692Q307 703 317 703H345Q355 703 355 692V586Q355 574 345 574H317Q307 574 307
586ZM414 0H205Q140 0 103 38T65 142V368Q65 434 102 472T205 510H291Q356 510 394 472T432 368V241Q432 229 420 229H124Q115 229 115 220V143Q115 96 139 71T209 45H414Q425 45 425 34V11Q425 0 414 0ZM124 269H373Q382 269 382 278V367Q382 414 358 439T288
465H209Q163 465 139 440T115 367V278Q115 269 124 269Z" />
<glyph unicode="&#xec;" glyph-name="igrave" horiz-adv-x="210" d="M115 574H95Q86 574 78 583L-11 692Q-15 696 -14 699T-6 703H38Q50 703 56 692L119 586Q125 574 115 574ZM80 12V498Q80 510 90 510H119Q130 510 130 498V12Q130 0 120 0H90Q80 0 80 12Z" />
<glyph unicode="&#xed;" glyph-name="iacute" horiz-adv-x="208" d="M170 703H215Q220 703 222 700T220 692L130 583Q124 574 113 574H94Q83 574 89 586L152 692Q158 703 170 703ZM80 12V498Q80 510 90 510H119Q130 510 130 498V12Q130 0 120 0H90Q80 0 80 12Z" />
<glyph unicode="&#xee;" glyph-name="icircumflex" horiz-adv-x="210" d="M194 574H171Q162 574 158 580L105 677L52 580Q48 574 39 574H16Q4 574 11 585L75 694Q81 703 94 703H116Q129 703 135 694L199 585Q206 574 194 574ZM80 12V498Q80 510 90 510H119Q130
510 130 498V12Q130 0 120 0H90Q80 0 80 12Z" />
<glyph unicode="&#xef;" glyph-name="idieresis" horiz-adv-x="210" d="M-1 586V692Q-1 703 9 703H37Q48 703 48 692V586Q48 574 37 574H9Q-1 574 -1 586ZM162 586V692Q162 703 172 703H200Q211 703 211 692V586Q211 574 200 574H172Q162 574 162 586ZM80 12V498Q80
510 90 510H119Q130 510 130 498V12Q130 0 120 0H90Q80 0 80 12Z" />
<glyph unicode="&#xf0;" glyph-name="eth" horiz-adv-x="488" d="M426 347V142Q426 76 388 38T285 0H205Q140 0 103 38T65 142V268Q65 334 102 372T205 410H269Q349 410 375 358H379Q377 399 352 430L247 549L148 466Q139 460 132 467L122 480Q116 488 124 496L221
578L141 668Q131 679 142 687L155 698Q166 705 173 696L254 606L356 693Q365 699 371 692L382 678Q389 669 381 662L280 577L390 456Q426 413 426 347ZM375 144V267Q375 314 349 339T274 365H211Q165 365 140 339T115 266V144Q115 97 139 71T209 45H281Q327 45
351 70T375 144Z" />
<glyph unicode="&#xf1;" glyph-name="ntilde" horiz-adv-x="507" d="M147 654V693Q147 702 156 702H170Q178 702 178 693V660Q178 630 184 619T205 607T226 616T244 655T267 696T307 706T348 688T361 628V587Q361 577 352 577H338Q330 577 330 587V621Q330 652
324 663T303 675T283 668T266 629T242 587T201 576T160 594T147 654ZM114 0H85Q75 0 75 12V498Q75 510 85 510H114Q125 510 125 498V458H129Q157 510 233 510H299Q363 510 400 472T437 368V12Q437 0 427 0H398Q387 0 387 12V366Q387 413 363 439T293 465H228Q180
465 153 440T125 367V12Q125 0 114 0Z" />
<glyph unicode="&#xf2;" glyph-name="ograve" horiz-adv-x="496" d="M261 574H241Q232 574 224 583L135 692Q131 696 133 699T140 703H185Q198 703 203 692L266 586Q272 574 261 574ZM291 0H205Q140 0 103 38T65 142V368Q65 434 102 472T205 510H291Q356 510 394
472T432 368V142Q432 76 394 38T291 0ZM209 45H287Q333 45 357 70T382 143V367Q382 414 358 439T287 465H209Q163 465 139 440T115 367V143Q115 96 139 71T209 45Z" />
<glyph unicode="&#xf3;" glyph-name="oacute" horiz-adv-x="496" d="M313 703H358Q363 703 365 700T363 692L274 583Q266 574 257 574H237Q226 574 232 586L295 692Q300 703 313 703ZM291 0H205Q140 0 103 38T65 142V368Q65 434 102 472T205 510H291Q356 510 394
472T432 368V142Q432 76 394 38T291 0ZM209 45H287Q333 45 357 70T382 143V367Q382 414 358 439T287 465H209Q163 465 139 440T115 367V143Q115 96 139 71T209 45Z" />
<glyph unicode="&#xf4;" glyph-name="ocircumflex" horiz-adv-x="496" d="M337 574H313Q303 574 301 580L248 677L194 580Q192 574 182 574H158Q147 574 154 585L217 694Q223 703 237 703H259Q272 703 278 694L342 585Q349 574 337 574ZM291 0H205Q140 0 103 38T65
142V368Q65 434 102 472T205 510H291Q356 510 394 472T432 368V142Q432 76 394 38T291 0ZM209 45H287Q333 45 357 70T382 143V367Q382 414 358 439T287 465H209Q163 465 139 440T115 367V143Q115 96 139 71T209 45Z" />
<glyph unicode="&#xf5;" glyph-name="otilde" horiz-adv-x="496" d="M139 654V693Q139 702 148 702H162Q170 702 170 693V660Q170 630 176 619T197 607T218 616T236 655T259 696T299 706T340 688T353 628V587Q353 577 344 577H330Q322 577 322 587V621Q322 652
316 663T295 675T275 668T258 629T234 587T193 576T152 594T139 654ZM291 0H205Q140 0 103 38T65 142V368Q65 434 102 472T205 510H291Q356 510 394 472T432 368V142Q432 76 394 38T291 0ZM209 45H287Q333 45 357 70T382 143V367Q382 414 358 439T287 465H209Q163
465 139 440T115 367V143Q115 96 139 71T209 45Z" />
<glyph unicode="&#xf6;" glyph-name="odieresis" horiz-adv-x="496" d="M142 586V692Q142 703 152 703H180Q191 703 191 692V586Q191 574 180 574H152Q142 574 142 586ZM305 586V692Q305 703 316 703H343Q354 703 354 692V586Q354 574 343 574H316Q305 574 305
586ZM291 0H205Q140 0 103 38T65 142V368Q65 434 102 472T205 510H291Q356 510 394 472T432 368V142Q432 76 394 38T291 0ZM209 45H287Q333 45 357 70T382 143V367Q382 414 358 439T287 465H209Q163 465 139 440T115 367V143Q115 96 139 71T209 45Z" />
<glyph unicode="&#xf7;" glyph-name="divide" horiz-adv-x="510" d="M234 147V208Q234 220 245 220H265Q276 220 276 208V147Q276 136 265 136H245Q234 136 234 147ZM424 301H86Q74 301 74 312V330Q74 341 86 341H424Q436 341 436 330V312Q436 301 424 301ZM234
434V494Q234 506 245 506H265Q276 506 276 494V434Q276 422 265 422H245Q234 422 234 434Z" />
<glyph unicode="&#xf8;" glyph-name="oslash" horiz-adv-x="521" d="M444 368V142Q444 76 406 38T303 0H218Q132 0 96 63L58 25Q49 17 42 25L31 36Q23 42 30 52L81 103Q77 119 77 142V368Q77 434 115 472T218 510H303Q389 510 425 447L463 485Q472 494 479 486L491
474Q498 467 490 458L440 408Q444 391 444 368ZM127 366V149L387 409Q368 465 299 465H222Q176 465 152 440T127 366ZM393 144V361L134 101Q153 45 222 45H299Q345 45 369 70T393 144Z" />
<glyph unicode="&#xf9;" glyph-name="ugrave" horiz-adv-x="507" d="M266 574H246Q235 574 229 583L139 692Q136 696 137 699T144 703H189Q202 703 207 692L270 586Q276 574 266 574ZM274 0H208Q144 0 107 38T70 142V498Q70 510 80 510H109Q120 510 120 498V144Q120
97 144 71T214 45H279Q327 45 354 70T382 143V498Q382 510 393 510H422Q432 510 432 498V12Q432 0 422 0H393Q382 0 382 12V52H378Q352 0 274 0Z" />
<glyph unicode="&#xfa;" glyph-name="uacute" horiz-adv-x="507" d="M315 703H360Q365 703 366 700T365 692L275 583Q268 574 258 574H238Q228 574 234 586L297 692Q302 703 315 703ZM274 0H208Q144 0 107 38T70 142V498Q70 510 80 510H109Q120 510 120 498V144Q120
97 144 71T214 45H279Q327 45 354 70T382 143V498Q382 510 393 510H422Q432 510 432 498V12Q432 0 422 0H393Q382 0 382 12V52H378Q352 0 274 0Z" />
<glyph unicode="&#xfb;" glyph-name="ucircumflex" horiz-adv-x="507" d="M341 574H317Q308 574 304 580L251 677L198 580Q194 574 185 574H162Q150 574 157 585L221 694Q227 703 240 703H262Q276 703 282 694L345 585Q352 574 341 574ZM274 0H208Q144 0 107 38T70
142V498Q70 510 80 510H109Q120 510 120 498V144Q120 97 144 71T214 45H279Q327 45 354 70T382 143V498Q382 510 393 510H422Q432 510 432 498V12Q432 0 422 0H393Q382 0 382 12V52H378Q352 0 274 0Z" />
<glyph unicode="&#xfc;" glyph-name="udieresis" horiz-adv-x="507" d="M145 586V692Q145 703 156 703H183Q194 703 194 692V586Q194 574 183 574H156Q145 574 145 586ZM308 586V692Q308 703 319 703H347Q357 703 357 692V586Q357 574 347 574H319Q308 574 308
586ZM274 0H208Q144 0 107 38T70 142V498Q70 510 80 510H109Q120 510 120 498V144Q120 97 144 71T214 45H279Q327 45 354 70T382 143V498Q382 510 393 510H422Q432 510 432 498V12Q432 0 422 0H393Q382 0 382 12V52H378Q352 0 274 0Z" />
<glyph unicode="&#xfd;" glyph-name="yacute" horiz-adv-x="459" d="M296 703H341Q346 703 348 700T346 692L256 583Q250 574 239 574H220Q209 574 215 586L278 692Q284 703 296 703ZM99 -152H62Q51 -152 51 -141V-117Q51 -106 62 -106H89Q119 -106 140 -98T177
-66T198 -30Q212 1 221 27H202Q191 27 188 39L29 498Q25 510 37 510H68Q78 510 81 498L228 69H232L379 498Q382 510 392 510H422Q434 510 431 498Q252 -26 245 -44T217 -93Q179 -152 99 -152Z" />
<glyph unicode="&#xfe;" glyph-name="thorn" horiz-adv-x="508" d="M232 45H298Q344 45 368 70T393 144V366Q393 414 369 439T298 465H232Q184 465 157 440T129 367V143Q129 96 156 71T232 45ZM129 52V-121Q129 -133 119 -133H90Q79 -133 79 -121V691Q79 703 90
703H119Q129 703 129 691V458H133Q161 510 238 510H303Q368 510 405 472T443 368V142Q443 76 406 38T303 0H238Q161 0 133 52H129Z" />
<glyph unicode="&#xff;" glyph-name="ydieresis" horiz-adv-x="459" d="M124 586V692Q124 703 134 703H162Q173 703 173 692V586Q173 574 162 574H134Q124 574 124 586ZM287 586V692Q287 703 298 703H325Q336 703 336 692V586Q336 574 325 574H298Q287 574 287
586ZM99 -152H62Q51 -152 51 -141V-117Q51 -106 62 -106H89Q119 -106 140 -98T177 -66T198 -30Q212 1 221 27H202Q191 27 188 39L29 498Q25 510 37 510H68Q78 510 81 498L228 69H232L379 498Q382 510 392 510H422Q434 510 431 498Q252 -26 245 -44T217 -93Q179
-152 99 -152Z" />
<glyph unicode="&#x2013;" glyph-name="endash" horiz-adv-x="408" d="M357 301H52Q40 301 40 312V331Q40 342 52 342H357Q368 342 368 331V312Q368 301 357 301Z" />
<glyph unicode="&#x2014;" glyph-name="emdash" horiz-adv-x="537" d="M40 312V331Q40 342 52 342H486Q497 342 497 331V312Q497 301 486 301H52Q40 301 40 312Z" />
<glyph unicode="&#x2018;" glyph-name="quoteleft" horiz-adv-x="179" d="M63 416V485Q63 499 74 545L100 636Q101 643 108 643T116 634V416Q116 405 105 405H74Q63 405 63 416Z" />
<glyph unicode="&#x2019;" glyph-name="quoteright" horiz-adv-x="179" d="M116 632V563Q116 547 105 503L79 412Q78 405 71 405T63 414V632Q63 643 74 643H105Q116 643 116 632Z" />
<glyph unicode="&#x201a;" glyph-name="quotesinglbase" horiz-adv-x="187" d="M120 122V54Q120 37 109 -7L83 -98Q81 -105 74 -105T67 -96V122Q67 133 78 133H109Q120 133 120 122Z" />
<glyph unicode="&#x201c;" glyph-name="quotedblleft" horiz-adv-x="329" d="M213 416V485Q213 499 224 545L250 636Q251 643 258 643T266 634V416Q266 405 255 405H224Q213 405 213 416ZM63 416V485Q63 499 74 545L100 636Q101 643 108 643T116 634V416Q116 405
105 405H74Q63 405 63 416Z" />
<glyph unicode="&#x201d;" glyph-name="quotedblright" horiz-adv-x="329" d="M116 632V563Q116 547 105 503L79 412Q78 405 71 405T63 414V632Q63 643 74 643H105Q116 643 116 632ZM266 632V563Q266 547 255 503L229 412Q228 405 221 405T213 414V632Q213 643
224 643H255Q266 643 266 632Z" />
<glyph unicode="&#x201e;" glyph-name="quotedblbase" horiz-adv-x="337" d="M120 122V53Q120 37 109 -7L83 -98Q82 -105 75 -105T67 -96V122Q67 133 78 133H109Q120 133 120 122ZM270 122V53Q270 33 234 -98Q231 -105 224 -105T217 -96V122Q217 133 228 133H260Q270
133 270 122Z" />
<glyph unicode="&#x2022;" glyph-name="bullet" horiz-adv-x="273" d="M181 380V258Q181 236 160 236H113Q91 236 91 258V380Q91 402 113 402H160Q181 402 181 380Z" />
<glyph unicode="&#x2039;" glyph-name="guilsinglleft" horiz-adv-x="290" d="M226 122V96Q226 89 222 87T212 90L76 223Q65 234 65 246V265Q65 277 76 288L212 421Q218 427 222 425T226 415V389Q226 381 217 372L100 255L217 138Q226 130 226 122Z" />
<glyph unicode="&#x203a;" glyph-name="guilsinglright" horiz-adv-x="290" d="M65 389V415Q65 422 68 424T78 421L214 288Q226 276 226 265V246Q226 235 214 223L78 90Q72 84 69 86T65 96V122Q65 131 73 138L191 255L73 372Q65 380 65 389Z" />
</font>
</defs>
</svg>
