<?xml version="1.0" standalone="no"?>
<!DOCTYPE svg PUBLIC "-//W3C//DTD SVG 1.1//EN" "http://www.w3.org/Graphics/SVG/1.1/DTD/svg11.dtd">
<svg xmlns="http://www.w3.org/2000/svg">
<defs >
<font id="Recursive" horiz-adv-x="628" ><font-face
    font-family="Recursive Sans Linear Light ExtraBold"
    units-per-em="1000"
    panose-1="0 0 0 0 0 0 0 0 0 0"
    ascent="950"
    descent="-250"
    alphabetic="0" />
<glyph unicode=" " horiz-adv-x="300" />
<glyph unicode="!" horiz-adv-x="350" d="M229 290H131Q128 290 127 291T123 293Q122 295 120 299T115 323T104 384T85 502V590Q85 618 85 645T85 700Q116 700 158 700T254 700Q257 700 259 699T263 695T265 689V502Q259 467 253 432T241 361T229 290ZM270 -10Q239
-10 210 -10T152 -10T91 -10Q88 -10 86 -9T82 -5T80 1V180Q112 180 141 180T199 180T259 180Q263 180 265 179T268 175T270 169V-10Z" />
<glyph unicode="&quot;" horiz-adv-x="600" d="M240 437Q212 437 183 437T125 437Q121 437 118 440T113 448L97 648Q96 666 95 682T92 715T89 750Q133 750 172 750T248 750Q253 750 256 747T258 737L240 437ZM489 437Q461 437 431 437T372 437Q368 437 364 440T360
448L341 750Q385 750 424 750T500 750Q505 750 508 747T510 737L489 437Z" />
<glyph unicode="#" horiz-adv-x="600" d="M203 720Q229 720 256 720T309 720Q314 720 317 718T318 709Q300 619 282 530T246 350T210 171T174 -9Q173 -16 169 -18T160 -20Q134 -20 108 -20T55 -20Q73 72 91 164T129 350T166 535T203 720ZM429 720Q445 720 463
720T500 720T535 720Q540 720 543 718T544 709Q526 619 508 530T472 350T436 171T400 -9Q399 -16 395 -18T386 -20Q370 -20 352 -20T316 -20T281 -20Q299 72 317 164T355 350T392 535T429 720ZM580 435H71Q66 435 63 438T60 446Q60 450 60 460T60 484T60 511T60
535T60 550H569Q571 550 573 550T577 547Q579 546 579 544T580 539Q580 535 580 525T580 501T580 474T580 450T580 435ZM20 255H529Q534 255 537 252T540 244Q540 240 540 231T540 209T540 185T540 164T540 150H31Q29 150 27 151T23 153Q22 155 21 157T20 161Q20
165 20 174T20 196T20 220T20 241T20 255Z" />
<glyph unicode="$" horiz-adv-x="600" d="M279 -20Q206 -20 148 -6T63 34Q62 36 61 38T60 42Q60 71 60 109T60 183H80Q125 154 174 140T290 125Q355 125 382 142T409 181V204Q409 219 404 230T381 252T324 275L230 304Q180 319 147 340T96 386T70 434T62 480V523Q62
566 80 602T132 664T215 705T324 720Q389 720 442 710T517 679Q519 678 519 676T520 671Q520 636 520 596T520 530H500Q462 555 418 565T313 575Q275 575 251 567T215 546T203 519V501Q203 483 210 472T237 451T291 431L386 402Q449 383 483 357T532 297T546 223V177Q546
119 514 75T423 6T279 -20ZM367 473Q348 478 327 483T299 490Q293 492 291 495T288 505Q288 536 288 566T288 628T288 689T288 751Q288 763 288 775T288 800T288 825T288 850Q311 850 327 850T359 850T398 850Q403 850 406 847T408 837Q404 801 400 765T392 692T384
619T375 546T367 473ZM253 231Q270 227 292 222T321 214Q327 213 329 210T332 199Q332 177 332 155T332 112T332 68T332 24T332 -20Q332 -31 332 -48T332 -85T332 -121T332 -150Q309 -150 292 -150T258 -150T218 -150Q215 -150 213 -149T209 -144T208 -135Q213
-98 217 -62T226 11T235 84T244 157T253 231Z" />
<glyph unicode="%" horiz-adv-x="600" d="M169 710Q219 710 254 691T307 641T326 569V501Q326 462 308 430T254 379T169 360Q94 360 53 401T12 501V569Q12 609 30 640T84 691T169 710ZM112 519Q112 500 116 487T128 466Q136 459 145 456T169 452Q198 452 212 468T226
519V551Q226 570 222 583T210 604Q196 618 169 618Q141 618 127 602T112 551V519ZM431 340Q481 340 516 321T569 271T588 199V131Q588 92 570 60T516 9T431 -10Q356 -10 315 31T274 131V199Q274 239 292 270T346 321T431 340ZM374 149Q374 130 378 117T390 96Q398
89 407 86T431 82Q460 82 474 98T488 149V181Q488 200 484 213T472 234Q458 248 431 248Q403 248 389 232T374 181V149ZM357 405Q358 409 364 431T379 487T398 558T417 629T432 685T439 710Q443 710 462 710T507 710T551 710T575 710Q579 710 581 709T584 704T583
697Q582 693 575 672T556 620T532 555T509 489T490 437T481 412Q480 408 478 407T471 405Q467 405 451 405T415 405T378 405T357 405ZM243 296Q242 293 236 270T221 214T202 143T183 72T168 16T161 -9Q157 -9 138 -9T93 -9T49 -9T25 -9Q21 -9 19 -8T16 -3T17 4Q18
8 25 29T44 81T68 146T91 212T110 264T119 289Q121 294 123 295T129 296Q133 296 149 296T185 296T222 296T243 296Z" />
<glyph unicode="&amp;" horiz-adv-x="600" d="M255 462Q289 417 317 379T370 308T414 249T449 203T475 169Q491 150 500 145T528 140Q533 140 539 140T550 140H570Q570 108 570 76T570 11Q570 6 568 3T559 0Q552 0 537 0T509 0Q482 0 460 5T418 26T378 67Q368
81 352 102T314 152T270 212T221 277T172 342Q137 388 118 417T92 472T84 529V539Q84 575 98 606T140 660T210 696T311 709Q358 709 391 705T443 694T467 683Q469 682 469 680T470 673Q470 645 470 616T470 558H450Q413 568 382 573T311 578Q283 578 266 574T239
560Q232 553 230 546T227 528Q227 518 229 509T237 489T255 462ZM180 -9Q133 -9 98 9T44 61T24 143V194Q24 265 62 303T151 350V409L231 303Q210 300 198 291T180 268T174 235V184Q174 150 188 135T229 119Q264 119 284 129T332 168L393 87H343Q322 44 285 18T180
-9ZM430 445Q462 445 495 445T560 445Q566 445 568 442T571 434V354Q571 321 558 293T521 242T464 205V146L395 238Q417 260 423 274T430 310Q430 341 430 376T430 445Z" />
<glyph unicode="&apos;" horiz-adv-x="350" d="M242 437Q211 437 182 437T121 437Q117 437 114 440T109 448L94 648Q93 666 92 682T89 715T86 750Q133 750 175 750T255 750Q260 750 263 747T265 737L242 437Z" />
<glyph unicode="(" horiz-adv-x="400" d="M214 742Q220 748 224 749T234 750Q263 750 287 750T338 750T395 750V730Q332 671 292 605T232 468T212 323V314Q212 241 231 169T290 30T395 -93V-113Q364 -113 338 -113T288 -113T234 -113Q229 -113 225 -112T214 -105Q159
-51 124 14T73 154T57 314V323Q57 408 73 482T125 621T214 742Z" />
<glyph unicode=")" horiz-adv-x="400" d="M186 -105Q180 -111 176 -112T166 -113Q138 -113 113 -113T62 -113T5 -113V-93Q68 -34 108 32T168 169T188 314V323Q188 397 169 469T110 607T5 730V750Q36 750 62 750T113 750T166 750Q171 750 175 749T186 742Q242 688
276 623T327 483T343 323V314Q343 230 327 156T276 17T186 -105Z" />
<glyph unicode="*" horiz-adv-x="600" d="M360 768Q365 768 367 766T368 758Q362 719 357 693T344 646T326 599L344 588Q364 611 381 627T421 662T479 709Q495 681 511 654T543 599Q546 594 545 590T538 584Q502 572 474 564T422 550T372 539V519Q404 512 429
506T482 492T548 471Q532 443 517 416T485 360Q482 355 478 354T469 357Q442 380 422 397T384 431T344 472L326 461Q332 448 335 436T342 412T348 387Q353 368 356 354T362 325T369 290Q337 290 304 290T239 290Q235 290 233 293T231 300Q237 333 243 357T256 406T273
461L255 472Q232 448 213 429T172 392T120 350Q104 378 88 405T56 460Q53 466 54 470T60 475Q95 487 121 494T173 507T229 519V539Q197 546 170 552T114 568T50 590Q66 618 82 645T114 700Q118 705 121 706T129 704Q159 680 179 663T216 628T254 588L272 599Q268
610 265 621T259 645T252 671Q246 694 241 716T230 768Q262 768 295 768T360 768Z" />
<glyph unicode="+" horiz-adv-x="600" d="M225 538Q266 538 298 538T364 538Q369 538 372 535T375 527Q375 450 375 373T375 218T375 62Q338 62 306 62T236 62Q231 62 228 65T225 73Q225 134 225 195T225 318T225 440Q225 467 225 492T225 538ZM60 374H529Q533
374 535 373T538 369T540 363Q540 329 540 295T540 226H71Q68 226 66 227T62 231T60 237Q60 272 60 306T60 374Z" />
<glyph unicode="," horiz-adv-x="350" d="M169 -180Q141 -180 104 -180T38 -180Q47 -137 55 -92T73 0T91 91T108 180Q138 180 162 180T212 180T274 180Q278 180 280 179T282 174T282 167Q272 134 260 92T233 5T205 -86T179 -173Q178 -177 176 -178T169 -180Z" />
<glyph unicode="-" horiz-adv-x="450" d="M55 371H384Q388 371 390 370T393 366T395 360Q395 326 395 295T395 228H66Q63 228 61 228T58 230T56 234T55 239Q55 274 55 305T55 371Z" />
<glyph unicode="." horiz-adv-x="350" d="M270 -10Q239 -10 210 -10T152 -10T91 -10Q88 -10 86 -9T82 -5T80 1V180Q112 180 141 180T199 180T259 180Q263 180 265 179T268 175T270 169V-10Z" />
<glyph unicode="/" horiz-adv-x="600" d="M553 750Q498 606 443 461T332 171T221 -119Q220 -123 218 -125T212 -129T206 -130Q169 -130 134 -130T61 -130Q72 -103 82 -76T103 -21Q152 106 200 233T298 488T395 743Q397 747 400 748T407 750Q445 750 480 750T553 750Z" />
<glyph unicode="0" horiz-adv-x="600" d="M300 720Q371 720 427 688T517 594T550 445V255Q550 169 517 107T427 13T300 -20Q248 -20 203 -2T123 52T69 139T50 255V445Q50 532 83 593T173 687T300 720ZM300 580Q270 580 248 568T213 526T200 445V255Q200 226 204
204T216 168T230 145Q241 134 256 127T294 120Q325 120 349 132T386 174T400 255V449Q400 477 396 497T384 531T369 555Q359 567 341 573T300 580ZM433 517V383H360L385 398Q378 377 367 361T341 329T304 294Q280 272 257 253T209 216T159 177V320H236L212 300Q220
323 232 340T262 376T308 418Q338 444 369 467T433 517Z" />
<glyph unicode="1" horiz-adv-x="600" d="M252 710Q256 710 271 710T307 710T348 710T383 710T399 710Q403 710 405 709T408 705T410 699Q410 697 410 665T410 581T410 468T410 344T410 231T410 147T410 112H254L260 138Q260 148 260 171T260 218T260 252Q260
257 260 276T260 323T260 385T260 451T260 511T260 556T260 576L271 562H224L248 579Q234 550 221 530T192 496T159 468Q144 457 134 450T117 439T108 436Q106 436 104 437T101 440T100 446V606Q119 619 138 632T176 658Q189 667 205 678T234 698T252 710ZM80 142Q82
142 107 142T173 142T261 142T357 142T445 142T511 142T539 142Q544 142 547 139T550 131Q550 127 550 108T550 66T550 23T550 0Q548 0 523 0T458 0T370 0T275 0T186 0T120 0T91 0Q88 0 87 1T83 3Q82 5 81 7T80 11Q80 14 80 27T80 58T80 95T80 126T80 142Z" />
<glyph unicode="2" horiz-adv-x="600" d="M295 720Q355 720 400 707T475 670T519 612T534 537V511Q534 478 527 449T499 391T443 335T349 274Q302 248 275 227T234 187T216 150T212 110L188 115H260L206 102Q233 117 257 125T311 138T383 142H539Q544 142 547
139T550 131Q550 128 550 115T550 84T550 48T550 16T550 0Q548 0 522 0T453 0T361 0T261 0T168 0T100 0T71 0Q68 0 66 1T62 5T60 11V108Q60 164 78 210T140 300T263 388Q304 411 328 429T364 461T380 489T384 514V520Q384 532 382 541T371 559Q363 567 344 572T289
578Q234 578 188 562T101 517H81Q81 520 81 533T81 564T81 601T81 632T81 648Q81 652 82 655T86 660Q109 681 166 700T295 720Z" />
<glyph unicode="3" horiz-adv-x="600" d="M281 720Q358 720 416 701T507 644T540 553V534Q540 485 521 452T461 399T351 365L380 394V328L351 356Q423 345 466 323T530 271T550 202V170Q550 108 517 66T423 2T281 -20Q228 -20 182 -15T103 -3T61 9Q57 11 55 15T53
24Q53 27 53 40T53 73T53 111T53 143T53 160H73Q105 148 134 142T196 133T275 130Q324 130 351 139T389 165T400 200V205Q400 225 391 240T356 266T283 282T161 288Q156 288 153 290T150 299Q150 303 150 321T150 363T150 405T150 428Q232 428 280 433T352 449T383
473T390 505V507Q390 524 380 538T345 561T275 570Q214 570 176 564T93 545H73Q73 548 73 561T73 592T73 629T73 660T73 676Q73 683 75 686T83 692Q100 699 153 709T281 720Z" />
<glyph unicode="4" horiz-adv-x="600" d="M295 700Q299 700 314 700T350 700T392 700T428 700T446 700V680Q421 641 395 601T341 518T286 433T229 346T170 255L191 326V238L167 255Q195 271 222 278T280 289T352 292H549Q553 292 555 291T558 287T560 281Q560
278 560 266T560 236T560 202T560 173T560 157H51Q48 157 46 158T42 162T40 168V292Q40 292 52 313T85 369T131 446T180 530T226 607T260 665T275 690Q278 694 280 696T286 699T295 700ZM382 410Q386 410 401 410T435 410T469 410T489 410Q493 410 495 409T498
405T500 399V98Q500 94 500 80T500 49T500 18T500 0Q497 0 483 0T450 0T412 0T378 0T361 0Q356 0 353 3T350 11Q350 14 350 39T350 101T350 174T350 235T350 264Q354 281 359 304T369 349T377 388T382 410Z" />
<glyph unicode="5" horiz-adv-x="600" d="M119 700Q121 700 143 700T199 700T273 700T354 700T429 700T485 700T509 700Q514 700 517 697T520 689Q520 686 520 674T520 646T520 612T520 583T520 568Q518 568 497 568T444 568T376 568T307 568T250 568T219 568Q187
568 165 580T131 614T119 663Q119 672 119 681T119 700ZM119 700H274L263 650Q261 632 259 608T252 550Q249 521 246 490T239 431T233 381L210 405H280L226 371Q249 408 285 423T374 438Q416 438 448 426T504 390T538 330T550 247V197Q550 146 534 106T484 38T402
-5T287 -20Q231 -20 189 -15T119 -3T80 10Q74 13 74 16T73 24Q73 27 73 40T73 73T73 111T73 143T73 160H93Q136 145 183 138T288 130Q346 130 373 150T400 203V241Q400 263 392 280T366 307T315 317Q290 317 267 311T225 293H92Q85 293 82 296T80 306Q81 315 84
345T91 420T101 514T110 612T119 700Z" />
<glyph unicode="6" horiz-adv-x="600" d="M357 720Q408 720 449 710T507 692Q512 690 514 686T517 675Q517 672 517 660T517 630T517 595T517 564T517 548H497Q457 563 418 571T335 580Q299 580 275 571T232 543Q214 525 209 497T204 429V247Q204 218 207 197T216
162T231 139Q245 125 264 119T308 112Q357 112 382 140T408 211V221Q408 245 402 263T387 290Q378 299 361 306T314 314Q279 314 248 303T187 269V391H241L213 374Q235 410 269 429T362 448Q419 448 462 425T529 358T554 255V195Q554 134 523 86T436 9T308 -20Q228
-20 170 12T81 106T50 258V401Q50 482 69 538T121 629T194 685T276 712T357 720Z" />
<glyph unicode="7" horiz-adv-x="600" d="M50 700Q65 700 84 697T124 686T161 667T189 642T200 609Q200 606 200 592T200 559T200 521T200 487T200 470Q197 470 183 470T150 470T112 470T78 470T61 470Q56 470 53 473T50 481Q50 484 50 503T50 551T50 609T50 663T50
700ZM324 0Q321 0 306 0T271 0T229 0T193 0T175 0Q170 0 167 3T164 11Q164 15 175 43T207 121T257 242T323 400Q337 434 349 459T375 503T405 539T443 572L405 518V589L452 558Q408 558 366 558T286 558T213 558H171Q155 558 138 565T105 586T77 617T57 656T50
700H539Q543 700 545 699T548 695T550 689V574Q550 573 542 552T522 498T494 425T463 348T436 281Q421 244 407 210T380 141T353 73T324 0Z" />
<glyph unicode="8" horiz-adv-x="600" d="M300 720Q370 720 421 697T501 632T529 530V520Q529 481 516 453T477 408T412 385L441 403V342L279 408Q333 422 361 445T389 498V513Q389 528 386 539T373 560Q365 568 347 574T302 580Q270 580 250 572T220 548T210
511Q210 488 215 475T232 454T264 438L422 379Q457 366 481 350T520 312T543 260T550 191V170Q550 117 520 74T434 6T299 -20Q224 -20 168 2T81 65T50 160V172Q50 213 64 245T110 298T195 328L166 315V368L323 303Q274 291 245 275T203 238T190 192Q190 166 202
150T238 127T299 120Q357 120 383 137T410 193Q410 215 405 230T386 255T350 274L193 332Q148 349 121 370T82 424T70 509V530Q70 583 97 626T176 694T300 720Z" />
<glyph unicode="9" horiz-adv-x="600" d="M290 720Q352 720 400 702T481 647T532 560T550 442V286Q550 212 531 155T475 59T383 0T257 -20Q226 -20 193 -16T133 -6T94 8Q88 12 86 15T83 27Q83 30 83 41T83 68T83 98T83 124T83 139H103Q144 125 178 119T259 112Q294
112 321 121T362 144Q376 158 386 190T396 265V448Q396 486 389 514T367 555Q354 568 336 574T289 580Q243 580 218 556T192 494V458Q192 436 196 421T211 395Q221 385 236 381T274 376Q314 376 349 386T413 421V303H359L385 321Q366 280 329 261T238 242Q180 242
137 266T70 333T46 435V505Q46 567 78 615T165 692T290 720Z" />
<glyph unicode=":" horiz-adv-x="350" d="M270 350Q239 350 210 350T152 350T91 350Q88 350 86 351T82 355T80 361V540Q112 540 141 540T199 540T259 540Q263 540 265 539T268 535T270 529V350ZM270 -10Q239 -10 210 -10T152 -10T91 -10Q88 -10 86 -9T82 -5T80
1V180Q112 180 141 180T199 180T259 180Q263 180 265 179T268 175T270 169V-10Z" />
<glyph unicode=";" horiz-adv-x="350" d="M270 350Q239 350 210 350T152 350T91 350Q88 350 86 351T82 355T80 361V540Q112 540 141 540T199 540T259 540Q263 540 265 539T268 535T270 529V350ZM403 26Q375 26 338 26T272 26Q281 69 289 114T307 206T325 297T342
386Q372 386 396 386T446 386T508 386Q512 386 514 385T516 380T516 373Q506 340 494 298T467 211T439 120T413 33Q412 29 410 28T403 26Z" />
<glyph unicode="&lt;" horiz-adv-x="600" d="M79 405Q128 426 182 449T293 497T407 546T519 594Q519 560 519 525T519 455Q519 448 517 445T507 437Q498 433 473 423T413 397T338 366T261 333T193 303L211 336V262L193 296Q232 279 281 259T377 218T460 183T507
163Q515 159 517 156T519 145Q519 111 519 76T519 6Q448 36 378 66T236 126T94 186Q89 188 86 191T81 198T79 207Q79 257 79 306T79 405Z" />
<glyph unicode="=" horiz-adv-x="600" d="M60 500H529Q533 500 535 499T538 495T540 489Q540 455 540 424T540 358H71Q68 358 66 359T62 363T60 369Q60 404 60 435T60 500ZM60 240H529Q533 240 535 239T538 235T540 229Q540 195 540 164T540 98H71Q68 98 66 99T62
103T60 109Q60 144 60 175T60 240Z" />
<glyph unicode="&gt;" horiz-adv-x="600" d="M521 195Q472 174 418 151T307 103T193 54T81 6Q81 41 81 76T81 145Q81 153 83 156T93 163Q102 167 127 177T187 203T262 234T339 267T407 297L389 264V338L407 304Q368 321 319 341T223 382T140 417T93 437Q85 441
83 444T81 455Q81 490 81 525T81 594Q152 564 223 534T364 474T506 414Q511 412 514 409T519 402T521 393Q521 344 521 295T521 195Z" />
<glyph unicode="?" horiz-adv-x="600" d="M380 -10Q333 -10 286 -10T191 -10Q188 -10 186 -9T182 -5T180 1V180Q227 180 274 180T369 180Q373 180 375 179T378 175T380 169V-10ZM294 720Q358 720 403 706T478 668T520 614T534 553V522Q534 484 526 455T497 400T434
348L403 328Q384 316 373 306T358 286T354 258V252H213Q209 252 207 253T203 256T202 263V289Q202 317 210 339T240 382T300 430L323 446Q351 465 363 476T380 499T384 527Q384 536 382 543T372 556Q362 563 344 566T293 570Q238 570 191 560T100 526H80Q80 561
80 596T80 666Q80 670 81 672T84 677Q94 687 124 697T198 713T294 720Z" />
<glyph unicode="@" horiz-adv-x="1050" d="M525 750Q636 750 720 721T861 642T946 526T975 389V299Q975 245 962 204T921 134T851 90T753 75H750Q686 75 646 91T586 141T567 226Q567 249 567 274T567 325T567 377T567 427Q567 428 573 437T587 461T605 490H696Q701
490 704 487T707 479Q707 454 707 424T707 359T707 291T707 226Q707 207 717 196T749 184H751Q789 184 810 193T841 228T850 299V388Q850 418 844 446T824 500T788 548Q762 574 725 593T637 624T525 635Q414 635 342 601T235 510T200 388V184Q200 148 205 117T224
61T257 14Q296 -25 365 -45T540 -65Q613 -65 666 -57T758 -37T829 -14H849V-113Q849 -117 848 -119T845 -123Q837 -131 804 -145T706 -169T540 -180Q408 -180 319 -153T176 -78T99 36T75 179V386Q75 460 103 525T188 641T329 721T525 750ZM448 71Q418 71 395 84T357
126T343 203V367Q343 403 351 428T373 468T406 491T448 499Q488 499 515 483T560 438H598V333Q565 353 546 358T511 363Q504 363 499 362T490 357T485 348T483 335V240Q483 225 490 219T511 212Q521 212 532 215T558 227T598 252L610 142H572Q550 104 520 88T448
71Z" />
<glyph unicode="A" horiz-adv-x="650" d="M149 280H351Q368 280 384 280T417 280L454 289L470 219L485 150H158Q155 150 153 151T149 155T147 161L149 280ZM184 0Q149 0 114 0T43 0Q41 0 39 1T36 5T35 13Q40 34 49 75T71 170T98 285T127 408T155 527T178 628T195
700Q258 700 325 700T445 700Q449 700 451 699T454 695T457 689Q469 636 483 576T513 449T546 307T582 153Q590 116 599 78T615 0Q584 0 547 0T478 0Q472 0 469 1T463 7T459 19Q435 117 417 195T384 336T360 447T344 535T333 606L377 580H275L318 606Q314 574 307
535T290 446T264 332T230 186T184 0Z" />
<glyph unicode="B" horiz-adv-x="600" d="M330 0Q300 0 260 0T182 0T117 0T86 0Q81 0 78 3T75 11Q75 92 75 166T75 313T75 460T75 616H237L230 595Q230 565 230 537T230 483Q230 440 230 398T230 314T230 226T230 132Q244 132 258 132T286 132T314 132Q339 132
354 139T377 161T385 194V226Q385 248 378 262T355 283T314 290H150L156 383H415V343Q474 335 507 299T540 197V169Q540 108 514 71T441 17T330 0ZM30 700Q101 700 172 700T313 700Q378 700 421 686T491 649T528 596T540 536V513Q540 475 527 447T488 401T429 373T353
364Q291 364 249 364T174 364L156 350L150 417Q191 417 233 417T316 417Q339 417 354 424T377 447T385 484V508Q385 522 382 533T370 551Q361 560 348 564T315 568Q270 568 224 568T133 568T41 568Q36 568 33 571T30 579Q30 612 30 639T30 700Z" />
<glyph unicode="C" horiz-adv-x="600" d="M344 -20Q270 -20 215 -2T123 52T68 138T50 256V455Q50 514 68 562T123 646T211 701T331 720Q382 720 423 711T493 687T537 656Q540 654 541 651T542 645T543 638Q543 601 543 552T543 458Q511 458 479 458T414 458Q409
458 406 461T403 469Q403 485 403 502T403 541T403 594L431 553Q408 567 384 572T328 577Q292 577 266 564T225 524T210 452V268Q210 225 218 196T243 150Q260 133 286 127T345 120Q399 120 441 131T530 172H550Q550 156 550 141T550 112T550 82T550 49Q550 44
549 40T544 33Q531 20 502 8T433 -12T344 -20Z" />
<glyph unicode="D" horiz-adv-x="650" d="M595 238Q595 183 579 139T532 64T458 17T359 0Q337 0 305 0T237 0T169 0T114 0T86 0Q81 0 78 3T75 11Q75 87 75 163T75 316T75 469T75 622H245L235 597Q235 571 235 539T235 481Q235 436 235 394T235 312T235 229T235
142Q246 142 270 142T320 142T356 142Q390 142 409 155T436 191T445 247V453Q445 474 443 490T435 518T422 538Q415 545 406 549T384 556T356 558Q325 558 284 558T199 558T113 558T41 558Q38 558 36 559T32 563T30 569Q30 599 30 634T30 700Q61 700 102 700T187
700T273 700T345 700Q413 700 461 683T538 634T581 559T595 463V238Z" />
<glyph unicode="E" horiz-adv-x="550" d="M30 700H489Q492 700 494 699T498 695T500 689Q500 655 500 628T500 565H41Q38 565 36 566T32 570T30 576Q30 611 30 638T30 700ZM176 416H429Q432 416 434 415T438 411T440 405Q440 382 440 362T440 324T440 286H176V416ZM86
0Q84 0 82 1T79 3T76 7T75 11Q75 31 75 79T75 194T75 335T75 483T75 616H243L235 592Q235 568 235 544T235 495Q235 451 235 406T235 315T235 225T235 135H489Q494 135 497 132T500 124Q500 91 500 62T500 0H86Z" />
<glyph unicode="F" horiz-adv-x="550" d="M255 0Q218 0 181 0T106 0Q103 0 101 1T97 5T95 11Q95 91 95 165T95 313T95 462T95 616H267L255 586Q255 557 255 529T255 475Q255 412 255 352T255 230T255 98Q255 71 255 46T255 0ZM50 700H479Q483 700 485 699T488
695T490 689Q490 666 490 647T490 608T490 565H61Q58 565 56 566T52 570T50 576Q50 611 50 638T50 700ZM186 390H449Q454 390 457 387T460 379Q460 356 460 335T460 295T460 255H186V390Z" />
<glyph unicode="G" horiz-adv-x="650" d="M335 390H599Q602 390 604 389T608 385T610 379V260H346Q343 260 341 260T338 262T336 266T335 271Q335 301 335 330T335 390ZM345 720Q388 720 423 715T486 700T534 680T565 658Q569 654 570 650T571 640Q571 621 571
596T571 544T571 495Q539 495 507 495T442 495Q437 495 434 498T431 506Q431 517 431 530T431 559T431 596L459 555Q434 566 405 571T337 577Q304 577 279 569T236 545T209 503T200 444V246Q200 212 209 188T232 149Q246 135 269 128T332 120Q354 120 374 122T410
131T435 145Q435 176 435 202T435 253T435 305H580L575 279Q575 228 575 182T575 83Q575 76 574 72T569 63Q550 39 515 21T435 -9T346 -20Q267 -20 211 -1T119 53T67 140T50 254V449Q50 510 68 560T123 645T215 700T345 720Z" />
<glyph unicode="H" horiz-adv-x="650" d="M70 700Q108 700 145 700T219 700Q224 700 227 697T230 689Q230 603 230 517T230 345T230 172T230 0Q193 0 156 0T81 0Q78 0 76 1T72 5T70 11Q70 108 70 205T70 399T70 593Q70 620 70 646T70 700ZM136 416H357Q374 416
390 416T423 416L460 425L493 281H147Q145 281 143 282T140 284T137 288T136 292V416ZM580 0Q543 0 506 0T431 0Q428 0 426 1T422 5T420 11Q420 97 420 183T420 355T420 528T420 700Q458 700 495 700T569 700Q571 700 573 699T576 697T579 693T580 689Q580 617
580 545T580 400T580 255T580 110Q580 80 580 52T580 0Z" />
<glyph unicode="I" horiz-adv-x="500" d="M330 85H166L170 131Q170 147 170 168T170 205Q170 256 170 307T170 409T170 512T170 615H334L330 569Q330 553 330 533T330 495Q330 444 330 393T330 290T330 187T330 85ZM430 0H81Q79 0 77 1T74 3T71 7T70 11Q70 33
70 53T70 93T70 135H419Q422 135 424 134T428 130T430 124Q430 102 430 82T430 42T430 0ZM70 700H419Q424 700 427 697T430 689Q430 673 430 658T430 627T430 597T430 565H81Q77 565 74 568T70 576Q70 593 70 608T70 638T70 668T70 700Z" />
<glyph unicode="J" horiz-adv-x="500" d="M196 130Q221 130 236 134T261 149Q268 156 272 166T278 192T280 228Q280 273 280 316T280 403T280 494T280 592L302 544L261 590L308 565Q277 565 253 565T205 565T158 565T102 565Q99 565 97 566T93 570T91 576Q91 609
91 638T91 700Q138 700 178 700T255 700T332 700T419 700Q422 700 424 699T428 695T430 689Q430 634 430 578T430 464T430 345T430 219Q430 162 416 118T374 43T303 -4T199 -20Q160 -20 128 -15T74 -3T45 12Q43 14 42 16T41 21T40 27Q40 58 40 92T40 160H60Q85
150 106 143T149 133T196 130Z" />
<glyph unicode="K" horiz-adv-x="600" d="M335 421Q374 358 414 293T494 165Q505 146 513 141T541 135Q549 135 553 135T565 135H570Q570 118 570 98T570 59T570 27T570 11Q570 6 567 3T559 0Q556 0 550 0T536 0T517 0Q480 0 454 5T407 28T362 84Q345 113 334
133T315 169T303 200T294 233H237L335 421ZM577 700Q580 700 582 699T585 696T586 692Q586 690 585 687T579 675T562 649Q548 629 526 596T475 522T413 432T343 331T269 225T195 119V373H235Q240 392 245 408T258 441T274 473T293 507Q309 535 329 569T370 638T407
700H577ZM60 700Q98 700 132 700T204 700Q209 700 212 697T215 689Q215 603 215 517T215 345T215 172T215 0Q178 0 144 0T71 0Q66 0 63 3T60 11Q60 108 60 205T60 399T60 593Q60 620 60 646T60 700Z" />
<glyph unicode="L" horiz-adv-x="550" d="M81 0Q79 0 77 1T74 3T71 7T70 11Q70 87 70 163T70 315T70 468T70 620Q70 640 70 660T70 700Q108 700 145 700T219 700Q222 700 224 699T228 695T230 689Q230 621 230 552T230 412T230 273T230 135H379Q409 135 429 128T463
105T485 64T500 0H81ZM360 205Q383 205 404 205T445 205T489 205Q492 205 494 204T498 200T500 194Q500 175 500 150T500 98T500 45T500 0Q447 5 416 21T373 62T360 121Q360 134 360 149T360 179T360 205Z" />
<glyph unicode="M" horiz-adv-x="800" d="M220 0Q186 0 151 0T81 0Q78 0 76 1T72 5T70 11Q70 85 70 158T70 305T70 453T70 600Q70 625 70 650T70 700Q93 700 128 700T196 700T250 700Q257 700 261 698T268 691T276 675Q291 639 304 605T331 537T356 469T382 398T408
322L365 365H438L394 322Q407 362 419 398T444 470T470 541T497 616T529 700Q552 700 588 700T660 700T719 700Q722 700 724 699T728 695T730 689Q730 640 730 591T730 493T730 395T730 296T730 198T730 99Q730 83 730 67T730 34T730 0Q696 0 661 0T591 0Q588 0
586 1T582 5T580 11Q580 32 580 52T580 92T580 133Q580 160 580 186T582 238T585 293T590 352T598 419T608 496L627 466H554L596 494Q583 459 569 423T541 351T513 279T485 206T458 135Q431 135 404 135T350 135Q347 135 344 136T338 143Q325 177 311 212T284 283T256
354T229 425T202 494L243 466H171L190 496Q196 456 201 421T209 355T214 296T218 241T219 188T220 133Q220 100 220 67T220 0Z" />
<glyph unicode="N" horiz-adv-x="650" d="M200 0Q166 0 131 0T61 0Q58 0 56 1T52 5T50 11Q50 85 50 158T50 305T50 453T50 600Q50 625 50 650T50 700Q73 700 102 700T161 700T213 700Q219 700 222 699T229 690T243 665Q268 619 290 579T332 501T370 429T407 360T443
291T479 217L439 243H509L488 233Q479 277 473 314T462 384T455 447T451 506T450 567Q450 594 450 628T450 700Q485 700 520 700T589 700Q594 700 597 697T600 689Q600 616 600 542T600 395T600 248T600 100Q600 75 600 50T600 0Q579 0 556 0T511 0T470 0Q464 0
456 5T432 35Q386 112 350 175T285 293T229 402T174 513L221 480H148L167 490Q176 445 181 405T191 330T197 265T199 209T200 163Q200 123 200 82T200 0Z" />
<glyph unicode="O" horiz-adv-x="650" d="M325 720Q401 720 462 688T559 594T595 438V250Q595 165 560 105T465 12T325 -20Q249 -20 188 12T91 104T55 250V438Q55 531 93 593T193 688T325 720ZM205 262Q205 204 218 178T245 141Q258 131 280 124T330 117Q364 117
389 133T430 181T445 262V450Q445 480 442 500T432 533T414 557Q400 571 379 578T327 585Q286 585 259 569T219 522T205 450V262Z" />
<glyph unicode="P" horiz-adv-x="600" d="M235 0Q198 0 161 0T86 0Q81 0 78 3T75 11Q75 91 75 165T75 313T75 462T75 616H247L235 586Q235 557 235 533T235 483Q235 420 235 358T235 232T235 98Q235 71 235 46T235 0ZM30 700Q98 700 174 700T311 700Q362 700 401
690T467 662T512 617T537 557T545 483V423Q545 372 533 332T493 263T420 220T311 205Q288 205 264 205T216 205L205 201V340Q235 340 263 340T311 340Q330 340 344 344T367 356T380 379T385 416V490Q385 512 381 526T368 550Q359 559 346 562T312 566Q268 566 222
566T130 566T41 566Q36 566 33 569T30 577Q30 610 30 638T30 700Z" />
<glyph unicode="Q" horiz-adv-x="650" d="M497 116Q514 87 525 68T552 19Q560 6 568 3T587 0Q591 0 593 0T600 0H620Q620 -34 620 -71T620 -144Q620 -149 617 -152T609 -155Q602 -155 590 -155T567 -155Q531 -155 508 -147T468 -120T436 -73Q417 -38 402 -7T368
59L497 116ZM325 720Q401 720 462 688T559 594T595 438V250Q595 165 560 105T465 12T325 -20Q249 -20 188 12T91 104T55 250V438Q55 531 93 593T193 688T325 720ZM205 262Q205 204 218 178T245 141Q258 131 280 124T330 117Q364 117 389 133T430 181T445 262V450Q445
480 442 500T432 533T414 557Q400 571 379 578T327 585Q286 585 259 569T219 522T205 450V262Z" />
<glyph unicode="R" horiz-adv-x="600" d="M406 318Q431 274 451 238T496 158Q504 145 510 140T527 135Q531 135 533 135T540 135H560Q560 101 560 73T560 11Q560 6 557 3T549 0Q542 0 530 0T507 0Q471 0 447 5T406 24T375 65Q350 114 326 163T275 261L406 318ZM30
700Q98 700 167 700T304 700Q367 700 411 686T482 643T522 577T535 490V431Q535 385 521 348T480 286T415 247T329 233Q301 233 273 233T216 233L205 228V363Q231 363 257 363T310 363Q334 363 349 370T372 392T380 429V499Q380 516 376 528T364 548Q356 556 343
560T310 565Q266 565 221 565T131 565T41 565Q36 565 33 568T30 576Q30 609 30 638T30 700ZM230 0Q193 0 159 0T86 0Q81 0 78 3T75 11Q75 91 75 165T75 313T75 462T75 616H242L230 586Q230 557 230 529T230 475Q230 412 230 352T230 230T230 98Q230 71 230 46T230
0Z" />
<glyph unicode="S" horiz-adv-x="600" d="M322 720Q393 720 442 703T515 663Q519 659 520 655T521 645Q521 626 521 602T521 553T521 505Q489 505 456 505T390 505Q385 505 382 508T379 516Q379 524 379 533T379 552T379 575T379 604L407 571Q384 579 365 582T322
585Q295 585 275 582T242 570T221 550T214 519V498Q214 480 219 468T241 447T291 428L386 399Q433 385 464 368T513 330T538 281T546 218V170Q546 111 514 68T423 3T279 -20Q231 -20 189 -14T115 4T66 32Q63 35 62 38T60 52Q60 71 60 90T60 130T60 174H80Q125 145
174 131T290 116Q349 116 374 133T399 172V209Q399 223 395 233T375 252T324 272L230 301Q180 316 148 336T99 378T74 426T67 479V530Q67 571 84 605T135 666T216 706T322 720Z" />
<glyph unicode="T" horiz-adv-x="600" d="M50 700H539Q544 700 547 697T550 689Q550 655 550 628T550 565H61Q58 565 56 566T52 570T50 576Q50 611 50 638T50 700ZM380 0Q343 0 306 0T231 0Q226 0 223 3T220 11Q220 91 220 166T220 317T220 468T220 623H392L380
593Q380 574 380 553T380 513T380 475Q380 412 380 352T380 230T380 98Q380 71 380 46T380 0Z" />
<glyph unicode="U" horiz-adv-x="650" d="M580 0Q555 0 531 0T481 0T431 0Q429 0 427 0T424 2T422 4T421 7T420 11Q420 97 420 183T420 355T420 528T420 700Q445 700 469 700T519 700T569 700Q572 700 574 699T578 695T580 689Q580 617 580 545T580 400T580 255T580
110Q580 80 580 52T580 0ZM232 -10Q189 -10 159 2T109 37T80 95T70 174Q70 240 70 310T70 453T70 600Q70 625 70 650T70 700Q108 700 145 700T219 700Q223 700 225 699T228 695T230 689Q230 606 230 519T230 347T230 184Q230 154 241 142T283 130Q313 130 340 141T392
176T442 233V91H400Q382 58 358 36T303 2T232 -10Z" />
<glyph unicode="V" horiz-adv-x="650" d="M178 700Q183 700 186 698T192 691T198 672Q225 551 244 463T276 311T300 195T319 95L285 120H365L330 95Q337 133 345 173T363 262T388 372T421 514T465 700Q500 700 536 700T607 700Q609 700 611 699T615 695T615 687Q610
666 598 615T569 494T534 350T499 205T469 81T450 0Q387 0 326 0T217 0Q206 0 202 4T194 24Q185 62 175 107T152 202T127 308T100 423T71 547Q66 572 60 597T47 648T35 700Q71 700 108 700T178 700Z" />
<glyph unicode="W" horiz-adv-x="950" d="M25 700Q47 700 72 700T124 700T171 700Q175 700 178 699T183 694T185 686Q189 663 195 629T209 548T226 443T243 316T260 167L232 175H299L278 167Q286 220 300 286T332 425T367 568T398 700H540Q543 700 545 699T549
695T552 689Q564 641 578 587T607 477T635 366T660 261T677 167L654 175H721L695 167Q704 253 711 316T724 427T736 518T750 603T766 700Q788 700 814 700T866 700T914 700Q918 700 921 699T925 694T925 685Q923 672 916 633T898 536T875 409T849 268T823 126T800
0Q781 0 755 0T702 0T651 0T612 0Q602 0 598 4T590 23Q578 72 564 126T534 240T506 369T481 516L509 491H440L468 516Q459 454 446 386T419 254T391 135T368 45T357 0Q330 0 294 0T224 0T169 0Q158 0 154 4T147 23Q141 57 133 104T114 207T93 327T69 460T44 600Q40
627 35 652T25 700Z" />
<glyph unicode="X" horiz-adv-x="600" d="M425 0Q422 0 419 1T414 4T410 9Q398 35 378 78T336 169T294 259L222 319Q189 383 156 446T89 573T21 700Q62 700 99 700T177 700Q182 700 185 699T191 695T195 689Q214 648 233 607T272 523T313 437L380 385Q431 289
481 193T583 0Q544 0 504 0T425 0ZM565 700Q570 700 573 698T576 691T574 681Q569 672 553 644T515 576T467 490T416 400T370 318L272 442H332Q335 476 338 500T346 544T359 585T380 633T414 700Q452 700 490 700T565 700ZM34 0Q30 0 27 2T24 9T26 19Q31 28 47
56T86 124T134 210T185 300T231 382L336 254H276Q272 222 269 199T260 157T245 117T222 69T187 0Q150 0 111 0T34 0Z" />
<glyph unicode="Y" horiz-adv-x="650" d="M405 0Q380 0 355 0T306 0T256 0Q253 0 251 1T247 5T245 11Q245 81 245 155T245 300H405Q405 269 405 235T405 166T405 100Q405 75 405 50T405 0ZM15 700Q55 700 92 700T164 700Q172 700 176 698T185 691T193 676Q214
633 232 592T267 509T299 422T327 325L288 358H371L333 325Q345 377 359 423T389 513T425 603T468 700Q507 700 543 700T612 700Q623 700 626 694T623 674Q602 630 580 584T534 491T486 395T438 299T390 205Q343 205 316 205T277 207T260 211T253 219Q250 225 233
260T190 348T133 464T72 588T15 700Z" />
<glyph unicode="Z" horiz-adv-x="600" d="M555 0H61Q56 0 53 3T50 11V161Q91 209 131 257T211 354T292 451Q304 465 316 477T340 498T366 516T393 532T424 548L399 512V584L414 558Q361 558 326 558T266 558T217 558H181Q148 558 124 567T83 595T58 640T50 700H539Q543
700 545 699T548 695T550 689V539Q510 491 470 443T389 346T308 249Q296 234 284 223T260 202T234 184T207 168T176 152L201 188V116L185 142Q238 142 286 142T375 142T450 142H544Q549 142 552 139T555 131Q555 98 555 66T555 0ZM190 510Q156 510 126 510T61 510Q58
510 56 511T52 515T50 521Q50 538 50 561T50 610T50 659T50 700Q106 700 136 688T178 650T190 579Q190 570 190 557T190 532T190 510Z" />
<glyph unicode="[" horiz-adv-x="450" d="M393 -160H89Q86 -160 84 -160T81 -158T79 -154T78 -149Q78 -50 78 50T78 249T78 449T78 648Q78 676 78 704T78 760Q93 760 107 760T137 760H382Q387 760 390 757T393 749Q393 713 393 683T393 618H238Q238 539 238 460T238
300T238 141T238 -18H382Q387 -18 390 -21T393 -29Q393 -62 393 -94T393 -160Z" />
<glyph unicode="\" horiz-adv-x="600" d="M61 750Q99 750 134 750T207 750Q210 750 212 750T216 748T219 743Q268 616 316 489T414 234T511 -21Q522 -48 532 -75T553 -130Q516 -130 481 -130T408 -130Q404 -130 400 -128T393 -119Q338 26 283 171T172 461T61 750Z" />
<glyph unicode="]" horiz-adv-x="450" d="M58 760H362Q365 760 367 760T370 758T372 754T373 749Q373 650 373 550T373 351T373 151T373 -48Q373 -76 373 -104T373 -160Q358 -160 344 -160T314 -160H69Q64 -160 61 -157T58 -149Q58 -113 58 -83T58 -18H213Q213
61 213 140T213 300T213 459T213 618H69Q64 618 61 621T58 629Q58 662 58 694T58 760Z" />
<glyph unicode="^" horiz-adv-x="600" d="M195 750Q245 750 294 750T393 750Q401 750 406 747T414 735Q436 682 455 636T493 546T531 456T573 356Q539 356 504 356T434 356Q427 356 424 358T416 368Q400 405 388 435T364 494T340 552T311 620L339 604H253L295
632Q277 589 262 554T233 487T206 423T177 355H39Q36 355 34 356T30 359T29 364Q29 367 30 371T36 387Q44 404 61 442T100 532T147 640T195 750Z" />
<glyph unicode="_" horiz-adv-x="600" d="M50 -50H539Q543 -50 545 -51T548 -55T550 -61Q550 -95 550 -126T550 -192H61Q58 -192 56 -191T52 -187T50 -181Q50 -146 50 -115T50 -50Z" />
<glyph unicode="`" horiz-adv-x="350" d="M217 750Q233 707 252 656T290 555T324 462Q289 462 258 462T188 462Q180 462 175 463T167 469Q150 499 131 535T92 609T56 678T27 734Q24 739 26 744T34 750Q70 750 97 750T152 750T217 750Z" />
<glyph unicode="a" horiz-adv-x="600" d="M514 337Q514 314 514 292T514 246T514 200T514 155Q514 149 515 144T520 136Q523 133 527 132T539 130Q542 130 544 130T550 130H570Q570 100 570 71T570 11Q570 6 567 3T559 0Q554 0 532 0T492 0Q463 0 440 9T400 36T373
78T364 131Q364 161 364 191T364 251Q364 268 364 283T364 315T364 347Q364 372 354 386T323 407T267 413Q239 413 213 411T161 403T110 390H90Q90 419 90 449T90 508Q90 512 91 514T93 518Q99 524 127 531T193 544T267 550Q332 550 378 538T455 501T499 435T514
337ZM200 155Q200 139 208 131T236 122Q261 122 285 127T334 144T382 172V87H353Q340 56 318 35T264 2T197 -10Q152 -10 119 8T68 59T50 134V171Q50 203 61 229T92 275T142 304T207 315Q242 315 275 315T339 315T395 315Q404 315 408 298T414 259T415 225Q385 225
356 225T296 225T236 225Q227 225 221 223T209 215Q205 211 203 205T200 192V155Z" />
<glyph unicode="b" horiz-adv-x="600" d="M180 0Q169 0 150 0T112 0T81 0Q78 0 76 1T72 5T70 11Q70 85 70 159T70 307T70 455T70 603Q70 640 70 676T70 750Q88 750 105 750T139 750T174 750T209 750Q213 750 215 749T218 745T220 739Q220 659 220 581T220 425T220
269T220 110Q220 110 216 99T206 71T195 39T185 11T180 0ZM186 84L205 198Q232 167 267 151T331 135Q352 135 366 143T387 168T395 209V333Q395 354 391 368T378 391Q370 399 358 403T331 407Q312 407 290 398T247 371T209 331V461H238Q253 490 275 510T325 541T382
552Q420 552 450 539T501 501T533 440T545 358V184Q545 138 534 102T501 41T450 3T382 -10Q352 -10 324 1T272 33T230 84H186Z" />
<glyph unicode="c" horiz-adv-x="500" d="M314 552Q351 552 379 548T424 539T447 527Q449 526 449 524T450 519Q450 487 450 455T450 390H430Q402 401 373 405T313 410Q284 410 261 399T224 364T210 299V243Q210 212 218 190T242 153Q255 141 272 136T313 130Q334
130 353 132T392 138T430 150H450Q450 118 450 86T450 21Q450 19 450 17T447 13Q442 8 425 2T379 -8T314 -12Q254 -12 206 4T124 53T73 131T55 235V301Q55 374 87 430T178 519T314 552Z" />
<glyph unicode="d" horiz-adv-x="600" d="M218 552Q252 552 278 542T325 513T360 468H395V345Q368 376 335 391T269 407Q249 407 235 399T213 374T205 333V209Q205 188 209 174T222 151Q230 143 242 139T269 135Q290 135 311 141T354 162T395 201V77H360Q345 50
323 31T275 1T218 -10Q181 -10 151 3T99 41T67 102T55 184V358Q55 404 66 440T99 501T150 539T218 552ZM519 750Q523 750 525 749T528 745T530 739Q530 666 530 592T530 444T530 297T530 149Q530 112 530 75T530 0Q513 0 496 0T461 0T426 0T391 0Q388 0 386 1T382
5T380 11Q380 91 380 171T380 330T380 490T380 650Q380 675 380 700T380 750Q397 750 414 750T449 750T484 750T519 750Z" />
<glyph unicode="e" horiz-adv-x="600" d="M302 552Q373 552 424 523T502 444T530 330V244Q530 241 529 239T526 235T520 234H300Q283 234 265 234T230 234H185V324H385Q385 328 385 330T385 337Q385 362 380 379T364 408Q354 418 339 422T302 427Q257 427 236
406T215 337V210Q215 188 220 172T236 145Q251 130 275 124T332 118Q368 118 396 121T448 130T495 143H515Q515 115 515 87T515 29Q515 27 514 25T511 21Q504 14 476 7T409 -6T331 -12Q264 -12 214 3T131 48T82 119T65 212V330Q65 378 81 418T128 489T203 535T302
552Z" />
<glyph unicode="f" horiz-adv-x="400" d="M30 510H350Q354 510 356 509T359 505T361 499Q361 468 361 440T361 380H41Q38 380 36 381T32 385T30 391Q30 423 30 451T30 510ZM236 11Q236 7 233 4T225 0Q189 0 156 0T86 0Q86 25 86 50T86 100Q86 163 86 219T86 331T86
444T86 572Q86 617 99 653T137 716T198 756T281 770Q309 770 331 767T367 759T387 749Q389 748 389 746T390 741Q390 713 390 684T390 625H370Q358 630 346 633T322 638T297 640Q285 640 273 637T252 625Q243 616 240 604T236 572Q236 526 236 469T236 348T236
223T236 107T236 11Z" />
<glyph unicode="g" horiz-adv-x="600" d="M95 75Q95 98 103 117T131 150T179 172V206L245 181Q245 166 245 152T245 122Q245 112 248 109T262 105H385Q445 105 483 85T541 28T560 -55V-95Q560 -130 550 -158T518 -207T463 -239T385 -250H176Q124 -250 90 -238T38
-200T20 -136V-118Q20 -88 33 -66T69 -29T123 -10V30L199 -16Q187 -21 181 -28T171 -45T168 -68V-101Q168 -118 172 -127T187 -141T213 -145H367Q379 -145 387 -143T401 -135Q407 -129 409 -118T412 -94V-65Q412 -39 402 -30T367 -20H184Q162 -20 142 -7T108 28T95
75ZM338 430L435 439V409Q471 399 487 380T504 326V312Q504 270 480 240T405 193T278 176Q202 176 150 196T72 256T45 350V371Q45 427 71 467T150 528T278 550Q346 550 414 550T551 550Q551 522 551 494T551 436Q551 432 548 429T540 425Q497 425 456 425T372 425T278
425Q235 425 213 411T190 365V349Q190 336 194 327T205 310Q216 300 234 295T278 289Q322 289 341 304T360 352V373Q360 385 358 394T352 412T338 430Z" />
<glyph unicode="h" horiz-adv-x="600" d="M81 0Q78 0 76 1T72 5T70 11Q70 91 70 171T70 331T70 492T70 652Q70 679 70 704T70 750Q98 750 121 750T165 750T209 750Q213 750 215 749T218 745T220 739Q220 647 220 555T220 370T220 185T220 0Q195 0 173 0T129 0T81
0ZM203 328V454H240Q254 476 271 494T308 525T350 545T398 552Q430 552 456 542T501 511T530 461T540 394Q540 346 540 297T540 199T540 99Q540 74 540 50T540 0Q503 0 471 0T401 0Q398 0 396 1T392 5T390 11Q390 70 390 128T390 246T390 363Q390 386 381 396T348
407Q332 407 313 402T273 387T235 363T203 328Z" />
<glyph unicode="i" horiz-adv-x="350" d="M115 11Q115 35 115 74T115 161T115 255T115 342T115 406H110Q105 406 98 406T83 406T67 406T52 406Q47 406 44 409T41 417Q41 447 41 478T41 540Q58 540 80 540T128 540T178 540T222 540T254 540Q258 540 260 539T263
535T265 529Q265 483 265 428T265 314T265 201T265 99Q265 83 265 67T265 34T265 0Q228 0 196 0T126 0Q121 0 118 3T115 11ZM89 800Q110 800 132 800T178 800T224 800T268 800Q273 800 276 797T279 789V650Q258 650 236 650T190 650T144 650T100 650Q95 650 92
653T89 661V800Z" />
<glyph unicode="j" horiz-adv-x="350" d="M264 540Q268 540 270 539T273 535T275 529Q275 480 275 431T275 332T275 230T275 121T275 3Q275 -55 266 -94T237 -157T189 -190T121 -200Q87 -200 62 -197T22 -188T-2 -175Q-3 -173 -4 -171T-5 -167Q-5 -132 -5 -93T-5
-20H15Q28 -27 38 -31T57 -36T78 -38Q90 -38 98 -35T113 -27Q117 -23 119 -18T123 -7T125 8Q125 73 125 126T125 224T125 312T125 398H119Q116 398 109 398T92 398T73 398T57 398Q52 398 49 401T46 409Q46 442 46 474T46 540Q83 540 114 540T172 540T222 540T264
540ZM103 800Q124 800 146 800T192 800T238 800T282 800Q287 800 290 797T293 789V650Q272 650 250 650T204 650T158 650T114 650Q109 650 106 653T103 661V800Z" />
<glyph unicode="k" horiz-adv-x="600" d="M220 0Q195 0 173 0T129 0T81 0Q78 0 76 1T72 5T70 11Q70 91 70 171T70 331T70 492T70 652Q70 679 70 704T70 750Q98 750 121 750T165 750T209 750Q213 750 215 749T218 745T220 739Q220 647 220 555T220 370T220 185T220
0ZM424 0Q411 0 405 3T393 15Q389 20 383 29T370 50T354 75T336 102Q324 120 316 136T303 172T293 214H250L342 329Q384 273 424 218T505 109T587 0Q563 0 541 0T491 0T424 0ZM200 321H240Q246 343 252 360T266 393T283 421T303 449Q315 464 325 477T346 505T373
540H539Q542 540 544 539T548 536T549 531Q549 528 548 526T541 516Q510 481 480 448T421 381T364 317T308 254T254 192T200 131V321Z" />
<glyph unicode="l" horiz-adv-x="350" d="M5 750Q12 750 33 750T83 750T140 750T191 750T224 750Q228 750 230 749T233 745T235 739Q235 681 235 624T235 511T235 398T235 284T235 169Q235 162 236 158T241 149Q245 145 250 144T265 142Q273 142 283 142T300 142H310Q310
112 310 77T310 11Q310 7 309 5T305 2T299 0Q293 0 278 0T246 0T219 0Q187 0 162 9T120 38T94 86T85 154Q85 201 85 247T85 340T85 433T85 527T85 620H80Q76 620 64 620T37 620T16 620Q11 620 8 623T5 631Q5 661 5 690T5 750Z" />
<glyph unicode="m" horiz-adv-x="850" d="M780 0Q760 0 732 0T676 0T631 0Q628 0 626 1T622 5T620 11Q620 47 620 83T620 155T620 226T620 296T620 363Q620 387 612 395T586 404Q569 404 553 394T522 365T494 315L471 464H526Q540 493 558 512T600 542T657 552Q681
552 703 544T742 518T770 475T780 414Q780 385 780 349T780 272T780 188T780 100Q780 75 780 50T780 0ZM505 0Q488 0 458 0T400 0T356 0Q353 0 351 1T347 5T345 11Q345 47 345 83T345 155T345 226T345 296T345 363Q345 380 342 389T332 401T318 404Q301 404 284
394T249 364T216 313L187 464H240Q257 492 278 511T323 541T375 552Q401 552 424 545T466 522T494 481T505 421Q505 405 505 371T505 285T505 161T505 0ZM230 0Q215 0 196 0T156 0T116 0T81 0Q78 0 76 0T73 2T71 6T70 11Q70 83 70 154T70 297T70 440Q70 465 70
490T70 540Q82 540 97 540T130 540T163 540T191 540Q191 540 197 522T210 479T224 437T230 418Q230 349 230 279T230 140T230 0Z" />
<glyph unicode="n" horiz-adv-x="600" d="M540 0Q503 0 471 0T401 0Q398 0 396 1T392 5T390 11Q390 70 390 129T390 246T390 363Q390 386 381 396T348 407Q332 407 313 402T273 387T235 363T203 328V454H240Q259 483 283 505T336 539T398 552Q430 552 456 542T501
511T530 461T540 394Q540 346 540 297T540 199T540 99Q540 74 540 50T540 0ZM220 0Q195 0 173 0T129 0T81 0Q78 0 76 0T73 2T71 6T70 11Q70 65 70 119T70 226T70 334T70 442Q70 469 70 494T70 540Q98 540 121 540T165 540T209 540Q213 540 215 539T218 535T220
529Q220 441 220 353T220 177T220 0Z" />
<glyph unicode="o" horiz-adv-x="600" d="M300 552Q355 552 400 535T478 487T529 414T547 319V221Q547 152 516 100T430 18T300 -12Q245 -12 200 5T122 53T71 126T53 221V319Q53 388 84 440T171 522T300 552ZM300 417Q269 417 248 405T215 370T203 312V228Q203
202 210 182T230 148Q242 136 260 130T300 123Q331 123 352 135T385 170T397 228V312Q397 341 391 361T372 394Q360 406 342 411T300 417Z" />
<glyph unicode="p" horiz-adv-x="600" d="M70 540Q94 540 117 540T162 540T209 540Q213 540 215 539T218 535T220 529Q220 438 220 347T220 165T220 -18T220 -200Q196 -200 174 -200T128 -200T81 -200Q78 -200 76 -199T72 -195T70 -189Q70 -111 70 -33T70 125T70
282T70 439Q70 468 70 493T70 540ZM382 552Q432 552 468 529T525 463T545 358V184Q545 138 534 102T501 41T450 3T382 -10Q354 -10 328 0T278 30T238 72H208V184Q234 161 267 148T331 135Q352 135 366 143T387 168T395 209V333Q395 354 391 368T378 391Q370 399
358 403T331 407Q312 407 290 398T247 371T209 331V461H238Q253 490 275 510T325 541T382 552Z" />
<glyph unicode="q" horiz-adv-x="600" d="M380 540Q416 540 449 540T519 540Q523 540 525 539T528 535T530 529Q530 457 530 385T530 239T530 94T530 -51Q530 -88 530 -125T530 -200Q494 -200 461 -200T391 -200Q388 -200 386 -199T382 -195T380 -189Q380 -111
380 -32T380 125T380 283T380 440Q380 457 380 473T380 507T380 540ZM392 85H364Q350 55 327 34T277 2T218 -10Q168 -10 132 13T75 79T55 184V358Q55 404 66 440T99 501T150 539T218 552Q246 552 272 542T322 513T362 470H392V358Q366 381 333 394T269 407Q249
407 235 399T213 374T205 333V209Q205 188 209 174T222 151Q230 143 242 139T269 135Q288 135 310 144T353 171T392 211V85Z" />
<glyph unicode="r" horiz-adv-x="450" d="M210 444H253Q262 480 276 503T313 538T367 550Q382 550 392 547T405 541Q408 538 409 536T410 529Q410 511 410 494T410 459T410 425T410 389H390Q380 392 369 394T342 396Q312 396 290 384T249 352T210 307V444ZM230
0Q205 0 180 0T131 0T81 0Q78 0 76 0T73 2T71 6T70 11Q70 54 70 97T70 183T70 270T70 356T70 442Q70 469 70 494T70 540Q98 540 123 540T173 540T219 540Q223 540 225 539T228 535T230 529Q230 476 230 423T230 318T230 212T230 106T230 0Z" />
<glyph unicode="s" horiz-adv-x="550" d="M268 135Q324 135 343 146T362 170Q362 179 358 186T341 199T306 208L202 222Q154 229 122 249T74 299T58 368Q58 412 75 445T126 502T207 538T316 550Q347 550 373 548T422 543T463 534Q471 532 474 530T479 523T480
510Q480 486 480 451T480 385H460Q433 392 408 396T356 403T301 405Q263 405 243 401T215 390T207 373Q207 364 211 357T227 346T258 339L351 327Q401 321 436 302T490 250T509 172Q509 117 482 76T400 13T267 -10Q231 -10 200 -8T142 -2T94 7T57 18Q50 21 48 24T46
36Q46 61 46 96T46 165H66Q90 156 113 151T160 142T210 137T268 135Z" />
<glyph unicode="t" horiz-adv-x="500" d="M40 540H429Q434 540 437 537T440 529Q440 506 440 486T440 444T440 400H51Q49 400 47 401T44 403T41 407T40 411Q40 434 40 455T40 496T40 540ZM440 143Q440 110 440 77T440 11Q440 7 437 4T429 0Q419 0 409 0T387 0T366
0T344 0Q291 0 249 13T176 52T131 121T115 220Q115 268 115 315T115 411T115 506T115 602Q115 627 115 651T115 700Q150 700 185 700T254 700Q257 700 259 699T263 695T265 689Q265 632 265 575T265 461T265 346T265 232Q265 204 270 187T287 159Q297 150 312 147T349
143Q363 143 376 143T402 143T429 143H440Z" />
<glyph unicode="u" horiz-adv-x="600" d="M209 540Q213 540 215 539T218 535T220 529Q220 485 220 439T220 347T220 258T220 177Q220 161 229 151T254 141Q277 141 297 145T334 157T368 179T397 212V86H361Q344 55 323 33T275 0T211 -12Q181 -12 155 -2T110 29T81
77T70 140Q70 185 70 230T70 320T70 410Q70 442 70 475T70 540Q105 540 140 540T209 540ZM519 540Q523 540 525 539T528 535T530 529Q530 457 530 386T530 242T530 98Q530 80 530 63T530 30T530 0Q505 0 481 0T435 0T391 0Q388 0 386 1T382 5T380 11Q380 99 380
187T380 364T380 540Q405 540 427 540T473 540T519 540Z" />
<glyph unicode="v" horiz-adv-x="600" d="M183 540Q188 540 191 538T196 533T200 523Q215 464 230 403T260 271T292 108H312Q322 162 331 210T350 301T369 385T387 463T405 540Q440 540 475 540T545 540Q551 540 554 538T558 531T558 521Q539 456 520 391T483
261T445 130T407 0Q358 0 310 0T222 0Q211 0 204 3T191 15T180 43Q167 87 154 134T126 231T97 332T67 435T37 540Q74 540 110 540T183 540Z" />
<glyph unicode="w" horiz-adv-x="800" d="M326 540H462Q465 540 467 539T471 536T474 529Q489 461 501 408T522 308T537 216T547 117H573Q572 168 575 221T585 329T599 437T614 540Q637 540 662 540T712 540T760 540Q764 540 766 540T770 536T769 527Q755 461
742 396T715 264T688 132T660 0Q641 0 619 0T574 0T529 0T488 0Q481 0 477 5T467 28Q455 78 448 107T436 157T429 200T422 261T412 362H391Q384 309 380 275T373 217T367 175T358 134T345 81T325 0Q299 0 268 0T207 0T154 0Q147 0 143 5T134 29Q124 77 114 127T94
228T73 331T52 435T30 540Q52 540 76 540T125 540T173 540Q177 540 179 539T183 536T186 527Q195 470 202 419T216 318T225 220T229 117H255Q258 168 264 218T280 320T301 425T326 540Z" />
<glyph unicode="x" horiz-adv-x="600" d="M46 540Q85 540 126 540T206 540Q213 540 217 538T225 530Q248 480 271 429T319 328L371 311Q419 233 467 156T564 0Q544 0 524 0T486 0T451 0T421 0Q402 0 395 4T379 22Q373 34 357 67T320 142T282 218L228 240Q182 315
137 390T46 540ZM231 310L346 174H288Q275 145 262 116T235 58T209 0H56Q50 0 47 3T44 11Q44 14 45 17T51 27Q96 98 141 169T231 310ZM544 540Q549 540 552 538T556 528Q556 527 555 525T552 518Q508 448 463 377T373 235L263 361H317Q330 391 341 421T365 480T389
540H544Z" />
<glyph unicode="y" horiz-adv-x="600" d="M549 540Q554 540 558 536T561 524Q544 453 529 390T498 262T465 126T428 -31Q415 -89 390 -126T325 -182T229 -200Q215 -200 197 -200T161 -200T131 -200T115 -200Q110 -200 107 -197T104 -189V-70H124Q146 -70 167 -70T210
-70Q244 -70 264 -54T293 0Q299 25 308 69T330 169T355 289T381 416T408 540Q424 540 441 540T475 540T511 540T549 540ZM187 540Q197 540 201 537T207 526Q226 452 238 403T258 320T273 259T286 203T302 132H367L343 40H221Q212 40 206 42T195 49T187 65Q183 77
172 112T145 198T111 308T74 427T41 540Q58 540 76 540T112 540T149 540T187 540Z" />
<glyph unicode="z" horiz-adv-x="550" d="M60 540H479Q483 540 485 539T488 535T490 529V385Q465 359 445 338T407 299T375 267T348 240T326 219Q303 197 286 185T252 162V142Q276 142 300 142T348 142H479Q484 142 487 139T490 131Q490 98 490 66T490 0H71Q68
0 66 1T62 5T60 11V155Q104 200 136 233T194 290T243 334Q260 347 275 357T308 378V398Q281 398 255 398T201 398H71Q68 398 66 399T62 403T60 409Q60 442 60 474T60 540Z" />
<glyph unicode="{" horiz-adv-x="550" d="M395 157Q395 131 390 111T376 77T360 50T347 26Q346 22 345 18T344 9Q344 -8 351 -13T376 -19Q401 -19 425 -19T474 -19H495Q495 -52 495 -84T495 -150Q495 -155 492 -158T484 -161H307Q265 -161 241 -144T205 -102T194
-58V-17Q194 19 201 42T219 82T237 116T245 155Q245 178 228 194T175 220T87 229H66Q61 229 58 232T55 240Q55 273 55 305T55 371H87Q140 371 175 379T227 403T245 444Q245 467 238 483T220 516T202 556T194 616V657Q194 677 205 701T240 742T307 760H484Q489 760
492 757T495 749Q495 716 495 684T495 618H474Q449 618 425 618T376 618Q358 618 351 613T344 590Q344 588 344 585T345 580Q348 568 356 555T373 527T388 491T395 442Q395 391 370 360T285 310V290Q344 276 369 242T395 157Z" />
<glyph unicode="|" horiz-adv-x="300" d="M70 760Q108 760 145 760T219 760Q224 760 227 757T230 749Q230 658 230 567T230 386T230 204T230 22T230 -160Q193 -160 156 -160T81 -160Q77 -160 74 -157T70 -149Q70 -49 70 51T70 252T70 452T70 653Q70 680 70 706T70 760Z" />
<glyph unicode="}" horiz-adv-x="550" d="M155 442Q155 468 160 488T174 522T191 549T203 573Q205 578 205 582T206 590Q206 607 199 612T174 618Q149 618 125 618T76 618H55Q55 651 55 683T55 749Q55 754 58 757T66 760H243Q285 760 310 743T345 701T356 657V616Q356
580 349 557T331 517T313 484T305 444Q305 421 322 405T375 379T463 370H484Q489 370 492 367T495 359Q495 326 495 294T495 228H463Q411 228 376 220T323 196T305 155Q305 133 312 116T330 83T348 43T356 -17V-58Q356 -77 346 -101T310 -143T243 -161H66Q61 -161
58 -158T55 -150Q55 -117 55 -85T55 -19H76Q101 -19 125 -19T174 -19Q192 -19 199 -14T206 9Q206 11 206 14T205 19Q202 31 194 44T177 72T162 108T155 157Q155 208 181 239T265 289V309Q206 323 181 358T155 442Z" />
<glyph unicode="~" horiz-adv-x="600" d="M392 138Q448 138 487 163T546 239T566 361V439Q566 448 563 451T551 455Q523 455 496 455T440 455V443Q440 431 440 420T440 399Q440 350 430 332T403 314Q388 314 379 324T361 352T342 388T315 424T273 451T208 462Q152
462 113 437T54 361T34 239V161Q34 152 37 149T49 145Q77 145 104 145T160 145V157Q160 168 160 180T160 203Q160 250 170 268T197 286Q212 286 221 276T239 248T258 212T285 176T327 149T392 138Z" />
<glyph unicode="&#xa1;" horiz-adv-x="350" d="M121 250H219Q222 250 224 250T227 247Q229 246 230 241T235 217T246 156T265 38V-50Q265 -78 265 -104T265 -160Q234 -160 192 -160T96 -160Q93 -160 91 -159T87 -155T85 -149V38Q91 74 97 109T109 179T121 250ZM80
550Q112 550 141 550T199 550T259 550Q263 550 265 549T268 545T270 539V360Q239 360 210 360T152 360T91 360Q88 360 86 361T82 365T80 371V550Z" />
<glyph unicode="&#xa2;" horiz-adv-x="600" d="M346 622Q394 622 429 616T487 600T517 582Q519 581 519 579T520 574Q520 564 520 540T520 489T520 439H500Q460 455 423 463T343 472Q308 472 280 463T236 432T220 369V313Q220 286 226 267T247 234Q262 221 285
215T343 208Q371 208 397 211T448 220T500 238H520Q520 216 520 190T520 140T520 103Q520 101 520 99T517 95Q510 88 487 79T427 64T340 58Q274 58 223 74T137 123T83 200T65 305V371Q65 444 99 500T197 589T346 622ZM397 353L329 370Q325 371 323 373T319 378T318
385Q318 424 318 463T318 540T318 618Q318 643 318 677T318 737Q345 737 364 737T402 737T448 737Q451 737 453 736T457 732T458 724Q452 687 446 650T434 576T422 501T409 427T397 353ZM313 316L381 299Q385 298 387 296T391 291T392 284Q392 243 392 203T392
121T392 39Q392 14 392 -20T392 -80Q365 -80 346 -80T308 -80T262 -80Q259 -80 257 -79T253 -74T252 -67Q260 -19 267 29T282 124T298 220T313 316Z" />
<glyph unicode="&#xa3;" horiz-adv-x="600" d="M60 410H439Q443 410 445 409T448 405T450 399Q450 392 450 371T450 328T450 300H71Q68 300 66 301T62 305T60 311Q60 317 60 338T60 381T60 410ZM387 577Q358 577 338 574T306 560Q295 553 290 540T285 507Q285
477 285 447T285 388T285 328T285 268Q285 243 281 221T260 178T210 141L234 174V105L204 135Q231 135 258 135T314 135T369 135T424 135Q441 135 459 135T495 135T530 135H550Q550 104 550 73T550 11Q550 7 547 4T539 0Q514 0 489 0T439 0T388 0T337 0T287 0T237
0H217Q193 0 168 0T114 0T51 0Q46 0 43 3T40 11Q40 26 40 41T40 73T40 104T40 135H65Q86 135 101 142T126 164T135 206Q135 244 135 284T135 364T135 443T135 513V533Q135 591 165 632T251 697T385 720Q447 720 484 707T528 687Q530 686 530 684T530 680Q530 659
530 638T530 595T530 552H510Q476 565 449 571T387 577Z" />
<glyph unicode="&#xa4;" horiz-adv-x="600" d="M258 424Q242 408 221 387T181 347Q179 345 177 345T173 344T169 347Q146 370 120 396T70 446Q86 462 106 482T147 523Q149 525 150 525T153 526Q156 526 159 523Q183 499 209 473T258 424ZM340 424Q363 447 389
473T439 523Q442 526 445 526Q447 526 448 526T451 523Q471 504 490 485T528 446Q505 423 479 397T429 347Q427 345 425 345T421 344T417 347Q414 350 403 361T379 385T354 410T340 424ZM340 174Q357 191 378 212T417 251Q420 254 423 254T429 251Q452 228 478
202T528 152Q512 136 492 116T451 75Q450 74 449 73T445 72Q442 72 439 75Q415 99 389 125T340 174ZM258 174Q235 151 209 125T159 75Q156 72 153 72Q152 72 151 73T147 75Q128 95 109 114T70 152Q93 175 119 201T169 251Q171 253 173 253T177 254T181 251Q184
248 195 237T219 213T244 188T258 174ZM119 304Q119 354 142 393T205 454T300 476Q354 476 394 454T458 393T481 303V293Q481 245 458 207T395 147T300 125Q246 125 206 147T142 207T119 293V304ZM235 298Q235 277 239 265T251 245Q259 239 271 236T300 232Q335
232 350 248T365 298V307Q365 324 362 335T351 354Q344 362 332 365T300 369Q265 369 250 354T235 307V298Z" />
<glyph unicode="&#xa5;" horiz-adv-x="600" d="M10 468H210V358H21Q18 358 16 359T12 363T10 369Q10 377 10 398T10 439T10 468ZM390 468H579Q584 468 587 465T590 457Q590 447 590 426T590 386T590 358H390V468ZM590 130H21Q16 130 13 133T10 141Q10 147 10 167T10
210T10 240H579Q583 240 585 239T588 235T590 229Q590 220 590 199T590 158T590 130ZM380 260Q380 229 380 195T380 135T380 100Q380 84 380 58T380 0Q373 0 352 0T306 0T260 0T231 0Q228 0 226 1T222 5T220 11Q220 16 220 41T220 104T220 182T220 260Q213 276
200 304T167 373T125 463T74 573T15 700Q42 700 68 700T120 700T172 700Q176 700 178 699T183 695T187 689Q210 631 226 588T254 508T278 427T302 325L263 358H346L308 325Q320 384 330 427T351 509T378 593T417 700Q456 700 493 700T567 700Q574 700 577 696T577
684Q553 631 529 579T480 473T430 367T380 260Z" />
<glyph unicode="&#xa6;" horiz-adv-x="350" d="M95 760Q132 760 169 760T244 760Q246 760 248 760T252 757Q254 756 254 754T255 749V369Q217 369 180 369T106 369Q102 369 99 372T95 380V661Q95 686 95 710T95 760ZM95 231Q132 231 169 231T244 231Q249 231 252
228T255 220V-160Q217 -160 180 -160T106 -160Q103 -160 101 -159T97 -155T95 -149V231Z" />
<glyph unicode="&#xa7;" horiz-adv-x="600" d="M319 720Q358 720 390 716T448 706T491 692T515 676Q518 674 519 672T520 666T521 657Q521 620 521 584T521 510Q487 510 454 510T387 510Q382 510 379 513T376 521Q376 532 376 542T376 564T376 585T376 607L409
571Q366 582 322 582Q295 582 275 579T242 567T221 547T214 516V500Q214 482 219 470T241 449T291 430L386 401Q448 382 483 363T532 317T546 252V234Q546 211 535 190T504 155T462 137V107H348Q367 122 378 134T394 159T399 183V211Q399 225 395 235T375 254T324
274L230 303Q163 324 128 354T80 417T67 479V523Q67 564 85 599T137 662T217 704T319 720ZM290 -105Q349 -105 374 -88T399 -49V-41Q399 -27 395 -17T375 2T324 22L230 51Q178 67 142 89T86 139T67 197V213Q67 257 92 285T150 318V346H263Q246 338 235 328T219
304T214 273V248Q214 230 219 218T241 197T290 178L386 149Q449 130 483 104T532 44T546 -30V-53Q546 -96 528 -132T476 -194T392 -235T279 -250Q243 -250 210 -247T148 -236T98 -219T63 -196Q62 -194 61 -192T60 -188Q60 -153 60 -118T60 -47H80Q125 -76 174 -90T290
-105Z" />
<glyph unicode="&#xa8;" horiz-adv-x="600" d="M112 768Q148 768 184 768T257 768Q261 768 263 767T266 763T268 757V611Q232 611 196 611T123 611Q120 611 118 612T114 616T112 622V768ZM332 768Q368 768 404 768T477 768Q481 768 483 767T486 763T488 757V611Q452
611 416 611T343 611Q340 611 338 612T334 616T332 622V768Z" />
<glyph unicode="&#xa9;" horiz-adv-x="600" d="M300 715Q387 715 451 683T551 587T587 429V272Q587 178 550 114T448 18T300 -15Q213 -15 149 17T49 113T13 271V428Q13 523 50 586T152 682T300 715ZM300 653Q232 653 182 628T106 556T79 446V255Q79 206 95 167T143
99Q172 74 211 61T300 47Q369 47 418 72T494 145T521 254V445Q521 495 505 534T456 601Q428 626 389 639T300 653ZM308 566Q344 566 371 554T416 522Q419 519 420 517T421 511Q421 488 421 465T421 419Q403 419 385 419T349 419Q343 419 341 422T338 430Q338 450
338 470T338 509L355 466Q345 477 334 481T308 485Q291 485 280 479T264 459T258 428V277Q258 261 261 251T271 233Q278 226 288 223T314 219Q346 219 367 230T409 265H421Q421 245 421 225T421 185Q421 181 420 179T417 174Q402 155 372 145T307 134Q259 134 228
151T182 199T167 273V427Q167 493 204 529T308 566Z" />
<glyph unicode="&#xaa;" horiz-adv-x="600" d="M220 290Q189 290 164 301T121 333T94 384T84 452V598Q84 650 100 686T148 741T220 760Q258 760 288 743T332 696H367L362 598Q340 618 317 628T267 639Q250 639 238 632T220 611T214 577V473Q214 456 217 444T228
425Q235 418 244 415T267 411Q283 411 299 419T331 441T361 475L375 374H336Q324 336 293 313T220 290ZM523 407Q523 382 523 358T523 309Q523 304 520 301T512 298Q502 298 492 298T473 298Q431 298 404 313T365 354T352 408Q352 446 352 483T352 558T352 634Q352
653 352 672T352 711T352 750Q381 750 411 750T470 750Q475 750 478 747T481 739Q481 687 481 635T481 530T481 425Q481 416 485 412T496 407Q498 407 500 407T503 407H523Z" />
<glyph unicode="&#xab;" horiz-adv-x="600" d="M337 98V78Q309 78 281 78T225 78Q215 78 211 80T199 90Q195 94 179 111T141 151T97 197T57 239T34 263Q27 271 26 275T24 285Q24 295 24 305T24 325Q47 350 73 377T125 432T170 480T201 512Q208 519 213 520T227
522Q255 522 282 522T337 522V502Q297 460 265 426T204 361T146 299Q174 270 201 242T260 179T337 98ZM567 98V78Q539 78 511 78T455 78Q445 78 441 80T429 90Q425 94 409 111T371 151T327 197T287 239T264 263Q257 271 256 275T254 285Q254 295 254 305T254 325Q277
350 303 377T355 432T400 480T431 512Q438 519 443 520T457 522Q485 522 512 522T567 522V502Q527 460 495 426T434 361T376 299Q404 270 431 242T490 179T567 98Z" />
<glyph unicode="&#xac;" horiz-adv-x="600" d="M60 460H529Q533 460 535 459T538 455T540 449Q540 372 540 295T540 141Q508 141 478 141T415 141Q412 141 410 142T406 146T404 152Q404 210 404 268T404 384L450 324H71Q68 324 66 325T62 329T60 335Q60 367 60
398T60 460Z" />
<glyph unicode="&#xad;" horiz-adv-x="600" d="M55 371H384Q388 371 390 370T393 366T395 360Q395 326 395 295T395 228H66Q63 228 61 228T58 230T56 234T55 239Q55 274 55 305T55 371Z" />
<glyph unicode="&#xae;" horiz-adv-x="600" d="M300 760Q362 760 410 746T490 705T540 637T557 543V417Q557 364 540 324T491 256T410 214T300 200Q221 200 163 224T74 297T43 417V543Q43 596 60 636T111 704T192 746T300 760ZM300 698Q252 698 216 688T157 658T121
612T109 551V411Q109 375 122 347T162 299Q186 281 220 272T300 262Q350 262 386 272T446 302T480 348T491 409V549Q491 581 482 607T451 652Q429 674 391 686T300 698ZM227 608H270Q270 598 270 588T270 568Q270 526 270 485T270 401Q270 382 270 364T270 327Q252
327 235 327T199 327Q194 327 191 330T188 338Q188 383 188 428T188 518T188 608H227ZM324 635Q359 635 382 624T416 593T428 545V510Q428 492 423 477T406 450T380 432T344 425Q327 425 308 425T275 425Q268 425 260 425T239 425V459V493H321Q333 493 340 500T348
517V541Q348 547 347 551T341 559Q335 565 321 565Q298 565 274 565T227 565T179 565Q174 565 171 568T168 576Q168 591 168 605T168 635Q207 635 246 635T324 635ZM366 477Q372 461 378 445T391 413Q394 406 397 404T410 401Q415 401 418 401T426 401H429Q429
385 429 366T429 335Q429 330 427 327T418 324H407Q374 324 356 334T327 372Q320 392 313 412T297 452L366 477Z" />
<glyph unicode="&#xaf;" horiz-adv-x="600" d="M120 773H469Q474 773 477 770T480 762Q480 743 480 725T480 688T480 650H131Q128 650 126 651T122 655T120 661Q120 681 120 699T120 735T120 773Z" />
<glyph unicode="&#xb0;" horiz-adv-x="600" d="M300 710Q354 710 393 693T453 643T475 566V504Q475 460 454 427T393 377T300 359Q246 359 207 376T147 427T125 504V566Q125 610 146 642T207 692T300 710ZM300 456Q335 456 355 471T375 513V556Q375 579 361 593Q352
603 337 608T300 613Q265 613 245 599T225 556V513Q225 490 240 475Q249 466 264 461T300 456Z" />
<glyph unicode="&#xb1;" horiz-adv-x="600" d="M225 600Q266 600 298 600T364 600Q369 600 372 597T375 589Q375 543 375 498T375 407T375 316T375 224Q338 224 306 224T236 224Q231 224 228 227T225 235Q225 280 225 324T225 413T225 502Q225 529 225 554T225
600ZM60 480H529Q533 480 535 479T538 475T540 469Q540 435 540 407T540 344H71Q66 344 63 347T60 355Q60 390 60 418T60 480ZM60 165H529Q533 165 535 164T538 160T540 154Q540 120 540 92T540 29H71Q68 29 66 30T62 34T60 40Q60 75 60 103T60 165Z" />
<glyph unicode="&#xb2;" horiz-adv-x="400" d="M342 355Q340 355 320 355T269 355T206 355T142 355T92 355T69 355Q66 355 64 356T60 360T58 366V453Q58 486 66 514T97 563T157 597Q189 608 204 616T225 632T231 650Q231 660 229 665T223 675Q219 680 207 682T176
685Q147 685 124 681T80 670H68Q68 674 68 688T68 720T68 752T68 770Q68 773 69 776T77 781Q89 786 118 790T191 795Q243 795 275 780T322 737T338 674V667Q338 633 328 606T292 557T221 520Q195 511 182 503T162 481T153 443L158 505V431L139 454Q162 461 188
463T260 465H331Q336 465 339 462T342 454Q342 450 342 436T342 405T342 373T342 355Z" />
<glyph unicode="&#xb3;" horiz-adv-x="400" d="M337 684Q337 645 312 613T229 573L262 595V548L228 568Q270 565 294 550T330 513T341 462V456Q341 417 322 393T269 357T189 345Q140 345 111 351T66 365Q62 368 61 371T60 380Q60 384 60 397T60 426T60 456T60
473H72Q95 464 120 460T176 455Q214 455 227 463T241 489Q241 501 233 509T199 520T121 524Q116 524 113 527T109 536Q109 541 109 558T109 593T109 615Q162 615 189 618T227 629T237 651Q237 669 222 677T172 685Q145 685 122 681T79 668H67Q67 672 67 686T67
718T67 750T67 768Q67 771 68 774T76 780Q88 785 113 790T181 795Q238 795 272 781T321 743T337 690V684Z" />
<glyph unicode="&#xb4;" horiz-adv-x="600" d="M338 805Q385 805 424 805T509 805Q515 805 518 800T516 790Q491 762 468 737T421 685T367 625Q365 622 361 620T350 617Q318 617 290 617T232 617Q250 648 267 679T302 741T338 805Z" />
<glyph unicode="&#xb5;" horiz-adv-x="600" d="M70 157H185V10L166 -13Q195 -62 212 -97T230 -135Q230 -157 230 -167T230 -200Q206 -200 164 -200T81 -200Q78 -200 76 -199T72 -196T70 -189Q70 -130 70 -73T70 41T70 157ZM219 540Q223 540 225 539T228 535T230
529V360Q230 331 230 301T230 242T230 182Q230 165 238 157T262 148Q278 148 294 153T326 169T362 201T404 251V83H363Q340 51 317 30T271 -1T225 -12Q194 -12 166 0T117 32T83 80T70 139Q70 213 70 287T70 436Q70 454 70 471T70 505T70 540Q108 540 145 540T219
540ZM381 540Q419 540 456 540T530 540Q530 443 530 347T530 154Q530 148 531 144T536 137Q543 132 551 132Q556 132 562 132T573 132H580Q580 99 580 67T580 1Q580 -2 579 -4T575 -8T569 -10H520Q470 -10 437 8T387 57T370 121Q370 223 370 325T370 529Q370 532
371 534T375 538T381 540Z" />
<glyph unicode="&#xb6;" horiz-adv-x="600" d="M309 563Q292 563 279 556T258 533T250 492V368Q250 352 253 344T262 333T280 330H304V218Q282 218 265 218T233 218H199Q149 218 111 241T52 306T31 402V488Q31 560 60 607T140 677T258 700H568Q570 700 572 700T576
697Q578 696 578 694T579 689Q579 644 579 620T579 585T579 563H568Q535 563 490 563T397 563T309 563ZM268 630H319Q323 630 325 629T328 625T330 619Q330 523 330 427T330 235T330 42T330 -150Q302 -150 276 -150T221 -150Q216 -150 213 -147T210 -139Q210 -75
210 -11T210 117T210 245T210 374T210 502T210 630H268ZM465 630H519Q523 630 525 629T528 625T530 619Q530 537 530 455T530 290T530 125T530 -40Q530 -70 530 -98T530 -150Q502 -150 476 -150T421 -150Q416 -150 413 -147T410 -139Q410 -62 410 15T410 169T410
323T410 476T410 630H465Z" />
<glyph unicode="&#xb7;" horiz-adv-x="350" d="M270 224Q239 224 210 224T152 224T91 224Q88 224 86 225T82 229T80 235V414Q112 414 141 414T199 414T259 414Q263 414 265 413T268 409T270 403V224Z" />
<glyph unicode="&#xb8;" horiz-adv-x="600" d="M336 56Q333 46 331 35T326 14T321 -5T316 -21L314 -30Q362 -31 390 -56T419 -127Q419 -188 381 -219T266 -250Q228 -250 207 -247T177 -236T168 -218Q168 -201 168 -185T168 -155T168 -128H180Q194 -133 209 -136T243
-140Q261 -140 274 -133T288 -106Q288 -88 275 -79T238 -70Q233 -70 230 -66T230 -55Q236 -41 241 -29T251 -4T261 19T271 41Q274 46 279 49T297 54T336 56Z" />
<glyph unicode="&#xb9;" horiz-adv-x="400" d="M61 465H328Q333 465 336 462T339 454Q339 450 339 436T339 405T339 373T339 355H72Q67 355 64 358T61 366Q61 374 61 384T61 406T61 434T61 465ZM265 396H153L159 414Q159 419 159 424T159 433T159 442Q159 444
159 463T159 511T159 573T159 636T159 689L179 659H125L150 685Q142 657 135 638T119 606T98 580Q88 570 84 568T75 565Q72 565 71 567T69 572V715Q79 723 90 731T113 749Q127 759 139 768T161 785Q166 785 179 785T209 785T237 785T255 785Q259 785 262 782T265
774Q265 772 265 744T265 674T265 585T265 496T265 426T265 396Z" />
<glyph unicode="&#xba;" horiz-adv-x="600" d="M302 762Q364 762 410 735T483 660T510 544V498Q510 436 483 389T409 315T298 288Q235 288 189 315T116 391T90 507V552Q90 614 117 661T191 735T302 762ZM304 644Q276 644 256 634T226 604T216 556V498Q216 474
220 457T235 428Q245 417 260 412T296 406Q324 406 343 416T373 446T384 494V552Q384 577 380 594T366 622Q356 633 341 638T304 644Z" />
<glyph unicode="&#xbb;" horiz-adv-x="600" d="M264 502V522Q292 522 320 522T376 522Q386 522 390 520T402 510Q406 506 422 489T460 449T504 403T544 361T567 337Q574 330 575 326T577 315Q577 305 577 295T577 275Q554 250 528 223T476 168T431 120T400 88Q393
81 388 80T374 78Q347 78 320 78T264 78V98Q305 141 337 175T397 239T455 301Q428 330 401 358T341 421T264 502ZM34 502V522Q62 522 90 522T146 522Q156 522 160 520T172 510Q176 506 192 489T230 449T274 403T314 361T337 337Q344 330 345 326T347 315Q347 305
347 295T347 275Q324 250 298 223T246 168T201 120T170 88Q163 81 158 80T144 78Q117 78 90 78T34 78V98Q75 141 107 175T167 239T225 301Q198 330 171 358T111 421T34 502Z" />
<glyph unicode="&#xbc;" horiz-adv-x="800" d="M425 415Q426 418 435 440T456 495T483 564T509 632T530 685T539 710Q543 710 562 710T607 710T651 710T675 710Q681 710 682 707T681 697Q680 693 670 673T646 623T616 560T586 496T562 446T550 422Q548 418 546
417T539 415Q535 415 519 415T483 415T446 415T425 415ZM375 286Q374 283 365 261T344 206T317 137T291 69T270 16T261 -9Q257 -9 238 -9T193 -9T149 -9T125 -9Q119 -9 118 -6T119 4Q120 8 130 28T154 78T184 141T214 205T238 255T250 279Q252 284 254 285T261
286Q265 286 281 286T317 286T354 286T375 286ZM719 -85Q715 -85 702 -85T674 -85T645 -85T628 -85Q623 -85 620 -83T617 -74V96Q617 98 620 111T627 140T634 170T639 189H708Q714 189 716 186T719 178V-34Q719 -41 719 -59T719 -85ZM760 -4H451Q446 -4 443 -1T440
7V82Q440 82 447 100T465 146T488 206T512 267T532 315T541 337Q544 342 547 343T555 345Q559 345 573 345T605 345T637 345T656 345V333Q655 330 647 311T627 265T602 208T576 150T555 103T544 78L558 135V76L544 91Q562 97 577 100T610 104T651 106H749Q754 106
757 103T760 95Q760 91 760 77T760 46T760 14T760 -4ZM61 465H328Q333 465 336 462T339 454Q339 450 339 436T339 405T339 373T339 355H72Q67 355 64 358T61 366Q61 374 61 384T61 406T61 434T61 465ZM265 396H153L159 414Q159 419 159 424T159 433T159 442Q159
444 159 463T159 511T159 573T159 636T159 689L179 659H125L150 685Q142 657 135 638T119 606T98 580Q88 570 84 568T75 565Q72 565 71 566T69 572V715Q79 723 90 731T113 749Q127 759 139 768T161 785Q166 785 179 785T209 785T237 785T254 785Q259 785 262 782T265
774Q265 772 265 744T265 674T265 585T265 496T265 426T265 396Z" />
<glyph unicode="&#xbd;" horiz-adv-x="600" d="M357 405Q358 409 364 431T379 487T398 558T417 629T432 685T439 710Q443 710 461 710T502 710T543 710T565 710Q571 710 573 707T573 697Q572 693 563 672T541 620T513 555T485 489T462 437T451 412Q449 408 447
407T441 405Q436 405 418 405T381 405T357 405ZM243 296Q242 292 236 269T220 213T201 142T183 72T168 16T161 -9Q157 -9 140 -9T101 -9T61 -9T35 -9Q29 -9 27 -6T27 4Q28 7 37 28T59 80T87 145T115 211T138 264T149 289Q151 294 153 295T159 296Q166 296 183 296T218
296T243 296ZM567 -85Q565 -85 545 -85T494 -85T431 -85T367 -85T317 -85T294 -85Q291 -85 289 -84T285 -80T283 -74V13Q283 46 291 74T322 123T382 157Q414 168 429 176T450 192T456 210Q456 220 454 225T448 235Q444 240 432 242T401 245Q372 245 349 241T305
230H293Q293 234 293 248T293 280T293 312T293 330Q293 333 294 336T302 341Q314 346 343 350T416 355Q468 355 500 340T547 297T563 234V227Q563 193 553 166T517 117T446 80Q420 71 407 63T387 41T378 3L383 65V-9L364 14Q387 21 413 23T485 25H556Q561 25 564
22T567 14Q567 10 567 -4T567 -35T567 -67T567 -85ZM21 465H288Q293 465 296 462T299 454Q299 450 299 436T299 405T299 373T299 355H32Q27 355 24 358T21 366Q21 374 21 384T21 406T21 434T21 465ZM225 396H113L119 414Q119 419 119 424T119 433T119 442Q119 444
119 463T119 511T119 573T119 636T119 689L139 659H85L110 685Q102 657 95 638T79 606T58 580Q48 570 44 568T35 565Q32 565 31 566T29 572V715Q39 723 50 731T73 749Q87 759 99 768T121 785Q126 785 139 785T169 785T197 785T214 785Q219 785 222 782T225 774Q225
772 225 744T225 674T225 585T225 496T225 426T225 396Z" />
<glyph unicode="&#xbe;" horiz-adv-x="800" d="M425 415Q426 418 435 440T456 495T483 564T509 632T530 685T539 710Q543 710 562 710T607 710T651 710T675 710Q681 710 682 707T681 697Q680 693 670 673T646 623T616 560T586 496T562 446T550 422Q548 418 546
417T539 415Q535 415 519 415T483 415T446 415T425 415ZM375 286Q374 283 365 261T344 206T317 137T291 69T270 16T261 -9Q257 -9 238 -9T193 -9T149 -9T125 -9Q119 -9 118 -6T119 4Q120 8 130 28T154 78T184 141T214 205T238 255T250 279Q252 284 254 285T261
286Q265 286 281 286T317 286T354 286T375 286ZM719 -85Q715 -85 702 -85T674 -85T645 -85T628 -85Q623 -85 620 -83T617 -74V96Q617 98 620 111T627 140T634 170T639 189H708Q714 189 716 186T719 178V-34Q719 -41 719 -59T719 -85ZM760 -4H451Q446 -4 443 -1T440
7V82Q440 82 447 100T465 146T488 206T512 267T532 315T541 337Q544 342 547 343T555 345Q559 345 573 345T605 345T637 345T656 345V333Q655 330 647 311T627 265T602 208T576 150T555 103T544 78L558 135V76L544 91Q562 97 577 100T610 104T651 106H749Q754 106
757 103T760 95Q760 91 760 77T760 46T760 14T760 -4ZM337 684Q337 645 312 613T229 573L262 595V548L228 568Q270 565 294 550T330 513T341 462V456Q341 417 322 393T269 357T189 345Q140 345 111 351T66 365Q62 368 61 371T60 380Q60 384 60 397T60 426T60 456T60
473H72Q95 464 120 460T176 455Q214 455 227 463T241 489Q241 501 233 509T199 520T121 524Q116 524 113 527T109 536Q109 541 109 558T109 593T109 615Q162 615 189 618T227 629T237 651Q237 669 222 677T172 685Q145 685 122 681T79 668H67Q67 672 67 686T67
718T67 750T67 768Q67 771 68 774T76 780Q88 785 113 790T181 795Q238 795 272 781T321 743T337 690V684Z" />
<glyph unicode="&#xbf;" horiz-adv-x="600" d="M220 550Q267 550 314 550T409 550Q413 550 415 549T418 545T420 539V360Q373 360 326 360T231 360Q228 360 226 361T222 365T220 371V550ZM306 -180Q242 -180 197 -166T122 -128T80 -74T66 -13V18Q66 56 74 85T104
140T166 192L197 212Q217 225 227 234T242 255T246 282V288H387Q391 288 393 287T397 284T398 277V251Q398 223 390 201T360 158T300 110L277 94Q250 75 237 64T220 42T216 13Q216 4 218 -3T228 -16Q238 -23 256 -26T307 -30Q363 -30 410 -20T500 14H520Q520 -21
520 -56T520 -126Q520 -130 519 -132T516 -137Q506 -147 476 -157T402 -173T306 -180Z" />
<glyph unicode="&#xc0;" horiz-adv-x="650" d="M149 280H351Q368 280 384 280T417 280L454 289L470 219L485 150H158Q155 150 153 151T149 155T147 161L149 280ZM184 0Q149 0 114 0T43 0Q41 0 39 1T36 5T35 13Q40 34 49 75T71 170T98 285T127 408T155 527T178
628T195 700Q258 700 325 700T445 700Q449 700 451 699T454 695T457 689Q469 636 483 576T513 449T546 307T582 153Q590 116 599 78T615 0Q584 0 547 0T478 0Q472 0 469 1T463 7T459 19Q435 117 417 195T384 336T360 447T344 535T333 606L377 580H275L318 606Q314
574 307 535T290 446T264 332T230 186T184 0ZM290 947Q308 917 324 889T356 834T390 775Q371 775 356 775T321 775T270 775Q264 775 260 777T254 781Q227 810 209 829T177 864T149 896T115 933Q111 938 113 942T121 947Q157 947 179 947T225 947T290 947Z" />
<glyph unicode="&#xc1;" horiz-adv-x="650" d="M149 280H351Q368 280 384 280T417 280L454 289L470 219L485 150H158Q155 150 153 151T149 155T147 161L149 280ZM184 0Q149 0 114 0T43 0Q41 0 39 1T36 5T35 13Q40 34 49 75T71 170T98 285T127 408T155 527T178
628T195 700Q258 700 325 700T445 700Q449 700 451 699T454 695T457 689Q469 636 483 576T513 449T546 307T582 153Q590 116 599 78T615 0Q584 0 547 0T478 0Q472 0 469 1T463 7T459 19Q435 117 417 195T384 336T360 447T344 535T333 606L377 580H275L318 606Q314
574 307 535T290 446T264 332T230 186T184 0ZM360 947Q402 947 426 947T472 947T529 947Q535 947 537 943T535 933Q516 912 502 896T473 865T441 830T396 781Q394 779 390 777T380 775Q349 775 330 775T295 775T260 775Q278 806 294 833T326 889T360 947Z" />
<glyph unicode="&#xc2;" horiz-adv-x="650" d="M149 280H351Q368 280 384 280T417 280L454 289L470 219L485 150H158Q155 150 153 151T149 155T147 161L149 280ZM184 0Q149 0 114 0T43 0Q41 0 39 1T36 5T35 13Q40 34 49 75T71 170T98 285T127 408T155 527T178
628T195 700Q258 700 325 700T445 700Q449 700 451 699T454 695T457 689Q469 636 483 576T513 449T546 307T582 153Q590 116 599 78T615 0Q584 0 547 0T478 0Q472 0 469 1T463 7T459 19Q435 117 417 195T384 336T360 447T344 535T333 606L377 580H275L318 606Q314
574 307 535T290 446T264 332T230 186T184 0ZM243 947Q259 947 289 947T350 947T396 947Q403 947 408 944T427 928Q435 920 451 904T488 866T531 821T574 775Q546 775 508 775T441 775Q430 775 426 777T413 785Q398 797 373 819T309 878L361 857Q345 857 329 857T295
857L345 880Q310 846 281 821T228 775H101Q97 775 95 775T91 778T90 782Q90 786 93 790T110 808Q123 822 140 839T175 876T211 914T243 947Z" />
<glyph unicode="&#xc3;" horiz-adv-x="650" d="M149 280H351Q368 280 384 280T417 280L454 289L470 219L485 150H158Q155 150 153 151T149 155T147 161L149 280ZM184 0Q149 0 114 0T43 0Q41 0 39 1T36 5T35 13Q40 34 49 75T71 170T98 285T127 408T155 527T178
628T195 700Q258 700 325 700T445 700Q449 700 451 699T454 695T457 689Q469 636 483 576T513 449T546 307T582 153Q590 116 599 78T615 0Q584 0 547 0T478 0Q472 0 469 1T463 7T459 19Q435 117 417 195T384 336T360 447T344 535T333 606L377 580H275L318 606Q314
574 307 535T290 446T264 332T230 186T184 0ZM435 892Q458 892 477 901T512 932H532Q532 904 532 878T532 830Q532 821 531 817T525 807Q509 790 486 780T429 770Q395 770 368 778T316 797T267 816T215 825Q192 825 173 816T138 785H118Q118 813 118 839T118 887Q118
895 119 899T125 910Q141 927 164 937T221 947Q255 947 282 939T334 920T383 901T435 892Z" />
<glyph unicode="&#xc4;" horiz-adv-x="650" d="M149 280H351Q368 280 384 280T417 280L454 289L470 219L485 150H158Q155 150 153 151T149 155T147 161L149 280ZM184 0Q149 0 114 0T43 0Q41 0 39 1T36 5T35 13Q40 34 49 75T71 170T98 285T127 408T155 527T178
628T195 700Q258 700 325 700T445 700Q449 700 451 699T454 695T457 689Q469 636 483 576T513 449T546 307T582 153Q590 116 599 78T615 0Q584 0 547 0T478 0Q472 0 469 1T463 7T459 19Q435 117 417 195T384 336T360 447T344 535T333 606L377 580H275L318 606Q314
574 307 535T290 446T264 332T230 186T184 0ZM137 935Q173 935 209 935T282 935Q286 935 288 934T291 930T293 924V788Q257 788 221 788T148 788Q145 788 143 789T139 793T137 799V935ZM357 935Q393 935 429 935T502 935Q506 935 508 934T511 930T513 924V788Q477
788 441 788T368 788Q365 788 363 789T359 793T357 799V935Z" />
<glyph unicode="&#xc5;" horiz-adv-x="650" d="M149 280H351Q368 280 384 280T417 280L454 289L470 219L485 150H158Q155 150 153 151T149 155T147 161L149 280ZM184 0Q149 0 114 0T43 0Q41 0 39 1T36 5T35 13Q40 34 49 75T71 170T98 285T127 408T155 527T178
628T195 700Q258 700 325 700T445 700Q449 700 451 699T454 695T457 689Q469 636 483 576T513 449T546 307T582 153Q590 116 599 78T615 0Q584 0 547 0T478 0Q472 0 469 1T463 7T459 19Q435 117 417 195T384 336T360 447T344 535T333 606L377 580H275L318 606Q314
574 307 535T290 446T264 332T230 186T184 0ZM326 899Q381 899 419 883T478 837T498 768V742Q498 703 478 674T419 628T325 611Q270 611 232 627T173 673T152 742V768Q152 808 172 837T232 883T326 899ZM325 809Q299 809 285 797T271 762V748Q271 737 275 728T286
713Q293 707 302 704T325 701Q351 701 365 713T379 748V762Q379 773 376 782T365 797Q358 803 348 806T325 809Z" />
<glyph unicode="&#xc6;" horiz-adv-x="800" d="M166 0Q142 0 119 0T71 0T23 0Q20 0 16 3T14 13Q39 96 65 183T118 358T170 532T220 700Q241 700 262 700T304 700T346 700H744Q749 700 752 697T755 689Q755 657 755 625T755 561H304L343 590Q320 514 298 439T253
290T209 144T166 0ZM350 592H507L502 575Q502 566 502 558T502 540Q502 490 502 440T502 340T502 239T502 139H744Q749 139 752 136T755 128Q755 96 755 64T755 0H361Q358 0 356 0T352 2T350 7Q350 80 350 153T350 299T350 446T350 592ZM158 259H326Q336 259 345
259T365 259L376 262V125H169Q165 125 162 128T158 136V259ZM390 418H704Q709 418 712 415T715 407Q715 376 715 347T715 286H390V418Z" />
<glyph unicode="&#xc7;" horiz-adv-x="600" d="M344 -20Q270 -20 215 -2T123 52T68 138T50 256V455Q50 514 68 562T123 646T211 701T331 720Q382 720 423 711T493 687T537 656Q540 654 541 651T542 645T543 638Q543 601 543 552T543 458Q511 458 479 458T414 458Q409
458 406 461T403 469Q403 485 403 502T403 541T403 594L431 553Q408 567 384 572T328 577Q292 577 266 564T225 524T210 452V268Q210 225 218 196T243 150Q260 133 286 127T345 120Q399 120 441 131T530 172H550Q550 156 550 141T550 112T550 82T550 49Q550 44
549 40T544 33Q531 20 502 8T433 -12T344 -20ZM439 -127Q439 -188 401 -219T286 -250Q248 -250 227 -247T197 -236T188 -218Q188 -201 188 -185T188 -155T188 -128H200Q214 -133 229 -136T263 -140Q281 -140 294 -133T308 -106Q308 -88 295 -79T258 -70Q253 -70
250 -66T250 -55Q256 -41 261 -29T271 -4T281 19T291 41Q294 46 299 49T317 54T356 56Q353 46 351 35T346 14T341 -5T336 -21L334 -30Q382 -31 410 -56T439 -127Z" />
<glyph unicode="&#xc8;" horiz-adv-x="550" d="M30 700H489Q492 700 494 699T498 695T500 689Q500 655 500 628T500 565H41Q38 565 36 566T32 570T30 576Q30 611 30 638T30 700ZM176 416H429Q432 416 434 415T438 411T440 405Q440 382 440 362T440 324T440 286H176V416ZM86
0Q84 0 82 1T79 3T76 7T75 11Q75 31 75 79T75 194T75 335T75 483T75 616H243L235 592Q235 568 235 544T235 495Q235 451 235 406T235 315T235 225T235 135H489Q494 135 497 132T500 124Q500 91 500 62T500 0H86ZM225 947Q243 917 259 889T291 834T325 775Q306 775
291 775T256 775T205 775Q199 775 195 777T189 781Q162 810 144 829T112 864T84 896T50 933Q46 938 48 942T56 947Q92 947 114 947T160 947T225 947Z" />
<glyph unicode="&#xc9;" horiz-adv-x="550" d="M30 700H489Q492 700 494 699T498 695T500 689Q500 655 500 628T500 565H41Q38 565 36 566T32 570T30 576Q30 611 30 638T30 700ZM176 416H429Q432 416 434 415T438 411T440 405Q440 382 440 362T440 324T440 286H176V416ZM86
0Q84 0 82 1T79 3T76 7T75 11Q75 31 75 79T75 194T75 335T75 483T75 616H243L235 592Q235 568 235 544T235 495Q235 451 235 406T235 315T235 225T235 135H489Q494 135 497 132T500 124Q500 91 500 62T500 0H86ZM295 947Q337 947 361 947T407 947T464 947Q470 947
472 943T470 933Q451 912 437 896T408 865T376 830T331 781Q329 779 325 777T315 775Q284 775 265 775T230 775T195 775Q213 806 229 833T261 889T295 947Z" />
<glyph unicode="&#xca;" horiz-adv-x="550" d="M30 700H489Q492 700 494 699T498 695T500 689Q500 655 500 628T500 565H41Q38 565 36 566T32 570T30 576Q30 611 30 638T30 700ZM176 416H429Q432 416 434 415T438 411T440 405Q440 382 440 362T440 324T440 286H176V416ZM86
0Q84 0 82 1T79 3T76 7T75 11Q75 31 75 79T75 194T75 335T75 483T75 616H243L235 592Q235 568 235 544T235 495Q235 451 235 406T235 315T235 225T235 135H489Q494 135 497 132T500 124Q500 91 500 62T500 0H86ZM178 947Q194 947 224 947T285 947T331 947Q338 947
343 944T362 928Q370 920 386 904T423 866T466 821T509 775Q481 775 443 775T376 775Q365 775 361 777T348 785Q333 797 308 819T244 878L296 857Q280 857 264 857T230 857L280 880Q245 846 216 821T163 775H36Q32 775 30 775T26 778T25 782Q25 786 28 790T45 808Q58
822 75 839T110 876T146 914T178 947Z" />
<glyph unicode="&#xcb;" horiz-adv-x="550" d="M30 700H489Q492 700 494 699T498 695T500 689Q500 655 500 628T500 565H41Q38 565 36 566T32 570T30 576Q30 611 30 638T30 700ZM176 416H429Q432 416 434 415T438 411T440 405Q440 382 440 362T440 324T440 286H176V416ZM86
0Q84 0 82 1T79 3T76 7T75 11Q75 31 75 79T75 194T75 335T75 483T75 616H243L235 592Q235 568 235 544T235 495Q235 451 235 406T235 315T235 225T235 135H489Q494 135 497 132T500 124Q500 91 500 62T500 0H86ZM72 935Q108 935 144 935T217 935Q221 935 223 934T226
930T228 924V788Q192 788 156 788T83 788Q80 788 78 789T74 793T72 799V935ZM292 935Q328 935 364 935T437 935Q441 935 443 934T446 930T448 924V788Q412 788 376 788T303 788Q300 788 298 789T294 793T292 799V935Z" />
<glyph unicode="&#xcc;" horiz-adv-x="500" d="M330 85H166L170 131Q170 147 170 168T170 205Q170 256 170 307T170 409T170 512T170 615H334L330 569Q330 553 330 533T330 495Q330 444 330 393T330 290T330 187T330 85ZM430 0H81Q79 0 77 1T74 3T71 7T70 11Q70
33 70 53T70 93T70 135H419Q422 135 424 134T428 130T430 124Q430 102 430 82T430 42T430 0ZM70 700H419Q424 700 427 697T430 689Q430 673 430 658T430 627T430 597T430 565H81Q77 565 74 568T70 576Q70 593 70 608T70 638T70 668T70 700ZM215 947Q233 917 249
889T281 834T315 775Q296 775 281 775T246 775T195 775Q189 775 185 777T179 781Q152 810 134 829T102 864T74 896T40 933Q36 938 38 942T46 947Q82 947 104 947T150 947T215 947Z" />
<glyph unicode="&#xcd;" horiz-adv-x="500" d="M330 85H166L170 131Q170 147 170 168T170 205Q170 256 170 307T170 409T170 512T170 615H334L330 569Q330 553 330 533T330 495Q330 444 330 393T330 290T330 187T330 85ZM430 0H81Q79 0 77 1T74 3T71 7T70 11Q70
33 70 53T70 93T70 135H419Q422 135 424 134T428 130T430 124Q430 102 430 82T430 42T430 0ZM70 700H419Q424 700 427 697T430 689Q430 673 430 658T430 627T430 597T430 565H81Q77 565 74 568T70 576Q70 593 70 608T70 638T70 668T70 700ZM285 947Q327 947 351
947T397 947T454 947Q460 947 462 943T460 933Q441 912 427 896T398 865T366 830T321 781Q319 779 315 777T305 775Q274 775 255 775T220 775T185 775Q203 806 219 833T251 889T285 947Z" />
<glyph unicode="&#xce;" horiz-adv-x="500" d="M330 85H166L170 131Q170 147 170 168T170 205Q170 256 170 307T170 409T170 512T170 615H334L330 569Q330 553 330 533T330 495Q330 444 330 393T330 290T330 187T330 85ZM430 0H81Q79 0 77 1T74 3T71 7T70 11Q70
33 70 53T70 93T70 135H419Q422 135 424 134T428 130T430 124Q430 102 430 82T430 42T430 0ZM70 700H419Q424 700 427 697T430 689Q430 673 430 658T430 627T430 597T430 565H81Q77 565 74 568T70 576Q70 593 70 608T70 638T70 668T70 700ZM168 947Q184 947 214
947T275 947T321 947Q328 947 333 944T352 928Q360 920 376 904T413 866T456 821T499 775Q471 775 433 775T366 775Q355 775 351 777T338 785Q323 797 298 819T234 878L286 857Q270 857 254 857T220 857L270 880Q235 846 206 821T153 775H26Q22 775 20 775T16 778T15
782Q15 786 18 790T35 808Q48 822 65 839T100 876T136 914T168 947Z" />
<glyph unicode="&#xcf;" horiz-adv-x="500" d="M330 85H166L170 131Q170 147 170 168T170 205Q170 256 170 307T170 409T170 512T170 615H334L330 569Q330 553 330 533T330 495Q330 444 330 393T330 290T330 187T330 85ZM430 0H81Q79 0 77 1T74 3T71 7T70 11Q70
33 70 53T70 93T70 135H419Q422 135 424 134T428 130T430 124Q430 102 430 82T430 42T430 0ZM70 700H419Q424 700 427 697T430 689Q430 673 430 658T430 627T430 597T430 565H81Q77 565 74 568T70 576Q70 593 70 608T70 638T70 668T70 700ZM62 935Q98 935 134 935T207
935Q211 935 213 934T216 930T218 924V788Q182 788 146 788T73 788Q70 788 68 789T64 793T62 799V935ZM282 935Q318 935 354 935T427 935Q431 935 433 934T436 930T438 924V788Q402 788 366 788T293 788Q290 788 288 789T284 793T282 799V935Z" />
<glyph unicode="&#xd0;" horiz-adv-x="650" d="M10 410H309Q314 410 317 407T320 399Q320 374 320 350T320 300H21Q16 300 13 303T10 311Q10 337 10 361T10 410ZM595 238Q595 183 579 139T532 64T458 17T359 0Q337 0 305 0T237 0T169 0T114 0T86 0Q81 0 78 3T75
11Q75 87 75 163T75 316T75 469T75 622H245L235 597Q235 571 235 539T235 481Q235 436 235 394T235 312T235 229T235 142Q246 142 270 142T320 142T356 142Q390 142 409 155T436 191T445 247V453Q445 474 443 490T435 518T422 538Q415 545 406 549T384 556T356
558Q325 558 284 558T199 558T113 558T41 558Q38 558 36 559T32 563T30 569Q30 599 30 634T30 700Q61 700 102 700T187 700T273 700T345 700Q413 700 461 683T538 634T581 559T595 463V238Z" />
<glyph unicode="&#xd1;" horiz-adv-x="650" d="M200 0Q166 0 131 0T61 0Q58 0 56 1T52 5T50 11Q50 85 50 158T50 305T50 453T50 600Q50 625 50 650T50 700Q73 700 102 700T161 700T213 700Q219 700 222 699T229 690T243 665Q268 619 290 579T332 501T370 429T407
360T443 291T479 217L439 243H509L488 233Q479 277 473 314T462 384T455 447T451 506T450 567Q450 594 450 628T450 700Q485 700 520 700T589 700Q594 700 597 697T600 689Q600 616 600 542T600 395T600 248T600 100Q600 75 600 50T600 0Q579 0 556 0T511 0T470
0Q464 0 456 5T432 35Q386 112 350 175T285 293T229 402T174 513L221 480H148L167 490Q176 445 181 405T191 330T197 265T199 209T200 163Q200 123 200 82T200 0ZM460 892Q483 892 502 901T537 932H557Q557 904 557 878T557 830Q557 821 556 817T550 807Q534 790
511 780T454 770Q420 770 393 778T341 797T292 816T240 825Q217 825 198 816T163 785H143Q143 813 143 839T143 887Q143 895 144 899T150 910Q166 927 189 937T246 947Q280 947 307 939T359 920T408 901T460 892Z" />
<glyph unicode="&#xd2;" horiz-adv-x="650" d="M325 720Q401 720 462 688T559 594T595 438V250Q595 165 560 105T465 12T325 -20Q249 -20 188 12T91 104T55 250V438Q55 531 93 593T193 688T325 720ZM205 262Q205 204 218 178T245 141Q258 131 280 124T330 117Q364
117 389 133T430 181T445 262V450Q445 480 442 500T432 533T414 557Q400 571 379 578T327 585Q286 585 259 569T219 522T205 450V262ZM290 947Q308 917 324 889T356 834T390 775Q371 775 356 775T321 775T270 775Q264 775 260 777T254 781Q227 810 209 829T177
864T149 896T115 933Q111 938 113 942T121 947Q157 947 179 947T225 947T290 947Z" />
<glyph unicode="&#xd3;" horiz-adv-x="650" d="M325 720Q401 720 462 688T559 594T595 438V250Q595 165 560 105T465 12T325 -20Q249 -20 188 12T91 104T55 250V438Q55 531 93 593T193 688T325 720ZM205 262Q205 204 218 178T245 141Q258 131 280 124T330 117Q364
117 389 133T430 181T445 262V450Q445 480 442 500T432 533T414 557Q400 571 379 578T327 585Q286 585 259 569T219 522T205 450V262ZM360 947Q402 947 426 947T472 947T529 947Q535 947 537 943T535 933Q516 912 502 896T473 865T441 830T396 781Q394 779 390
777T380 775Q349 775 330 775T295 775T260 775Q278 806 294 833T326 889T360 947Z" />
<glyph unicode="&#xd4;" horiz-adv-x="650" d="M325 720Q401 720 462 688T559 594T595 438V250Q595 165 560 105T465 12T325 -20Q249 -20 188 12T91 104T55 250V438Q55 531 93 593T193 688T325 720ZM205 262Q205 204 218 178T245 141Q258 131 280 124T330 117Q364
117 389 133T430 181T445 262V450Q445 480 442 500T432 533T414 557Q400 571 379 578T327 585Q286 585 259 569T219 522T205 450V262ZM243 947Q259 947 289 947T350 947T396 947Q403 947 408 944T427 928Q435 920 451 904T488 866T531 821T574 775Q546 775 508
775T441 775Q430 775 426 777T413 785Q398 797 373 819T309 878L361 857Q345 857 329 857T295 857L345 880Q310 846 281 821T228 775H101Q97 775 95 775T91 778T90 782Q90 786 93 790T110 808Q123 822 140 839T175 876T211 914T243 947Z" />
<glyph unicode="&#xd5;" horiz-adv-x="650" d="M325 720Q401 720 462 688T559 594T595 438V250Q595 165 560 105T465 12T325 -20Q249 -20 188 12T91 104T55 250V438Q55 531 93 593T193 688T325 720ZM205 262Q205 204 218 178T245 141Q258 131 280 124T330 117Q364
117 389 133T430 181T445 262V450Q445 480 442 500T432 533T414 557Q400 571 379 578T327 585Q286 585 259 569T219 522T205 450V262ZM435 892Q458 892 477 901T512 932H532Q532 904 532 878T532 830Q532 821 531 817T525 807Q509 790 486 780T429 770Q395 770
368 778T316 797T267 816T215 825Q192 825 173 816T138 785H118Q118 813 118 839T118 887Q118 895 119 899T125 910Q141 927 164 937T221 947Q255 947 282 939T334 920T383 901T435 892Z" />
<glyph unicode="&#xd6;" horiz-adv-x="650" d="M325 720Q401 720 462 688T559 594T595 438V250Q595 165 560 105T465 12T325 -20Q249 -20 188 12T91 104T55 250V438Q55 531 93 593T193 688T325 720ZM205 262Q205 204 218 178T245 141Q258 131 280 124T330 117Q364
117 389 133T430 181T445 262V450Q445 480 442 500T432 533T414 557Q400 571 379 578T327 585Q286 585 259 569T219 522T205 450V262ZM137 935Q173 935 209 935T282 935Q286 935 288 934T291 930T293 924V788Q257 788 221 788T148 788Q145 788 143 789T139 793T137
799V935ZM357 935Q393 935 429 935T502 935Q506 935 508 934T511 930T513 924V788Q477 788 441 788T368 788Q365 788 363 789T359 793T357 799V935Z" />
<glyph unicode="&#xd7;" horiz-adv-x="600" d="M183 516Q186 516 189 513Q268 434 354 348T518 184Q497 163 471 137T421 87Q420 86 419 85T415 84Q414 84 413 85T409 87Q358 139 301 195T188 308T80 416Q100 436 126 462T177 513Q179 515 180 515T183 516ZM80
184Q157 261 243 347T409 513Q411 515 412 515T415 516Q417 516 418 516T421 513Q425 509 439 495T470 464T501 433T518 416Q467 365 411 308T298 195T189 87Q188 86 187 85T183 84Q182 84 181 85T177 87Q173 91 159 105T128 136T97 167T80 184Z" />
<glyph unicode="&#xd8;" horiz-adv-x="650" d="M593 776Q563 717 535 659T478 547L504 502H410L422 518Q420 478 411 433T388 353Q373 318 358 282T327 209T295 136Q284 113 271 92T247 48Q237 26 227 6T209 -32T193 -64Q189 -73 186 -74T176 -76Q171 -76 154
-76T115 -76T77 -76T56 -76Q67 -53 82 -21T112 43T135 90L187 197H250L229 171Q233 203 240 237T257 305T279 366Q296 405 313 442T345 514T375 580Q386 602 393 623T409 665Q422 693 432 716T451 757Q457 770 461 773T475 776Q496 776 515 776T553 776T593 776ZM325
720Q401 720 462 688T559 594T595 438V250Q595 165 560 105T465 12T325 -20Q249 -20 188 12T91 104T55 250V438Q55 531 93 593T193 688T325 720ZM205 262Q205 204 218 178T245 141Q258 131 280 124T330 117Q364 117 389 133T430 181T445 262V450Q445 480 442 500T432
533T414 557Q400 571 379 578T327 585Q286 585 259 569T219 522T205 450V262Z" />
<glyph unicode="&#xd9;" horiz-adv-x="650" d="M580 0Q555 0 531 0T481 0T431 0Q429 0 427 0T424 2T422 4T421 7T420 11Q420 97 420 183T420 355T420 528T420 700Q445 700 469 700T519 700T569 700Q572 700 574 699T578 695T580 689Q580 617 580 545T580 400T580
255T580 110Q580 80 580 52T580 0ZM232 -10Q189 -10 159 2T109 37T80 95T70 174Q70 240 70 310T70 453T70 600Q70 625 70 650T70 700Q108 700 145 700T219 700Q223 700 225 699T228 695T230 689Q230 606 230 519T230 347T230 184Q230 154 241 142T283 130Q313 130
340 141T392 176T442 233V91H400Q382 58 358 36T303 2T232 -10ZM290 947Q308 917 324 889T356 834T390 775Q371 775 356 775T321 775T270 775Q264 775 260 777T254 781Q227 810 209 829T177 864T149 896T115 933Q111 938 113 942T121 947Q157 947 179 947T225 947T290
947Z" />
<glyph unicode="&#xda;" horiz-adv-x="650" d="M580 0Q555 0 531 0T481 0T431 0Q429 0 427 0T424 2T422 4T421 7T420 11Q420 97 420 183T420 355T420 528T420 700Q445 700 469 700T519 700T569 700Q572 700 574 699T578 695T580 689Q580 617 580 545T580 400T580
255T580 110Q580 80 580 52T580 0ZM232 -10Q189 -10 159 2T109 37T80 95T70 174Q70 240 70 310T70 453T70 600Q70 625 70 650T70 700Q108 700 145 700T219 700Q223 700 225 699T228 695T230 689Q230 606 230 519T230 347T230 184Q230 154 241 142T283 130Q313 130
340 141T392 176T442 233V91H400Q382 58 358 36T303 2T232 -10ZM360 947Q402 947 426 947T472 947T529 947Q535 947 537 943T535 933Q516 912 502 896T473 865T441 830T396 781Q394 779 390 777T380 775Q349 775 330 775T295 775T260 775Q278 806 294 833T326 889T360
947Z" />
<glyph unicode="&#xdb;" horiz-adv-x="650" d="M580 0Q555 0 531 0T481 0T431 0Q429 0 427 0T424 2T422 4T421 7T420 11Q420 97 420 183T420 355T420 528T420 700Q445 700 469 700T519 700T569 700Q572 700 574 699T578 695T580 689Q580 617 580 545T580 400T580
255T580 110Q580 80 580 52T580 0ZM232 -10Q189 -10 159 2T109 37T80 95T70 174Q70 240 70 310T70 453T70 600Q70 625 70 650T70 700Q108 700 145 700T219 700Q223 700 225 699T228 695T230 689Q230 606 230 519T230 347T230 184Q230 154 241 142T283 130Q313 130
340 141T392 176T442 233V91H400Q382 58 358 36T303 2T232 -10ZM243 947Q259 947 289 947T350 947T396 947Q403 947 408 944T427 928Q435 920 451 904T488 866T531 821T574 775Q546 775 508 775T441 775Q430 775 426 777T413 785Q398 797 373 819T309 878L361 857Q345
857 329 857T295 857L345 880Q310 846 281 821T228 775H101Q97 775 95 775T91 778T90 782Q90 786 93 790T110 808Q123 822 140 839T175 876T211 914T243 947Z" />
<glyph unicode="&#xdc;" horiz-adv-x="650" d="M580 0Q555 0 531 0T481 0T431 0Q429 0 427 0T424 2T422 4T421 7T420 11Q420 97 420 183T420 355T420 528T420 700Q445 700 469 700T519 700T569 700Q572 700 574 699T578 695T580 689Q580 617 580 545T580 400T580
255T580 110Q580 80 580 52T580 0ZM232 -10Q189 -10 159 2T109 37T80 95T70 174Q70 240 70 310T70 453T70 600Q70 625 70 650T70 700Q108 700 145 700T219 700Q223 700 225 699T228 695T230 689Q230 606 230 519T230 347T230 184Q230 154 241 142T283 130Q313 130
340 141T392 176T442 233V91H400Q382 58 358 36T303 2T232 -10ZM137 935Q173 935 209 935T282 935Q286 935 288 934T291 930T293 924V788Q257 788 221 788T148 788Q145 788 143 789T139 793T137 799V935ZM357 935Q393 935 429 935T502 935Q506 935 508 934T511
930T513 924V788Q477 788 441 788T368 788Q365 788 363 789T359 793T357 799V935Z" />
<glyph unicode="&#xdd;" horiz-adv-x="650" d="M405 0Q380 0 355 0T306 0T256 0Q253 0 251 1T247 5T245 11Q245 81 245 155T245 300H405Q405 269 405 235T405 166T405 100Q405 75 405 50T405 0ZM15 700Q55 700 92 700T164 700Q172 700 176 698T185 691T193 676Q214
633 232 592T267 509T299 422T327 325L288 358H371L333 325Q345 377 359 423T389 513T425 603T468 700Q507 700 543 700T612 700Q623 700 626 694T623 674Q602 630 580 584T534 491T486 395T438 299T390 205Q343 205 316 205T277 207T260 211T253 219Q250 225 233
260T190 348T133 464T72 588T15 700ZM360 947Q402 947 426 947T472 947T529 947Q535 947 537 943T535 933Q516 912 502 896T473 865T441 830T396 781Q394 779 390 777T380 775Q349 775 330 775T295 775T260 775Q278 806 294 833T326 889T360 947Z" />
<glyph unicode="&#xde;" horiz-adv-x="600" d="M70 700Q108 700 145 700T219 700Q224 700 227 697T230 689Q230 603 230 517T230 345T230 172T230 0Q193 0 156 0T81 0Q78 0 76 1T72 5T70 11Q70 84 70 156T70 302T70 447T70 593Q70 620 70 646T70 700ZM160 597Q196
597 232 597T304 597Q370 597 416 582T490 538T532 470T545 380V328Q545 279 531 240T489 173T422 132T334 117Q294 117 253 117T171 117L160 112V259Q201 259 242 259T325 259Q345 259 358 267T378 290T385 328V379Q385 401 381 415T368 439Q359 447 345 451T310
455Q288 455 266 455T220 455Q208 455 196 455T171 455Q166 455 163 458T160 466Q160 499 160 531T160 597Z" />
<glyph unicode="&#xdf;" horiz-adv-x="600" d="M312 770Q368 770 410 760T481 731T523 682T537 613V587Q537 561 532 540T515 501T485 467L457 443Q434 424 427 416T420 401Q420 395 428 387T456 361L483 338Q517 310 534 287T559 239T566 176V158Q566 107 545
70T485 12T392 -9Q346 -9 320 -1T289 12Q288 14 288 15T287 19Q287 53 287 86T287 154H307Q323 145 340 141T382 136Q395 136 404 139T419 149Q424 155 427 163T430 182Q430 194 426 203T411 225T375 257L336 290Q308 315 295 340T281 393V410Q281 430 287 447T306
481T336 513L374 546Q388 558 395 565T404 580T407 596Q407 613 389 620T327 627Q292 627 271 623T238 607Q232 601 228 592T221 570T219 540Q219 485 219 430T219 321T219 211T219 101Q219 84 219 68T219 34T219 0Q185 0 150 0T80 0Q77 0 75 1T71 5T69 11Q69 82
69 153T69 295T69 437T69 579Q69 637 99 680T184 746T312 770Z" />
<glyph unicode="&#xe0;" horiz-adv-x="600" d="M514 337Q514 314 514 292T514 246T514 200T514 155Q514 149 515 144T520 136Q523 133 527 132T539 130Q542 130 544 130T550 130H570Q570 100 570 71T570 11Q570 6 567 3T559 0Q554 0 532 0T492 0Q463 0 440 9T400
36T373 78T364 131Q364 161 364 191T364 251Q364 268 364 283T364 315T364 347Q364 372 354 386T323 407T267 413Q239 413 213 411T161 403T110 390H90Q90 419 90 449T90 508Q90 512 91 514T93 518Q99 524 127 531T193 544T267 550Q332 550 378 538T455 501T499
435T514 337ZM200 155Q200 139 208 131T236 122Q261 122 285 127T334 144T382 172V87H353Q340 56 318 35T264 2T197 -10Q152 -10 119 8T68 59T50 134V171Q50 203 61 229T92 275T142 304T207 315Q242 315 275 315T339 315T395 315Q404 315 408 298T414 259T415 225Q385
225 356 225T296 225T236 225Q227 225 221 223T209 215Q205 211 203 205T200 192V155ZM262 807Q280 775 297 744T333 681T368 619Q340 619 311 619T250 619Q244 619 240 621T233 627Q204 660 180 686T133 738T84 792Q80 797 82 802T91 807Q122 807 149 807T203
807T262 807Z" />
<glyph unicode="&#xe1;" horiz-adv-x="600" d="M514 337Q514 314 514 292T514 246T514 200T514 155Q514 149 515 144T520 136Q523 133 527 132T539 130Q542 130 544 130T550 130H570Q570 100 570 71T570 11Q570 6 567 3T559 0Q554 0 532 0T492 0Q463 0 440 9T400
36T373 78T364 131Q364 161 364 191T364 251Q364 268 364 283T364 315T364 347Q364 372 354 386T323 407T267 413Q239 413 213 411T161 403T110 390H90Q90 419 90 449T90 508Q90 512 91 514T93 518Q99 524 127 531T193 544T267 550Q332 550 378 538T455 501T499
435T514 337ZM200 155Q200 139 208 131T236 122Q261 122 285 127T334 144T382 172V87H353Q340 56 318 35T264 2T197 -10Q152 -10 119 8T68 59T50 134V171Q50 203 61 229T92 275T142 304T207 315Q242 315 275 315T339 315T395 315Q404 315 408 298T414 259T415 225Q385
225 356 225T296 225T236 225Q227 225 221 223T209 215Q205 211 203 205T200 192V155ZM338 807Q385 807 424 807T509 807Q515 807 518 802T516 792Q491 764 468 739T421 687T367 627Q365 624 361 622T350 619Q318 619 290 619T232 619Q250 650 267 681T302 743T338
807Z" />
<glyph unicode="&#xe2;" horiz-adv-x="600" d="M514 337Q514 314 514 292T514 246T514 200T514 155Q514 149 515 144T520 136Q523 133 527 132T539 130Q542 130 544 130T550 130H570Q570 100 570 71T570 11Q570 6 567 3T559 0Q554 0 532 0T492 0Q463 0 440 9T400
36T373 78T364 131Q364 161 364 191T364 251Q364 268 364 283T364 315T364 347Q364 372 354 386T323 407T267 413Q239 413 213 411T161 403T110 390H90Q90 419 90 449T90 508Q90 512 91 514T93 518Q99 524 127 531T193 544T267 550Q332 550 378 538T455 501T499
435T514 337ZM200 155Q200 139 208 131T236 122Q261 122 285 127T334 144T382 172V87H353Q340 56 318 35T264 2T197 -10Q152 -10 119 8T68 59T50 134V171Q50 203 61 229T92 275T142 304T207 315Q242 315 275 315T339 315T395 315Q404 315 408 298T414 259T415 225Q385
225 356 225T296 225T236 225Q227 225 221 223T209 215Q205 211 203 205T200 192V155ZM246 812Q270 812 293 812T340 812Q348 812 353 808T370 790Q377 781 394 761T433 713T477 659T517 610Q489 610 461 610T405 610Q394 610 389 612T376 621Q366 631 344 654T281
718L333 697H267L317 720Q280 680 256 655T211 610H104Q100 610 98 611T94 614T93 619Q93 624 96 628T111 647Q122 661 140 683T179 731T218 778T246 812Z" />
<glyph unicode="&#xe3;" horiz-adv-x="600" d="M514 337Q514 314 514 292T514 246T514 200T514 155Q514 149 515 144T520 136Q523 133 527 132T539 130Q542 130 544 130T550 130H570Q570 100 570 71T570 11Q570 6 567 3T559 0Q554 0 532 0T492 0Q463 0 440 9T400
36T373 78T364 131Q364 161 364 191T364 251Q364 268 364 283T364 315T364 347Q364 372 354 386T323 407T267 413Q239 413 213 411T161 403T110 390H90Q90 419 90 449T90 508Q90 512 91 514T93 518Q99 524 127 531T193 544T267 550Q332 550 378 538T455 501T499
435T514 337ZM200 155Q200 139 208 131T236 122Q261 122 285 127T334 144T382 172V87H353Q340 56 318 35T264 2T197 -10Q152 -10 119 8T68 59T50 134V171Q50 203 61 229T92 275T142 304T207 315Q242 315 275 315T339 315T395 315Q404 315 408 298T414 259T415 225Q385
225 356 225T296 225T236 225Q227 225 221 223T209 215Q205 211 203 205T200 192V155ZM395 757Q423 757 446 769T487 806H507Q507 788 507 770T507 736T507 704Q507 696 506 692T500 680Q485 660 455 648T389 635Q355 635 332 642T291 660T252 677T205 685Q177
685 154 673T113 636H93Q93 655 93 672T93 707T93 738Q93 746 94 750T100 762Q115 782 145 794T211 807Q245 807 268 800T309 782T348 765T395 757Z" />
<glyph unicode="&#xe4;" horiz-adv-x="600" d="M514 337Q514 314 514 292T514 246T514 200T514 155Q514 149 515 144T520 136Q523 133 527 132T539 130Q542 130 544 130T550 130H570Q570 100 570 71T570 11Q570 6 567 3T559 0Q554 0 532 0T492 0Q463 0 440 9T400
36T373 78T364 131Q364 161 364 191T364 251Q364 268 364 283T364 315T364 347Q364 372 354 386T323 407T267 413Q239 413 213 411T161 403T110 390H90Q90 419 90 449T90 508Q90 512 91 514T93 518Q99 524 127 531T193 544T267 550Q332 550 378 538T455 501T499
435T514 337ZM200 155Q200 139 208 131T236 122Q261 122 285 127T334 144T382 172V87H353Q340 56 318 35T264 2T197 -10Q152 -10 119 8T68 59T50 134V171Q50 203 61 229T92 275T142 304T207 315Q242 315 275 315T339 315T395 315Q404 315 408 298T414 259T415 225Q385
225 356 225T296 225T236 225Q227 225 221 223T209 215Q205 211 203 205T200 192V155ZM112 768Q148 768 184 768T257 768Q261 768 263 767T266 763T268 757V611Q232 611 196 611T123 611Q120 611 118 612T114 616T112 622V768ZM332 768Q368 768 404 768T477 768Q481
768 483 767T486 763T488 757V611Q452 611 416 611T343 611Q340 611 338 612T334 616T332 622V768Z" />
<glyph unicode="&#xe5;" horiz-adv-x="600" d="M514 337Q514 314 514 292T514 246T514 200T514 155Q514 149 515 144T520 136Q523 133 527 132T539 130Q542 130 544 130T550 130H570Q570 100 570 71T570 11Q570 6 567 3T559 0Q554 0 532 0T492 0Q463 0 440 9T400
36T373 78T364 131Q364 161 364 191T364 251Q364 268 364 283T364 315T364 347Q364 372 354 386T323 407T267 413Q239 413 213 411T161 403T110 390H90Q90 419 90 449T90 508Q90 512 91 514T93 518Q99 524 127 531T193 544T267 550Q332 550 378 538T455 501T499
435T514 337ZM200 155Q200 139 208 131T236 122Q261 122 285 127T334 144T382 172V87H353Q340 56 318 35T264 2T197 -10Q152 -10 119 8T68 59T50 134V171Q50 203 61 229T92 275T142 304T207 315Q242 315 275 315T339 315T395 315Q404 315 408 298T414 259T415 225Q385
225 356 225T296 225T236 225Q227 225 221 223T209 215Q205 211 203 205T200 192V155ZM300 868Q344 868 375 853T424 811T442 745V716Q442 660 404 627T300 593Q235 593 197 626T158 716V745Q158 783 175 810T225 853T300 868ZM300 785Q277 785 264 773T251 738V722Q251
712 254 704T264 689Q270 683 279 680T300 676Q323 676 336 688T349 722V738Q349 749 346 757T337 772Q331 779 322 782T300 785Z" />
<glyph unicode="&#xe6;" horiz-adv-x="850" d="M235 552Q285 552 325 540T395 503T445 440L408 480H455L417 440Q440 495 484 523T585 552Q644 552 688 530T756 462T780 340Q780 315 780 290T780 239Q780 236 779 234T776 230T770 229Q736 229 702 229T634 229T565
229T497 229L442 225V319Q469 319 492 319T536 319T580 319T630 319Q630 321 630 323T630 327T630 332Q630 354 627 369T615 393Q608 402 596 406T566 410Q542 410 527 401T506 375T499 332V217Q499 191 508 174T535 146Q553 135 578 130T634 125Q662 125 682 127T719
133T757 145H777Q777 115 777 85T777 24Q777 22 776 19T771 14Q757 6 724 -3T633 -12Q580 -12 537 1T462 40T410 103L448 69H398L439 103Q417 66 384 41T309 3T220 -10Q162 -10 125 11T69 65T50 134V180Q50 211 61 238T93 285T143 317T208 329Q257 329 292 323T351
307T383 290H412V229Q380 229 349 229T292 229T251 229Q232 229 224 226T210 218Q206 213 203 206T200 191V171Q200 145 212 135T247 125H250Q283 125 305 133T339 158T351 198V338Q351 366 339 381T299 403T227 410Q194 410 160 405T90 390H70Q70 422 70 453T70
515Q70 517 71 519T73 523Q80 530 102 536T158 547T235 552Z" />
<glyph unicode="&#xe7;" horiz-adv-x="500" d="M314 552Q351 552 379 548T424 539T447 527Q449 526 449 524T450 519Q450 487 450 455T450 390H430Q402 401 373 405T313 410Q284 410 261 399T224 364T210 299V243Q210 212 218 190T242 153Q255 141 272 136T313
130Q334 130 353 132T392 138T430 150H450Q450 118 450 86T450 21Q450 19 450 17T447 13Q442 8 425 2T379 -8T314 -12Q254 -12 206 4T124 53T73 131T55 235V301Q55 374 87 430T178 519T314 552ZM323 55Q320 45 318 34T313 13T308 -6T303 -22L301 -31Q349 -32 377
-57T406 -128Q406 -189 368 -220T253 -251Q215 -251 194 -248T164 -237T155 -219Q155 -202 155 -186T155 -156T155 -129H167Q181 -134 196 -137T230 -141Q248 -141 261 -134T275 -107Q275 -89 262 -80T225 -71Q220 -71 217 -67T217 -56Q223 -42 228 -30T238 -5T248
18T258 40Q261 45 266 48T284 53T323 55Z" />
<glyph unicode="&#xe8;" horiz-adv-x="600" d="M302 552Q373 552 424 523T502 444T530 330V244Q530 241 529 239T526 235T520 234H300Q283 234 265 234T230 234H185V324H385Q385 328 385 330T385 337Q385 362 380 379T364 408Q354 418 339 422T302 427Q257 427
236 406T215 337V210Q215 188 220 172T236 145Q251 130 275 124T332 118Q368 118 396 121T448 130T495 143H515Q515 115 515 87T515 29Q515 27 514 25T511 21Q504 14 476 7T409 -6T331 -12Q264 -12 214 3T131 48T82 119T65 212V330Q65 378 81 418T128 489T203 535T302
552ZM262 807Q280 775 297 744T333 681T368 619Q340 619 311 619T250 619Q244 619 240 621T233 627Q204 660 180 686T133 738T84 792Q80 797 82 802T91 807Q122 807 149 807T203 807T262 807Z" />
<glyph unicode="&#xe9;" horiz-adv-x="600" d="M302 552Q373 552 424 523T502 444T530 330V244Q530 241 529 239T526 235T520 234H300Q283 234 265 234T230 234H185V324H385Q385 328 385 330T385 337Q385 362 380 379T364 408Q354 418 339 422T302 427Q257 427
236 406T215 337V210Q215 188 220 172T236 145Q251 130 275 124T332 118Q368 118 396 121T448 130T495 143H515Q515 115 515 87T515 29Q515 27 514 25T511 21Q504 14 476 7T409 -6T331 -12Q264 -12 214 3T131 48T82 119T65 212V330Q65 378 81 418T128 489T203 535T302
552ZM338 807Q385 807 424 807T509 807Q515 807 518 802T516 792Q491 764 468 739T421 687T367 627Q365 624 361 622T350 619Q318 619 290 619T232 619Q250 650 267 681T302 743T338 807Z" />
<glyph unicode="&#xea;" horiz-adv-x="600" d="M302 552Q373 552 424 523T502 444T530 330V244Q530 241 529 239T526 235T520 234H300Q283 234 265 234T230 234H185V324H385Q385 328 385 330T385 337Q385 362 380 379T364 408Q354 418 339 422T302 427Q257 427
236 406T215 337V210Q215 188 220 172T236 145Q251 130 275 124T332 118Q368 118 396 121T448 130T495 143H515Q515 115 515 87T515 29Q515 27 514 25T511 21Q504 14 476 7T409 -6T331 -12Q264 -12 214 3T131 48T82 119T65 212V330Q65 378 81 418T128 489T203 535T302
552ZM246 812Q270 812 293 812T340 812Q348 812 353 808T370 790Q377 781 394 761T433 713T477 659T517 610Q489 610 461 610T405 610Q394 610 389 612T376 621Q366 631 344 654T281 718L333 697H267L317 720Q280 680 256 655T211 610H104Q100 610 98 611T94 614T93
619Q93 624 96 628T111 647Q122 661 140 683T179 731T218 778T246 812Z" />
<glyph unicode="&#xeb;" horiz-adv-x="600" d="M302 552Q373 552 424 523T502 444T530 330V244Q530 241 529 239T526 235T520 234H300Q283 234 265 234T230 234H185V324H385Q385 328 385 330T385 337Q385 362 380 379T364 408Q354 418 339 422T302 427Q257 427
236 406T215 337V210Q215 188 220 172T236 145Q251 130 275 124T332 118Q368 118 396 121T448 130T495 143H515Q515 115 515 87T515 29Q515 27 514 25T511 21Q504 14 476 7T409 -6T331 -12Q264 -12 214 3T131 48T82 119T65 212V330Q65 378 81 418T128 489T203 535T302
552ZM112 768Q148 768 184 768T257 768Q261 768 263 767T266 763T268 757V611Q232 611 196 611T123 611Q120 611 118 612T114 616T112 622V768ZM332 768Q368 768 404 768T477 768Q481 768 483 767T486 763T488 757V611Q452 611 416 611T343 611Q340 611 338 612T334
616T332 622V768Z" />
<glyph unicode="&#xec;" horiz-adv-x="350" d="M115 11Q115 35 115 74T115 161T115 255T115 342T115 406H110Q105 406 98 406T83 406T67 406T52 406Q47 406 44 409T41 417Q41 447 41 478T41 540Q58 540 80 540T128 540T178 540T222 540T254 540Q258 540 260 539T263
535T265 529Q265 483 265 428T265 314T265 201T265 99Q265 83 265 67T265 34T265 0Q228 0 196 0T126 0Q121 0 118 3T115 11ZM146 807Q164 775 181 744T217 681T252 619Q224 619 195 619T134 619Q128 619 124 621T117 627Q88 660 64 686T17 738T-32 792Q-36 797
-34 802T-25 807Q6 807 33 807T87 807T146 807Z" />
<glyph unicode="&#xed;" horiz-adv-x="350" d="M115 11Q115 35 115 74T115 161T115 255T115 342T115 406H110Q105 406 98 406T83 406T67 406T52 406Q47 406 44 409T41 417Q41 447 41 478T41 540Q58 540 80 540T128 540T178 540T222 540T254 540Q258 540 260 539T263
535T265 529Q265 483 265 428T265 314T265 201T265 99Q265 83 265 67T265 34T265 0Q228 0 196 0T126 0Q121 0 118 3T115 11ZM222 807Q269 807 308 807T393 807Q399 807 402 802T400 792Q375 764 352 739T305 687T251 627Q249 624 245 622T234 619Q202 619 174 619T116
619Q134 650 151 681T186 743T222 807Z" />
<glyph unicode="&#xee;" horiz-adv-x="350" d="M115 11Q115 35 115 74T115 161T115 255T115 342T115 406H110Q105 406 98 406T83 406T67 406T52 406Q47 406 44 409T41 417Q41 447 41 478T41 540Q58 540 80 540T128 540T178 540T222 540T254 540Q258 540 260 539T263
535T265 529Q265 483 265 428T265 314T265 201T265 99Q265 83 265 67T265 34T265 0Q228 0 196 0T126 0Q121 0 118 3T115 11ZM130 812Q154 812 177 812T224 812Q232 812 237 808T254 790Q261 781 278 761T317 713T361 659T401 610Q373 610 345 610T289 610Q278 610
273 612T260 621Q250 631 228 654T165 718L217 697H151L201 720Q164 680 140 655T95 610H-12Q-16 610 -18 611T-22 614T-23 619Q-23 624 -20 628T-5 647Q6 661 24 683T63 731T102 778T130 812Z" />
<glyph unicode="&#xef;" horiz-adv-x="350" d="M115 11Q115 35 115 74T115 161T115 255T115 342T115 406H110Q105 406 98 406T83 406T67 406T52 406Q47 406 44 409T41 417Q41 447 41 478T41 540Q58 540 80 540T128 540T178 540T222 540T254 540Q258 540 260 539T263
535T265 529Q265 483 265 428T265 314T265 201T265 99Q265 83 265 67T265 34T265 0Q228 0 196 0T126 0Q121 0 118 3T115 11ZM-4 768Q32 768 68 768T141 768Q145 768 147 767T150 763T152 757V611Q116 611 80 611T7 611Q4 611 2 612T-2 616T-4 622V768ZM216 768Q252
768 288 768T361 768Q365 768 367 767T370 763T372 757V611Q336 611 300 611T227 611Q224 611 222 612T218 616T216 622V768Z" />
<glyph unicode="&#xf0;" horiz-adv-x="600" d="M550 748Q550 726 550 704T550 660Q550 655 549 652T546 646T537 642L408 607Q396 604 380 604T348 603T318 598L117 543Q117 566 117 587T117 630Q117 639 120 642T131 648L252 680Q271 685 287 686T318 687T344
690L550 748ZM234 490Q281 490 310 478T362 443H406V314Q376 338 349 351T282 364Q258 364 241 354T214 325T205 276V221Q205 206 207 193T215 169T228 150Q239 140 256 134T295 128Q327 128 349 140T383 176T395 233V326Q395 373 384 415T353 496T303 573T237
650T155 730V750Q196 750 238 750T321 750Q326 750 330 749T341 742Q379 704 411 665T468 586T510 504T536 418T545 326V238Q545 164 514 108T427 20T298 -12Q226 -12 171 15T86 92T55 211V290Q55 350 78 395T142 465T234 490Z" />
<glyph unicode="&#xf1;" horiz-adv-x="600" d="M540 0Q503 0 471 0T401 0Q398 0 396 1T392 5T390 11Q390 70 390 129T390 246T390 363Q390 386 381 396T348 407Q332 407 313 402T273 387T235 363T203 328V454H240Q259 483 283 505T336 539T398 552Q430 552 456
542T501 511T530 461T540 394Q540 346 540 297T540 199T540 99Q540 74 540 50T540 0ZM220 0Q195 0 173 0T129 0T81 0Q78 0 76 0T73 2T71 6T70 11Q70 65 70 119T70 226T70 334T70 442Q70 469 70 494T70 540Q98 540 121 540T165 540T209 540Q213 540 215 539T218
535T220 529Q220 441 220 353T220 177T220 0ZM395 757Q423 757 446 769T487 806H507Q507 788 507 770T507 736T507 704Q507 696 506 692T500 680Q485 660 455 648T389 635Q355 635 332 642T291 660T252 677T205 685Q177 685 154 673T113 636H93Q93 655 93 672T93
707T93 738Q93 746 94 750T100 762Q115 782 145 794T211 807Q245 807 268 800T309 782T348 765T395 757Z" />
<glyph unicode="&#xf2;" horiz-adv-x="600" d="M300 552Q355 552 400 535T478 487T529 414T547 319V221Q547 152 516 100T430 18T300 -12Q245 -12 200 5T122 53T71 126T53 221V319Q53 388 84 440T171 522T300 552ZM300 417Q269 417 248 405T215 370T203 312V228Q203
202 210 182T230 148Q242 136 260 130T300 123Q331 123 352 135T385 170T397 228V312Q397 341 391 361T372 394Q360 406 342 411T300 417ZM260 807Q278 775 295 744T331 681T366 619Q338 619 309 619T248 619Q242 619 238 621T231 627Q202 660 178 686T131 738T82
792Q78 797 80 802T89 807Q120 807 147 807T201 807T260 807Z" />
<glyph unicode="&#xf3;" horiz-adv-x="600" d="M300 552Q355 552 400 535T478 487T529 414T547 319V221Q547 152 516 100T430 18T300 -12Q245 -12 200 5T122 53T71 126T53 221V319Q53 388 84 440T171 522T300 552ZM300 417Q269 417 248 405T215 370T203 312V228Q203
202 210 182T230 148Q242 136 260 130T300 123Q331 123 352 135T385 170T397 228V312Q397 341 391 361T372 394Q360 406 342 411T300 417ZM336 807Q383 807 422 807T507 807Q513 807 516 802T514 792Q489 764 466 739T419 687T365 627Q363 624 359 622T348 619Q316
619 288 619T230 619Q248 650 265 681T300 743T336 807Z" />
<glyph unicode="&#xf4;" horiz-adv-x="600" d="M300 552Q355 552 400 535T478 487T529 414T547 319V221Q547 152 516 100T430 18T300 -12Q245 -12 200 5T122 53T71 126T53 221V319Q53 388 84 440T171 522T300 552ZM300 417Q269 417 248 405T215 370T203 312V228Q203
202 210 182T230 148Q242 136 260 130T300 123Q331 123 352 135T385 170T397 228V312Q397 341 391 361T372 394Q360 406 342 411T300 417ZM244 812Q268 812 291 812T338 812Q346 812 351 808T368 790Q375 781 392 761T431 713T475 659T515 610Q487 610 459 610T403
610Q392 610 387 612T374 621Q364 631 342 654T279 718L331 697H265L315 720Q278 680 254 655T209 610H102Q98 610 96 611T92 614T91 619Q91 624 94 628T109 647Q120 661 138 683T177 731T216 778T244 812Z" />
<glyph unicode="&#xf5;" horiz-adv-x="600" d="M300 552Q355 552 400 535T478 487T529 414T547 319V221Q547 152 516 100T430 18T300 -12Q245 -12 200 5T122 53T71 126T53 221V319Q53 388 84 440T171 522T300 552ZM300 417Q269 417 248 405T215 370T203 312V228Q203
202 210 182T230 148Q242 136 260 130T300 123Q331 123 352 135T385 170T397 228V312Q397 341 391 361T372 394Q360 406 342 411T300 417ZM393 757Q421 757 444 769T485 806H505Q505 788 505 770T505 736T505 704Q505 696 504 692T498 680Q483 660 453 648T387
635Q353 635 330 642T289 660T250 677T203 685Q175 685 152 673T111 636H91Q91 655 91 672T91 707T91 738Q91 746 92 750T98 762Q113 782 143 794T209 807Q243 807 266 800T307 782T346 765T393 757Z" />
<glyph unicode="&#xf6;" horiz-adv-x="600" d="M300 552Q355 552 400 535T478 487T529 414T547 319V221Q547 152 516 100T430 18T300 -12Q245 -12 200 5T122 53T71 126T53 221V319Q53 388 84 440T171 522T300 552ZM300 417Q269 417 248 405T215 370T203 312V228Q203
202 210 182T230 148Q242 136 260 130T300 123Q331 123 352 135T385 170T397 228V312Q397 341 391 361T372 394Q360 406 342 411T300 417ZM110 768Q146 768 182 768T255 768Q259 768 261 767T264 763T266 757V611Q230 611 194 611T121 611Q118 611 116 612T112
616T110 622V768ZM330 768Q366 768 402 768T475 768Q479 768 481 767T484 763T486 757V611Q450 611 414 611T341 611Q338 611 336 612T332 616T330 622V768Z" />
<glyph unicode="&#xf7;" horiz-adv-x="600" d="M60 370H529Q534 370 537 367T540 359Q540 325 540 295T540 230H71Q68 230 66 231T62 235T60 241Q60 276 60 306T60 370ZM215 580Q247 580 271 580T319 580T374 580Q378 580 380 579T383 575T385 569V440Q354 440
330 440T282 440T226 440Q223 440 221 441T217 445T215 451V580ZM215 160Q247 160 271 160T319 160T374 160Q378 160 380 159T383 155T385 149V20Q354 20 330 20T282 20T226 20Q223 20 221 21T217 25T215 31V160Z" />
<glyph unicode="&#xf8;" horiz-adv-x="600" d="M527 607Q514 583 501 560T477 515T453 472L471 348H366L376 371Q374 340 365 307T344 251Q322 210 299 167T251 83Q251 76 251 68T252 52Q242 32 231 12T211 -27T194 -58Q191 -63 189 -64T180 -66Q176 -66 160 -66T125
-66T91 -66T71 -66Q80 -49 93 -24T120 26T140 64L169 192H232L224 172Q228 197 235 223T252 276T274 323Q296 361 316 397T356 465Q353 470 350 475T344 486Q357 514 369 539T393 588Q399 601 403 604T415 607Q423 607 439 607T473 607T507 607T527 607ZM300 552Q355
552 400 535T478 487T529 414T547 319V221Q547 152 516 100T430 18T300 -12Q245 -12 200 5T122 53T71 126T53 221V319Q53 388 84 440T171 522T300 552ZM300 417Q269 417 248 405T215 370T203 312V228Q203 202 210 182T230 148Q242 136 260 130T300 123Q331 123
352 135T385 170T397 228V312Q397 341 391 361T372 394Q360 406 342 411T300 417Z" />
<glyph unicode="&#xf9;" horiz-adv-x="600" d="M209 540Q213 540 215 539T218 535T220 529Q220 485 220 439T220 347T220 258T220 177Q220 161 229 151T254 141Q277 141 297 145T334 157T368 179T397 212V86H361Q344 55 323 33T275 0T211 -12Q181 -12 155 -2T110
29T81 77T70 140Q70 185 70 230T70 320T70 410Q70 442 70 475T70 540Q105 540 140 540T209 540ZM519 540Q523 540 525 539T528 535T530 529Q530 457 530 386T530 242T530 98Q530 80 530 63T530 30T530 0Q505 0 481 0T435 0T391 0Q388 0 386 1T382 5T380 11Q380
99 380 187T380 364T380 540Q405 540 427 540T473 540T519 540ZM262 807Q280 775 297 744T333 681T368 619Q340 619 311 619T250 619Q244 619 240 621T233 627Q204 660 180 686T133 738T84 792Q80 797 82 802T91 807Q122 807 149 807T203 807T262 807Z" />
<glyph unicode="&#xfa;" horiz-adv-x="600" d="M209 540Q213 540 215 539T218 535T220 529Q220 485 220 439T220 347T220 258T220 177Q220 161 229 151T254 141Q277 141 297 145T334 157T368 179T397 212V86H361Q344 55 323 33T275 0T211 -12Q181 -12 155 -2T110
29T81 77T70 140Q70 185 70 230T70 320T70 410Q70 442 70 475T70 540Q105 540 140 540T209 540ZM519 540Q523 540 525 539T528 535T530 529Q530 457 530 386T530 242T530 98Q530 80 530 63T530 30T530 0Q505 0 481 0T435 0T391 0Q388 0 386 1T382 5T380 11Q380
99 380 187T380 364T380 540Q405 540 427 540T473 540T519 540ZM338 807Q385 807 424 807T509 807Q515 807 518 802T516 792Q491 764 468 739T421 687T367 627Q365 624 361 622T350 619Q318 619 290 619T232 619Q250 650 267 681T302 743T338 807Z" />
<glyph unicode="&#xfb;" horiz-adv-x="600" d="M209 540Q213 540 215 539T218 535T220 529Q220 485 220 439T220 347T220 258T220 177Q220 161 229 151T254 141Q277 141 297 145T334 157T368 179T397 212V86H361Q344 55 323 33T275 0T211 -12Q181 -12 155 -2T110
29T81 77T70 140Q70 185 70 230T70 320T70 410Q70 442 70 475T70 540Q105 540 140 540T209 540ZM519 540Q523 540 525 539T528 535T530 529Q530 457 530 386T530 242T530 98Q530 80 530 63T530 30T530 0Q505 0 481 0T435 0T391 0Q388 0 386 1T382 5T380 11Q380
99 380 187T380 364T380 540Q405 540 427 540T473 540T519 540ZM246 812Q270 812 293 812T340 812Q348 812 353 808T370 790Q377 781 394 761T433 713T477 659T517 610Q489 610 461 610T405 610Q394 610 389 612T376 621Q366 631 344 654T281 718L333 697H267L317
720Q280 680 256 655T211 610H104Q100 610 98 611T94 614T93 619Q93 624 96 628T111 647Q122 661 140 683T179 731T218 778T246 812Z" />
<glyph unicode="&#xfc;" horiz-adv-x="600" d="M209 540Q213 540 215 539T218 535T220 529Q220 485 220 439T220 347T220 258T220 177Q220 161 229 151T254 141Q277 141 297 145T334 157T368 179T397 212V86H361Q344 55 323 33T275 0T211 -12Q181 -12 155 -2T110
29T81 77T70 140Q70 185 70 230T70 320T70 410Q70 442 70 475T70 540Q105 540 140 540T209 540ZM519 540Q523 540 525 539T528 535T530 529Q530 457 530 386T530 242T530 98Q530 80 530 63T530 30T530 0Q505 0 481 0T435 0T391 0Q388 0 386 1T382 5T380 11Q380
99 380 187T380 364T380 540Q405 540 427 540T473 540T519 540ZM112 768Q148 768 184 768T257 768Q261 768 263 767T266 763T268 757V611Q232 611 196 611T123 611Q120 611 118 612T114 616T112 622V768ZM332 768Q368 768 404 768T477 768Q481 768 483 767T486
763T488 757V611Q452 611 416 611T343 611Q340 611 338 612T334 616T332 622V768Z" />
<glyph unicode="&#xfd;" horiz-adv-x="600" d="M549 540Q554 540 558 536T561 524Q544 453 529 390T498 262T465 126T428 -31Q415 -89 390 -126T325 -182T229 -200Q215 -200 197 -200T161 -200T131 -200T115 -200Q110 -200 107 -197T104 -189V-70H124Q146 -70
167 -70T210 -70Q244 -70 264 -54T293 0Q299 25 308 69T330 169T355 289T381 416T408 540Q424 540 441 540T475 540T511 540T549 540ZM187 540Q197 540 201 537T207 526Q226 452 238 403T258 320T273 259T286 203T302 132H367L343 40H221Q212 40 206 42T195 49T187
65Q183 77 172 112T145 198T111 308T74 427T41 540Q58 540 76 540T112 540T149 540T187 540ZM348 807Q395 807 434 807T519 807Q525 807 528 802T526 792Q501 764 478 739T431 687T377 627Q375 624 371 622T360 619Q328 619 300 619T242 619Q260 650 277 681T312
743T348 807Z" />
<glyph unicode="&#xfe;" horiz-adv-x="600" d="M70 710Q94 710 117 710T162 710T209 710Q213 710 215 709T218 705T220 699Q220 626 220 536T220 348T220 152T220 -37T220 -200Q196 -200 174 -200T128 -200T81 -200Q78 -200 76 -199T72 -195T70 -189Q70 -137 70
-73T70 64T70 210T70 356T70 492T70 609Q70 638 70 663T70 710ZM382 552Q432 552 468 529T525 463T545 358V184Q545 138 534 102T501 41T450 3T382 -10Q354 -10 328 0T278 30T238 72H208V184Q226 169 246 158T289 141T331 135Q352 135 366 143T387 168T395 209V333Q395
354 391 368T378 391Q370 399 358 403T331 407Q312 407 290 398T247 371T209 331V461H238Q253 490 275 510T325 541T382 552Z" />
<glyph unicode="&#xff;" horiz-adv-x="600" d="M549 540Q554 540 558 536T561 524Q544 453 529 390T498 262T465 126T428 -31Q415 -89 390 -126T325 -182T229 -200Q215 -200 197 -200T161 -200T131 -200T115 -200Q110 -200 107 -197T104 -189V-70H124Q146 -70
167 -70T210 -70Q244 -70 264 -54T293 0Q299 25 308 69T330 169T355 289T381 416T408 540Q424 540 441 540T475 540T511 540T549 540ZM187 540Q197 540 201 537T207 526Q226 452 238 403T258 320T273 259T286 203T302 132H367L343 40H221Q212 40 206 42T195 49T187
65Q183 77 172 112T145 198T111 308T74 427T41 540Q58 540 76 540T112 540T149 540T187 540ZM122 768Q158 768 194 768T267 768Q271 768 273 767T276 763T278 757V611Q242 611 206 611T133 611Q130 611 128 612T124 616T122 622V768ZM342 768Q378 768 414 768T487
768Q491 768 493 767T496 763T498 757V611Q462 611 426 611T353 611Q350 611 348 612T344 616T342 622V768Z" />
<glyph unicode="&#x2013;" horiz-adv-x="600" d="M50 371H539Q543 371 545 370T548 366T550 360Q550 326 550 295T550 228H61Q58 228 56 229T52 233T50 239Q50 274 50 305T50 371Z" />
<glyph unicode="&#x2014;" horiz-adv-x="600" d="M-11 371H600Q604 371 606 370T609 366T611 360Q611 326 611 295T611 228H0Q-3 228 -5 229T-9 233T-11 239Q-11 274 -11 305T-11 371Z" />
<glyph unicode="&#x2018;" horiz-adv-x="350" d="M177 750Q224 750 258 750T321 750Q309 696 298 644T275 541T251 437Q220 437 195 437T149 437T105 437T55 437Q51 437 49 438T46 443T47 450Q65 493 85 542T127 643T167 743Q169 748 171 749T177 750Z" />
<glyph unicode="&#x2019;" horiz-adv-x="350" d="M208 437Q161 437 127 437T64 437Q76 492 87 543T110 646T134 750Q165 750 190 750T236 750T280 750T330 750Q334 750 336 749T339 744T338 737Q320 694 300 645T258 544T218 444Q217 440 215 439T208 437Z" />
<glyph unicode="&#x201a;" horiz-adv-x="350" d="M208 -107Q161 -107 127 -107T64 -107Q76 -53 87 -1T110 102T134 206Q165 206 190 206T236 206T280 206T330 206Q334 206 336 205T339 200T338 193Q320 150 300 101T258 0T218 -100Q217 -104 215 -105T208 -107Z" />
<glyph unicode="&#x201c;" horiz-adv-x="600" d="M313 750Q304 710 295 671T277 593T259 515T241 437Q210 437 188 437T149 437T112 437T65 437Q59 437 57 440T57 450Q72 488 85 524T112 596T140 668T168 743Q170 748 172 749T178 750Q202 750 220 750T255 750T285
750T313 750ZM563 750Q554 710 545 671T527 593T509 515T491 437Q460 437 438 437T399 437T362 437T315 437Q309 437 307 440T307 450Q322 488 335 524T362 596T390 668T418 743Q420 748 422 749T428 750Q452 750 470 750T505 750T535 750T563 750Z" />
<glyph unicode="&#x201d;" horiz-adv-x="600" d="M322 437Q331 478 340 517T358 594T376 672T394 750Q425 750 447 750T486 750T523 750T570 750Q576 750 578 747T578 737Q563 699 550 663T523 591T495 519T467 444Q466 440 464 439T457 437Q433 437 415 437T380
437T350 437T322 437ZM72 437Q81 478 90 517T108 594T126 672T144 750Q175 750 197 750T236 750T273 750T320 750Q326 750 328 747T328 737Q313 699 300 663T273 591T245 519T217 444Q216 440 214 439T207 437Q183 437 165 437T130 437T100 437T72 437Z" />
<glyph unicode="&#x201e;" horiz-adv-x="600" d="M322 -107Q331 -66 340 -27T358 50T376 128T394 206Q425 206 447 206T486 206T523 206T570 206Q576 206 578 203T578 193Q563 155 550 119T523 47T495 -25T467 -100Q466 -104 464 -105T457 -107Q433 -107 415 -107T380
-107T350 -107T322 -107ZM72 -107Q81 -66 90 -27T108 50T126 128T144 206Q175 206 197 206T236 206T273 206T320 206Q326 206 328 203T328 193Q313 155 300 119T273 47T245 -25T217 -100Q216 -104 214 -105T207 -107Q183 -107 165 -107T130 -107T100 -107T72 -107Z"
/>
<glyph unicode="&#x2022;" horiz-adv-x="600" d="M450 150Q422 150 384 150T306 150T228 150T161 150Q156 150 153 153T150 161V450Q179 450 216 450T294 450T373 450T439 450Q444 450 447 447T450 439V150Z" />
<glyph unicode="&#x2039;" horiz-adv-x="400" d="M377 98V78Q339 78 301 78T225 78Q215 78 211 80T199 90Q195 94 179 111T141 151T97 197T57 239T34 263Q27 271 26 275T24 285Q24 295 24 305T24 325Q47 350 73 377T125 432T170 480T201 512Q208 519 213 520T227
522Q265 522 302 522T377 522V502Q337 460 305 426T244 361T186 299Q214 270 241 242T300 179T377 98Z" />
<glyph unicode="&#x203a;" horiz-adv-x="400" d="M24 503V523Q62 523 100 523T176 523Q186 523 190 521T202 511Q206 507 222 490T260 450T304 404T344 362T367 338Q374 331 375 327T377 316Q377 306 377 296T377 276Q354 251 328 224T276 169T231 121T200 89Q193
82 188 81T174 79Q137 79 100 79T24 79V99Q65 142 97 176T157 240T215 302Q188 331 161 359T101 422T24 503Z" />
</font>
</defs>
</svg>
