<?xml version="1.0" standalone="no"?>
<!DOCTYPE svg PUBLIC "-//W3C//DTD SVG 1.1//EN" "http://www.w3.org/Graphics/SVG/1.1/DTD/svg11.dtd">
<svg xmlns="http://www.w3.org/2000/svg">
<defs >
<font id="SairaSemiCondensed" horiz-adv-x="500" ><font-face
    font-family="Saira SemiCondensed Thin"
    units-per-em="1000"
    panose-1="0 0 3 6 0 0 0 0 0 0"
    ascent="1135"
    descent="-439"
    alphabetic="0" />
<glyph unicode=" " glyph-name="space" horiz-adv-x="206" />
<glyph unicode="!" glyph-name="exclam" horiz-adv-x="186" d="M74 416T74 541V688H112V541Q112 416 107 173H79Q74 416 74 541ZM69 0V65H116V0H69Z" />
<glyph unicode="&quot;" glyph-name="quotedbl" horiz-adv-x="254" d="M65 454L57 599V688H96V599L88 454H65ZM166 454L158 599V688H197V599L189 454H166Z" />
<glyph unicode="#" glyph-name="numbersign" horiz-adv-x="690" d="M315 0L356 202H183L144 0H109L149 202H63V236H156L198 442H95V476H205L248 688H282L239 476H411L454 688H488L445 476H538V442H438L397 236H506V202H390L350 0H315ZM404 442H232L190 236H363L404 442Z" />
<glyph unicode="$" glyph-name="dollar" horiz-adv-x="480" d="M410 159T395 128T347 83T260 68V-8H226V68Q140 70 84 79V113Q159 101 226 101V332L171 338Q131 343 110 356T79 396T70 468Q70 527 87 559T137 604T226 619V696H260V619Q329 617 385 607V573Q338
582 260 586V364L315 358Q355 353 374 341T402 300T410 215Q410 159 395 128ZM226 368V586Q185 585 160 578T121 546T106 475Q106 432 112 412T132 384T175 373L226 368ZM306 102T330 112T364 147T374 215Q374 262 368 283T349 312T309 323L260 328V101Q306 102
330 112Z" />
<glyph unicode="%" glyph-name="percent" horiz-adv-x="701" d="M121 311T97 325T65 378T57 503Q57 590 64 628T96 681T176 696Q231 696 255 682T286 629T294 503Q294 416 287 378T255 326T176 311Q121 311 97 325ZM136 0L526 688H565L175 0H136ZM217 344T233
352T254 392T260 503Q260 586 256 616T235 654T176 663Q134 663 118 655T97 615T91 503Q91 423 96 392T118 353T176 344Q217 344 233 352ZM471 -8T447 6T416 59T408 184Q408 271 415 309T447 362T526 377Q581 377 605 363T636 310T644 184Q644 97 637 59T605 7T526
-8Q471 -8 447 6ZM567 25T583 33T605 73T611 184Q611 267 607 297T586 335T526 344Q485 344 469 336T448 296T442 184Q442 105 447 74T469 34T526 25Q567 25 583 33Z" />
<glyph unicode="&amp;" glyph-name="ampersand" horiz-adv-x="632" d="M598 366V332H492V8Q478 4 424 -2T315 -8Q210 -8 156 13T84 75T66 184Q66 263 92 298T177 349V353Q122 368 97 405T72 515Q72 577 91 615T162 675T314 696Q353 696 403 692T489 680V648Q449
655 405 659T332 664Q234 664 186 649T123 602T107 513Q107 474 116 443T157 389T253 366H351V332H253Q187 332 154 314T111 263T101 177Q101 113 124 80T192 36T315 24Q402 24 457 35V366H598Z" />
<glyph unicode="&apos;" glyph-name="quotesingle" horiz-adv-x="153" d="M65 454L57 599V688H96V599L88 454H65Z" />
<glyph unicode="(" glyph-name="parenleft" horiz-adv-x="251" d="M150 -79T126 -30T91 93T80 297Q80 426 91 499T126 622T201 743H235Q185 670 163 626T128 506T115 297Q115 164 128 88T163 -33T235 -150H201Q150 -79 126 -30Z" />
<glyph unicode=")" glyph-name="parenright" horiz-adv-x="251" d="M66 -78T88 -34T123 87T136 297Q136 431 124 507T89 627T17 743H50Q101 672 125 623T160 501T171 297Q171 167 160 93T125 -30T50 -150H17Q66 -78 88 -34Z" />
<glyph unicode="*" glyph-name="asterisk" horiz-adv-x="421" d="M224 490L229 339H191L197 490L69 409L50 442L183 513L50 585L69 617L197 536L191 688H229L223 536L352 618L371 585L237 513L371 442L352 410L224 490Z" />
<glyph unicode="+" glyph-name="plus" horiz-adv-x="514" d="M240 63V237H67V269H240V443H272V269H447V237H272V63H240Z" />
<glyph unicode="," glyph-name="comma" horiz-adv-x="168" d="M54 -80T64 -75T77 -57T80 -17V0H60V65H107V-10Q107 -47 101 -66T79 -93T32 -101V-80Q54 -80 64 -75Z" />
<glyph unicode="-" glyph-name="hyphen" horiz-adv-x="332" d="M63 268V304H269V268H63Z" />
<glyph unicode="." glyph-name="period" horiz-adv-x="168" d="M61 0V65H107V0H61Z" />
<glyph unicode="/" glyph-name="slash" horiz-adv-x="298" d="M10 -55L251 743H288L46 -55H10Z" />
<glyph unicode="0" glyph-name="zero" horiz-adv-x="585" d="M184 -8T142 15T88 105T77 344Q77 516 88 582T141 672T292 696Q402 696 444 673T497 584T508 344Q508 172 497 106T443 16T292 -8Q184 -8 142 15ZM385 26T419 42T462 118T472 344Q472 510 463 569T419
645T292 662Q199 662 166 646T123 570T113 344Q113 178 122 119T165 43T292 26Q385 26 419 42Z" />
<glyph unicode="1" glyph-name="one" horiz-adv-x="314" d="M168 0V640L43 573V610L176 688H204V0H168Z" />
<glyph unicode="2" glyph-name="two" horiz-adv-x="523" d="M103 34H456V0H67V71Q67 157 71 191T95 247T165 295L205 315Q279 351 342 384Q389 407 404 436T420 523Q420 582 407 611T360 651T260 662Q226 662 174 659T79 651V683Q113 689 166 692T267 696Q331
696 370 686T432 641T456 532Q456 476 446 444T414 390T347 347L150 249Q118 234 109 204Q105 187 104 161T103 100V34Z" />
<glyph unicode="3" glyph-name="three" horiz-adv-x="510" d="M181 -8T134 -4T50 6V38Q151 26 219 26Q282 26 321 37T381 81T402 177Q402 260 372 296T271 332H154V366H271Q323 366 359 399T395 513Q395 576 376 608T318 651T210 662Q177 662 133 659T54 650V682Q90
688 136 692T220 696Q301 696 346 678T411 621T431 515Q431 443 405 405T328 354V350Q381 340 409 302T438 184Q438 117 421 76T357 14T219 -8Q181 -8 134 -4Z" />
<glyph unicode="4" glyph-name="four" horiz-adv-x="554" d="M375 0V176H46V207L284 688H325L86 210H376V510H411V210H506V176H411V0H375Z" />
<glyph unicode="5" glyph-name="five" horiz-adv-x="528" d="M176 26T244 26Q320 26 359 42T412 93T427 197Q427 270 412 303T357 348T227 360Q185 360 82 345V688H418V654H118V383Q175 394 260 394Q349 394 392 374T449 315T463 204Q463 121 445 77T381 12T244
-8Q206 -8 159 -4T75 6V38Q176 26 244 26Z" />
<glyph unicode="6" glyph-name="six" horiz-adv-x="563" d="M237 -8T197 0T130 33T89 107Q81 133 79 184T77 334Q77 428 80 483T94 574Q114 644 163 670T312 696Q378 696 476 682V650Q394 662 319 662Q224 662 182 639T127 552T113 345H118Q136 370 175 383T300
397Q386 397 428 385T490 333T509 210Q509 120 494 75T435 11T303 -8Q237 -8 197 0ZM373 26T409 37T459 82T474 191Q474 274 461 308T413 353T296 363Q215 363 177 350T127 310T115 228Q115 139 130 97T183 40T296 26Q373 26 409 37Z" />
<glyph unicode="7" glyph-name="seven" horiz-adv-x="479" d="M134 0L392 654H37V688H432V659L173 0H134Z" />
<glyph unicode="8" glyph-name="eight" horiz-adv-x="589" d="M201 -8T153 12T89 73T72 184Q72 243 84 275T118 324T180 349V353Q126 364 102 402T77 515Q77 582 95 620T161 677T294 696Q380 696 427 678T493 621T512 515Q512 440 487 402T408 353V349Q447 340
470 324T505 276T517 184Q517 113 500 73T435 13T294 -8Q201 -8 153 12ZM368 365T406 378T460 422T476 513Q476 573 462 604T409 648T294 662Q219 662 181 649T128 604T113 513Q113 454 128 423T181 378T294 365Q368 365 406 378ZM369 26T408 38T464 82T481 177Q481
244 466 276T412 319T294 331Q214 331 176 320T123 277T108 177Q108 114 125 82T181 38T294 26Q369 26 408 38Z" />
<glyph unicode="9" glyph-name="nine" horiz-adv-x="563" d="M218 -8T172 -4T86 6V38Q168 26 244 26Q339 26 380 49T436 136T450 343H445Q427 318 388 305T263 291Q177 291 134 303T72 355T53 478Q53 568 68 613T127 677T260 696Q326 696 366 688T433 657T471
589Q480 555 483 501T486 354Q486 255 482 198T466 104Q446 40 397 16T251 -8Q218 -8 172 -4ZM348 325T386 338T435 378T447 460Q447 549 432 591T379 648T267 662Q190 662 154 651T104 606T89 497Q89 414 102 380T150 335T267 325Q348 325 386 338Z" />
<glyph unicode=":" glyph-name="colon" horiz-adv-x="168" d="M61 445V510H107V445H61ZM61 0V65H107V0H61Z" />
<glyph unicode=";" glyph-name="semicolon" horiz-adv-x="168" d="M61 445V510H107V445H61ZM54 -80T64 -75T77 -57T80 -17V0H60V65H107V-10Q107 -47 101 -66T79 -93T32 -101V-80Q54 -80 64 -75Z" />
<glyph unicode="&lt;" glyph-name="less" horiz-adv-x="515" d="M448 55L68 228V278L448 451V414L94 253L448 92V55Z" />
<glyph unicode="=" glyph-name="equal" horiz-adv-x="514" d="M67 332V364H447V332H67ZM67 142V174H447V142H67Z" />
<glyph unicode="&gt;" glyph-name="greater" horiz-adv-x="515" d="M67 55V92L420 253L67 414V451L447 278V228L67 55Z" />
<glyph unicode="?" glyph-name="question" horiz-adv-x="425" d="M136 260Q136 297 143 316T164 344T209 366L232 376Q272 392 289 406T314 446T321 526Q321 583 309 611T267 651T179 662Q126 662 30 650V682Q117 696 183 696Q248 696 285 681T340 632T357 537Q357
486 353 455T332 399T279 358L260 351Q216 332 199 321T177 297T172 258V173H136V260ZM130 0V65H177V0H130Z" />
<glyph unicode="@" glyph-name="at" horiz-adv-x="803" d="M238 -108T174 -80T95 22T79 294Q79 492 94 566T174 668T402 696Q566 696 630 668T709 566T725 294Q725 191 715 145T684 87T617 75H525L522 143H518Q505 98 470 83T385 68Q335 68 306 78T263 115T249
193Q249 241 259 268T293 307T363 319Q416 319 518 315V352Q518 415 510 442T477 477T396 486Q368 486 332 483T276 475V508Q329 518 407 518Q469 518 499 505T541 458T553 358V105H627Q653 105 665 114T684 164T691 294Q691 451 683 519T645 618T542 658Q483 666
401 666Q330 666 264 659Q190 652 159 621T120 522T112 294Q112 135 121 68T163 -31T278 -72Q315 -77 402 -77Q514 -77 553 -74V-106Q526 -108 402 -108Q238 -108 174 -80ZM435 100T463 113T505 160T518 254V287H370Q333 287 316 281T291 255T284 193Q284 153 292
134T320 108T384 100Q435 100 463 113Z" />
<glyph unicode="A" glyph-name="A" horiz-adv-x="590" d="M519 0L441 220H148L71 0H33L277 688H314L557 0H519ZM297 630H292L160 254H429L297 630Z" />
<glyph unicode="B" glyph-name="B" horiz-adv-x="594" d="M99 688H352Q443 688 479 643T515 516Q515 376 405 354V350Q475 338 498 293T522 180Q522 100 486 50T344 0H99V688ZM409 366T444 403T479 510Q479 586 450 620T345 654H135V366H345Q409 366 444 403ZM424
34T455 69T486 183Q486 260 453 296T348 332H135V34H348Q424 34 455 69Z" />
<glyph unicode="C" glyph-name="C" horiz-adv-x="493" d="M383 -8T309 -8Q203 -8 157 15T94 109T77 344Q77 505 94 576T157 672T309 696Q341 696 377 693T437 684V652Q382 662 317 662Q218 662 179 643T126 561T113 344Q113 190 126 128T178 46T317 26Q384 26
441 36V2Q383 -8 309 -8Z" />
<glyph unicode="D" glyph-name="D" horiz-adv-x="599" d="M99 688H278Q396 688 444 665T507 575T522 344Q522 180 508 113T445 23T278 0H99V688ZM265 34Q378 34 419 49T473 124T486 344Q486 503 473 563T419 638T265 654H135V34H265Z" />
<glyph unicode="E" glyph-name="E" horiz-adv-x="517" d="M99 0V688H469V654H135V365H428V331H135V34H469V0H99Z" />
<glyph unicode="F" glyph-name="F" horiz-adv-x="486" d="M99 0V688H451V654H135V351H419V317H135V0H99Z" />
<glyph unicode="G" glyph-name="G" horiz-adv-x="587" d="M305 315V349H505V9Q463 1 412 -3T322 -8Q214 -8 165 16T96 112T77 344Q77 502 96 574T164 671T322 696Q365 696 416 691T503 678V646Q464 653 420 657T348 662Q238 662 194 646T132 566T113 344Q113 198
126 135T182 49T321 26Q352 26 396 29T469 38V315H305Z" />
<glyph unicode="H" glyph-name="H" horiz-adv-x="638" d="M504 0V331H135V0H99V688H135V365H504V688H540V0H504Z" />
<glyph unicode="I" glyph-name="I" horiz-adv-x="236" d="M100 0V688H136V0H100Z" />
<glyph unicode="J" glyph-name="J" horiz-adv-x="276" d="M94 36T116 46T144 94T150 239V688H186V251Q186 122 178 76T140 16T30 0V34Q94 36 116 46Z" />
<glyph unicode="K" glyph-name="K" horiz-adv-x="573" d="M500 0L278 332H135V0H99V688H135V366H278L498 688H539L309 349L542 0H500Z" />
<glyph unicode="L" glyph-name="L" horiz-adv-x="459" d="M99 0V688H135V34H434V0H99Z" />
<glyph unicode="M" glyph-name="M" horiz-adv-x="792" d="M658 0V610H654L413 0H378L138 610H134V0H99V688H147L394 60H399L647 688H694V0H658Z" />
<glyph unicode="N" glyph-name="N" horiz-adv-x="638" d="M502 0L138 613H134V0H99V688H136L501 75H505V688H540V0H502Z" />
<glyph unicode="O" glyph-name="O" horiz-adv-x="628" d="M199 -8T152 15T91 107T77 344Q77 512 91 580T152 672T314 696Q429 696 476 673T537 581T551 344Q551 176 537 108T476 16T314 -8Q199 -8 152 15ZM415 26T452 42T502 120T515 344Q515 506 503 568T453
646T314 662Q214 662 176 646T126 568T113 344Q113 182 125 120T176 42T314 26Q415 26 452 42Z" />
<glyph unicode="P" glyph-name="P" horiz-adv-x="563" d="M99 688H341Q418 688 455 661T501 591T511 481Q511 414 501 372T454 302T341 274H135V0H99V688ZM339 308Q400 308 429 328T466 383T475 481Q475 544 468 579T431 634T339 654H135V308H339Z" />
<glyph unicode="Q" glyph-name="Q" horiz-adv-x="628" d="M562 -113V-115H520L442 3Q402 -8 314 -8Q199 -8 152 15T91 107T77 344Q77 512 91 580T152 672T314 696Q429 696 476 673T537 581T551 344Q551 230 546 169T525 70T476 15L562 -113ZM346 26T375 27T422
32L298 218H339L456 44Q481 58 493 90T510 181T515 344Q515 506 503 568T453 646T314 662Q214 662 176 646T126 568T113 344Q113 182 125 120T176 42T314 26Q346 26 375 27Z" />
<glyph unicode="R" glyph-name="R" horiz-adv-x="593" d="M487 0L381 296Q369 294 345 294H135V0H99V688H355Q428 688 464 662T509 595T518 491Q518 440 512 405T483 342T417 302L526 0H487ZM405 328T435 347T473 400T482 491Q482 549 475 582T440 634T353 654H135V328H343Q405
328 435 347Z" />
<glyph unicode="S" glyph-name="S" horiz-adv-x="544" d="M235 -8T179 -5T83 4V39Q126 34 180 30T271 26Q321 26 350 31T404 52Q427 66 435 98T443 183Q443 252 438 277T411 313T332 331L175 350Q123 356 100 376T71 427T65 515Q65 585 86 624T152 680T274 696Q324
696 373 693T448 683V650Q413 655 365 658T278 662Q223 662 189 654T134 629Q115 612 108 584T101 513Q101 460 107 436T130 400T186 384L334 366Q378 361 403 355T445 334T471 293Q476 277 477 255T479 188Q479 108 458 66T396 8T282 -8Q235 -8 179 -5Z" />
<glyph unicode="T" glyph-name="T" d="M232 0V654H32V688H468V654H268V0H232Z" />
<glyph unicode="U" glyph-name="U" horiz-adv-x="621" d="M531 688V294Q531 162 518 102T459 17T311 -8Q209 -8 163 17T104 102T90 294V688H126V264Q126 158 137 112T186 46T311 26Q398 26 436 45T484 111T495 264V688H531Z" />
<glyph unicode="V" glyph-name="V" horiz-adv-x="563" d="M263 0L29 688H67L279 60H284L498 688H535L300 0H263Z" />
<glyph unicode="W" glyph-name="W" horiz-adv-x="838" d="M592 0L421 618H417L246 0H209L35 688H73L226 70H231L400 688H439L608 70H614L766 688H803L629 0H592Z" />
<glyph unicode="X" glyph-name="X" horiz-adv-x="579" d="M505 0L293 311H286L74 0H32L267 346L35 688H78L287 380H293L503 688H545L312 347L548 0H505Z" />
<glyph unicode="Y" glyph-name="Y" horiz-adv-x="512" d="M238 0V281L13 688H54L253 324H260L460 688H499L274 281V0H238Z" />
<glyph unicode="Z" glyph-name="Z" horiz-adv-x="513" d="M47 0V32L419 654H57V688H462V656L91 34H469V0H47Z" />
<glyph unicode="[" glyph-name="bracketleft" horiz-adv-x="269" d="M99 -150V743H236V710L134 706V-113L236 -117V-150H99Z" />
<glyph unicode="\" glyph-name="backslash" horiz-adv-x="298" d="M252 -55L10 743H47L288 -55H252Z" />
<glyph unicode="]" glyph-name="bracketright" horiz-adv-x="269" d="M33 -150V-117L136 -113V706L33 710V743H171V-150H33Z" />
<glyph unicode="^" glyph-name="asciicircum" horiz-adv-x="447" d="M343 459L224 724L104 459H67L199 749H248L380 459H343Z" />
<glyph unicode="_" glyph-name="underscore" horiz-adv-x="320" d="M0 -160V-128H320V-160H0Z" />
<glyph unicode="`" glyph-name="grave" horiz-adv-x="154" d="M114 605L13 738V743H57L140 610V605H114Z" />
<glyph unicode="a" glyph-name="a" horiz-adv-x="503" d="M158 -8T123 3T71 46T54 138Q54 195 66 226T107 270T192 283Q223 283 383 278V324Q383 400 372 432T330 475T229 486Q197 486 154 482T85 473V506Q145 518 241 518Q316 518 353 503T404 448T418 330V0H390L387
80H383Q366 27 323 10T218 -8Q158 -8 123 3ZM275 24T311 35T362 84Q374 113 378 142T383 210V251H200Q153 251 130 243T98 212T89 138Q89 90 99 66T136 33T217 24Q275 24 311 35Z" />
<glyph unicode="b" glyph-name="b" horiz-adv-x="527" d="M220 -8T179 9T122 80H118L115 0H87V743H122V439H126Q141 482 179 500T283 518Q360 518 397 497T448 421T462 255Q462 143 449 89T398 14T283 -8Q220 -8 179 9ZM344 24T375 40T416 102T427 255Q427 361
417 407T375 470T274 486Q216 486 182 467T136 409Q127 378 125 344T122 255Q122 198 124 166T135 103Q147 62 181 43T274 24Q344 24 375 40Z" />
<glyph unicode="c" glyph-name="c" horiz-adv-x="407" d="M341 -1T309 -4T246 -8Q164 -8 126 17T77 95T65 254Q65 363 79 418T131 496T241 518Q270 518 302 515T358 507V474Q303 486 247 486Q182 486 152 468T111 402T100 256Q100 154 111 107T152 42T250 24Q278
24 309 28T362 37V4Q341 -1 309 -4Z" />
<glyph unicode="d" glyph-name="d" horiz-adv-x="527" d="M167 -8T130 13T79 89T65 255Q65 367 78 421T129 496T244 518Q310 518 348 500T401 439H405V743H440V0H413L409 80H405Q389 27 348 10T244 -8Q167 -8 130 13ZM312 24T346 42T391 100Q401 133 403 167T405
269Q405 313 403 344T393 400Q380 446 345 466T248 486Q181 486 151 470T111 408T100 255Q100 149 110 103T152 40T253 24Q312 24 346 42Z" />
<glyph unicode="e" glyph-name="e" horiz-adv-x="498" d="M432 243H100Q100 147 110 104T154 42T263 24Q299 24 341 28T415 38V5Q390 -1 347 -4T259 -8Q173 -8 133 13T79 88T65 254Q65 368 75 419T126 494T260 518Q341 518 376 496T422 422T432 256V243ZM184 486T152
471T110 414T100 275H397V296Q397 382 385 421T345 473T258 486Q184 486 152 471Z" />
<glyph unicode="f" glyph-name="f" horiz-adv-x="304" d="M121 478H27V510H121V625Q121 676 138 701T186 735T274 743V713Q226 713 202 707T167 683T156 631V510H274V478H156V0H121V478Z" />
<glyph unicode="g" glyph-name="g" horiz-adv-x="527" d="M164 -203T80 -197V-164Q162 -171 238 -171Q313 -171 347 -151T393 -84T405 61V71H401Q386 28 348 10T244 -8Q167 -8 130 13T79 89T65 255Q65 367 78 421T129 496T244 518Q307 518 348 501T405 430H409L413
510H440V75Q440 -38 426 -95T370 -177T242 -203Q164 -203 80 -197ZM311 24T345 43T392 105Q400 133 402 166T405 255Q405 312 403 343T394 398Q381 445 347 465T253 486Q183 486 152 470T111 408T100 255Q100 149 110 103T152 40T253 24Q311 24 345 43Z" />
<glyph unicode="h" glyph-name="h" horiz-adv-x="532" d="M412 315Q412 392 402 427T363 474T274 486Q202 486 170 458T130 387T122 264V0H87V743H122V440H126Q154 518 282 518Q353 518 388 499T435 439T447 320V0H412V315Z" />
<glyph unicode="i" glyph-name="i" horiz-adv-x="209" d="M84 682V743H125V682H84ZM87 0V510H122V0H87Z" />
<glyph unicode="j" glyph-name="j" horiz-adv-x="209" d="M84 682V743H125V682H84ZM-2 -167Q39 -167 57 -162T81 -146T87 -110V510H122V-100Q122 -145 109 -165T72 -191T-2 -197V-167Z" />
<glyph unicode="k" glyph-name="k" horiz-adv-x="459" d="M382 0L199 243H122V0H87V743H122V277H199L380 510H422L228 262L426 0H382Z" />
<glyph unicode="l" glyph-name="l" horiz-adv-x="209" d="M87 0V743H122V0H87Z" />
<glyph unicode="m" glyph-name="m" horiz-adv-x="799" d="M679 315Q679 392 670 427T636 474T556 486Q490 486 461 460T425 391T418 264V0H383V315Q383 392 374 427T341 474T261 486Q196 486 166 458T129 387T122 264V0H87V510H115L118 430H122Q133 470 165 494T267
518Q335 518 366 498T409 430H414Q425 470 458 494T562 518Q627 518 659 499T703 439T714 320V0H679V315Z" />
<glyph unicode="n" glyph-name="n" horiz-adv-x="532" d="M412 315Q412 392 402 427T363 474T274 486Q202 486 170 458T130 387T122 264V0H87V510H115L118 430H122Q135 470 170 494T282 518Q353 518 388 499T435 439T447 320V0H412V315Z" />
<glyph unicode="o" glyph-name="o" horiz-adv-x="513" d="M165 -8T126 12T76 83T65 254Q65 374 76 425T126 497T257 518Q348 518 387 498T437 426T448 254Q448 135 437 84T387 12T257 -8Q165 -8 126 12ZM336 24T367 41T405 100T413 254Q413 365 406 408T367 469T257
486Q178 486 147 469T108 409T100 254Q100 143 107 101T146 41T257 24Q336 24 367 41Z" />
<glyph unicode="p" glyph-name="p" horiz-adv-x="527" d="M87 510H115L118 430H122Q138 483 179 500T283 518Q360 518 397 497T448 421T462 255Q462 143 449 89T398 14T283 -8Q217 -8 179 10T126 71H122V-197H87V510ZM344 24T375 40T416 102T427 255Q427 361 417
407T375 470T274 486Q215 486 181 467T134 404Q126 376 124 344T122 255Q122 201 124 169T132 115Q147 66 181 45T274 24Q344 24 375 40Z" />
<glyph unicode="q" glyph-name="q" horiz-adv-x="527" d="M405 71H401Q386 28 348 10T244 -8Q167 -8 130 13T79 89T65 255Q65 367 79 421T130 496T244 518Q307 518 348 501T405 430H409L413 510H440V-197H405V71ZM312 24T346 44T393 109Q401 134 403 167T405 255Q405
312 403 345T391 410Q380 449 346 467T253 486Q183 486 152 470T111 408T100 255Q100 149 110 103T152 40T253 24Q312 24 346 44Z" />
<glyph unicode="r" glyph-name="r" horiz-adv-x="305" d="M87 510H114L118 404H122Q137 469 176 493T279 518V482Q216 482 182 457T135 384T122 259V0H87V510Z" />
<glyph unicode="s" glyph-name="s" horiz-adv-x="441" d="M185 -8T142 -5T69 3V36Q123 29 156 27T233 24Q283 24 308 35T342 70T351 133Q351 179 345 199T326 225T283 235L153 249Q96 256 76 282T55 373Q55 436 75 467T131 508T229 518Q260 518 297 515T361 506V473Q295
486 214 486Q172 486 146 479T105 449T90 380Q90 340 96 321T116 294T160 284L285 270Q328 265 348 254T377 216T386 133Q386 77 370 47T318 4T221 -8Q185 -8 142 -5Z" />
<glyph unicode="t" glyph-name="t" horiz-adv-x="292" d="M121 0V478H27V510H121V658H156V510H265V478H156V0H121Z" />
<glyph unicode="u" glyph-name="u" horiz-adv-x="532" d="M415 80H411Q399 40 364 16T251 -8Q180 -8 145 11T98 71T86 190V510H121V195Q121 118 131 83T170 36T259 24Q331 24 363 52T403 123T411 246V510H446V0H418L415 80Z" />
<glyph unicode="v" glyph-name="v" horiz-adv-x="461" d="M214 0L30 510H68L228 56H234L394 510H431L247 0H214Z" />
<glyph unicode="w" glyph-name="w" horiz-adv-x="704" d="M480 0L354 448H349L224 0H187L33 510H70L203 59H209L332 510H372L497 59H503L635 510H671L517 0H480Z" />
<glyph unicode="x" glyph-name="x" horiz-adv-x="472" d="M396 0L238 226H233L75 0H33L214 259L39 510H82L234 293H238L391 510H433L258 261L439 0H396Z" />
<glyph unicode="y" glyph-name="y" horiz-adv-x="532" d="M174 -203T96 -197V-164Q173 -171 242 -171Q317 -171 353 -149T400 -81T411 51V72H407Q395 37 361 15T250 -8Q180 -8 145 11T98 71T86 190V510H121V195Q121 118 131 83T170 36T259 24Q331 24 363 52T403
123T411 246V510H446V70Q446 -38 431 -95T373 -177T246 -203Q174 -203 96 -197Z" />
<glyph unicode="z" glyph-name="z" horiz-adv-x="431" d="M45 0V28L339 478H56V510H384V482L91 32H386V0H45Z" />
<glyph unicode="{" glyph-name="braceleft" horiz-adv-x="268" d="M175 -127T149 -74T122 37V152Q122 207 100 244T27 282V311Q77 311 99 349T122 441V556Q122 614 148 667T215 743H252Q211 714 184 665T157 568V447Q157 386 140 349T82 299V294Q122 282 139 245T157
146V25Q157 -23 184 -72T252 -150H215Q175 -127 149 -74Z" />
<glyph unicode="|" glyph-name="bar" horiz-adv-x="242" d="M104 -161V743H139V-161H104Z" />
<glyph unicode="}" glyph-name="braceright" horiz-adv-x="268" d="M58 -122T84 -73T111 25V146Q111 271 187 294V299Q111 322 111 447V568Q111 616 85 665T17 743H53Q93 720 119 667T146 556V441Q146 387 169 349T242 311V282Q192 282 169 244T146 152V37Q146
-21 120 -74T53 -150H17Q58 -122 84 -73Z" />
<glyph unicode="~" glyph-name="asciitilde" horiz-adv-x="466" d="M395 300T383 280T333 260Q309 260 287 266T223 288Q195 299 174 305T133 311Q112 311 105 298T98 249H71Q71 304 83 324T133 344Q154 344 175 339T216 326T243 316Q272 305 293 299T333 293Q354
293 361 306T368 355H395Q395 300 383 280Z" />
<glyph unicode="&#xa0;" glyph-name="uni00A0" horiz-adv-x="206" />
<glyph unicode="&#xa1;" glyph-name="exclamdown" horiz-adv-x="186" d="M69 445V510H116V445H69ZM74 -31Q74 94 79 337H107Q112 94 112 -31V-178H74V-31Z" />
<glyph unicode="&#xa2;" glyph-name="cent" horiz-adv-x="423" d="M372 80Q323 68 268 67V-8H234V67Q161 71 126 96T79 176T67 342Q67 456 82 514T132 595T234 619V696H268V619Q317 616 367 607V573Q324 585 268 585V101Q329 103 372 115V80ZM104 242T114 193T151
125T234 102V585Q179 582 152 563T115 494T104 344Q104 242 114 193Z" />
<glyph unicode="&#xa3;" glyph-name="sterling" horiz-adv-x="511" d="M463 34V0H53V34H118V341H53V375H118V403Q118 524 135 585T197 671T333 696Q365 696 398 693T452 683V651Q428 656 396 659T342 662Q293 662 262 657T210 639Q177 617 166 560T154 406V375H387V341H154V34H463Z"
/>
<glyph unicode="&#xa4;" glyph-name="currency" horiz-adv-x="681" d="M65 10L178 122Q160 149 155 198T149 345Q149 439 154 488T177 565L65 677L88 700L198 590Q219 605 252 611T340 618Q394 618 428 612T482 589L593 699L615 677L503 566Q520 537 525 488T531
345Q531 249 526 200T503 122L615 10L592 -13L481 98Q461 83 428 77T340 70Q286 70 253 76T199 99L88 -12L65 10ZM419 102T450 119T488 182T496 345Q496 460 489 505T450 568T340 586Q262 586 231 568T192 505T184 345Q184 228 191 183T230 120T340 102Q419 102
450 119Z" />
<glyph unicode="&#xa5;" glyph-name="yen" horiz-adv-x="545" d="M509 688L384 448H479V414H367L305 295H479V261H290V0H254V261H66V295H239L178 414H66V448H160L37 688H77L198 448H348L470 688H509ZM276 305L331 414H215L270 305H276Z" />
<glyph unicode="&#xa6;" glyph-name="brokenbar" horiz-adv-x="242" d="M104 390V743H139V390H104ZM104 -161V192H139V-161H104Z" />
<glyph unicode="&#xa7;" glyph-name="section" horiz-adv-x="608" d="M244 -171T203 -168T137 -159V-126Q166 -131 207 -134T283 -137Q337 -137 369 -130T419 -100T438 -29Q438 13 432 34T412 67T369 86L214 131Q150 149 120 164T77 207T63 284Q63 351 84 393T163
441Q146 459 140 484T134 549Q134 609 155 641T218 684T326 696Q364 696 405 693T472 684V651Q401 662 325 662Q272 662 240 655T190 625T171 554Q171 511 177 490T201 457T256 435L403 392Q462 375 490 360T532 318T545 241Q545 174 524 131T445 84Q462 65 468
40T474 -24Q474 -84 453 -116T390 -159T283 -171Q244 -171 203 -168ZM467 109T488 138T509 229Q509 270 504 291T489 323T457 339L235 402Q229 404 209 409T178 415Q142 415 121 386T99 294Q99 253 104 232T123 200T163 181L377 121Q381 120 400 115T431 109Q467
109 488 138Z" />
<glyph unicode="&#xa8;" glyph-name="dieresis" horiz-adv-x="263" d="M22 670V731H64V670H22ZM199 670V731H241V670H199Z" />
<glyph unicode="&#xa9;" glyph-name="copyright" horiz-adv-x="647" d="M202 -8T155 15T96 105T83 344Q83 517 95 583T155 672T324 696Q445 696 492 673T552 583T564 344Q564 171 552 105T493 16T324 -8Q202 -8 155 15ZM432 18T472 37T524 118T535 344Q535 509
524 570T473 650T324 670Q216 670 175 651T123 570T112 344Q112 179 123 118T175 38T324 18Q432 18 472 37ZM286 154T261 166T227 217T218 344Q218 432 227 470T261 521T344 534Q395 534 416 528V499Q386 504 348 504Q300 504 281 494T255 453T248 344Q248 267
254 236T280 194T348 184Q389 184 417 189V159Q387 154 344 154Q286 154 261 166Z" />
<glyph unicode="&#xaa;" glyph-name="ordfeminine" horiz-adv-x="365" d="M115 315T90 323T53 355T40 423Q40 465 48 487T79 519T142 529L273 526V555Q273 607 266 629T237 658T167 665Q143 665 112 663T61 656V687Q101 696 176 696Q232 696 259 685T296 646T306
559V320H279L274 364H270Q255 334 226 325T159 315Q115 315 90 323ZM197 345T223 354T261 389Q273 415 273 473V498H148Q116 498 100 493T78 472T71 423Q71 391 78 375T104 352T159 345Q197 345 223 354Z" />
<glyph unicode="&#xab;" glyph-name="guillemotleft" horiz-adv-x="400" d="M164 99L49 304L164 510H195L91 304L195 99H164ZM300 99L184 304L300 510H330L227 304L330 99H300Z" />
<glyph unicode="&#xac;" glyph-name="logicalnot" horiz-adv-x="513" d="M412 63V238H67V272H446V63H412Z" />
<glyph unicode="&#xad;" glyph-name="uni00AD" horiz-adv-x="332" d="M63 268V304H269V268H63Z" />
<glyph unicode="&#xae;" glyph-name="registered" horiz-adv-x="647" d="M445 696T492 673T552 583T564 344Q564 171 552 105T493 16T324 -8Q202 -8 155 15T96 105T83 344Q83 517 95 583T155 672T324 696Q445 696 492 673ZM432 18T472 37T524 118T535 344Q535
509 524 570T473 650T324 670Q216 670 175 651T123 570T112 344Q112 179 123 118T175 38T324 18Q432 18 472 37ZM443 381T433 355T392 317L450 157H415L361 312Q357 311 349 311H244V157H214V529H352Q393 529 412 514T437 477T443 421Q443 381 433 355ZM375 341T389
350T408 376T412 421Q412 449 409 465T392 490T350 499H244V341H344Q375 341 389 350Z" />
<glyph unicode="&#xaf;" glyph-name="overscore" horiz-adv-x="332" d="M63 706V742H269V706H63Z" />
<glyph unicode="&#xb0;" glyph-name="degree" horiz-adv-x="349" d="M122 397T99 409T70 450T63 546Q63 613 69 642T99 684T175 696Q227 696 249 684T278 643T285 546Q285 479 279 450T250 409T175 397Q122 397 99 409ZM213 428T228 437T247 468T251 546Q251 602
248 624T229 655T175 665Q136 665 120 656T101 624T97 546Q97 490 100 468T120 437T175 428Q213 428 228 437Z" />
<glyph unicode="&#xb1;" glyph-name="plusminus" horiz-adv-x="514" d="M240 189V363H67V395H240V570H272V395H447V363H272V189H240ZM67 15V47H447V15H67Z" />
<glyph unicode="&#xb2;" glyph-name="uni00B2" horiz-adv-x="320" d="M82 352H269V319H51V358Q51 405 53 424T65 455T99 479L198 528Q220 539 227 554T235 598Q235 626 229 639T207 658T159 663Q141 663 57 656V688Q111 696 163 696Q199 696 220 690T255 664T269
603Q269 558 256 537T207 498Q201 495 195 492T184 487Q169 479 150 470T108 448Q90 439 86 427T82 378V352Z" />
<glyph unicode="&#xb3;" glyph-name="uni00B3" horiz-adv-x="312" d="M91 311T43 319V350Q122 343 138 343Q184 343 205 357T227 415Q227 455 213 473T166 491H98V522H166Q189 522 206 537T223 592Q223 635 203 649T134 663Q99 663 45 656V687Q95 696 139 696Q206
696 231 673T257 593Q257 561 246 542T212 510V506Q261 485 261 419Q261 381 252 358T216 323T139 311Q91 311 43 319Z" />
<glyph unicode="&#xb4;" glyph-name="acute" horiz-adv-x="154" d="M13 605V610L96 743H140V738L39 605H13Z" />
<glyph unicode="&#xb5;" glyph-name="uni00B5" horiz-adv-x="534" d="M447 510V0H419L416 80H412Q399 40 365 16T254 -8Q207 -8 177 1T128 32H122V-190H87V510H122V195Q122 118 132 83T171 36T260 24Q332 24 364 52T404 123T412 246V510H447Z" />
<glyph unicode="&#xb6;" glyph-name="paragraph" horiz-adv-x="484" d="M267 222Q165 222 124 238T72 298T60 454Q60 566 71 610T124 671T267 688H303V-144H267V222ZM361 -144V688H397V-144H361Z" />
<glyph unicode="&#xb7;" glyph-name="middot" horiz-adv-x="168" d="M61 267V332H107V267H61Z" />
<glyph unicode="&#xb8;" glyph-name="cedilla" horiz-adv-x="124" d="M20 -190V-185L78 8H104V3L60 -190H20Z" />
<glyph unicode="&#xb9;" glyph-name="uni00B9" horiz-adv-x="208" d="M104 319V645L37 610V643L112 688H137V319H104Z" />
<glyph unicode="&#xba;" glyph-name="ordmasculine" horiz-adv-x="377" d="M122 315T93 329T56 380T48 504Q48 591 56 628T93 681T189 696Q256 696 284 681T321 629T329 504Q329 417 321 381T285 330T189 315Q122 315 93 329ZM243 344T264 356T291 397T296 504Q296
581 291 611T265 653T189 665Q135 665 114 653T87 611T81 504Q81 427 86 398T113 356T189 344Q243 344 264 356Z" />
<glyph unicode="&#xbb;" glyph-name="guillemotright" horiz-adv-x="400" d="M70 99L173 304L70 510H100L216 304L100 99H70ZM205 99L309 304L205 510H236L352 304L236 99H205Z" />
<glyph unicode="&#xbc;" glyph-name="onequarter" horiz-adv-x="598" d="M104 319V645L38 610V643L112 688H137V319H104ZM58 0L448 688H487L96 0H58ZM460 0V85H284V112L408 369H443L321 117H460V275H494V117H543V85H494V0H460Z" />
<glyph unicode="&#xbd;" glyph-name="onehalf" horiz-adv-x="679" d="M104 319V645L38 610V643L112 688H137V319H104ZM448 688H487L96 0H58L448 688ZM422 33H609V0H390V39Q390 85 392 104T404 136T438 160L472 177L537 208Q560 220 567 235T575 278Q575 318 560
331T499 344Q473 344 396 336V369Q452 377 502 377Q538 377 560 371T595 345T609 283Q609 238 596 217T546 178Q480 146 446 128Q429 120 426 107T422 58V33Z" />
<glyph unicode="&#xbe;" glyph-name="threequarters" horiz-adv-x="693" d="M136 343T153 343Q198 343 219 357T241 415Q241 455 227 473T180 491H112V522H180Q203 522 220 537T237 592Q237 635 217 649T148 663Q113 663 59 656V687Q109 696 154 696Q220 696 245
673T271 593Q271 561 260 542T226 510V506Q275 485 275 419Q275 381 266 358T230 323T153 311Q105 311 57 319V350Q136 343 153 343ZM157 0L548 688H586L196 0H157ZM555 0V85H379V112L503 369H538L417 117H556V275H589V117H638V85H589V0H555Z" />
<glyph unicode="&#xbf;" glyph-name="questiondown" horiz-adv-x="369" d="M242 445V510H288V445H242ZM171 -186T134 -172T79 -123T62 -27Q62 24 66 55T88 112T142 153L189 173Q218 185 229 193T244 214T247 252V337H283V250Q283 213 277 194T256 166T211 144L189
135Q149 119 131 105T105 64T98 -16Q98 -73 110 -101T152 -141T240 -152Q295 -152 389 -140V-172Q353 -178 310 -182T236 -186Q171 -186 134 -172Z" />
<glyph unicode="&#xc0;" glyph-name="Agrave" horiz-adv-x="590" d="M519 0L441 220H148L71 0H33L277 688H314L557 0H519ZM297 630H292L160 254H429L297 630ZM290 750L189 883V888H233L316 755V750H290Z" />
<glyph unicode="&#xc1;" glyph-name="Aacute" horiz-adv-x="590" d="M519 0L441 220H148L71 0H33L277 688H314L557 0H519ZM297 630H292L160 254H429L297 630ZM273 750V755L356 888H400V883L299 750H273Z" />
<glyph unicode="&#xc2;" glyph-name="Acircumflex" horiz-adv-x="590" d="M519 0L441 220H148L71 0H33L277 688H314L557 0H519ZM297 630H292L160 254H429L297 630ZM177 750V755L271 888H317L411 755V750H384L294 858L204 750H177Z" />
<glyph unicode="&#xc3;" glyph-name="Atilde" horiz-adv-x="590" d="M519 0L441 220H148L71 0H33L277 688H314L557 0H519ZM297 630H292L160 254H429L297 630ZM447 801T436 781T390 761Q367 761 344 768T287 788Q231 812 200 812Q181 812 175 799T169 750H142Q142
804 153 824T200 845Q223 845 245 838T304 817Q332 806 352 800T390 794Q409 794 414 807T420 856H447Q447 801 436 781Z" />
<glyph unicode="&#xc4;" glyph-name="Adieresis" horiz-adv-x="590" d="M519 0L441 220H148L71 0H33L277 688H314L557 0H519ZM297 630H292L160 254H429L297 630ZM186 770V831H228V770H186ZM363 770V831H405V770H363Z" />
<glyph unicode="&#xc5;" glyph-name="Aring" horiz-adv-x="590" d="M557 0H519L441 220H148L71 0H33L269 669Q234 671 218 680T198 707T193 759Q193 797 199 815T226 842T295 851Q342 851 363 843T391 816T397 759Q397 725 393 708T372 681T322 669L557 0ZM226
731T229 719T247 702T295 697Q328 697 342 702T360 719T364 759Q364 787 361 799T343 817T295 823Q262 823 248 818T230 800T226 759Q226 731 229 719ZM160 254H429L297 630H292L160 254Z" />
<glyph unicode="&#xc6;" glyph-name="AE" horiz-adv-x="815" d="M485 0L429 220H135L37 0H0L308 688H767V654H354L429 365H726V331H438L515 34H767V0H485ZM324 630H319L151 254H420L324 630Z" />
<glyph unicode="&#xc7;" glyph-name="Ccedilla" horiz-adv-x="493" d="M384 26T441 36V2Q383 -8 309 -8Q273 -8 258 -7L216 -190H176V-185L230 -5Q164 2 133 33T89 134T77 344Q77 505 94 576T157 672T309 696Q341 696 377 693T437 684V652Q382 662 317 662Q218
662 179 643T126 561T113 344Q113 190 126 128T178 46T317 26Q384 26 441 36Z" />
<glyph unicode="&#xc8;" glyph-name="Egrave" horiz-adv-x="517" d="M99 0V688H469V654H135V365H428V331H135V34H469V0H99ZM285 750L184 883V888H228L311 755V750H285Z" />
<glyph unicode="&#xc9;" glyph-name="Eacute" horiz-adv-x="517" d="M99 0V688H469V654H135V365H428V331H135V34H469V0H99ZM262 750V755L345 888H389V883L288 750H262Z" />
<glyph unicode="&#xca;" glyph-name="Ecircumflex" horiz-adv-x="517" d="M99 0V688H469V654H135V365H428V331H135V34H469V0H99ZM170 750V755L264 888H310L404 755V750H377L287 858L197 750H170Z" />
<glyph unicode="&#xcb;" glyph-name="Edieresis" horiz-adv-x="517" d="M99 0V688H469V654H135V365H428V331H135V34H469V0H99ZM180 770V831H222V770H180ZM357 770V831H399V770H357Z" />
<glyph unicode="&#xcc;" glyph-name="Igrave" horiz-adv-x="236" d="M100 0V688H136V0H100ZM117 750L16 883V888H60L143 755V750H117Z" />
<glyph unicode="&#xcd;" glyph-name="Iacute" horiz-adv-x="236" d="M100 0V688H136V0H100ZM94 750V755L177 888H221V883L120 750H94Z" />
<glyph unicode="&#xce;" glyph-name="Icircumflex" horiz-adv-x="236" d="M100 0V688H136V0H100ZM1 750V755L95 888H141L235 755V750H208L118 858L28 750H1Z" />
<glyph unicode="&#xcf;" glyph-name="Idieresis" horiz-adv-x="236" d="M100 0V688H136V0H100ZM265 770V831H307V770H265ZM442 770V831H484V770H442Z" />
<glyph unicode="&#xd0;" glyph-name="Eth" horiz-adv-x="599" d="M99 331H34V367H99V688H278Q396 688 444 665T507 575T522 344Q522 180 508 113T445 23T278 0H99V331ZM378 34T419 49T473 124T486 344Q486 503 473 563T419 638T265 654H135V367H259V331H135V34H265Q378
34 419 49Z" />
<glyph unicode="&#xd1;" glyph-name="Ntilde" horiz-adv-x="638" d="M502 0L138 613H134V0H99V688H136L501 75H505V688H540V0H502ZM474 801T463 781T417 761Q394 761 371 768T314 788Q258 812 227 812Q208 812 202 799T196 750H169Q169 804 180 824T227 845Q250
845 272 838T331 817Q359 806 379 800T417 794Q436 794 441 807T447 856H474Q474 801 463 781Z" />
<glyph unicode="&#xd2;" glyph-name="Ograve" horiz-adv-x="628" d="M199 -8T152 15T91 107T77 344Q77 512 91 580T152 672T314 696Q429 696 476 673T537 581T551 344Q551 176 537 108T476 16T314 -8Q199 -8 152 15ZM415 26T452 42T502 120T515 344Q515 506 503
568T453 646T314 662Q214 662 176 646T126 568T113 344Q113 182 125 120T176 42T314 26Q415 26 452 42ZM305 750L204 883V888H248L331 755V750H305Z" />
<glyph unicode="&#xd3;" glyph-name="Oacute" horiz-adv-x="628" d="M199 -8T152 15T91 107T77 344Q77 512 91 580T152 672T314 696Q429 696 476 673T537 581T551 344Q551 176 537 108T476 16T314 -8Q199 -8 152 15ZM415 26T452 42T502 120T515 344Q515 506 503
568T453 646T314 662Q214 662 176 646T126 568T113 344Q113 182 125 120T176 42T314 26Q415 26 452 42ZM293 750V755L376 888H420V883L319 750H293Z" />
<glyph unicode="&#xd4;" glyph-name="Ocircumflex" horiz-adv-x="628" d="M199 -8T152 15T91 107T77 344Q77 512 91 580T152 672T314 696Q429 696 476 673T537 581T551 344Q551 176 537 108T476 16T314 -8Q199 -8 152 15ZM415 26T452 42T502 120T515 344Q515 506
503 568T453 646T314 662Q214 662 176 646T126 568T113 344Q113 182 125 120T176 42T314 26Q415 26 452 42ZM197 750V755L291 888H337L431 755V750H404L314 858L224 750H197Z" />
<glyph unicode="&#xd5;" glyph-name="Otilde" horiz-adv-x="628" d="M199 -8T152 15T91 107T77 344Q77 512 91 580T152 672T314 696Q429 696 476 673T537 581T551 344Q551 176 537 108T476 16T314 -8Q199 -8 152 15ZM415 26T452 42T502 120T515 344Q515 506 503
568T453 646T314 662Q214 662 176 646T126 568T113 344Q113 182 125 120T176 42T314 26Q415 26 452 42ZM466 801T455 781T409 761Q386 761 363 768T306 788Q250 812 219 812Q200 812 194 799T188 750H161Q161 804 172 824T219 845Q242 845 264 838T323 817Q351
806 371 800T409 794Q428 794 433 807T439 856H466Q466 801 455 781Z" />
<glyph unicode="&#xd6;" glyph-name="Odieresis" horiz-adv-x="628" d="M199 -8T152 15T91 107T77 344Q77 512 91 580T152 672T314 696Q429 696 476 673T537 581T551 344Q551 176 537 108T476 16T314 -8Q199 -8 152 15ZM415 26T452 42T502 120T515 344Q515 506
503 568T453 646T314 662Q214 662 176 646T126 568T113 344Q113 182 125 120T176 42T314 26Q415 26 452 42ZM204 770V831H246V770H204ZM381 770V831H423V770H381Z" />
<glyph unicode="&#xd7;" glyph-name="multiply" horiz-adv-x="446" d="M223 230L90 97L68 119L200 252L67 386L90 409L223 275L357 408L379 386L245 253L379 120L356 97L223 230Z" />
<glyph unicode="&#xd8;" glyph-name="Oslash" horiz-adv-x="628" d="M502 653Q533 621 542 555T551 344Q551 176 537 108T476 16T314 -8Q254 -8 216 -3T152 16L113 -55H77L126 35Q95 67 86 133T77 344Q77 512 91 580T152 672T314 696Q374 696 412 691T475 673L514
743H551L502 653ZM113 217T119 157T144 68L459 643Q439 655 408 658T314 662Q214 662 176 646T126 568T113 344Q113 217 119 157ZM515 471T509 531T484 620L168 45Q189 33 220 30T314 26Q415 26 452 42T502 120T515 344Q515 471 509 531Z" />
<glyph unicode="&#xd9;" glyph-name="Ugrave" horiz-adv-x="621" d="M531 688V294Q531 162 518 102T459 17T311 -8Q209 -8 163 17T104 102T90 294V688H126V264Q126 158 137 112T186 46T311 26Q398 26 436 45T484 111T495 264V688H531ZM321 750L220 883V888H264L347
755V750H321Z" />
<glyph unicode="&#xda;" glyph-name="Uacute" horiz-adv-x="621" d="M531 688V294Q531 162 518 102T459 17T311 -8Q209 -8 163 17T104 102T90 294V688H126V264Q126 158 137 112T186 46T311 26Q398 26 436 45T484 111T495 264V688H531ZM286 750V755L369 888H413V883L312
750H286Z" />
<glyph unicode="&#xdb;" glyph-name="Ucircumflex" horiz-adv-x="621" d="M531 688V294Q531 162 518 102T459 17T311 -8Q209 -8 163 17T104 102T90 294V688H126V264Q126 158 137 112T186 46T311 26Q398 26 436 45T484 111T495 264V688H531ZM193 750V755L287 888H333L427
755V750H400L310 858L220 750H193Z" />
<glyph unicode="&#xdc;" glyph-name="Udieresis" horiz-adv-x="621" d="M531 688V294Q531 162 518 102T459 17T311 -8Q209 -8 163 17T104 102T90 294V688H126V264Q126 158 137 112T186 46T311 26Q398 26 436 45T484 111T495 264V688H531ZM201 770V831H243V770H201ZM378
770V831H420V770H378Z" />
<glyph unicode="&#xdd;" glyph-name="Yacute" horiz-adv-x="512" d="M238 0V281L13 688H54L253 324H260L460 688H499L274 281V0H238ZM241 750V755L324 888H368V883L267 750H241Z" />
<glyph unicode="&#xde;" glyph-name="Thorn" horiz-adv-x="563" d="M99 688H135V557H341Q418 557 455 530T501 460T511 350Q511 283 501 241T454 171T341 143H135V0H99V688ZM339 177Q400 177 429 197T466 252T475 350Q475 413 468 448T431 503T339 523H135V177H339Z" />
<glyph unicode="&#xdf;" glyph-name="germandbls" horiz-adv-x="542" d="M222 0V32H282Q357 32 388 45T430 98T441 235Q441 310 428 350T383 407T293 424H257V456H293Q369 456 401 485T434 584Q434 635 420 663T373 705T279 718Q221 718 188 703T138 649T121 538V0H87V539Q87
616 106 661T168 728T284 750Q354 750 394 733T451 679T469 580Q469 518 444 486T364 445V441Q422 431 449 386T476 244Q476 146 463 96T413 23T300 0H222Z" />
<glyph unicode="&#xe0;" glyph-name="agrave" horiz-adv-x="503" d="M158 -8T123 3T71 46T54 138Q54 195 66 226T107 270T192 283Q223 283 383 278V324Q383 400 372 432T330 475T229 486Q197 486 154 482T85 473V506Q145 518 241 518Q316 518 353 503T404 448T418
330V0H390L387 80H383Q366 27 323 10T218 -8Q158 -8 123 3ZM275 24T311 35T362 84Q374 113 378 142T383 210V251H200Q153 251 130 243T98 212T89 138Q89 90 99 66T136 33T217 24Q275 24 311 35ZM261 605L160 738V743H204L287 610V605H261Z" />
<glyph unicode="&#xe1;" glyph-name="aacute" horiz-adv-x="503" d="M158 -8T123 3T71 46T54 138Q54 195 66 226T107 270T192 283Q223 283 383 278V324Q383 400 372 432T330 475T229 486Q197 486 154 482T85 473V506Q145 518 241 518Q316 518 353 503T404 448T418
330V0H390L387 80H383Q366 27 323 10T218 -8Q158 -8 123 3ZM275 24T311 35T362 84Q374 113 378 142T383 210V251H200Q153 251 130 243T98 212T89 138Q89 90 99 66T136 33T217 24Q275 24 311 35ZM223 605V610L306 743H350V738L249 605H223Z" />
<glyph unicode="&#xe2;" glyph-name="acircumflex" horiz-adv-x="503" d="M158 -8T123 3T71 46T54 138Q54 195 66 226T107 270T192 283Q223 283 383 278V324Q383 400 372 432T330 475T229 486Q197 486 154 482T85 473V506Q145 518 241 518Q316 518 353 503T404
448T418 330V0H390L387 80H383Q366 27 323 10T218 -8Q158 -8 123 3ZM275 24T311 35T362 84Q374 113 378 142T383 210V251H200Q153 251 130 243T98 212T89 138Q89 90 99 66T136 33T217 24Q275 24 311 35ZM137 605V610L231 743H277L371 610V605H344L254 713L164 605H137Z"
/>
<glyph unicode="&#xe3;" glyph-name="atilde" horiz-adv-x="503" d="M158 -8T123 3T71 46T54 138Q54 195 66 226T107 270T192 283Q223 283 383 278V324Q383 400 372 432T330 475T229 486Q197 486 154 482T85 473V506Q145 518 241 518Q316 518 353 503T404 448T418
330V0H390L387 80H383Q366 27 323 10T218 -8Q158 -8 123 3ZM275 24T311 35T362 84Q374 113 378 142T383 210V251H200Q153 251 130 243T98 212T89 138Q89 90 99 66T136 33T217 24Q275 24 311 35ZM403 688T392 668T346 648Q323 648 300 655T243 675Q187 699 156 699Q137
699 131 686T125 637H98Q98 691 109 711T156 732Q179 732 201 725T260 704Q288 693 308 687T346 681Q365 681 370 694T376 743H403Q403 688 392 668Z" />
<glyph unicode="&#xe4;" glyph-name="adieresis" horiz-adv-x="503" d="M158 -8T123 3T71 46T54 138Q54 195 66 226T107 270T192 283Q223 283 383 278V324Q383 400 372 432T330 475T229 486Q197 486 154 482T85 473V506Q145 518 241 518Q316 518 353 503T404 448T418
330V0H390L387 80H383Q366 27 323 10T218 -8Q158 -8 123 3ZM275 24T311 35T362 84Q374 113 378 142T383 210V251H200Q153 251 130 243T98 212T89 138Q89 90 99 66T136 33T217 24Q275 24 311 35ZM145 670V731H187V670H145ZM322 670V731H364V670H322Z" />
<glyph unicode="&#xe5;" glyph-name="aring" horiz-adv-x="503" d="M158 -8T123 3T71 46T54 138Q54 195 66 226T107 270T192 283Q223 283 383 278V324Q383 400 372 432T330 475T229 486Q197 486 154 482T85 473V506Q145 518 241 518Q316 518 353 503T404 448T418
330V0H390L387 80H383Q366 27 323 10T218 -8Q158 -8 123 3ZM275 24T311 35T362 84Q374 113 378 142T383 210V251H200Q153 251 130 243T98 212T89 138Q89 90 99 66T136 33T217 24Q275 24 311 35ZM204 615T183 623T155 649T149 705Q149 743 155 761T182 787T251 796Q298
796 319 788T347 761T353 705Q353 667 347 649T320 623T251 615Q204 615 183 623ZM284 643T298 648T316 665T320 705Q320 733 317 745T299 762T251 768Q218 768 204 763T186 745T182 705Q182 677 185 665T203 648T251 643Q284 643 298 648Z" />
<glyph unicode="&#xe6;" glyph-name="ae" horiz-adv-x="815" d="M750 247H418Q418 150 428 105T472 42T581 24Q617 24 659 28T733 38V5Q707 -1 664 -4T577 -8Q492 -8 453 13T397 90Q376 29 331 11T218 -8Q158 -8 123 3T71 46T54 138Q54 193 66 223T107 266T192
279H383V324Q383 400 372 432T330 475T229 486Q197 486 154 482T85 473V506Q145 518 241 518Q314 518 351 503T403 448Q421 486 461 502T578 518Q659 518 694 496T740 423T750 260V247ZM501 486T470 472T428 416T418 279H715V296Q715 382 703 421T663 473T575 486Q501
486 470 472ZM383 247H200Q153 247 130 240T98 209T89 138Q89 90 99 66T136 33T217 24Q275 24 311 35T363 87Q374 114 378 142T383 210V247Z" />
<glyph unicode="&#xe7;" glyph-name="ccedilla" horiz-adv-x="407" d="M278 24T309 28T362 37V4Q341 -1 309 -4T246 -8Q224 -8 215 -7L173 -190H133V-185L187 -4Q133 4 107 32T73 111T65 254Q65 363 79 418T131 496T241 518Q270 518 302 515T358 507V474Q303 486
247 486Q182 486 152 468T111 402T100 256Q100 154 111 107T152 42T250 24Q278 24 309 28Z" />
<glyph unicode="&#xe8;" glyph-name="egrave" horiz-adv-x="498" d="M432 243H100Q100 147 110 104T154 42T263 24Q299 24 341 28T415 38V5Q390 -1 347 -4T259 -8Q173 -8 133 13T79 88T65 254Q65 368 75 419T126 494T260 518Q341 518 376 496T422 422T432 256V243ZM184
486T152 471T110 414T100 275H397V296Q397 382 385 421T345 473T258 486Q184 486 152 471ZM251 605L150 738V743H194L277 610V605H251Z" />
<glyph unicode="&#xe9;" glyph-name="eacute" horiz-adv-x="498" d="M432 243H100Q100 147 110 104T154 42T263 24Q299 24 341 28T415 38V5Q390 -1 347 -4T259 -8Q173 -8 133 13T79 88T65 254Q65 368 75 419T126 494T260 518Q341 518 376 496T422 422T432 256V243ZM184
486T152 471T110 414T100 275H397V296Q397 382 385 421T345 473T258 486Q184 486 152 471ZM232 605V610L315 743H359V738L258 605H232Z" />
<glyph unicode="&#xea;" glyph-name="ecircumflex" horiz-adv-x="498" d="M432 243H100Q100 147 110 104T154 42T263 24Q299 24 341 28T415 38V5Q390 -1 347 -4T259 -8Q173 -8 133 13T79 88T65 254Q65 368 75 419T126 494T260 518Q341 518 376 496T422 422T432
256V243ZM184 486T152 471T110 414T100 275H397V296Q397 382 385 421T345 473T258 486Q184 486 152 471ZM133 605V610L227 743H273L367 610V605H340L250 713L160 605H133Z" />
<glyph unicode="&#xeb;" glyph-name="edieresis" horiz-adv-x="498" d="M432 243H100Q100 147 110 104T154 42T263 24Q299 24 341 28T415 38V5Q390 -1 347 -4T259 -8Q173 -8 133 13T79 88T65 254Q65 368 75 419T126 494T260 518Q341 518 376 496T422 422T432 256V243ZM184
486T152 471T110 414T100 275H397V296Q397 382 385 421T345 473T258 486Q184 486 152 471ZM141 670V731H183V670H141ZM318 670V731H360V670H318Z" />
<glyph unicode="&#xec;" glyph-name="igrave" horiz-adv-x="209" d="M87 0V510H122V0H87ZM354 605L253 738V743H297L380 610V605H354Z" />
<glyph unicode="&#xed;" glyph-name="iacute" horiz-adv-x="209" d="M87 0V510H122V0H87ZM84 605V610L167 743H211V738L110 605H84Z" />
<glyph unicode="&#xee;" glyph-name="icircumflex" horiz-adv-x="209" d="M87 0V510H122V0H87ZM244 605V610L338 743H384L478 610V605H451L361 713L271 605H244Z" />
<glyph unicode="&#xef;" glyph-name="idieresis" horiz-adv-x="209" d="M87 0V510H122V0H87ZM251 670V731H293V670H251ZM428 670V731H470V670H428Z" />
<glyph unicode="&#xf0;" glyph-name="eth" horiz-adv-x="513" d="M165 -8T126 12T76 84T65 254Q65 374 76 425T126 497T257 518Q343 518 386 482L391 484Q365 575 320 644L208 625V657L300 673Q280 698 261 716T237 739V743H279Q315 710 338 679L427 695V663L357
651Q386 602 409 536T440 408Q448 347 448 279Q448 145 439 91T391 15T257 -8Q165 -8 126 12ZM336 24T367 41T406 101T413 254Q413 349 406 393T365 461T257 486Q177 486 146 469T107 409T100 254Q100 144 107 102T146 42T257 24Q336 24 367 41Z" />
<glyph unicode="&#xf1;" glyph-name="ntilde" horiz-adv-x="532" d="M412 315Q412 392 402 427T363 474T274 486Q202 486 170 458T130 387T122 264V0H87V510H115L118 430H122Q135 470 170 494T282 518Q353 518 388 499T435 439T447 320V0H412V315ZM420 688T409
668T363 648Q340 648 317 655T260 675Q204 699 173 699Q154 699 148 686T142 637H115Q115 691 126 711T173 732Q196 732 218 725T277 704Q305 693 325 687T363 681Q382 681 387 694T393 743H420Q420 688 409 668Z" />
<glyph unicode="&#xf2;" glyph-name="ograve" horiz-adv-x="513" d="M165 -8T126 12T76 83T65 254Q65 374 76 425T126 497T257 518Q348 518 387 498T437 426T448 254Q448 135 437 84T387 12T257 -8Q165 -8 126 12ZM336 24T367 41T405 100T413 254Q413 365 406
408T367 469T257 486Q178 486 147 469T108 409T100 254Q100 143 107 101T146 41T257 24Q336 24 367 41ZM259 605L158 738V743H202L285 610V605H259Z" />
<glyph unicode="&#xf3;" glyph-name="oacute" horiz-adv-x="513" d="M165 -8T126 12T76 83T65 254Q65 374 76 425T126 497T257 518Q348 518 387 498T437 426T448 254Q448 135 437 84T387 12T257 -8Q165 -8 126 12ZM336 24T367 41T405 100T413 254Q413 365 406
408T367 469T257 486Q178 486 147 469T108 409T100 254Q100 143 107 101T146 41T257 24Q336 24 367 41ZM231 605V610L314 743H358V738L257 605H231Z" />
<glyph unicode="&#xf4;" glyph-name="ocircumflex" horiz-adv-x="513" d="M165 -8T126 12T76 83T65 254Q65 374 76 425T126 497T257 518Q348 518 387 498T437 426T448 254Q448 135 437 84T387 12T257 -8Q165 -8 126 12ZM336 24T367 41T405 100T413 254Q413 365
406 408T367 469T257 486Q178 486 147 469T108 409T100 254Q100 143 107 101T146 41T257 24Q336 24 367 41ZM140 605V610L234 743H280L374 610V605H347L257 713L167 605H140Z" />
<glyph unicode="&#xf5;" glyph-name="otilde" horiz-adv-x="513" d="M165 -8T126 12T76 83T65 254Q65 374 76 425T126 497T257 518Q348 518 387 498T437 426T448 254Q448 135 437 84T387 12T257 -8Q165 -8 126 12ZM336 24T367 41T405 100T413 254Q413 365 406
408T367 469T257 486Q178 486 147 469T108 409T100 254Q100 143 107 101T146 41T257 24Q336 24 367 41ZM408 688T397 668T351 648Q328 648 305 655T248 675Q192 699 161 699Q142 699 136 686T130 637H103Q103 691 114 711T161 732Q184 732 206 725T265 704Q293
693 313 687T351 681Q370 681 375 694T381 743H408Q408 688 397 668Z" />
<glyph unicode="&#xf6;" glyph-name="odieresis" horiz-adv-x="513" d="M165 -8T126 12T76 83T65 254Q65 374 76 425T126 497T257 518Q348 518 387 498T437 426T448 254Q448 135 437 84T387 12T257 -8Q165 -8 126 12ZM336 24T367 41T405 100T413 254Q413 365 406
408T367 469T257 486Q178 486 147 469T108 409T100 254Q100 143 107 101T146 41T257 24Q336 24 367 41ZM147 670V731H189V670H147ZM324 670V731H366V670H324Z" />
<glyph unicode="&#xf7;" glyph-name="divide" horiz-adv-x="514" d="M235 405V463H279V405H235ZM67 237V269H447V237H67ZM235 43V101H279V43H235Z" />
<glyph unicode="&#xf8;" glyph-name="oslash" horiz-adv-x="513" d="M432 462T440 412T448 254Q448 135 437 84T387 12T257 -8Q175 -8 137 7L102 -55H66L110 23Q81 47 73 97T65 254Q65 374 76 425T126 497T257 518Q338 518 375 503L410 565H447L403 486Q432 462
440 412ZM100 157T104 117T127 55L359 473Q329 486 257 486Q178 486 147 469T108 409T100 254Q100 157 104 117ZM336 24T367 41T405 100T413 254Q413 351 409 392T386 455L153 36Q184 24 257 24Q336 24 367 41Z" />
<glyph unicode="&#xf9;" glyph-name="ugrave" horiz-adv-x="532" d="M415 80H411Q399 40 364 16T251 -8Q180 -8 145 11T98 71T86 190V510H121V195Q121 118 131 83T170 36T259 24Q331 24 363 52T403 123T411 246V510H446V0H418L415 80ZM265 605L164 738V743H208L291
610V605H265Z" />
<glyph unicode="&#xfa;" glyph-name="uacute" horiz-adv-x="532" d="M415 80H411Q399 40 364 16T251 -8Q180 -8 145 11T98 71T86 190V510H121V195Q121 118 131 83T170 36T259 24Q331 24 363 52T403 123T411 246V510H446V0H418L415 80ZM248 605V610L331 743H375V738L274
605H248Z" />
<glyph unicode="&#xfb;" glyph-name="ucircumflex" horiz-adv-x="532" d="M415 80H411Q399 40 364 16T251 -8Q180 -8 145 11T98 71T86 190V510H121V195Q121 118 131 83T170 36T259 24Q331 24 363 52T403 123T411 246V510H446V0H418L415 80ZM149 605V610L243 743H289L383
610V605H356L266 713L176 605H149Z" />
<glyph unicode="&#xfc;" glyph-name="udieresis" horiz-adv-x="532" d="M415 80H411Q399 40 364 16T251 -8Q180 -8 145 11T98 71T86 190V510H121V195Q121 118 131 83T170 36T259 24Q331 24 363 52T403 123T411 246V510H446V0H418L415 80ZM156 670V731H198V670H156ZM333
670V731H375V670H333Z" />
<glyph unicode="&#xfd;" glyph-name="yacute" horiz-adv-x="532" d="M174 -203T96 -197V-164Q173 -171 242 -171Q317 -171 353 -149T400 -81T411 51V72H407Q395 37 361 15T250 -8Q180 -8 145 11T98 71T86 190V510H121V195Q121 118 131 83T170 36T259 24Q331 24
363 52T403 123T411 246V510H446V70Q446 -38 431 -95T373 -177T246 -203Q174 -203 96 -197ZM249 605V610L332 743H376V738L275 605H249Z" />
<glyph unicode="&#xfe;" glyph-name="thorn" horiz-adv-x="527" d="M87 743H122V439H126Q141 482 179 500T283 518Q360 518 397 497T448 421T462 255Q462 143 449 89T398 14T283 -8Q217 -8 179 10T126 71H122V-190H87V743ZM344 24T375 40T416 102T427 255Q427
361 417 407T375 470T274 486Q215 486 181 466T133 399Q126 374 124 343T122 255Q122 201 123 170T131 119Q146 67 180 46T274 24Q344 24 375 40Z" />
<glyph unicode="&#xff;" glyph-name="ydieresis" horiz-adv-x="532" d="M174 -203T96 -197V-164Q173 -171 242 -171Q317 -171 353 -149T400 -81T411 51V72H407Q395 37 361 15T250 -8Q180 -8 145 11T98 71T86 190V510H121V195Q121 118 131 83T170 36T259 24Q331
24 363 52T403 123T411 246V510H446V70Q446 -38 431 -95T373 -177T246 -203Q174 -203 96 -197ZM158 670V731H200V670H158ZM335 670V731H377V670H335Z" />
<glyph unicode="&#x2013;" glyph-name="endash" horiz-adv-x="447" d="M63 287V321H384V287H63Z" />
<glyph unicode="&#x2014;" glyph-name="emdash" horiz-adv-x="848" d="M63 287V321H785V287H63Z" />
<glyph unicode="&#x2018;" glyph-name="quoteleft" horiz-adv-x="159" d="M54 597Q54 634 60 653T83 680T130 688V667Q108 667 98 662T85 644T82 604V587H102V522H54V597Z" />
<glyph unicode="&#x2019;" glyph-name="quoteright" horiz-adv-x="159" d="M51 543T61 548T74 566T77 606V623H57V688H105V613Q105 576 99 557T76 530T29 522V543Q51 543 61 548Z" />
<glyph unicode="&#x201a;" glyph-name="quotesinglbase" horiz-adv-x="168" d="M54 -80T64 -75T77 -57T80 -17V0H60V65H107V-10Q107 -47 101 -66T79 -93T32 -101V-80Q54 -80 64 -75Z" />
<glyph unicode="&#x201c;" glyph-name="quotedblleft" horiz-adv-x="277" d="M54 597Q54 634 60 653T83 680T130 688V667Q108 667 98 662T85 644T82 604V587H102V522H54V597ZM172 597Q172 634 178 653T200 680T247 688V667Q225 667 215 662T202 644T199 604V587H219V522H172V597Z"
/>
<glyph unicode="&#x201d;" glyph-name="quotedblright" horiz-adv-x="277" d="M51 543T61 548T74 566T77 606V623H57V688H105V613Q105 576 99 557T76 530T29 522V543Q51 543 61 548ZM169 543T179 548T192 566T195 606V623H175V688H222V613Q222 576 216 557T194
530T147 522V543Q169 543 179 548Z" />
<glyph unicode="&#x201e;" glyph-name="quotedblbase" horiz-adv-x="286" d="M54 -80T64 -75T77 -57T80 -17V0H60V65H107V-10Q107 -47 101 -66T79 -93T32 -101V-80Q54 -80 64 -75ZM172 -80T182 -75T195 -57T198 -17V0H178V65H225V-10Q225 -47 219 -66T197 -93T149
-101V-80Q172 -80 182 -75Z" />
<glyph unicode="&#x2022;" glyph-name="bullet" horiz-adv-x="324" d="M256 298T251 281T227 257T161 250Q115 250 97 256T73 280T68 342Q68 387 73 405T96 430T161 437Q208 437 227 431T251 406T256 342Q256 298 251 281Z" />
<glyph unicode="&#x2039;" glyph-name="guilsinglleft" horiz-adv-x="265" d="M164 99L49 304L164 510H195L91 304L195 99H164Z" />
<glyph unicode="&#x203a;" glyph-name="guilsinglright" horiz-adv-x="265" d="M70 99L173 304L70 510H100L216 304L100 99H70Z" />
</font>
</defs>
</svg>
