<?xml version="1.0" standalone="no"?>
<!DOCTYPE svg PUBLIC "-//W3C//DTD SVG 1.1//EN" "http://www.w3.org/Graphics/SVG/1.1/DTD/svg11.dtd">
<svg xmlns="http://www.w3.org/2000/svg">
<defs >
<font id="SairaSemiCondensed" horiz-adv-x="502" ><font-face
    font-family="Saira SemiCondensed Light"
    units-per-em="1000"
    panose-1="0 0 4 6 0 0 0 0 0 0"
    ascent="1135"
    descent="-439"
    alphabetic="0" />
<glyph unicode=" " glyph-name="space" horiz-adv-x="209" />
<glyph unicode="!" glyph-name="exclam" horiz-adv-x="207" d="M78 357Q72 519 72 564V688H137V564Q137 519 131 357L126 184H83L78 357ZM70 0V80H138V0H70Z" />
<glyph unicode="&quot;" glyph-name="quotedbl" horiz-adv-x="288" d="M66 449L57 606V688H114V606L104 449H66ZM183 449L174 606V688H231V606L221 449H183Z" />
<glyph unicode="#" glyph-name="numbersign" horiz-adv-x="682" d="M313 0L352 197H192L154 0H106L145 197H60V244H154L192 436H92V482H201L242 688H289L249 482H408L449 688H496L456 482H546V436H447L408 244H514V197H399L361 0H313ZM399 436H239L201 244H361L399 436Z" />
<glyph unicode="$" glyph-name="dollar" horiz-adv-x="478" d="M413 164T398 132T352 86T266 68V-8H218V68Q140 70 79 80V130Q154 120 218 119V323L170 329Q128 334 106 348T74 390T65 466Q65 523 82 555T132 602T218 618V696H266V619Q345 616 388 606V556Q336
564 266 568V372L314 366Q354 361 374 349T404 307T413 220Q413 164 398 132ZM218 377V568Q168 565 145 546T122 471Q122 433 127 416T144 391T184 381L218 377ZM319 122T337 143T356 219Q356 261 351 280T334 305T296 314L266 318V119Q319 122 337 143Z" />
<glyph unicode="%" glyph-name="percent" horiz-adv-x="721" d="M121 311T96 326T63 379T55 503Q55 589 63 627T96 681T178 696Q235 696 260 681T292 628T300 503Q300 417 293 379T260 326T178 311Q121 311 96 326ZM140 0L533 688H582L188 0H140ZM216 352T230
360T250 397T255 503Q255 581 251 610T232 647T178 655Q140 655 126 647T106 610T101 503Q101 426 106 397T125 360T178 352Q216 352 230 360ZM487 -8T462 7T429 60T421 184Q421 270 429 308T462 362T544 377Q601 377 626 362T658 309T666 184Q666 98 659 60T626
7T544 -8Q487 -8 462 7ZM583 33T597 41T616 78T621 184Q621 263 617 291T599 328T544 336Q506 336 492 328T472 290T467 184Q467 108 472 79T491 41T544 33Q583 33 597 41Z" />
<glyph unicode="&amp;" glyph-name="ampersand" horiz-adv-x="634" d="M603 374V323H499V9Q474 4 420 -2T315 -8Q209 -8 155 13T82 75T63 184Q63 263 89 298T173 349V353Q119 368 94 405T68 515Q68 576 88 615T161 675T314 696Q355 696 406 691T496 679V631Q459
638 413 642T336 646Q244 646 199 633T140 591T125 508Q125 469 133 441T170 394T258 374H346V323H258Q197 323 168 307T129 262T120 181Q120 122 140 92T202 52T317 41Q393 41 443 51V374H603Z" />
<glyph unicode="&apos;" glyph-name="quotesingle" horiz-adv-x="170" d="M66 449L57 606V688H114V606L104 449H66Z" />
<glyph unicode="(" glyph-name="parenleft" horiz-adv-x="265" d="M148 -77T124 -29T88 93T76 297Q76 427 87 500T123 623T201 743H248Q199 672 178 629T144 509T131 297Q131 162 143 86T177 -35T248 -150H201Q148 -77 124 -29Z" />
<glyph unicode=")" glyph-name="parenright" horiz-adv-x="265" d="M66 -79T87 -35T121 85T134 297Q134 432 122 508T88 628T17 743H64Q117 672 141 623T177 501T189 297Q189 167 178 94T142 -28T64 -150H17Q66 -79 87 -35Z" />
<glyph unicode="*" glyph-name="asterisk" horiz-adv-x="422" d="M227 485L234 339H188L194 485L72 406L49 447L178 513L49 581L72 621L194 542L188 688H234L227 542L350 621L373 581L244 513L373 447L350 406L227 485Z" />
<glyph unicode="+" glyph-name="plus" horiz-adv-x="512" d="M231 63V229H66V277H231V443H280V277H446V229H280V63H231Z" />
<glyph unicode="," glyph-name="comma" horiz-adv-x="188" d="M69 -81T78 -69T87 -17V0H60V80H128V2Q128 -45 121 -68T95 -101T36 -111V-81Q69 -81 78 -69Z" />
<glyph unicode="-" glyph-name="hyphen" horiz-adv-x="332" d="M60 259V313H272V259H60Z" />
<glyph unicode="." glyph-name="period" horiz-adv-x="188" d="M60 0V80H128V0H60Z" />
<glyph unicode="/" glyph-name="slash" horiz-adv-x="312" d="M8 -55L249 743H303L62 -55H8Z" />
<glyph unicode="0" glyph-name="zero" horiz-adv-x="581" d="M182 -8T138 17T83 109T71 344Q71 512 82 579T138 671T291 696Q401 696 444 671T499 580T510 344Q510 176 499 109T443 17T291 -8Q182 -8 138 17ZM375 45T405 60T443 132T452 344Q452 500 444 556T405
627T291 643Q207 643 177 628T138 556T129 344Q129 188 137 132T176 61T291 45Q375 45 405 60Z" />
<glyph unicode="1" glyph-name="one" horiz-adv-x="322" d="M162 0V616L38 552V609L176 688H220V0H162Z" />
<glyph unicode="2" glyph-name="two" horiz-adv-x="524" d="M120 53H461V0H63V75Q63 162 67 198T92 258T162 306L329 389Q374 411 388 437T403 517Q403 571 390 597T346 633T251 643Q180 643 74 632V681Q109 688 163 692T266 696Q331 696 371 685T436 637T461
526Q461 470 451 436T419 381T355 339L168 248Q137 232 128 208Q123 192 122 171T120 110V53Z" />
<glyph unicode="3" glyph-name="three" horiz-adv-x="512" d="M183 -8T135 -4T48 7V57Q147 45 217 45Q277 45 312 54T367 93T386 181Q386 258 358 290T264 322H149V375H264Q315 375 347 404T379 508Q379 566 362 595T309 633T208 643Q175 643 131 640T51 631V681Q89
687 137 691T222 696Q305 696 351 678T418 620T438 515Q438 442 412 404T335 354V350Q389 340 417 302T445 184Q445 117 428 76T361 14T221 -8Q183 -8 135 -4Z" />
<glyph unicode="4" glyph-name="four" horiz-adv-x="555" d="M362 0V168H42V216L272 688H337L106 221H363L371 494H421V221H511V168H421V0H362Z" />
<glyph unicode="5" glyph-name="five" horiz-adv-x="530" d="M173 45T241 45Q312 45 347 59T396 105T410 200Q410 267 396 297T344 338T226 349Q168 349 78 335V688H425V635H135V392Q190 402 268 402Q354 402 397 381T455 320T469 208Q469 125 451 79T385 13T246
-8Q206 -8 157 -4T72 7V57Q173 45 241 45Z" />
<glyph unicode="6" glyph-name="six" horiz-adv-x="564" d="M233 -8T193 0T126 34T85 109Q77 137 74 190T71 336Q71 425 74 480T89 572Q110 643 160 669T311 696Q343 696 390 692T480 680V631Q393 643 322 643Q233 643 194 622T143 542T130 353H135Q152 376 190
390T308 404Q390 404 431 391T492 338T512 214Q512 123 496 77T436 12T301 -8Q233 -8 193 0ZM364 45T396 55T441 95T454 195Q454 270 442 301T399 342T294 351Q221 351 187 340T143 303T132 227Q132 146 146 108T193 58T294 45Q364 45 396 55Z" />
<glyph unicode="7" glyph-name="seven" horiz-adv-x="483" d="M124 0L375 635H35V688H439V641L188 0H124Z" />
<glyph unicode="8" glyph-name="eight" horiz-adv-x="588" d="M200 -8T151 12T85 73T67 184Q67 242 79 275T114 324T176 349V353Q122 364 97 402T72 515Q72 582 91 620T159 677T294 696Q381 696 428 678T495 621T515 515Q515 440 491 402T412 353V349Q451 340
474 324T509 275T521 184Q521 114 504 74T437 13T294 -8Q200 -8 151 12ZM361 374T395 385T443 425T457 508Q457 564 444 592T397 631T294 643Q226 643 192 632T144 592T131 508Q131 453 144 425T192 386T294 374Q361 374 395 385ZM362 45T397 55T447 95T462 182Q462
244 449 273T401 312T294 322Q222 322 188 312T140 273T126 182Q126 124 141 95T191 56T294 45Q362 45 397 55Z" />
<glyph unicode="9" glyph-name="nine" horiz-adv-x="564" d="M220 -8T173 -4T85 8V57Q169 45 242 45Q331 45 370 66T422 146T435 335H429Q413 312 375 298T257 284Q175 284 134 297T73 350T53 474Q53 565 69 611T129 676T264 696Q331 696 372 688T438 656T477
587Q487 553 490 499T493 352Q493 257 489 200T472 104Q450 40 401 16T254 -8Q220 -8 173 -4ZM344 337T378 348T422 385T432 461Q432 542 418 580T372 630T271 643Q201 643 169 633T124 593T111 493Q111 418 123 387T166 346T271 337Q344 337 378 348Z" />
<glyph unicode=":" glyph-name="colon" horiz-adv-x="188" d="M60 430V510H128V430H60ZM60 0V80H128V0H60Z" />
<glyph unicode=";" glyph-name="semicolon" horiz-adv-x="188" d="M60 430V510H128V430H60ZM69 -81T78 -69T87 -17V0H60V80H128V2Q128 -45 121 -68T95 -101T36 -111V-81Q69 -81 78 -69Z" />
<glyph unicode="&lt;" glyph-name="less" horiz-adv-x="513" d="M447 55L67 221V284L447 451V398L115 253L447 108V55Z" />
<glyph unicode="=" glyph-name="equal" horiz-adv-x="512" d="M66 324V372H446V324H66ZM66 133V182H446V133H66Z" />
<glyph unicode="&gt;" glyph-name="greater" horiz-adv-x="513" d="M66 55V108L398 253L66 398V451L446 284V221L66 55Z" />
<glyph unicode="?" glyph-name="question" horiz-adv-x="431" d="M132 269Q132 306 139 325T160 355T203 377L228 387Q263 402 279 415T301 451T307 522Q307 574 296 599T257 634T174 643Q124 643 31 632V681Q67 688 112 692T190 696Q256 696 294 680T349 628T366
531Q366 458 352 418T288 357L267 349Q226 332 211 322T191 299T186 259V183H132V269ZM125 0V80H193V0H125Z" />
<glyph unicode="@" glyph-name="at" horiz-adv-x="806" d="M237 -108T173 -81T92 21T76 294Q76 492 92 566T172 668T403 696Q570 696 634 669T715 567T731 294Q731 190 721 144T689 87T620 75H514L510 139H505Q492 96 459 82T378 68Q330 68 302 79T260 117T246
194Q246 243 256 270T291 310T362 322Q411 322 507 318V351Q507 409 499 433T468 464T391 472Q365 472 328 469T272 462V507Q329 518 407 518Q472 518 504 504T547 456T559 354V111H630Q655 111 667 120T685 167T691 294Q691 448 684 514T648 611T551 652Q490 660
402 660Q328 660 261 653Q190 645 160 615T123 518T115 294Q115 134 124 68T167 -29T284 -67Q332 -71 403 -71Q523 -71 559 -68V-106Q527 -108 403 -108Q237 -108 173 -81ZM434 113T459 125T496 166T507 250V281H375Q341 281 326 275T304 252T298 197Q298 161 305
144T330 120T388 113Q434 113 459 125Z" />
<glyph unicode="A" glyph-name="A" horiz-adv-x="590" d="M500 0L432 204H156L88 0H28L259 688H331L562 0H500ZM297 615H292L173 257H415L297 615Z" />
<glyph unicode="B" glyph-name="B" horiz-adv-x="590" d="M92 688H351Q442 688 480 644T518 516Q518 447 492 407T408 354V350Q476 338 500 294T525 181Q525 99 487 50T345 0H92V688ZM396 375T427 408T459 505Q459 576 433 605T336 635H150V375H336Q396 375 427
408ZM410 52T438 83T466 187Q466 259 437 290T339 322H150V52H339Q410 52 438 83Z" />
<glyph unicode="C" glyph-name="C" horiz-adv-x="490" d="M415 -2T377 -5T307 -8Q201 -8 153 17T88 113T71 344Q71 502 88 573T153 670T307 696Q339 696 376 692T438 683V634Q373 643 320 643Q228 643 191 625T142 548T130 344Q130 199 142 141T191 64T320 45Q383
45 442 54V3Q415 -2 377 -5Z" />
<glyph unicode="D" glyph-name="D" horiz-adv-x="596" d="M92 688H277Q397 688 447 664T511 573T525 344Q525 182 511 116T447 25T277 0H92V688ZM266 53Q369 53 406 67T454 137T466 344Q466 494 454 550T405 620T266 635H150V53H266Z" />
<glyph unicode="E" glyph-name="E" horiz-adv-x="517" d="M92 0V688H469V635H151V374H429V322H151V53H469V0H92Z" />
<glyph unicode="F" glyph-name="F" horiz-adv-x="486" d="M92 0V688H452V635H151V359H420V307H151V0H92Z" />
<glyph unicode="G" glyph-name="G" horiz-adv-x="584" d="M303 307V359H506V10Q466 2 413 -3T319 -8Q211 -8 161 17T91 115T71 344Q71 499 90 571T161 670T320 696Q365 696 417 691T504 677V628Q468 634 424 638T351 643Q247 643 206 628T147 553T130 344Q130
206 142 147T193 66T319 44Q347 44 385 47T449 54V307H303Z" />
<glyph unicode="H" glyph-name="H" horiz-adv-x="634" d="M484 0V320H150V0H92V688H150V375H484V688H543V0H484Z" />
<glyph unicode="I" glyph-name="I" horiz-adv-x="245" d="M93 0V688H152V0H93Z" />
<glyph unicode="J" glyph-name="J" horiz-adv-x="290" d="M92 53T114 63T141 107T147 242V688H206V262Q206 127 197 78T154 15T28 0V51Q92 53 114 63Z" />
<glyph unicode="K" glyph-name="K" horiz-adv-x="575" d="M481 0L273 323H150V0H92V688H150V375H273L481 688H546L321 351L548 0H481Z" />
<glyph unicode="L" glyph-name="L" horiz-adv-x="459" d="M92 0V688H151V54H435V0H92Z" />
<glyph unicode="M" glyph-name="M" horiz-adv-x="793" d="M643 0V583H639L421 0H369L152 583H148V0H92V688H174L394 97H399L620 688H701V0H643Z" />
<glyph unicode="N" glyph-name="N" horiz-adv-x="635" d="M485 0L152 569H148V0H92V688H152L482 125H486V688H543V0H485Z" />
<glyph unicode="O" glyph-name="O" horiz-adv-x="623" d="M195 -8T147 17T85 110T71 344Q71 509 85 577T147 671T311 696Q428 696 476 671T538 578T552 344Q552 179 538 111T476 17T311 -8Q195 -8 147 17ZM403 45T437 60T482 133T493 344Q493 497 482 555T437
628T311 643Q220 643 186 628T141 555T130 344Q130 191 141 133T186 60T311 45Q403 45 437 60Z" />
<glyph unicode="P" glyph-name="P" horiz-adv-x="561" d="M92 688H339Q416 688 454 661T503 590T514 476Q514 408 503 364T454 292T339 264H150V0H92V688ZM327 316Q385 316 412 334T448 384T456 476Q456 536 449 568T413 617T327 635H150V316H327Z" />
<glyph unicode="Q" glyph-name="Q" horiz-adv-x="623" d="M566 -113V-115H500L425 0Q385 -8 311 -8Q195 -8 147 17T85 110T71 344Q71 509 85 577T147 671T311 696Q428 696 476 671T538 578T552 344Q552 234 547 174T527 76T478 19L566 -113ZM372 45T394 48L283
218H346L447 66Q467 80 476 111T489 196T493 344Q493 497 482 555T437 628T311 643Q220 643 186 628T141 555T130 344Q130 191 141 133T186 60T311 45Q372 45 394 48Z" />
<glyph unicode="R" glyph-name="R" horiz-adv-x="590" d="M468 0L367 285Q357 284 341 284H150V0H92V688H351Q426 688 463 662T511 594T522 486Q522 410 504 362T424 295L531 0H468ZM390 336T418 353T455 401T463 486Q463 541 456 571T422 618T339 635H150V336H332Q390
336 418 353Z" />
<glyph unicode="S" glyph-name="S" horiz-adv-x="540" d="M230 -8T174 -5T77 5V57Q119 52 172 49T262 45Q310 45 338 50T389 69Q409 83 415 111T422 186Q422 246 417 269T393 303T323 319L174 338Q122 344 97 365T66 419T59 509Q59 582 81 623T150 680T272 696Q321
696 370 692T450 682V631Q369 643 283 643Q230 643 198 637T148 614Q130 599 124 575T118 509Q118 461 123 439T145 407T197 393L340 375Q399 367 428 354T470 302Q476 285 478 261T480 193Q480 110 459 67T395 8T279 -8Q230 -8 174 -5Z" />
<glyph unicode="T" glyph-name="T" horiz-adv-x="499" d="M220 0V634H28V688H471V634H279V0H220Z" />
<glyph unicode="U" glyph-name="U" horiz-adv-x="617" d="M533 688V297Q533 164 519 104T459 18T309 -8Q205 -8 159 17T98 103T84 297V688H143V264Q143 165 152 123T196 63T309 45Q388 45 421 62T464 122T474 264V688H533Z" />
<glyph unicode="V" glyph-name="V" horiz-adv-x="565" d="M247 0L25 688H86L280 79H286L480 688H540L318 0H247Z" />
<glyph unicode="W" glyph-name="W" horiz-adv-x="840" d="M577 0L423 587H419L265 0H196L31 688H92L230 90H236L390 688H454L609 90H615L752 688H811L646 0H577Z" />
<glyph unicode="X" glyph-name="X" horiz-adv-x="581" d="M485 0L293 295H286L94 0H28L254 346L31 688H99L288 397H295L484 688H550L328 347L553 0H485Z" />
<glyph unicode="Y" glyph-name="Y" horiz-adv-x="518" d="M229 0V271L11 688H74L257 339H264L446 688H508L288 271V0H229Z" />
<glyph unicode="Z" glyph-name="Z" horiz-adv-x="514" d="M44 0V50L396 635H54V688H467V639L115 52H473V0H44Z" />
<glyph unicode="[" glyph-name="bracketleft" horiz-adv-x="283" d="M92 -150V743H249V698L146 694V-101L249 -105V-150H92Z" />
<glyph unicode="\" glyph-name="backslash" horiz-adv-x="312" d="M250 -55L8 743H63L303 -55H250Z" />
<glyph unicode="]" glyph-name="bracketright" horiz-adv-x="283" d="M34 -150V-105L137 -101V694L34 698V743H191V-150H34Z" />
<glyph unicode="^" glyph-name="asciicircum" horiz-adv-x="440" d="M332 460L220 708L108 460H56L189 749H251L383 460H332Z" />
<glyph unicode="_" glyph-name="underscore" horiz-adv-x="331" d="M0 -165V-117H331V-165H0Z" />
<glyph unicode="`" glyph-name="grave" horiz-adv-x="171" d="M115 603L13 738V743H77L157 608V603H115Z" />
<glyph unicode="a" glyph-name="a" horiz-adv-x="501" d="M150 -8T116 4T66 49T49 139Q49 197 61 228T104 274T189 288Q217 288 365 283V323Q365 392 355 421T316 460T221 469Q192 469 149 466T80 457V505Q145 518 239 518Q316 518 354 502T407 445T421 326V0H373L369
76H364Q347 25 305 9T206 -8Q150 -8 116 4ZM268 41T299 51T345 92Q356 117 360 143T365 208V243H203Q161 243 141 236T113 207T105 142Q105 100 114 79T147 50T219 41Q268 41 299 51Z" />
<glyph unicode="b" glyph-name="b" horiz-adv-x="524" d="M232 -8T193 9T137 76H133L129 0H81V743H137V443H141Q157 483 194 500T291 518Q364 518 400 496T449 419T463 255Q463 146 449 91T399 14T290 -8Q232 -8 193 9ZM334 43T361 57T397 114T407 255Q407 353
398 395T361 452T271 467Q221 467 192 452T151 402Q142 375 140 343T137 255Q137 203 139 171T150 111Q161 75 190 59T271 43Q334 43 361 57Z" />
<glyph unicode="c" glyph-name="c" horiz-adv-x="405" d="M341 -1T308 -4T243 -8Q161 -8 123 18T73 96T61 254Q61 361 75 416T127 494T240 518Q270 518 303 515T358 506V458Q303 469 252 469Q192 469 164 452T127 392T117 256Q117 160 126 117T164 57T254 41Q280
41 310 44T362 53V5Q341 -1 308 -4Z" />
<glyph unicode="d" glyph-name="d" horiz-adv-x="524" d="M161 -8T125 14T75 90T61 255Q61 364 74 419T124 496T233 518Q293 518 329 501T382 443H387V743H443V0H395L391 76H386Q370 26 331 9T233 -8Q161 -8 125 14ZM304 43T333 59T373 109Q382 138 384 171T387
265Q387 308 385 338T376 390Q364 431 334 449T249 467Q188 467 162 453T126 396T117 255Q117 157 126 115T163 58T253 43Q304 43 333 59Z" />
<glyph unicode="e" glyph-name="e" horiz-adv-x="496" d="M435 236H117Q117 149 126 111T167 57T269 41Q303 41 344 44T418 54V6Q392 0 347 -4T259 -8Q170 -8 129 14T75 90T61 254Q61 365 72 417T124 493T258 518Q341 518 378 495T425 420T435 256V236ZM191 469T163
456T126 405T117 281H380V296Q380 375 370 410T334 457T256 469Q191 469 163 456Z" />
<glyph unicode="f" glyph-name="f" horiz-adv-x="315" d="M116 461H25V510H116V608Q116 668 133 697T185 734T287 743V698Q239 698 215 692T182 669T172 618V510H287V461H172V0H116V461Z" />
<glyph unicode="g" glyph-name="g" horiz-adv-x="524" d="M144 -203T80 -195V-147Q152 -153 230 -153Q301 -153 333 -136T376 -77T387 54V69H382Q367 28 331 11T233 -6Q160 -6 124 15T75 91T61 255Q61 364 75 419T125 496T233 518Q291 518 330 501T386 434H391L394
510H443V72Q443 -38 429 -94T372 -177T240 -203Q144 -203 80 -195ZM304 44T333 60T374 114Q382 140 384 172T387 255Q387 306 385 336T376 390Q364 432 335 449T252 467Q190 467 163 453T127 396T117 255Q117 157 126 115T163 59T252 44Q304 44 333 60Z" />
<glyph unicode="h" glyph-name="h" horiz-adv-x="529" d="M394 304Q394 379 385 412T352 456T271 467Q208 467 180 443T144 379T137 264V0H81V743H137V442H141Q154 476 188 497T291 518Q359 518 393 499T438 438T450 322V0H394V304Z" />
<glyph unicode="i" glyph-name="i" horiz-adv-x="218" d="M78 668V743H140V668H78ZM81 0V510H137V0H81Z" />
<glyph unicode="j" glyph-name="j" horiz-adv-x="218" d="M78 668V743H140V668H78ZM-5 -151Q34 -151 52 -146T75 -130T81 -95V510H137V-79Q137 -133 123 -158T81 -190T-5 -197V-151Z" />
<glyph unicode="k" glyph-name="k" horiz-adv-x="466" d="M371 0L204 233H137V0H81V743H137V284H204L370 510H434L250 263L437 0H371Z" />
<glyph unicode="l" glyph-name="l" horiz-adv-x="218" d="M81 0V743H137V0H81Z" />
<glyph unicode="m" glyph-name="m" horiz-adv-x="792" d="M656 304Q656 379 648 412T619 456T547 467Q489 467 463 444T431 382T424 264V0H368V304Q368 379 361 412T332 456T260 467Q203 467 177 443T144 378T137 264V0H81V510H129L133 434H137Q150 473 182 495T279
518Q343 518 374 499T416 434H421Q434 473 467 495T566 518Q628 518 659 499T701 438T712 322V0H656V304Z" />
<glyph unicode="n" glyph-name="n" horiz-adv-x="529" d="M394 304Q394 379 385 412T352 456T271 467Q208 467 180 443T144 379T137 264V0H81V510H129L133 434H137Q151 474 185 496T291 518Q359 518 393 499T438 438T450 321V0H394V304Z" />
<glyph unicode="o" glyph-name="o" horiz-adv-x="511" d="M163 -8T123 12T72 84T61 254Q61 373 72 424T123 497T255 518Q348 518 387 497T438 425T450 254Q450 136 439 85T388 13T255 -8Q163 -8 123 12ZM325 41T353 56T387 110T394 254Q394 358 388 398T353 453T255
469Q185 469 158 454T124 399T117 254Q117 150 123 111T157 56T255 41Q325 41 353 56Z" />
<glyph unicode="p" glyph-name="p" horiz-adv-x="524" d="M81 510H129L133 434H137Q154 484 193 501T290 518Q363 518 399 496T449 420T463 255Q463 146 450 91T400 14T291 -8Q231 -8 194 9T141 67H137V-196H81V510ZM334 43T361 57T397 114T407 255Q407 353 398
395T361 452T271 467Q220 467 190 450T149 395Q141 370 139 340T137 255Q137 205 138 175T146 124Q159 80 188 62T271 43Q334 43 361 57Z" />
<glyph unicode="q" glyph-name="q" horiz-adv-x="524" d="M387 67H382Q366 27 330 10T233 -8Q160 -8 124 14T75 90T61 255Q61 364 75 419T125 496T233 518Q291 518 330 501T386 434H391L395 510H443V-196H387V67ZM305 43T334 60T376 118Q383 141 385 172T387 255Q387
307 385 339T373 401Q363 435 333 451T253 467Q190 467 163 453T127 396T117 255Q117 157 126 115T163 58T253 43Q305 43 334 60Z" />
<glyph unicode="r" glyph-name="r" horiz-adv-x="315" d="M81 510H129L133 409H137Q152 471 190 494T291 518V461Q230 461 197 438T150 369T137 249V0H81V510Z" />
<glyph unicode="s" glyph-name="s" horiz-adv-x="440" d="M184 -8T140 -5T65 4V52Q150 41 225 41Q271 41 294 51T325 80T333 136Q333 177 328 194T311 218T270 227L148 241Q91 248 71 276T51 371Q51 433 71 465T129 507T227 518Q259 518 298 514T364 505V457Q298
469 220 469Q180 469 157 463T120 437T106 376Q106 340 111 324T129 301T169 291L289 277Q329 273 349 262T379 222T389 138Q389 80 372 49T318 5T221 -8Q184 -8 140 -5Z" />
<glyph unicode="t" glyph-name="t" horiz-adv-x="304" d="M116 0V461H25V510H116V658H172V510H279V461H172V0H116Z" />
<glyph unicode="u" glyph-name="u" horiz-adv-x="529" d="M397 76H392Q378 36 344 14T238 -8Q170 -8 137 11T92 72T80 189V510H136V206Q136 131 145 98T178 54T258 43Q321 43 350 67T386 132T393 246V510H449V0H400L397 76Z" />
<glyph unicode="v" glyph-name="v" horiz-adv-x="465" d="M200 0L27 510H86L230 72H236L380 510H438L265 0H200Z" />
<glyph unicode="w" glyph-name="w" horiz-adv-x="711" d="M470 0L358 412H352L240 0H176L30 510H88L207 79H213L327 510H385L501 79H507L624 510H681L535 0H470Z" />
<glyph unicode="x" glyph-name="x" horiz-adv-x="476" d="M382 0L240 212H235L91 0H29L203 259L35 510H100L236 307H241L378 510H441L273 260L447 0H382Z" />
<glyph unicode="y" glyph-name="y" horiz-adv-x="529" d="M163 -203T95 -196V-148Q172 -153 236 -153Q307 -153 340 -134T383 -75T393 46V70H388Q376 35 342 14T238 -7Q170 -7 137 13T92 75T80 195V510H136V206Q136 132 145 99T178 55T258 44Q321 44 350 68T386
132T393 246V510H449V68Q449 -38 434 -94T376 -177T246 -203Q163 -203 95 -196Z" />
<glyph unicode="z" glyph-name="z" horiz-adv-x="437" d="M45 0V45L320 461H55V510H390V466L115 49H392V0H45Z" />
<glyph unicode="{" glyph-name="braceleft" horiz-adv-x="282" d="M177 -127T148 -75T118 35V151Q118 204 97 240T26 278V314Q75 315 96 351T118 442V558Q118 616 147 668T216 743H265Q226 711 200 663T173 567V447Q173 323 90 299V294Q173 270 173 146V26Q173
-22 199 -70T265 -150H216Q177 -127 148 -75Z" />
<glyph unicode="|" glyph-name="bar" horiz-adv-x="247" d="M97 -161V743H150V-161H97Z" />
<glyph unicode="}" glyph-name="braceright" horiz-adv-x="282" d="M56 -119T82 -71T109 26V146Q109 270 191 294V299Q109 323 109 447V567Q109 615 83 663T17 743H65Q104 721 134 669T164 558V442Q164 388 185 352T256 314V278Q206 277 185 241T164 151V35Q164
-23 134 -75T65 -150H17Q56 -119 82 -71Z" />
<glyph unicode="~" glyph-name="asciitilde" horiz-adv-x="468" d="M401 301T388 279T333 256Q309 256 285 262T223 282Q194 292 175 297T137 303Q117 303 111 291T105 245H68Q68 285 72 306T91 337T135 348Q160 348 183 342T245 322Q251 320 269 314T303 305T331
302Q352 302 358 314T364 359H401Q401 301 388 279Z" />
<glyph unicode="&#xa0;" glyph-name="uni00A0" horiz-adv-x="209" />
<glyph unicode="&#xa1;" glyph-name="exclamdown" horiz-adv-x="205" d="M68 430V510H136V430H68ZM70 -54Q70 -9 76 153L81 326H124L129 160Q130 117 132 47T134 -54V-178H70V-54Z" />
<glyph unicode="&#xa2;" glyph-name="cent" horiz-adv-x="421" d="M371 81Q330 70 272 67V-8H224V68Q155 72 121 98T75 180T62 342Q62 451 77 509T126 591T224 618V696H272V618Q323 617 367 606V556Q321 567 272 567V119Q327 121 371 132V81ZM121 255T129 210T158
145T224 121V565Q180 561 159 542T129 478T121 344Q121 255 129 210Z" />
<glyph unicode="&#xa3;" glyph-name="sterling" horiz-adv-x="513" d="M466 53V0H50V53H115V331H50V383H115V403Q115 521 132 582T196 670T333 696Q366 696 400 693T456 683V633Q390 643 348 643Q302 643 273 639T224 621Q194 601 184 549T173 406V383H392V331H173V53H466Z"
/>
<glyph unicode="&#xa4;" glyph-name="currency" horiz-adv-x="659" d="M61 25L162 126Q145 154 140 203T134 345Q134 436 139 484T161 561L61 662L95 696L197 594Q217 607 248 612T329 618Q378 618 409 613T461 593L564 696L598 662L497 561Q513 532 518 484T523
345Q523 253 518 204T497 127L598 25L564 -9L460 94Q441 81 410 76T329 71Q279 71 248 76T198 94L95 -9L61 25ZM399 120T426 136T460 193T467 345Q467 454 461 495T427 552T329 568Q259 568 231 552T197 495T190 345Q190 236 196 194T231 136T329 120Q399 120 426
136Z" />
<glyph unicode="&#xa5;" glyph-name="yen" horiz-adv-x="550" d="M515 688L395 448H486V404H373L319 295H486V252H304V0H245V252H63V295H230L176 404H63V448H154L35 688H97L212 448H339L454 688H515ZM279 324L317 404H234L272 324H279Z" />
<glyph unicode="&#xa6;" glyph-name="brokenbar" horiz-adv-x="247" d="M97 390V743H150V390H97ZM97 -161V192H150V-161H97Z" />
<glyph unicode="&#xa7;" glyph-name="section" horiz-adv-x="605" d="M239 -171T196 -167T131 -158V-108Q197 -118 272 -118Q325 -118 355 -112T402 -85T418 -23Q418 14 413 32T395 60T356 78L202 124Q143 142 114 157T72 201T58 280Q58 348 78 391T155 439Q140
457 135 482T129 545Q129 605 151 638T215 683T323 696Q366 696 409 692T474 683V633Q448 637 408 640T333 643Q280 643 250 637T203 610T187 548Q187 511 193 492T214 464T262 444L409 399Q465 382 492 367T533 324T547 245Q547 176 527 133T450 85Q465 67 470
43T476 -20Q476 -80 454 -113T390 -158T282 -171Q239 -171 196 -167ZM454 120T472 147T490 231Q490 283 480 302T442 330L236 391Q193 403 182 403Q150 403 132 376T114 293Q114 257 119 238T136 208T172 191L372 132Q381 129 398 125T423 120Q454 120 472 147Z"
/>
<glyph unicode="&#xa8;" glyph-name="dieresis" horiz-adv-x="277" d="M20 660V730H78V660H20ZM199 660V730H257V660H199Z" />
<glyph unicode="&#xa9;" glyph-name="copyright" horiz-adv-x="650" d="M202 -8T154 15T93 105T80 344Q80 516 92 582T153 672T325 696Q448 696 496 673T557 583T570 344Q570 172 558 106T497 16T325 -8Q202 -8 154 15ZM434 24T474 42T525 120T536 344Q536 508
525 568T474 646T325 664Q216 664 176 646T125 568T114 344Q114 180 125 120T176 42T325 24Q434 24 474 42ZM287 154T261 167T226 219T217 344Q217 428 226 466T262 519T345 533Q397 533 418 527V491Q384 495 352 495Q307 495 289 486T265 447T259 344Q259 270
264 241T288 202T352 192Q392 192 420 197V160Q393 154 345 154Q287 154 261 167Z" />
<glyph unicode="&#xaa;" glyph-name="ordfeminine" horiz-adv-x="366" d="M91 314T65 336T39 423Q39 465 48 488T78 521T141 531L220 529L263 528V554Q263 601 256 621T229 647T162 654Q141 654 111 652T59 645V686Q107 696 177 696Q234 696 262 684T300 643T310
555V319H269L264 362H260Q245 334 217 324T152 314Q91 314 65 336ZM198 355T220 363T252 394Q263 418 263 470V493H152Q124 493 110 488T90 469T84 425Q84 383 99 369T162 355Q198 355 220 363Z" />
<glyph unicode="&#xab;" glyph-name="guillemotleft" horiz-adv-x="412" d="M159 101L45 305L159 510H203L103 305L203 101H159ZM303 101L188 305L303 510H346L246 305L346 101H303Z" />
<glyph unicode="&#xac;" glyph-name="logicalnot" horiz-adv-x="511" d="M395 62V229H66V279H445V62H395Z" />
<glyph unicode="&#xad;" glyph-name="uni00AD" horiz-adv-x="332" d="M60 259V313H272V259H60Z" />
<glyph unicode="&#xae;" glyph-name="registered" horiz-adv-x="650" d="M448 696T496 673T557 583T570 344Q570 172 558 106T497 16T325 -8Q202 -8 154 15T93 105T80 344Q80 516 92 582T153 672T325 696Q448 696 496 673ZM434 24T474 42T525 120T536 344Q536
508 525 567T474 645T325 664Q216 664 176 646T125 568T114 344Q114 180 125 120T176 42T325 24Q434 24 474 42ZM446 378T436 352T397 314L453 157H409L356 306H344H253V157H212V529H352Q394 529 414 515T440 477T446 418Q446 378 436 352ZM369 344T383 352T401
376T405 418Q405 445 402 459T385 482T345 490H253V344H340Q369 344 383 352Z" />
<glyph unicode="&#xaf;" glyph-name="overscore" horiz-adv-x="333" d="M60 689V742H272V689H60Z" />
<glyph unicode="&#xb0;" glyph-name="degree" horiz-adv-x="351" d="M121 397T97 409T67 451T60 546Q60 612 66 641T97 683T175 696Q230 696 254 684T284 642T291 546Q291 480 285 451T254 410T175 397Q121 397 97 409ZM211 435T225 443T242 472T246 546Q246 599
243 619T225 648T175 657Q139 657 125 649T108 620T104 546Q104 493 107 473T125 444T175 435Q211 435 225 443Z" />
<glyph unicode="&#xb1;" glyph-name="plusminus" horiz-adv-x="512" d="M231 189V355H66V404H231V569H280V404H446V355H280V189H231ZM66 15V63H446V15H66Z" />
<glyph unicode="&#xb2;" glyph-name="uni00B2" horiz-adv-x="323" d="M93 361H274V318H50V363Q50 408 52 427T64 459T96 483Q150 511 191 530Q213 541 220 554T228 595Q228 631 214 642T156 653Q134 653 55 646V687Q108 696 164 696Q200 696 223 690T260 663T274
600Q274 555 261 533T214 494L119 448Q102 439 98 428T93 386V361Z" />
<glyph unicode="&#xb3;" glyph-name="uni00B3" horiz-adv-x="317" d="M100 310T42 319V359Q119 352 139 352Q181 352 200 365T220 417Q220 454 207 469T164 485H96V525H164Q217 525 217 589Q217 628 199 640T134 653Q102 653 44 646V686Q94 696 142 696Q209 696
235 673T262 593Q262 560 251 541T217 509V505Q267 484 267 418Q267 380 257 357T220 322T141 310Q100 310 42 319Z" />
<glyph unicode="&#xb4;" glyph-name="acute" horiz-adv-x="171" d="M13 603V608L94 743H157V738L55 603H13Z" />
<glyph unicode="&#xb5;" glyph-name="uni00B5" horiz-adv-x="531" d="M450 510V0H402L398 76H393Q379 36 345 14T241 -8Q172 -8 137 21V-190H81V510H137V206Q137 131 146 98T179 54T259 43Q322 43 351 67T387 131T394 246V510H450Z" />
<glyph unicode="&#xb6;" glyph-name="paragraph" horiz-adv-x="499" d="M260 222Q159 222 119 238T67 298T56 454Q56 566 67 610T119 671T260 688H309V-144H260V222ZM367 -144V688H416V-144H367Z" />
<glyph unicode="&#xb7;" glyph-name="middot" horiz-adv-x="188" d="M60 259V339H128V259H60Z" />
<glyph unicode="&#xb8;" glyph-name="cedilla" horiz-adv-x="137" d="M19 -190V-185L79 8H119V3L76 -190H19Z" />
<glyph unicode="&#xb9;" glyph-name="uni00B9" horiz-adv-x="217" d="M104 318V632L38 599V643L116 688H149V318H104Z" />
<glyph unicode="&#xba;" glyph-name="ordmasculine" horiz-adv-x="378" d="M121 314T92 329T55 381T46 504Q46 589 54 627T92 680T189 696Q257 696 286 681T323 627T332 504Q332 418 324 381T286 329T189 314Q121 314 92 329ZM238 355T257 365T280 403T285 504Q285
576 281 604T257 643T189 654Q141 654 122 643T99 604T94 504Q94 431 98 404T122 366T189 355Q238 355 257 365Z" />
<glyph unicode="&#xbb;" glyph-name="guillemotright" horiz-adv-x="412" d="M65 101L165 305L65 510H109L223 305L109 101H65ZM209 101L309 305L209 510H252L367 305L252 101H209Z" />
<glyph unicode="&#xbc;" glyph-name="onequarter" horiz-adv-x="615" d="M104 318V632L38 599V643L116 688H149V318H104ZM62 0L455 688H504L111 0H62ZM471 0V82H300V117L420 371H468L350 124H472L478 268H517V124H564V82H517V0H471Z" />
<glyph unicode="&#xbd;" glyph-name="onehalf" horiz-adv-x="688" d="M104 318V632L38 599V643L116 688H149V318H104ZM455 688H504L111 0H62L455 688ZM442 43H623V0H398V45Q398 89 400 109T412 141T445 165Q477 182 540 212Q562 223 569 236T577 276Q577 313 563
324T505 335Q476 335 404 327V369Q467 378 513 378Q549 378 572 372T609 345T623 281Q623 237 610 215T562 176L506 148L467 129Q450 121 446 109T442 68V43Z" />
<glyph unicode="&#xbe;" glyph-name="threequarters" horiz-adv-x="702" d="M128 352T149 352Q192 352 211 365T231 417Q231 454 218 469T174 485H107V525H174Q227 525 227 589Q227 628 209 640T145 653Q111 653 55 646V686Q103 696 153 696Q220 696 246 673T273
593Q273 561 262 541T227 509V505Q277 484 277 418Q277 380 267 357T230 322T152 310Q109 310 53 319V359Q128 352 149 352ZM152 0L544 688H593L201 0H152ZM557 0V82H386V117L507 371H555L436 124H558L564 268H603V124H650V82H603V0H557Z" />
<glyph unicode="&#xbf;" glyph-name="questiondown" horiz-adv-x="377" d="M231 430V510H299V430H231ZM170 -186T132 -171T76 -119T58 -21Q58 52 73 92T137 154L182 172Q209 184 220 192T234 212T238 251V327H293V241Q293 204 286 185T266 155T223 133L200 124Q163
109 147 96T124 59T117 -12Q117 -64 128 -89T168 -124T251 -133Q300 -133 394 -122V-171Q358 -178 313 -182T235 -186Q170 -186 132 -171Z" />
<glyph unicode="&#xc0;" glyph-name="Agrave" horiz-adv-x="590" d="M500 0L432 204H156L88 0H28L259 688H331L562 0H500ZM297 615H292L173 257H415L297 615ZM285 750L183 885V890H247L327 755V750H285Z" />
<glyph unicode="&#xc1;" glyph-name="Aacute" horiz-adv-x="590" d="M500 0L432 204H156L88 0H28L259 688H331L562 0H500ZM297 615H292L173 257H415L297 615ZM262 750V755L343 890H406V885L304 750H262Z" />
<glyph unicode="&#xc2;" glyph-name="Acircumflex" horiz-adv-x="590" d="M500 0L432 204H156L88 0H28L259 688H331L562 0H500ZM297 615H292L173 257H415L297 615ZM170 750V755L262 888H327L419 755V750H378L294 851L211 750H170Z" />
<glyph unicode="&#xc3;" glyph-name="Atilde" horiz-adv-x="590" d="M500 0L432 204H156L88 0H28L259 688H331L562 0H500ZM297 615H292L173 257H415L297 615ZM452 805T440 783T389 761Q366 761 343 767T286 786Q258 796 240 801T204 807Q186 807 181 795T175 750H138Q138
809 150 831T201 853Q224 853 246 847T305 827Q333 817 351 812T386 807Q405 807 410 818T415 864H452Q452 805 440 783Z" />
<glyph unicode="&#xc4;" glyph-name="Adieresis" horiz-adv-x="590" d="M500 0L432 204H156L88 0H28L259 688H331L562 0H500ZM297 615H292L173 257H415L297 615ZM176 772V842H234V772H176ZM355 772V842H413V772H355Z" />
<glyph unicode="&#xc5;" glyph-name="Aring" horiz-adv-x="590" d="M562 0H500L432 204H156L88 0H28L253 673Q223 677 209 687T190 715T186 766Q186 806 192 825T221 853T294 863Q345 863 368 854T397 825T404 766Q404 733 400 716T382 688T337 673L562 0ZM229
739T232 728T248 711T294 706Q326 706 340 711T357 727T361 766Q361 793 358 804T340 821T294 827Q262 827 249 822T232 805T229 766Q229 739 232 728ZM173 257H415L297 615H292L173 257Z" />
<glyph unicode="&#xc6;" glyph-name="AE" horiz-adv-x="816" d="M469 0L420 204H144L57 0H-3L295 688H768V635H378L442 374H728V321H453L518 53H768V0H469ZM325 614H320L166 257H409L325 614Z" />
<glyph unicode="&#xc7;" glyph-name="Ccedilla" horiz-adv-x="490" d="M383 45T442 54V3Q415 -2 377 -5T307 -8Q278 -8 265 -7L224 -190H167V-185L223 -4Q158 5 126 37T83 139T71 344Q71 502 88 573T153 670T307 696Q339 696 376 692T438 683V634Q373 643 320
643Q228 643 191 625T142 548T130 344Q130 199 142 141T191 64T320 45Q383 45 442 54Z" />
<glyph unicode="&#xc8;" glyph-name="Egrave" horiz-adv-x="517" d="M92 0V688H469V635H151V374H429V322H151V53H469V0H92ZM274 750L172 885V890H236L316 755V750H274Z" />
<glyph unicode="&#xc9;" glyph-name="Eacute" horiz-adv-x="517" d="M92 0V688H469V635H151V374H429V322H151V53H469V0H92ZM254 750V755L335 890H398V885L296 750H254Z" />
<glyph unicode="&#xca;" glyph-name="Ecircumflex" horiz-adv-x="517" d="M92 0V688H469V635H151V374H429V322H151V53H469V0H92ZM158 750V755L250 888H315L407 755V750H366L282 851L199 750H158Z" />
<glyph unicode="&#xcb;" glyph-name="Edieresis" horiz-adv-x="517" d="M92 0V688H469V635H151V374H429V322H151V53H469V0H92ZM166 772V842H224V772H166ZM345 772V842H403V772H345Z" />
<glyph unicode="&#xcc;" glyph-name="Igrave" horiz-adv-x="245" d="M93 0V688H152V0H93ZM115 750L13 885V890H77L157 755V750H115Z" />
<glyph unicode="&#xcd;" glyph-name="Iacute" horiz-adv-x="245" d="M93 0V688H152V0H93ZM90 750V755L171 890H234V885L132 750H90Z" />
<glyph unicode="&#xce;" glyph-name="Icircumflex" horiz-adv-x="245" d="M93 0V688H152V0H93ZM-2 750V755L90 888H155L247 755V750H206L122 851L39 750H-2Z" />
<glyph unicode="&#xcf;" glyph-name="Idieresis" horiz-adv-x="245" d="M93 0V688H152V0H93ZM260 772V842H318V772H260ZM439 772V842H497V772H439Z" />
<glyph unicode="&#xd0;" glyph-name="Eth" horiz-adv-x="596" d="M92 323H28V375H92V688H277Q397 688 447 664T511 573T525 344Q525 182 511 116T447 25T277 0H92V323ZM369 53T406 67T454 137T466 344Q466 494 454 550T405 620T266 635H150V375H265V323H150V53H266Q369
53 406 67Z" />
<glyph unicode="&#xd1;" glyph-name="Ntilde" horiz-adv-x="635" d="M485 0L152 569H148V0H92V688H152L482 125H486V688H543V0H485ZM476 806T464 784T413 762Q390 762 367 768T310 787Q282 797 264 802T228 808Q210 808 205 796T199 751H162Q162 810 174 832T225
854Q248 854 270 848T329 828Q357 818 375 813T410 808Q429 808 434 819T439 865H476Q476 806 464 784Z" />
<glyph unicode="&#xd2;" glyph-name="Ograve" horiz-adv-x="623" d="M195 -8T147 17T85 110T71 344Q71 509 85 577T147 671T311 696Q428 696 476 671T538 578T552 344Q552 179 538 111T476 17T311 -8Q195 -8 147 17ZM403 45T437 60T482 133T493 344Q493 497 482
555T437 628T311 643Q220 643 186 628T141 555T130 344Q130 191 141 133T186 60T311 45Q403 45 437 60ZM295 750L193 885V890H257L337 755V750H295Z" />
<glyph unicode="&#xd3;" glyph-name="Oacute" horiz-adv-x="623" d="M195 -8T147 17T85 110T71 344Q71 509 85 577T147 671T311 696Q428 696 476 671T538 578T552 344Q552 179 538 111T476 17T311 -8Q195 -8 147 17ZM403 45T437 60T482 133T493 344Q493 497 482
555T437 628T311 643Q220 643 186 628T141 555T130 344Q130 191 141 133T186 60T311 45Q403 45 437 60ZM281 750V755L362 890H425V885L323 750H281Z" />
<glyph unicode="&#xd4;" glyph-name="Ocircumflex" horiz-adv-x="623" d="M195 -8T147 17T85 110T71 344Q71 509 85 577T147 671T311 696Q428 696 476 671T538 578T552 344Q552 179 538 111T476 17T311 -8Q195 -8 147 17ZM403 45T437 60T482 133T493 344Q493 497
482 555T437 628T311 643Q220 643 186 628T141 555T130 344Q130 191 141 133T186 60T311 45Q403 45 437 60ZM187 750V755L279 888H344L436 755V750H395L311 851L228 750H187Z" />
<glyph unicode="&#xd5;" glyph-name="Otilde" horiz-adv-x="623" d="M195 -8T147 17T85 110T71 344Q71 509 85 577T147 671T311 696Q428 696 476 671T538 578T552 344Q552 179 538 111T476 17T311 -8Q195 -8 147 17ZM403 45T437 60T482 133T493 344Q493 497 482
555T437 628T311 643Q220 643 186 628T141 555T130 344Q130 191 141 133T186 60T311 45Q403 45 437 60ZM468 806T456 784T405 762Q382 762 359 768T302 787Q274 797 256 802T220 808Q202 808 197 796T191 751H154Q154 810 166 832T217 854Q240 854 262 848T321
828Q349 818 367 813T402 808Q421 808 426 819T431 865H468Q468 806 456 784Z" />
<glyph unicode="&#xd6;" glyph-name="Odieresis" horiz-adv-x="623" d="M195 -8T147 17T85 110T71 344Q71 509 85 577T147 671T311 696Q428 696 476 671T538 578T552 344Q552 179 538 111T476 17T311 -8Q195 -8 147 17ZM403 45T437 60T482 133T493 344Q493 497
482 555T437 628T311 643Q220 643 186 628T141 555T130 344Q130 191 141 133T186 60T311 45Q403 45 437 60ZM193 772V842H251V772H193ZM372 772V842H430V772H372Z" />
<glyph unicode="&#xd7;" glyph-name="multiply" horiz-adv-x="452" d="M226 218L100 93L66 126L191 252L65 378L100 413L226 287L352 413L386 379L260 252L386 127L351 92L226 218Z" />
<glyph unicode="&#xd8;" glyph-name="Oslash" horiz-adv-x="622" d="M534 619T543 553T552 344Q552 179 538 111T476 17T311 -8Q206 -8 159 11L124 -55H71L120 37Q89 70 80 136T71 344Q71 509 85 577T147 671T311 696Q365 696 401 692T462 677L497 743H551L502
651Q534 619 543 553ZM130 235T134 180T151 96L436 629Q417 638 390 640T311 643Q220 643 186 628T141 555T130 344Q130 235 134 180ZM403 45T437 60T482 133T493 344Q493 454 489 509T471 593L185 59Q204 50 232 48T311 45Q403 45 437 60Z" />
<glyph unicode="&#xd9;" glyph-name="Ugrave" horiz-adv-x="617" d="M533 688V297Q533 164 519 104T459 18T309 -8Q205 -8 159 17T98 103T84 297V688H143V264Q143 165 152 123T196 63T309 45Q388 45 421 62T464 122T474 264V688H533ZM308 750L206 885V890H270L350
755V750H308Z" />
<glyph unicode="&#xda;" glyph-name="Uacute" horiz-adv-x="617" d="M533 688V297Q533 164 519 104T459 18T309 -8Q205 -8 159 17T98 103T84 297V688H143V264Q143 165 152 123T196 63T309 45Q388 45 421 62T464 122T474 264V688H533ZM279 750V755L360 890H423V885L321
750H279Z" />
<glyph unicode="&#xdb;" glyph-name="Ucircumflex" horiz-adv-x="617" d="M533 688V297Q533 164 519 104T459 18T309 -8Q205 -8 159 17T98 103T84 297V688H143V264Q143 165 152 123T196 63T309 45Q388 45 421 62T464 122T474 264V688H533ZM185 750V755L277 888H342L434
755V750H393L309 851L226 750H185Z" />
<glyph unicode="&#xdc;" glyph-name="Udieresis" horiz-adv-x="617" d="M533 688V297Q533 164 519 104T459 18T309 -8Q205 -8 159 17T98 103T84 297V688H143V264Q143 165 152 123T196 63T309 45Q388 45 421 62T464 122T474 264V688H533ZM190 772V842H248V772H190ZM369
772V842H427V772H369Z" />
<glyph unicode="&#xdd;" glyph-name="Yacute" horiz-adv-x="518" d="M229 0V271L11 688H74L257 339H264L446 688H508L288 271V0H229ZM237 750V755L318 890H381V885L279 750H237Z" />
<glyph unicode="&#xde;" glyph-name="Thorn" horiz-adv-x="561" d="M92 688H150V562H339Q416 562 454 535T503 464T514 350Q514 282 503 238T454 166T339 138H150V0H92V688ZM327 191Q385 191 412 208T448 258T456 350Q456 411 449 443T414 492T327 510H150V191H327Z" />
<glyph unicode="&#xdf;" glyph-name="germandbls" horiz-adv-x="539" d="M227 0V49H279Q347 49 375 60T412 109T422 237Q422 308 410 345T370 397T288 412H256V462H288Q358 462 386 488T414 578Q414 626 402 652T360 690T276 701Q224 701 195 688T151 639T136
538V0H81V542Q81 617 100 662T162 728T280 750Q352 750 393 732T452 678T470 580Q470 517 445 485T366 442V438Q424 428 451 384T478 243Q478 147 465 97T413 23T296 0H227Z" />
<glyph unicode="&#xe0;" glyph-name="agrave" horiz-adv-x="501" d="M150 -8T116 4T66 49T49 139Q49 197 61 228T104 274T189 288Q217 288 365 283V323Q365 392 355 421T316 460T221 469Q192 469 149 466T80 457V505Q145 518 239 518Q316 518 354 502T407 445T421
326V0H373L369 76H364Q347 25 305 9T206 -8Q150 -8 116 4ZM268 41T299 51T345 92Q356 117 360 143T365 208V243H203Q161 243 141 236T113 207T105 142Q105 100 114 79T147 50T219 41Q268 41 299 51ZM248 603L146 738V743H210L290 608V603H248Z" />
<glyph unicode="&#xe1;" glyph-name="aacute" horiz-adv-x="501" d="M150 -8T116 4T66 49T49 139Q49 197 61 228T104 274T189 288Q217 288 365 283V323Q365 392 355 421T316 460T221 469Q192 469 149 466T80 457V505Q145 518 239 518Q316 518 354 502T407 445T421
326V0H373L369 76H364Q347 25 305 9T206 -8Q150 -8 116 4ZM268 41T299 51T345 92Q356 117 360 143T365 208V243H203Q161 243 141 236T113 207T105 142Q105 100 114 79T147 50T219 41Q268 41 299 51ZM216 603V608L297 743H360V738L258 603H216Z" />
<glyph unicode="&#xe2;" glyph-name="acircumflex" horiz-adv-x="501" d="M150 -8T116 4T66 49T49 139Q49 197 61 228T104 274T189 288Q217 288 365 283V323Q365 392 355 421T316 460T221 469Q192 469 149 466T80 457V505Q145 518 239 518Q316 518 354 502T407
445T421 326V0H373L369 76H364Q347 25 305 9T206 -8Q150 -8 116 4ZM268 41T299 51T345 92Q356 117 360 143T365 208V243H203Q161 243 141 236T113 207T105 142Q105 100 114 79T147 50T219 41Q268 41 299 51ZM127 605V610L219 743H284L376 610V605H335L251 706L168
605H127Z" />
<glyph unicode="&#xe3;" glyph-name="atilde" horiz-adv-x="501" d="M150 -8T116 4T66 49T49 139Q49 197 61 228T104 274T189 288Q217 288 365 283V323Q365 392 355 421T316 460T221 469Q192 469 149 466T80 457V505Q145 518 239 518Q316 518 354 502T407 445T421
326V0H373L369 76H364Q347 25 305 9T206 -8Q150 -8 116 4ZM268 41T299 51T345 92Q356 117 360 143T365 208V243H203Q161 243 141 236T113 207T105 142Q105 100 114 79T147 50T219 41Q268 41 299 51ZM407 684T395 662T344 640Q321 640 298 646T241 665Q213 675 195
680T159 686Q141 686 136 674T130 629H93Q93 688 105 710T156 732Q179 732 201 726T260 706Q288 696 306 691T341 686Q360 686 365 697T370 743H407Q407 684 395 662Z" />
<glyph unicode="&#xe4;" glyph-name="adieresis" horiz-adv-x="501" d="M150 -8T116 4T66 49T49 139Q49 197 61 228T104 274T189 288Q217 288 365 283V323Q365 392 355 421T316 460T221 469Q192 469 149 466T80 457V505Q145 518 239 518Q316 518 354 502T407 445T421
326V0H373L369 76H364Q347 25 305 9T206 -8Q150 -8 116 4ZM268 41T299 51T345 92Q356 117 360 143T365 208V243H203Q161 243 141 236T113 207T105 142Q105 100 114 79T147 50T219 41Q268 41 299 51ZM134 915V985H192V915H134ZM313 915V985H371V915H313Z" />
<glyph unicode="&#xe5;" glyph-name="aring" horiz-adv-x="501" d="M150 -8T116 4T66 49T49 139Q49 197 61 228T104 274T189 288Q217 288 365 283V323Q365 392 355 421T316 460T221 469Q192 469 149 466T80 457V505Q145 518 239 518Q316 518 354 502T407 445T421
326V0H373L369 76H364Q347 25 305 9T206 -8Q150 -8 116 4ZM268 41T299 51T345 92Q356 117 360 143T365 208V243H203Q161 243 141 236T113 207T105 142Q105 100 114 79T147 50T219 41Q268 41 299 51ZM198 861T176 870T147 898T140 957Q140 997 146 1016T175 1044T249
1053Q300 1053 323 1044T352 1016T359 957Q359 918 353 899T323 870T249 861Q198 861 176 870ZM281 897T295 902T312 918T316 957Q316 984 313 995T295 1012T249 1018Q217 1018 204 1013T187 996T183 957Q183 930 186 919T203 902T249 897Q281 897 295 902Z" />
<glyph unicode="&#xe6;" glyph-name="ae" horiz-adv-x="800" d="M740 239H421Q421 151 430 112T471 57T574 41Q608 41 649 44T722 54V6Q696 0 651 -4T564 -8Q484 -8 445 11T388 78Q365 26 321 9T212 -8Q153 -8 118 4T66 49T49 139Q49 196 61 227T104 271T189 285L365
284V323Q365 392 355 421T316 460T220 469Q191 469 149 466T80 457V505Q154 518 239 518Q307 518 343 505T396 456Q416 489 454 503T563 518Q646 518 683 495T730 420T740 258V239ZM495 469T467 456T430 406T421 284H685V296Q685 374 675 410T639 457T560 469Q495
469 467 456ZM365 239H203Q161 239 141 232T113 205T104 142Q104 99 113 78T146 49T219 41Q270 41 301 51T347 97Q365 141 365 207V239Z" />
<glyph unicode="&#xe7;" glyph-name="ccedilla" horiz-adv-x="405" d="M280 41T310 44T362 53V5Q341 -1 308 -4T243 -8H223L182 -190H125V-185L181 -4Q128 5 102 34T69 113T61 254Q61 361 75 416T127 494T240 518Q270 518 303 515T358 506V458Q303 469 252 469Q192
469 164 452T127 392T117 256Q117 160 126 117T164 57T254 41Q280 41 310 44Z" />
<glyph unicode="&#xe8;" glyph-name="egrave" horiz-adv-x="496" d="M435 236H117Q117 149 126 111T167 57T269 41Q303 41 344 44T418 54V6Q392 0 347 -4T259 -8Q170 -8 129 14T75 90T61 254Q61 365 72 417T124 493T258 518Q341 518 378 495T425 420T435 256V236ZM191
469T163 456T126 405T117 281H380V296Q380 375 370 410T334 457T256 469Q191 469 163 456ZM243 603L141 738V743H205L285 608V603H243Z" />
<glyph unicode="&#xe9;" glyph-name="eacute" horiz-adv-x="496" d="M435 236H117Q117 149 126 111T167 57T269 41Q303 41 344 44T418 54V6Q392 0 347 -4T259 -8Q170 -8 129 14T75 90T61 254Q61 365 72 417T124 493T258 518Q341 518 378 495T425 420T435 256V236ZM191
469T163 456T126 405T117 281H380V296Q380 375 370 410T334 457T256 469Q191 469 163 456ZM223 603V608L304 743H367V738L265 603H223Z" />
<glyph unicode="&#xea;" glyph-name="ecircumflex" horiz-adv-x="496" d="M435 236H117Q117 149 126 111T167 57T269 41Q303 41 344 44T418 54V6Q392 0 347 -4T259 -8Q170 -8 129 14T75 90T61 254Q61 365 72 417T124 493T258 518Q341 518 378 495T425 420T435
256V236ZM191 469T163 456T126 405T117 281H380V296Q380 375 370 410T334 457T256 469Q191 469 163 456ZM125 605V610L217 743H282L374 610V605H333L249 706L166 605H125Z" />
<glyph unicode="&#xeb;" glyph-name="edieresis" horiz-adv-x="496" d="M435 236H117Q117 149 126 111T167 57T269 41Q303 41 344 44T418 54V6Q392 0 347 -4T259 -8Q170 -8 129 14T75 90T61 254Q61 365 72 417T124 493T258 518Q341 518 378 495T425 420T435 256V236ZM191
469T163 456T126 405T117 281H380V296Q380 375 370 410T334 457T256 469Q191 469 163 456ZM132 915V985H190V915H132ZM311 915V985H369V915H311Z" />
<glyph unicode="&#xec;" glyph-name="igrave" horiz-adv-x="218" d="M81 0V510H137V0H81ZM352 603L250 738V743H314L394 608V603H352Z" />
<glyph unicode="&#xed;" glyph-name="iacute" horiz-adv-x="218" d="M81 0V510H137V0H81ZM79 603V608L160 743H223V738L121 603H79Z" />
<glyph unicode="&#xee;" glyph-name="icircumflex" horiz-adv-x="218" d="M81 0V510H137V0H81ZM241 605V610L333 743H398L490 610V605H449L365 706L282 605H241Z" />
<glyph unicode="&#xef;" glyph-name="idieresis" horiz-adv-x="218" d="M81 0V510H137V0H81ZM246 915V985H304V915H246ZM425 915V985H483V915H425Z" />
<glyph unicode="&#xf0;" glyph-name="eth" horiz-adv-x="512" d="M163 -8T123 13T72 86T61 254Q61 369 71 421T120 495T246 518Q324 518 366 487L371 489Q348 570 308 634L198 616V658L282 672Q262 698 243 716T220 739V743H283Q286 740 303 724T339 682L431 697V655L364
643Q390 598 410 540T439 423Q450 352 450 275Q450 145 440 91T391 15T255 -8Q163 -8 123 13ZM326 41T353 56T387 111T394 254Q394 345 388 385T352 447T255 469Q185 469 158 454T124 399T117 254Q117 150 123 111T157 57T255 41Q326 41 353 56Z" />
<glyph unicode="&#xf1;" glyph-name="ntilde" horiz-adv-x="529" d="M394 304Q394 379 385 412T352 456T271 467Q208 467 180 443T144 379T137 264V0H81V510H129L133 434H137Q151 474 185 496T291 518Q359 518 393 499T438 438T450 321V0H394V304ZM424 684T412
662T361 640Q338 640 315 646T258 665Q230 675 212 680T176 686Q158 686 153 674T147 629H110Q110 688 122 710T173 732Q196 732 218 726T277 706Q305 696 323 691T358 686Q377 686 382 697T387 743H424Q424 684 412 662Z" />
<glyph unicode="&#xf2;" glyph-name="ograve" horiz-adv-x="511" d="M163 -8T123 12T72 84T61 254Q61 373 72 424T123 497T255 518Q348 518 387 497T438 425T450 254Q450 136 439 85T388 13T255 -8Q163 -8 123 12ZM325 41T353 56T387 110T394 254Q394 358 388
398T353 453T255 469Q185 469 158 454T124 399T117 254Q117 150 123 111T157 56T255 41Q325 41 353 56ZM248 603L146 738V743H210L290 608V603H248Z" />
<glyph unicode="&#xf3;" glyph-name="oacute" horiz-adv-x="511" d="M163 -8T123 12T72 84T61 254Q61 373 72 424T123 497T255 518Q348 518 387 497T438 425T450 254Q450 136 439 85T388 13T255 -8Q163 -8 123 12ZM325 41T353 56T387 110T394 254Q394 358 388
398T353 453T255 469Q185 469 158 454T124 399T117 254Q117 150 123 111T157 56T255 41Q325 41 353 56ZM223 603V608L304 743H367V738L265 603H223Z" />
<glyph unicode="&#xf4;" glyph-name="ocircumflex" horiz-adv-x="511" d="M163 -8T123 12T72 84T61 254Q61 373 72 424T123 497T255 518Q348 518 387 497T438 425T450 254Q450 136 439 85T388 13T255 -8Q163 -8 123 12ZM325 41T353 56T387 110T394 254Q394 358
388 398T353 453T255 469Q185 469 158 454T124 399T117 254Q117 150 123 111T157 56T255 41Q325 41 353 56ZM131 605V610L223 743H288L380 610V605H339L255 706L172 605H131Z" />
<glyph unicode="&#xf5;" glyph-name="otilde" horiz-adv-x="511" d="M163 -8T123 12T72 84T61 254Q61 373 72 424T123 497T255 518Q348 518 387 497T438 425T450 254Q450 136 439 85T388 13T255 -8Q163 -8 123 12ZM325 41T353 56T387 110T394 254Q394 358 388
398T353 453T255 469Q185 469 158 454T124 399T117 254Q117 150 123 111T157 56T255 41Q325 41 353 56ZM412 684T400 662T349 640Q326 640 303 646T246 665Q218 675 200 680T164 686Q146 686 141 674T135 629H98Q98 688 110 710T161 732Q184 732 206 726T265 706Q293
696 311 691T346 686Q365 686 370 697T375 743H412Q412 684 400 662Z" />
<glyph unicode="&#xf6;" glyph-name="odieresis" horiz-adv-x="511" d="M163 -8T123 12T72 84T61 254Q61 373 72 424T123 497T255 518Q348 518 387 497T438 425T450 254Q450 136 439 85T388 13T255 -8Q163 -8 123 12ZM325 41T353 56T387 110T394 254Q394 358 388
398T353 453T255 469Q185 469 158 454T124 399T117 254Q117 150 123 111T157 56T255 41Q325 41 353 56ZM137 915V985H195V915H137ZM316 915V985H374V915H316Z" />
<glyph unicode="&#xf7;" glyph-name="divide" horiz-adv-x="512" d="M227 399V466H285V399H227ZM66 229V277H446V229H66ZM227 40V106H285V40H227Z" />
<glyph unicode="&#xf8;" glyph-name="oslash" horiz-adv-x="511" d="M434 460T442 410T450 254Q450 136 439 85T388 13T255 -8Q181 -8 145 4L113 -55H61L105 26Q77 50 69 99T61 254Q61 373 72 424T123 497T255 518Q329 518 365 506L397 565H450L406 484Q434 460
442 410ZM117 173T119 137T134 79L340 460Q314 469 255 469Q185 469 158 454T124 399T117 254Q117 173 119 137ZM325 41T353 56T387 110T394 254Q394 336 392 372T377 430L170 50Q196 41 255 41Q325 41 353 56Z" />
<glyph unicode="&#xf9;" glyph-name="ugrave" horiz-adv-x="529" d="M397 76H392Q378 36 344 14T238 -8Q170 -8 137 11T92 72T80 189V510H136V206Q136 131 145 98T178 54T258 43Q321 43 350 67T386 132T393 246V510H449V0H400L397 76ZM255 603L153 738V743H217L297
608V603H255Z" />
<glyph unicode="&#xfa;" glyph-name="uacute" horiz-adv-x="529" d="M397 76H392Q378 36 344 14T238 -8Q170 -8 137 11T92 72T80 189V510H136V206Q136 131 145 98T178 54T258 43Q321 43 350 67T386 132T393 246V510H449V0H400L397 76ZM239 603V608L320 743H383V738L281
603H239Z" />
<glyph unicode="&#xfb;" glyph-name="ucircumflex" horiz-adv-x="529" d="M397 76H392Q378 36 344 14T238 -8Q170 -8 137 11T92 72T80 189V510H136V206Q136 131 145 98T178 54T258 43Q321 43 350 67T386 132T393 246V510H449V0H400L397 76ZM140 605V610L232 743H297L389
610V605H348L264 706L181 605H140Z" />
<glyph unicode="&#xfc;" glyph-name="udieresis" horiz-adv-x="529" d="M397 76H392Q378 36 344 14T238 -8Q170 -8 137 11T92 72T80 189V510H136V206Q136 131 145 98T178 54T258 43Q321 43 350 67T386 132T393 246V510H449V0H400L397 76ZM145 915V985H203V915H145ZM324
915V985H382V915H324Z" />
<glyph unicode="&#xfd;" glyph-name="yacute" horiz-adv-x="529" d="M163 -203T95 -196V-148Q172 -153 236 -153Q307 -153 340 -134T383 -75T393 46V70H388Q376 35 342 14T238 -7Q170 -7 137 13T92 75T80 195V510H136V206Q136 132 145 99T178 55T258 44Q321 44
350 68T386 132T393 246V510H449V68Q449 -38 434 -94T376 -177T246 -203Q163 -203 95 -196ZM240 603V608L321 743H384V738L282 603H240Z" />
<glyph unicode="&#xfe;" glyph-name="thorn" horiz-adv-x="524" d="M81 743H137V441H141Q157 483 193 500T290 518Q363 518 399 496T449 420T463 255Q463 146 450 91T400 14T291 -8Q231 -8 194 9T141 67H137V-190H81V743ZM334 43T361 57T397 114T407 255Q407 353
398 395T361 452T271 467Q219 467 190 450T148 391Q141 368 139 339T137 255Q137 159 145 129Q158 82 188 63T271 43Q334 43 361 57Z" />
<glyph unicode="&#xff;" glyph-name="ydieresis" horiz-adv-x="529" d="M163 -203T95 -196V-148Q172 -153 236 -153Q307 -153 340 -134T383 -75T393 46V70H388Q376 35 342 14T238 -7Q170 -7 137 13T92 75T80 195V510H136V206Q136 132 145 99T178 55T258 44Q321
44 350 68T386 132T393 246V510H449V68Q449 -38 434 -94T376 -177T246 -203Q163 -203 95 -196ZM146 915V985H204V915H146ZM325 915V985H383V915H325Z" />
<glyph unicode="&#x2013;" glyph-name="endash" horiz-adv-x="450" d="M59 279V329H390V279H59Z" />
<glyph unicode="&#x2014;" glyph-name="emdash" horiz-adv-x="848" d="M59 279V329H788V279H59Z" />
<glyph unicode="&#x2018;" glyph-name="quoteleft" horiz-adv-x="179" d="M55 578Q55 624 62 646T87 678T145 688V659Q112 659 103 647T94 596V579H122V500H55V578Z" />
<glyph unicode="&#x2019;" glyph-name="quoteright" horiz-adv-x="179" d="M67 529T76 541T85 593V610H57V688H124V611Q124 565 117 542T92 510T34 500V529Q67 529 76 541Z" />
<glyph unicode="&#x201a;" glyph-name="quotesinglbase" horiz-adv-x="187" d="M69 -80T78 -68T87 -17V0H60V78H127V1Q127 -45 120 -68T94 -100T36 -109V-80Q69 -80 78 -68Z" />
<glyph unicode="&#x201c;" glyph-name="quotedblleft" horiz-adv-x="314" d="M55 578Q55 624 62 646T87 678T145 688V659Q112 659 103 647T94 596V579H122V500H55V578ZM189 578Q189 623 196 646T222 678T280 688V659Q247 659 238 647T229 596V579H256V500H189V578Z" />
<glyph unicode="&#x201d;" glyph-name="quotedblright" horiz-adv-x="314" d="M67 529T76 541T85 593V610H57V688H124V611Q124 565 117 542T92 510T34 500V529Q67 529 76 541ZM201 529T210 541T219 593V610H192V688H259V611Q259 565 252 542T226 510T168 500V529Q201
529 210 541Z" />
<glyph unicode="&#x201e;" glyph-name="quotedblbase" horiz-adv-x="321" d="M69 -80T78 -68T87 -17V0H60V78H127V1Q127 -45 120 -68T94 -100T36 -109V-80Q69 -80 78 -68ZM204 -80T213 -68T222 -17V0H194V78H261V1Q261 -45 254 -68T229 -100T171 -109V-80Q204
-80 213 -68Z" />
<glyph unicode="&#x2022;" glyph-name="bullet" horiz-adv-x="327" d="M261 296T256 278T231 253T162 246Q115 246 96 253T72 278T67 342Q67 389 72 408T96 434T162 441Q211 441 230 434T255 408T261 342Q261 296 256 278Z" />
<glyph unicode="&#x2039;" glyph-name="guilsinglleft" horiz-adv-x="268" d="M159 101L45 305L159 510H202L102 305L202 101H159Z" />
<glyph unicode="&#x203a;" glyph-name="guilsinglright" horiz-adv-x="268" d="M65 101L165 305L65 510H109L224 305L109 101H65Z" />
</font>
</defs>
</svg>
