<?xml version="1.0" standalone="no"?>
<!DOCTYPE svg PUBLIC "-//W3C//DTD SVG 1.1//EN" "http://www.w3.org/Graphics/SVG/1.1/DTD/svg11.dtd">
<svg xmlns="http://www.w3.org/2000/svg">
<defs >
<font id="SairaSemiCondensed" horiz-adv-x="507" ><font-face
    font-family="Saira SemiCondensed Medium"
    units-per-em="1000"
    panose-1="0 0 6 6 0 0 0 0 0 0"
    ascent="1135"
    descent="-439"
    alphabetic="0" />
<glyph unicode=" " glyph-name="space" horiz-adv-x="218" />
<glyph unicode="!" glyph-name="exclam" horiz-adv-x="251" d="M89 278Q72 521 72 604V688H186V604Q186 521 169 278L165 205H93L89 278ZM74 0V109H184V0H74Z" />
<glyph unicode="&quot;" glyph-name="quotedbl" horiz-adv-x="356" d="M69 439L57 618V688H149V618L137 439H69ZM219 439L207 618V688H299V618L287 439H219Z" />
<glyph unicode="#" glyph-name="numbersign" horiz-adv-x="652" d="M304 0L340 187H205L168 0H96L132 187H52V258H147L179 424H84V495H193L231 688H303L265 495H401L439 688H511L473 495H557V424H459L427 258H525V187H412L376 0H304ZM387 424H251L219 258H355L387 424Z" />
<glyph unicode="$" glyph-name="dollar" horiz-adv-x="479" d="M423 173T409 140T364 91T279 69V-8H205V68Q124 72 70 82V162Q124 155 205 152V305L165 311Q101 320 79 354T56 461Q56 540 92 575T205 617V696H279V618Q349 615 397 604V524Q355 530 279 534V386L320
381Q358 376 379 363T412 318T423 229Q423 173 409 140ZM205 396V531Q177 527 165 512T153 464Q153 435 156 422T170 404T203 396H205ZM307 161T316 176T325 225Q325 255 322 268T309 287T279 295V156Q307 161 316 176Z" />
<glyph unicode="%" glyph-name="percent" horiz-adv-x="752" d="M119 311T93 326T59 380T51 503Q51 587 58 625T93 680T180 696Q240 696 266 680T300 626T308 503Q308 418 301 380T267 327T180 311Q119 311 93 326ZM144 0L540 688H608L213 0H144ZM212 367T223
374T238 406T242 503Q242 574 239 600T224 633T180 640Q148 640 136 633T121 600T117 503Q117 432 120 407T136 374T180 367Q212 367 223 374ZM513 -8T487 7T453 61T445 184Q445 269 452 307T486 361T573 377Q633 377 660 361T694 307T702 184Q702 99 695 61T661
8T573 -8Q513 -8 487 7ZM605 48T616 55T631 87T635 184Q635 256 632 281T618 314T573 321Q541 321 530 314T515 281T511 184Q511 113 514 88T529 55T573 48Q605 48 616 55Z" />
<glyph unicode="&amp;" glyph-name="ampersand" horiz-adv-x="638" d="M612 389V306H514V11Q472 3 417 -2T316 -8Q208 -8 151 14T75 78T55 184Q55 264 81 299T166 349V353Q111 368 86 405T60 515Q60 573 81 612T159 673T315 696Q358 696 413 691T511 677V599Q471
605 423 609T340 613Q260 613 222 603T172 569T159 499Q159 463 166 440T196 403T267 389H337V306H267Q218 306 194 294T162 258T154 190Q154 141 170 116T221 83T318 74Q373 74 418 81V389H612Z" />
<glyph unicode="&apos;" glyph-name="quotesingle" horiz-adv-x="206" d="M69 439L57 618V688H149V618L137 439H69Z" />
<glyph unicode="(" glyph-name="parenleft" horiz-adv-x="291" d="M143 -74T118 -26T80 94T67 297Q67 426 79 499T118 622T201 743H274Q227 675 206 632T173 512T161 297Q161 158 173 81T206 -39T274 -150H201Q143 -74 118 -26Z" />
<glyph unicode=")" glyph-name="parenright" horiz-adv-x="291" d="M64 -82T85 -39T118 81T130 297Q130 435 118 512T85 632T17 743H90Q146 671 172 622T211 500T224 297Q224 167 212 95T174 -26T90 -150H17Q64 -82 85 -39Z" />
<glyph unicode="*" glyph-name="asterisk" horiz-adv-x="426" d="M235 474L244 339H182L191 474L77 398L46 453L168 513L46 574L77 628L191 552L182 688H244L235 553L349 629L380 574L258 513L380 453L349 398L235 474Z" />
<glyph unicode="+" glyph-name="plus" horiz-adv-x="512" d="M216 62V213H66V292H216V443H295V292H446V213H295V62H216Z" />
<glyph unicode="," glyph-name="comma" horiz-adv-x="229" d="M80 -83T91 -71T102 -17V0H59V109H169V23Q169 -42 160 -72T126 -115T44 -128V-83Q80 -83 91 -71Z" />
<glyph unicode="-" glyph-name="hyphen" horiz-adv-x="338" d="M55 242V329H283V242H55Z" />
<glyph unicode="." glyph-name="period" horiz-adv-x="229" d="M60 0V109H169V0H60Z" />
<glyph unicode="/" glyph-name="slash" horiz-adv-x="340" d="M5 -55L246 743H334L91 -55H5Z" />
<glyph unicode="0" glyph-name="zero" horiz-adv-x="578" d="M178 -8T131 20T72 116T59 344Q59 504 71 572T131 668T289 696Q401 696 447 668T506 573T519 344Q519 184 507 116T447 20T289 -8Q178 -8 131 20ZM355 81T378 94T409 157T416 344Q416 481 409 530T379
593T289 607Q223 607 200 594T169 531T162 344Q162 207 169 158T199 95T289 81Q355 81 378 94Z" />
<glyph unicode="1" glyph-name="one" horiz-adv-x="334" d="M146 0V570L28 515V607L176 688H249V0H146Z" />
<glyph unicode="2" glyph-name="two" horiz-adv-x="528" d="M154 89H472V0H54V84Q54 170 59 210T86 277T155 327L303 398Q345 418 357 439T370 507Q370 551 359 572T320 600T236 607Q165 607 66 595V678Q105 686 162 691T267 696Q334 696 377 684T446 633T472
516Q472 457 462 421T429 364T367 323L203 245Q175 232 165 215Q159 203 157 184T154 129V89Z" />
<glyph unicode="3" glyph-name="three" horiz-adv-x="518" d="M186 -8T134 -3T43 10V92Q136 81 216 81Q270 81 298 88T341 118T356 190Q356 255 333 279T252 304H144V392H252Q301 392 325 414T350 499Q350 548 337 570T295 600T208 607Q172 607 126 604T46 595V678Q83
686 134 691T227 696Q312 696 361 677T432 618T454 515Q454 442 428 404T350 353V349Q405 337 432 300T460 184Q460 120 441 79T371 15T227 -8Q186 -8 134 -3Z" />
<glyph unicode="4" glyph-name="four" horiz-adv-x="560" d="M338 0V155H36V233L256 688H367L147 243H338L362 468H441V243H524V155H441V0H338Z" />
<glyph unicode="5" glyph-name="five" horiz-adv-x="534" d="M159 81T238 81Q297 81 326 92T367 129T378 206Q378 260 366 285T323 318T229 327Q163 327 72 315V688H439V599H166V407Q189 411 223 413T286 416Q366 416 408 394T466 329T482 216Q482 132 463 85T394
15T250 -8Q207 -8 155 -3T65 10V92Q159 81 238 81Z" />
<glyph unicode="6" glyph-name="six" horiz-adv-x="573" d="M231 -8T191 0T123 30T81 97Q69 130 64 188T59 338Q59 424 64 481T82 575Q105 643 156 669T309 696Q345 696 395 691T488 677V594Q449 600 404 603T329 607Q252 607 219 590T174 524T163 368H169Q206
417 322 417Q397 417 438 403T500 346T520 221Q520 129 503 81T438 13T298 -8Q231 -8 191 0ZM348 81T373 88T409 121T419 202Q419 262 410 288T375 321T292 329Q235 329 209 320T174 289T166 225Q166 159 177 129T213 90T292 81Q348 81 373 88Z" />
<glyph unicode="7" glyph-name="seven" horiz-adv-x="489" d="M105 0L342 599H31V688H453V608L217 0H105Z" />
<glyph unicode="8" glyph-name="eight" horiz-adv-x="590" d="M199 -8T148 13T77 76T58 184Q58 241 70 273T105 322T167 349V353Q113 365 88 403T63 515Q63 579 84 618T155 677T295 696Q384 696 434 677T505 619T526 515Q526 441 501 403T422 353V349Q461 339
484 323T520 274T532 184Q532 117 513 76T442 14T295 -8Q199 -8 148 13ZM349 391T375 399T412 430T422 499Q422 546 412 568T376 599T295 608Q240 608 214 600T178 569T168 499Q168 453 178 431T214 400T295 391Q349 391 375 399ZM350 80T377 87T416 118T428 190Q428
241 417 265T379 297T295 305Q237 305 210 297T173 266T162 190Q162 141 173 118T212 88T295 80Q350 80 377 87Z" />
<glyph unicode="9" glyph-name="nine" horiz-adv-x="573" d="M227 -8T177 -3T84 11V94Q173 81 244 81Q321 81 354 98T398 163T409 320H404Q387 299 353 285T250 271Q175 271 134 285T72 342T52 467Q52 559 69 607T134 675T274 696Q344 696 385 688T453 657T494
588Q505 552 509 496T513 350Q513 255 507 195T484 96Q460 39 409 16T264 -8Q227 -8 177 -3ZM338 359T364 368T399 399T407 463Q407 529 396 559T360 598T281 607Q225 607 200 600T164 567T154 486Q154 426 163 400T198 367T281 359Q338 359 364 368Z" />
<glyph unicode=":" glyph-name="colon" horiz-adv-x="229" d="M60 401V510H169V401H60ZM60 0V109H169V0H60Z" />
<glyph unicode=";" glyph-name="semicolon" horiz-adv-x="229" d="M60 401V510H169V401H60ZM80 -83T91 -71T102 -17V0H59V109H169V23Q169 -42 160 -72T126 -115T44 -128V-83Q80 -83 91 -71Z" />
<glyph unicode="&lt;" glyph-name="less" horiz-adv-x="513" d="M447 55L67 209V296L447 451V369L153 253L447 137V55Z" />
<glyph unicode="=" glyph-name="equal" horiz-adv-x="512" d="M66 309V388H446V309H66ZM66 118V197H446V118H66Z" />
<glyph unicode="&gt;" glyph-name="greater" horiz-adv-x="513" d="M66 55V137L359 253L66 369V451L446 296V209L66 55Z" />
<glyph unicode="?" glyph-name="question" horiz-adv-x="439" d="M124 284Q124 321 131 342T150 374T187 395L217 407Q245 419 257 429T274 458T279 515Q279 555 269 574T236 600T166 607Q103 607 30 597V680Q69 687 117 691T202 696Q302 696 342 655T383 519Q383
453 367 414T309 356L277 344Q245 331 233 323T218 302T214 261V204H124V284ZM114 0V109H224V0H114Z" />
<glyph unicode="@" glyph-name="at" horiz-adv-x="814" d="M237 -108T171 -81T87 22T70 294Q70 491 87 566T170 668T407 696Q577 696 643 669T727 567T744 294Q744 189 733 143T700 86T628 75H493L488 131H482Q466 93 436 81T364 68Q299 68 271 97T242 197Q242
248 252 276T288 316T360 328Q405 328 485 324V349Q485 396 478 415T451 439T382 445Q354 445 318 443T266 438V506Q341 518 410 518Q481 518 515 502T561 450T573 347V122H637Q661 122 671 130T687 174T692 294Q692 440 686 502T656 597T573 639Q545 645 507 646T406
648Q303 648 255 642Q190 633 163 603T128 508T121 294Q121 134 130 69T174 -24T294 -57Q323 -59 407 -59Q450 -59 497 -58T573 -56V-105Q511 -108 407 -108Q237 -108 171 -81ZM433 137T451 146T477 177T485 243V270H383Q358 270 347 266T331 248T326 204Q326 175
331 162T351 143T397 137Q433 137 451 146Z" />
<glyph unicode="A" glyph-name="A" horiz-adv-x="593" d="M469 0L417 174H173L122 0H18L228 688H365L575 0H469ZM297 583H292L198 262H391L297 583Z" />
<glyph unicode="B" glyph-name="B" horiz-adv-x="588" d="M79 688H352Q444 688 485 644T527 515Q527 445 501 406T418 353V349Q482 336 508 295T534 182Q534 96 494 48T350 0H79V688ZM375 393T399 417T423 496Q423 537 415 558T384 589T319 599H182V393H319Q375
393 399 417ZM366 88T388 98T420 131T430 195Q430 257 407 280T324 304H182V88H324Q366 88 388 98Z" />
<glyph unicode="C" glyph-name="C" horiz-adv-x="489" d="M420 0T380 -4T304 -8Q195 -8 145 20T77 120T60 344Q60 495 77 567T144 667T304 696Q340 696 379 692T444 680V598Q383 607 329 607Q247 607 215 591T173 524T163 344Q163 215 173 164T215 97T329 81Q399
81 447 90V6Q420 0 380 -4Z" />
<glyph unicode="D" glyph-name="D" horiz-adv-x="595" d="M79 688H278Q402 688 454 661T521 568T535 344Q535 187 521 121T455 27T278 0H79V688ZM271 89Q355 89 384 101T423 161T432 344Q432 477 423 525T384 586T271 599H182V89H271Z" />
<glyph unicode="E" glyph-name="E" horiz-adv-x="522" d="M79 0V688H475V599H182V392H435V303H182V89H475V0H79Z" />
<glyph unicode="F" glyph-name="F" horiz-adv-x="490" d="M79 0V688H457V599H182V376H426V287H182V0H79Z" />
<glyph unicode="G" glyph-name="G" horiz-adv-x="581" d="M301 292V378H513V12Q471 3 416 -2T318 -8Q207 -8 154 19T80 119T60 344Q60 493 80 566T155 667T319 696Q367 696 422 690T511 675V593Q477 598 433 602T360 607Q265 607 228 594T177 529T163 344Q163
223 173 170T216 97T320 78Q370 78 414 85V292H301Z" />
<glyph unicode="H" glyph-name="H" horiz-adv-x="630" d="M448 0V301H182V0H78V688H182V393H448V688H551V0H448Z" />
<glyph unicode="I" glyph-name="I" horiz-adv-x="263" d="M80 0V688H183V0H80Z" />
<glyph unicode="J" glyph-name="J" horiz-adv-x="319" d="M87 86T109 95T136 133T142 248V688H245V278Q245 133 234 82T180 16T22 0V84Q87 86 109 95Z" />
<glyph unicode="K" glyph-name="K" horiz-adv-x="582" d="M449 0L263 305H182V0H79V688H182V394H263L452 688H563L347 356L566 0H449Z" />
<glyph unicode="L" glyph-name="L" horiz-adv-x="462" d="M79 0V688H182V92H441V0H79Z" />
<glyph unicode="M" glyph-name="M" horiz-adv-x="789" d="M610 0V525H606L433 0H352L180 525H176V0H78V688H224L392 173H398L566 688H710V0H610Z" />
<glyph unicode="N" glyph-name="N" horiz-adv-x="630" d="M452 0L182 492H178V0H78V688H186L449 211H453V688H552V0H452Z" />
<glyph unicode="O" glyph-name="O" horiz-adv-x="617" d="M189 -8T138 20T74 116T60 344Q60 504 73 572T138 668T308 696Q428 696 479 668T544 572T558 344Q558 184 544 116T479 20T308 -8Q189 -8 138 20ZM383 81T410 94T445 157T454 344Q454 480 446 530T410
594T308 607Q233 607 207 594T172 531T163 344Q163 208 171 158T206 94T308 81Q383 81 410 94Z" />
<glyph unicode="P" glyph-name="P" horiz-adv-x="562" d="M79 688H339Q417 688 457 661T511 588T524 466Q524 394 511 348T458 273T338 245H182V0H79V688ZM304 333Q357 333 382 345T414 384T421 466Q421 521 414 547T383 586T305 599H182V333H304Z" />
<glyph unicode="Q" glyph-name="Q" horiz-adv-x="617" d="M578 -112V-115H465L395 -4Q362 -8 308 -8Q189 -8 138 20T74 116T60 344Q60 504 73 572T138 668T308 696Q428 696 479 668T544 572T558 344Q558 241 554 183T534 86T488 26L578 -112ZM342 81L256 218H362L431
112Q445 135 449 185T454 344Q454 480 446 530T410 594T308 607Q233 607 207 594T172 531T163 344Q163 208 171 158T206 94T308 81H342Z" />
<glyph unicode="R" glyph-name="R" horiz-adv-x="589" d="M435 0L342 265H336H182V0H79V688H348Q427 688 467 662T519 592T532 476Q532 403 515 353T442 281L544 0H435ZM365 353T389 365T421 402T429 476Q429 526 422 550T391 587T315 599H182V353H312Q365 353 389 365Z" />
<glyph unicode="S" glyph-name="S" horiz-adv-x="537" d="M169 -8T66 6V92Q174 81 246 81Q292 81 318 86T361 103Q375 115 379 135T384 192Q384 237 380 255T360 282T309 296L175 314Q122 321 95 344T59 404T49 499Q49 578 74 621T147 680T270 696Q321 696 371
692T457 679V595Q387 607 293 607Q245 607 218 602T176 585Q161 573 157 555T152 503Q152 464 156 446T174 421T218 409L354 391Q400 385 428 371T471 320Q487 282 487 202Q487 116 464 71T396 9T277 -8Q169 -8 66 6Z" />
<glyph unicode="T" glyph-name="T" horiz-adv-x="500" d="M198 0V596H20V688H480V596H302V0H198Z" />
<glyph unicode="U" glyph-name="U" horiz-adv-x="611" d="M538 688V302Q538 167 523 105T460 18T306 -8Q200 -8 152 17T88 105T72 302V688H175V267Q175 180 182 144T216 95T306 81Q369 81 395 94T428 143T435 267V688H538Z" />
<glyph unicode="V" glyph-name="V" horiz-adv-x="567" d="M215 0L16 688H122L282 119H288L447 688H551L352 0H215Z" />
<glyph unicode="W" glyph-name="W" horiz-adv-x="849" d="M551 0L429 526H425L303 0H173L22 688H127L241 130H246L373 688H485L613 130H619L729 688H832L681 0H551Z" />
<glyph unicode="X" glyph-name="X" horiz-adv-x="584" d="M447 0L294 263H286L133 0H19L228 345L22 688H140L290 432H297L448 688H562L357 348L565 0H447Z" />
<glyph unicode="Y" glyph-name="Y" horiz-adv-x="530" d="M213 0V255L4 688H113L264 365H271L421 688H525L316 255V0H213Z" />
<glyph unicode="Z" glyph-name="Z" horiz-adv-x="522" d="M40 0V84L353 599H49V688H479V605L164 88H483V0H40Z" />
<glyph unicode="[" glyph-name="bracketleft" horiz-adv-x="308" d="M79 -150V743H272V675L169 671V-78L272 -82V-150H79Z" />
<glyph unicode="\" glyph-name="backslash" horiz-adv-x="340" d="M247 -55L5 743H92L334 -55H247Z" />
<glyph unicode="]" glyph-name="bracketright" horiz-adv-x="308" d="M36 -150V-82L139 -78V671L36 675V743H230V-150H36Z" />
<glyph unicode="^" glyph-name="asciicircum" horiz-adv-x="428" d="M311 459L214 679L117 459H38L172 749H256L389 459H311Z" />
<glyph unicode="_" glyph-name="underscore" horiz-adv-x="348" d="M0 -175V-96H348V-175H0Z" />
<glyph unicode="`" glyph-name="grave" horiz-adv-x="203" d="M118 601L13 738V743H114L190 606V601H118Z" />
<glyph unicode="a" glyph-name="a" horiz-adv-x="498" d="M110 -8T76 26T41 142Q41 201 54 234T98 282T185 297Q236 297 332 293V320Q332 376 323 399T289 429T205 436Q177 436 135 433T70 426V504Q145 518 236 518Q319 518 360 499T415 439T429 318V0H341L337
66H331Q312 22 274 7T184 -8Q110 -8 76 26ZM260 73T282 81T316 111Q332 143 332 205V229H209Q178 229 163 224T142 202T136 150Q136 117 142 101T167 79T225 73Q260 73 282 81Z" />
<glyph unicode="b" glyph-name="b" horiz-adv-x="520" d="M256 -8T221 7T168 67H161L157 0H69V743H166V451H172Q190 488 223 503T309 518Q372 518 405 495T453 415T468 255Q468 151 453 95T404 15T306 -8Q256 -8 221 7ZM316 79T336 90T364 136T371 255Q371 338
364 373T337 419T268 431Q233 431 213 421T182 387Q172 366 169 336T166 255Q166 206 169 176T181 125Q191 101 211 90T268 79Q316 79 336 90Z" />
<glyph unicode="c" glyph-name="c" horiz-adv-x="407" d="M343 0T308 -4T240 -8Q155 -8 115 19T63 99T51 255Q51 356 64 410T118 491T238 518Q270 518 305 514T363 504V427Q313 436 262 436Q211 436 188 422T157 372T149 255Q149 174 157 137T188 87T264 74Q318
74 367 83V6Q343 0 308 -4Z" />
<glyph unicode="d" glyph-name="d" horiz-adv-x="520" d="M150 -8T116 15T66 94T51 254Q51 358 65 414T114 494T211 518Q263 518 296 503T348 451H354V743H451V0H362L358 67H352Q335 23 299 8T213 -8Q150 -8 116 15ZM290 79T311 91T341 129Q349 151 351 180T354
259Q354 340 343 374Q334 405 313 418T251 431Q203 431 183 420T156 373T149 255Q149 172 156 137T183 90T252 79Q290 79 311 91Z" />
<glyph unicode="e" glyph-name="e" horiz-adv-x="495" d="M443 223H149Q149 153 156 124T191 84T284 73Q338 73 426 83V7Q398 0 352 -4T263 -8Q168 -8 124 16T65 94T51 254Q51 359 64 412T120 492T255 518Q344 518 383 493T433 416T443 255V223ZM205 437T185 426T157
386T149 291H349V296Q349 360 341 389T314 427T253 437Q205 437 185 426Z" />
<glyph unicode="f" glyph-name="f" horiz-adv-x="340" d="M109 428H22V510H109V577Q109 655 127 689T186 732T317 742V668Q267 668 245 663T214 643T206 594V510H317V428H206V0H109V428Z" />
<glyph unicode="g" glyph-name="g" horiz-adv-x="519" d="M142 -203T80 -193V-117Q164 -121 214 -121Q279 -121 308 -109T345 -64T354 42V64H348Q332 27 298 12T213 -4Q149 -4 115 18T66 96T51 255Q51 359 66 415T116 495T214 518Q262 518 298 502T352 442H358L362
510H451V67Q451 -40 437 -95T377 -176T235 -203Q142 -203 80 -193ZM289 82T309 93T340 130Q348 150 351 179T354 256Q354 301 352 329T341 378Q331 406 310 418T252 431Q203 431 183 420T156 374T149 256Q149 174 156 140T183 94T252 82Q289 82 309 93Z" />
<glyph unicode="h" glyph-name="h" horiz-adv-x="526" d="M361 284Q361 354 355 383T330 422T268 431Q222 431 200 413T172 361T166 264V0H69V743H166V448H172Q188 482 221 499T310 517Q372 517 404 497T447 435T458 322V0H361V284Z" />
<glyph unicode="i" glyph-name="i" horiz-adv-x="235" d="M67 644V743H168V644H67ZM69 0V510H166V0H69Z" />
<glyph unicode="j" glyph-name="j" horiz-adv-x="235" d="M67 644V743H168V644H67ZM-11 -121Q26 -121 42 -116T64 -101T69 -67V510H166V-42Q166 -113 151 -145T100 -187T-11 -197V-121Z" />
<glyph unicode="k" glyph-name="k" horiz-adv-x="482" d="M353 0L216 216H166V0H69V743H166V298H216L353 510H458L294 264L462 0H353Z" />
<glyph unicode="l" glyph-name="l" horiz-adv-x="235" d="M69 0V743H166V0H69Z" />
<glyph unicode="m" glyph-name="m" horiz-adv-x="783" d="M618 284Q618 354 613 383T591 422T534 431Q492 431 472 414T446 363T440 264V0H343V284Q343 355 338 384T316 422T260 431Q218 431 198 414T172 362T166 264V0H69V510H157L161 442H168Q183 479 215 498T303
518Q361 518 390 500T431 442H437Q469 518 575 518Q633 518 663 498T704 436T715 322V0H618V284Z" />
<glyph unicode="n" glyph-name="n" horiz-adv-x="526" d="M361 284Q361 354 355 383T330 422T268 431Q222 431 200 413T172 361T166 264V0H69V510H157L161 442H168Q184 479 218 498T310 518Q373 518 404 498T447 436T458 322V0H361V284Z" />
<glyph unicode="o" glyph-name="o" horiz-adv-x="509" d="M158 -8T117 14T63 87T51 255Q51 371 63 423T116 496T254 518Q350 518 391 497T445 423T457 255Q457 139 445 88T392 14T254 -8Q158 -8 117 14ZM308 74T329 86T355 132T360 255Q360 345 355 378T329 424T254
436Q201 436 180 424T154 379T149 255Q149 166 154 132T180 86T254 74Q308 74 329 86Z" />
<glyph unicode="p" glyph-name="p" horiz-adv-x="520" d="M69 510H157L161 442H168Q185 486 221 502T306 518Q369 518 403 495T453 416T468 256Q468 152 454 96T405 16T309 -8Q257 -8 224 7T172 60H166V-196H69V510ZM316 79T336 90T364 136T371 255Q371 338 364
373T337 420T268 431Q230 431 209 419T178 379Q170 358 168 330T166 255Q166 171 176 137Q186 106 207 93T268 79Q316 79 336 90Z" />
<glyph unicode="q" glyph-name="q" horiz-adv-x="520" d="M354 60H348Q330 23 297 8T211 -8Q148 -8 114 15T66 95T51 255Q51 359 66 415T115 495T213 518Q263 518 299 502T352 442H358L362 510H451V-196H354V60ZM291 79T312 92T343 135Q354 169 354 255Q354 303
351 333T339 385Q329 409 309 420T252 431Q204 431 184 420T156 374T149 255Q149 172 156 137T183 90T252 79Q291 79 312 92Z" />
<glyph unicode="r" glyph-name="r" horiz-adv-x="338" d="M69 510H157L161 418H168Q184 475 220 496T317 518V421Q258 421 225 401T179 340T166 226V0H69V510Z" />
<glyph unicode="s" glyph-name="s" horiz-adv-x="440" d="M185 -8T138 -4T57 5V83Q129 74 210 74Q251 74 271 81T297 102T303 143Q303 173 299 185T285 202T250 210L140 225Q83 232 63 264T43 367Q43 429 65 462T125 506T225 518Q263 518 304 514T372 503V426Q305
436 232 436Q179 436 158 424T137 369Q137 342 140 330T154 313T186 305L299 291Q335 286 355 274T386 233T397 146Q397 84 378 51T321 5T223 -8Q185 -8 138 -4Z" />
<glyph unicode="t" glyph-name="t" horiz-adv-x="330" d="M108 0V428H21V510H108V658H205V510H308V428H205V0H108Z" />
<glyph unicode="u" glyph-name="u" horiz-adv-x="526" d="M364 68H358Q343 30 309 11T215 -8Q153 -8 122 12T79 74T68 188V510H165V226Q165 156 171 127T196 88T258 79Q304 79 326 97T354 148T360 246V510H457V0H368L364 68Z" />
<glyph unicode="v" glyph-name="v" horiz-adv-x="474" d="M174 0L20 510H120L234 103H242L355 510H454L300 0H174Z" />
<glyph unicode="w" glyph-name="w" horiz-adv-x="725" d="M452 0L366 347H359L273 0H155L23 510H122L214 117H221L317 510H411L508 117H515L605 510H702L569 0H452Z" />
<glyph unicode="x" glyph-name="x" horiz-adv-x="485" d="M357 0L243 185H237L124 0H20L182 259L26 510H134L242 333H247L355 510H458L302 260L465 0H357Z" />
<glyph unicode="y" glyph-name="y" horiz-adv-x="526" d="M163 -203T93 -194V-117L125 -118Q183 -121 224 -121Q288 -121 316 -108T352 -63T360 38V65H354Q339 31 307 14T215 -4Q152 -4 121 17T79 80T68 198V510H165V229Q165 158 171 129T196 91T258 82Q304 82
326 99T354 150T360 248V510H457V64Q457 -41 443 -95T384 -176T245 -203Q163 -203 93 -194Z" />
<glyph unicode="z" glyph-name="z" horiz-adv-x="449" d="M42 0V76L283 428H52V510H404V434L164 82H406V0H42Z" />
<glyph unicode="{" glyph-name="braceleft" horiz-adv-x="306" d="M197 -139T173 -114T129 -52T109 31V148Q109 270 23 271V321Q109 322 109 444V561Q109 625 145 673T216 743H287Q255 709 228 664T200 566V446Q200 322 106 300V293Q200 271 200 146V26Q200 -26
227 -71T287 -150H216Q197 -139 173 -114Z" />
<glyph unicode="|" glyph-name="bar" horiz-adv-x="257" d="M85 -161V743H173V-161H85Z" />
<glyph unicode="}" glyph-name="braceright" horiz-adv-x="306" d="M105 -59T105 26V146Q105 271 199 293V300Q105 322 105 446V566Q105 652 17 743H88Q107 731 131 707T176 644T196 561V444Q196 322 281 321V271Q196 270 196 148V31Q196 -13 176 -51T132 -113T88
-150H17Q105 -59 105 26Z" />
<glyph unicode="~" glyph-name="asciitilde" horiz-adv-x="470" d="M409 322T404 298T383 261T332 248Q307 248 282 253T223 270Q202 277 181 282T144 288Q125 288 120 278T115 237H59Q59 283 64 307T85 344T137 357Q161 357 183 352T247 335Q268 328 289 323T325
317Q345 317 349 327T354 368H409Q409 322 404 298Z" />
<glyph unicode="&#xa0;" glyph-name="uni00A0" horiz-adv-x="218" />
<glyph unicode="&#xa1;" glyph-name="exclamdown" horiz-adv-x="244" d="M67 401V510H177V401H67ZM65 -94Q65 -42 79 189Q85 301 85 305H158L162 232Q179 -11 179 -94V-178H65V-94Z" />
<glyph unicode="&#xa2;" glyph-name="cent" horiz-adv-x="421" d="M374 82Q335 71 280 68V-8H206V68Q143 74 110 105T66 192T54 342Q54 436 67 493T114 580T206 616V696H280V617Q333 614 371 604V524Q319 532 280 533V152Q328 154 374 162V82ZM156 251T166 212T206
161V525Q185 517 174 497T160 442T156 343Q156 251 166 212Z" />
<glyph unicode="&#xa3;" glyph-name="sterling" horiz-adv-x="521" d="M477 88V0H44V88H109V311H44V399H110V415Q110 524 129 583T197 669T336 696Q371 696 407 692T467 681V598Q406 607 362 607Q320 607 295 603T253 586Q229 570 221 531T213 417V399H403V311H213V88H477Z"
/>
<glyph unicode="&#xa4;" glyph-name="currency" horiz-adv-x="621" d="M52 53L133 134Q117 163 112 210T107 345Q107 431 112 478T132 554L51 634L107 690L195 603Q234 617 310 617Q388 617 426 602L514 690L570 635L488 553Q503 524 508 477T513 345Q513 259
508 212T488 135L570 53L514 -3L426 86Q388 71 310 71Q234 71 195 85L108 -2L52 53ZM364 153T384 166T410 214T415 345Q415 440 410 475T385 523T310 536Q256 536 235 523T209 475T204 345Q204 250 209 215T235 166T310 153Q364 153 384 166Z" />
<glyph unicode="&#xa5;" glyph-name="yen" horiz-adv-x="556" d="M225 0V238H54V300H209L164 392H54V454H135L28 688H135L276 363H283L423 688H527L419 454H501V392H390L345 300H501V238H329V0H225Z" />
<glyph unicode="&#xa6;" glyph-name="brokenbar" horiz-adv-x="257" d="M85 390V743H173V390H85ZM85 -161V192H173V-161H85Z" />
<glyph unicode="&#xa7;" glyph-name="section" horiz-adv-x="603" d="M229 -171T183 -166T122 -157V-75Q135 -78 173 -80T251 -83Q306 -83 333 -78T372 -58T384 -12Q384 15 380 28T366 48T334 62L171 113Q124 128 99 143T61 188T48 275Q48 346 68 387T141 438Q128
455 124 477T120 536Q120 628 170 662T320 696Q374 696 419 691T481 682V600Q468 603 429 605T352 608Q297 608 270 603T231 583T219 537Q219 509 223 496T237 476T271 462L432 411Q479 396 503 381T541 335T554 249Q554 177 534 136T461 85Q474 69 478 46T483
-11Q483 -103 433 -137T283 -171Q229 -171 183 -166ZM433 141T446 163T459 231Q459 276 450 292T413 317L236 372Q231 373 216 377T193 382Q170 382 157 360T144 292Q144 260 148 244T163 220T193 205L368 151Q402 141 410 141Q433 141 446 163Z" />
<glyph unicode="&#xa8;" glyph-name="dieresis" horiz-adv-x="313" d="M19 642V730H107V642H19ZM206 642V730H293V642H206Z" />
<glyph unicode="&#xa9;" glyph-name="copyright" horiz-adv-x="659" d="M203 -8T152 17T88 108T75 344Q75 513 88 579T152 671T329 696Q455 696 506 671T570 579T584 344Q584 175 571 109T507 17T329 -8Q203 -8 152 17ZM438 36T477 52T526 126T537 344Q537 504
527 561T477 634T329 651Q220 651 181 635T132 561T121 344Q121 183 131 126T181 53T329 36Q438 36 477 52ZM291 154T264 169T227 223T218 343Q218 422 227 461T264 516T349 532Q401 532 425 524V473Q393 478 362 478Q321 478 305 470T285 436T280 343Q280 275
284 249T305 215T362 207Q397 207 427 212V160Q400 154 349 154Q291 154 264 169Z" />
<glyph unicode="&#xaa;" glyph-name="ordfeminine" horiz-adv-x="372" d="M85 313T61 338T36 423Q36 486 57 510T139 535L211 533L245 532V551Q245 590 239 606T215 627T152 632Q114 632 56 625V684Q114 696 178 696Q239 696 269 682T310 637T320 549V317H251L246
360H241Q225 332 199 323T139 313Q85 313 61 338ZM197 373T212 379T236 403Q245 421 245 466V484H159Q128 484 118 474T108 429Q108 405 112 394T130 378T170 373Q197 373 212 379Z" />
<glyph unicode="&#xab;" glyph-name="guillemotleft" horiz-adv-x="430" d="M148 102L34 305L148 510H216L121 305L216 102H148ZM306 102L192 305L306 510H374L279 305L374 102H306Z" />
<glyph unicode="&#xac;" glyph-name="logicalnot" horiz-adv-x="511" d="M367 62V214H66V294H445V62H367Z" />
<glyph unicode="&#xad;" glyph-name="uni00AD" horiz-adv-x="338" d="M55 242V329H283V242H55Z" />
<glyph unicode="&#xae;" glyph-name="registered" horiz-adv-x="659" d="M455 696T506 671T570 579T584 344Q584 175 571 109T507 17T329 -8Q203 -8 152 17T88 108T75 344Q75 513 88 579T152 671T329 696Q455 696 506 671ZM438 36T477 52T526 126T537 344Q537
504 527 561T477 634T329 651Q220 651 181 635T132 561T121 344Q121 183 131 126T181 53T329 36Q438 36 477 52ZM456 374T446 347T407 308L463 158H397L348 298H334H272V158H210V528H352Q397 528 419 514T449 476T456 414Q456 374 446 347ZM360 350T373 356T390
376T394 414Q394 438 390 450T374 468T335 474H272V350H331Q360 350 373 356Z" />
<glyph unicode="&#xaf;" glyph-name="overscore" horiz-adv-x="338" d="M55 655V742H283V655H55Z" />
<glyph unicode="&#xb0;" glyph-name="degree" horiz-adv-x="355" d="M119 397T93 410T60 453T53 546Q53 609 60 638T93 682T177 696Q236 696 262 682T295 639T302 546Q302 482 295 453T262 411T177 397Q119 397 93 410ZM207 449T219 456T233 481T236 546Q236 593
234 610T219 635T177 643Q148 643 136 636T121 610T118 546Q118 500 121 482T136 457T177 449Q207 449 219 456Z" />
<glyph unicode="&#xb1;" glyph-name="plusminus" horiz-adv-x="512" d="M216 189V340H66V419H216V570H295V419H446V340H295V189H216ZM66 14V94H446V14H66Z" />
<glyph unicode="&#xb2;" glyph-name="uni00B2" horiz-adv-x="332" d="M115 378H285V316H48V369Q48 412 50 433T62 467T92 491Q124 508 181 536Q202 546 208 556T215 589Q215 618 203 626T151 635Q124 635 54 627V685Q106 696 168 696Q207 696 231 690T270 661T285
594Q285 550 272 526T228 487L143 446Q127 439 121 430T115 401V378Z" />
<glyph unicode="&#xb3;" glyph-name="uni00B3" horiz-adv-x="329" d="M98 308T43 318V376Q111 369 142 369Q179 369 194 378T209 421Q209 451 199 463T161 475H96V532H161Q183 532 194 542T205 583Q205 615 191 625T137 635Q101 635 45 627V685Q102 696 149 696Q219
696 247 672T275 593Q275 558 264 538T227 508V504Q252 495 265 475T279 417Q279 361 252 335T148 308Q98 308 43 318Z" />
<glyph unicode="&#xb4;" glyph-name="acute" horiz-adv-x="203" d="M13 601V606L89 743H190V738L85 601H13Z" />
<glyph unicode="&#xb5;" glyph-name="uni00B5" horiz-adv-x="527" d="M458 510V0H370L366 68H359Q343 31 310 12T218 -8Q189 -8 166 2V-189H69V510H166V226Q166 156 172 127T197 88T259 79Q305 79 327 97T355 148T361 246V510H458Z" />
<glyph unicode="&#xb6;" glyph-name="paragraph" horiz-adv-x="527" d="M251 222Q151 222 111 238T59 298T47 454Q47 565 58 610T110 671T251 688H324V-144H251V222ZM382 -144V688H453V-144H382Z" />
<glyph unicode="&#xb7;" glyph-name="middot" horiz-adv-x="229" d="M60 245V354H169V245H60Z" />
<glyph unicode="&#xb8;" glyph-name="cedilla" horiz-adv-x="169" d="M18 -190V-185L84 8H151V3L112 -190H18Z" />
<glyph unicode="&#xb9;" glyph-name="uni00B9" horiz-adv-x="236" d="M104 316V607L40 579V642L125 688H173V316H104Z" />
<glyph unicode="&#xba;" glyph-name="ordmasculine" horiz-adv-x="385" d="M123 313T92 330T53 384T44 503Q44 585 52 623T92 678T192 696Q261 696 292 679T332 623T341 503Q341 422 333 385T293 330T192 313Q123 313 92 330ZM230 376T244 384T261 416T265 503Q265
568 262 591T244 624T192 633Q155 633 141 624T123 591T119 503Q119 440 122 417T140 385T192 376Q230 376 244 384Z" />
<glyph unicode="&#xbb;" glyph-name="guillemotright" horiz-adv-x="430" d="M56 102L151 305L56 510H124L238 305L124 102H56ZM214 102L310 305L214 510H282L396 305L282 102H214Z" />
<glyph unicode="&#xbc;" glyph-name="onequarter" horiz-adv-x="644" d="M104 316V607L41 579V642L125 688H173V316H104ZM70 0L464 688H534L139 0H70ZM488 0V77H325V127L441 374H516L400 137H489L507 257H557V137H601V77H557V0H488Z" />
<glyph unicode="&#xbd;" glyph-name="onehalf" horiz-adv-x="700" d="M104 316V607L41 579V642L125 688H173V316H104ZM464 688H534L139 0H70L464 688ZM476 62H646V0H409V52Q409 95 411 116T423 150T453 175Q494 197 543 219Q563 230 569 240T576 273Q576 301 564
309T512 318Q473 318 415 310V369Q475 380 530 380Q568 380 592 373T631 344T646 278Q646 233 633 209T589 170L504 130Q488 122 482 113T476 84V62Z" />
<glyph unicode="&#xbe;" glyph-name="threequarters" horiz-adv-x="712" d="M113 369T144 369Q181 369 196 378T211 421Q211 451 201 463T163 475H98V532H163Q185 532 196 542T207 583Q207 615 193 625T139 635Q104 635 46 627V685Q105 696 150 696Q220 696 248
672T277 593Q277 558 265 538T229 508V504Q254 495 267 475T281 417Q281 361 254 335T150 308Q100 308 45 318V376Q113 369 144 369ZM139 0L533 688H602L208 0H139ZM556 0V77H393V127L509 374H583L468 137H557L575 257H625V137H668V77H625V0H556Z" />
<glyph unicode="&#xbf;" glyph-name="questiondown" horiz-adv-x="390" d="M211 401V510H320V401H211ZM133 -186T93 -145T52 -9Q52 59 69 98T126 154L164 170Q192 181 202 188T216 208T220 249V306H311V226Q311 189 304 168T285 136T248 115L221 104Q192 92 179
82T161 53T155 -5Q155 -45 165 -64T198 -90T269 -97Q332 -97 405 -87V-170Q366 -177 318 -181T232 -186Q133 -186 93 -145Z" />
<glyph unicode="&#xc0;" glyph-name="Agrave" horiz-adv-x="592" d="M469 0L417 174H173L122 0H18L228 688H365L575 0H469ZM297 583H292L198 262H391L297 583ZM279 750L174 887V892H275L351 755V750H279Z" />
<glyph unicode="&#xc1;" glyph-name="Aacute" horiz-adv-x="592" d="M469 0L417 174H173L122 0H18L228 688H365L575 0H469ZM297 583H292L198 262H391L297 583ZM239 750V755L315 892H416V887L311 750H239Z" />
<glyph unicode="&#xc2;" glyph-name="Acircumflex" horiz-adv-x="592" d="M469 0L417 174H173L122 0H18L228 688H365L575 0H469ZM297 583H292L198 262H391L297 583ZM158 750V756L246 890H346L434 756V750H367L295 841L224 750H158Z" />
<glyph unicode="&#xc3;" glyph-name="Atilde" horiz-adv-x="592" d="M469 0L417 174H173L122 0H18L228 688H365L575 0H469ZM297 583H292L198 262H391L297 583ZM461 836T457 812T437 774T388 761Q366 761 344 766T286 783Q265 790 245 795T211 801Q193 801 189
791T185 750H130Q130 796 134 820T154 857T203 870Q242 870 306 848Q326 841 346 836T381 831Q398 831 402 840T406 882H461Q461 836 457 812Z" />
<glyph unicode="&#xc4;" glyph-name="Adieresis" horiz-adv-x="592" d="M469 0L417 174H173L122 0H18L228 688H365L575 0H469ZM297 583H292L198 262H391L297 583ZM158 776V864H246V776H158ZM345 776V864H432V776H345Z" />
<glyph unicode="&#xc5;" glyph-name="Aring" horiz-adv-x="593" d="M575 0H469L417 174H173L122 0H18L225 683Q192 692 183 713T174 781Q174 823 181 844T214 876T296 887Q353 887 379 877T412 845T419 781Q419 735 410 714T368 683L575 0ZM267 838T254 833T238
817T235 781Q235 756 238 745T254 729T296 724Q326 724 338 729T354 745T358 781Q358 806 355 817T339 833T296 838Q267 838 254 833ZM198 262H391L297 583H292L198 262Z" />
<glyph unicode="&#xc6;" glyph-name="AE" horiz-adv-x="826" d="M441 0L407 174H164L94 0H-9L273 688H778V599H428L470 391H739V303H486L529 88H778V0H441ZM331 583H326L199 262H391L331 583Z" />
<glyph unicode="&#xc7;" glyph-name="Ccedilla" horiz-adv-x="489" d="M399 81T447 90V6Q420 0 380 -4T304 -8H277L240 -190H146V-185L209 -1Q145 10 114 45T71 149T60 344Q60 495 77 567T144 667T304 696Q340 696 379 692T444 680V598Q383 607 329 607Q247 607
215 591T173 524T163 344Q163 215 173 164T215 97T329 81Q399 81 447 90Z" />
<glyph unicode="&#xc8;" glyph-name="Egrave" horiz-adv-x="522" d="M79 0V688H475V599H182V392H435V303H182V89H475V0H79ZM259 750L154 887V892H255L331 755V750H259Z" />
<glyph unicode="&#xc9;" glyph-name="Eacute" horiz-adv-x="522" d="M79 0V688H475V599H182V392H435V303H182V89H475V0H79ZM242 750V755L318 892H419V887L314 750H242Z" />
<glyph unicode="&#xca;" glyph-name="Ecircumflex" horiz-adv-x="522" d="M79 0V688H475V599H182V392H435V303H182V89H475V0H79ZM137 750V756L225 890H325L413 756V750H346L274 841L203 750H137Z" />
<glyph unicode="&#xcb;" glyph-name="Edieresis" horiz-adv-x="522" d="M79 0V688H475V599H182V392H435V303H182V89H475V0H79ZM141 776V864H229V776H141ZM328 776V864H415V776H328Z" />
<glyph unicode="&#xcc;" glyph-name="Igrave" horiz-adv-x="263" d="M80 0V688H183V0H80ZM113 750L8 887V892H109L185 755V750H113Z" />
<glyph unicode="&#xcd;" glyph-name="Iacute" horiz-adv-x="263" d="M80 0V688H183V0H80ZM82 750V755L158 892H259V887L154 750H82Z" />
<glyph unicode="&#xce;" glyph-name="Icircumflex" horiz-adv-x="263" d="M80 0V688H183V0H80ZM-7 750V756L81 890H181L269 756V750H202L130 841L59 750H-7Z" />
<glyph unicode="&#xcf;" glyph-name="Idieresis" horiz-adv-x="263" d="M80 0V688H183V0H80ZM-6 776V864H82V776H-6ZM181 776V864H268V776H181Z" />
<glyph unicode="&#xd0;" glyph-name="Eth" horiz-adv-x="595" d="M79 307H17V389H79V688H278Q402 688 454 661T521 568T535 344Q535 187 521 121T455 27T278 0H79V307ZM355 89T384 101T423 161T432 344Q432 477 423 525T384 586T271 599H182V389H279V307H182V89H271Q355
89 384 101Z" />
<glyph unicode="&#xd1;" glyph-name="Ntilde" horiz-adv-x="630" d="M452 0L182 492H178V0H78V688H186L449 211H453V688H552V0H452ZM480 837T476 813T456 775T407 762Q385 762 363 767T305 784Q284 791 264 796T230 802Q212 802 208 792T204 751H149Q149 797 153
821T173 858T222 871Q261 871 325 849Q345 842 365 837T400 832Q417 832 421 841T425 883H480Q480 837 476 813Z" />
<glyph unicode="&#xd2;" glyph-name="Ograve" horiz-adv-x="617" d="M189 -8T138 20T74 116T60 344Q60 504 73 572T138 668T308 696Q428 696 479 668T544 572T558 344Q558 184 544 116T479 20T308 -8Q189 -8 138 20ZM383 81T410 94T445 157T454 344Q454 480 446
530T410 594T308 607Q233 607 207 594T172 531T163 344Q163 208 171 158T206 94T308 81Q383 81 410 94ZM279 750L174 887V892H275L351 755V750H279Z" />
<glyph unicode="&#xd3;" glyph-name="Oacute" horiz-adv-x="617" d="M189 -8T138 20T74 116T60 344Q60 504 73 572T138 668T308 696Q428 696 479 668T544 572T558 344Q558 184 544 116T479 20T308 -8Q189 -8 138 20ZM383 81T410 94T445 157T454 344Q454 480 446
530T410 594T308 607Q233 607 207 594T172 531T163 344Q163 208 171 158T206 94T308 81Q383 81 410 94ZM261 750V755L337 892H438V887L333 750H261Z" />
<glyph unicode="&#xd4;" glyph-name="Ocircumflex" horiz-adv-x="617" d="M189 -8T138 20T74 116T60 344Q60 504 73 572T138 668T308 696Q428 696 479 668T544 572T558 344Q558 184 544 116T479 20T308 -8Q189 -8 138 20ZM383 81T410 94T445 157T454 344Q454 480
446 530T410 594T308 607Q233 607 207 594T172 531T163 344Q163 208 171 158T206 94T308 81Q383 81 410 94ZM170 750V756L258 890H358L446 756V750H379L307 841L236 750H170Z" />
<glyph unicode="&#xd5;" glyph-name="Otilde" horiz-adv-x="617" d="M189 -8T138 20T74 116T60 344Q60 504 73 572T138 668T308 696Q428 696 479 668T544 572T558 344Q558 184 544 116T479 20T308 -8Q189 -8 138 20ZM383 81T410 94T445 157T454 344Q454 480 446
530T410 594T308 607Q233 607 207 594T172 531T163 344Q163 208 171 158T206 94T308 81Q383 81 410 94ZM474 836T470 812T450 774T401 761Q379 761 357 766T299 783Q278 790 258 795T224 801Q206 801 202 791T198 750H143Q143 796 147 820T167 857T216 870Q255
870 319 848Q339 841 359 836T394 831Q411 831 415 840T419 882H474Q474 836 470 812Z" />
<glyph unicode="&#xd6;" glyph-name="Odieresis" horiz-adv-x="617" d="M189 -8T138 20T74 116T60 344Q60 504 73 572T138 668T308 696Q428 696 479 668T544 572T558 344Q558 184 544 116T479 20T308 -8Q189 -8 138 20ZM383 81T410 94T445 157T454 344Q454 480
446 530T410 594T308 607Q233 607 207 594T172 531T163 344Q163 208 171 158T206 94T308 81Q383 81 410 94ZM171 776V864H259V776H171ZM358 776V864H445V776H358Z" />
<glyph unicode="&#xd7;" glyph-name="multiply" horiz-adv-x="465" d="M232 196L120 84L64 139L177 252L64 365L120 421L233 308L346 421L401 365L288 252L401 139L345 83L232 196Z" />
<glyph unicode="&#xd8;" glyph-name="Oslash" horiz-adv-x="615" d="M539 614T548 549T558 344Q558 184 544 116T479 20T308 -8Q225 -8 177 5L146 -55H60L110 42Q78 76 69 141T60 344Q60 504 73 572T138 668T308 696Q394 696 438 684L468 743H555L506 648Q539
614 548 549ZM163 207T170 161L395 601Q381 605 358 606T308 607Q233 607 207 594T172 531T163 344Q163 207 170 161ZM383 81T410 94T445 157T454 344Q454 419 453 461T446 531L219 88Q233 83 252 82T308 81Q383 81 410 94Z" />
<glyph unicode="&#xd9;" glyph-name="Ugrave" horiz-adv-x="611" d="M538 688V302Q538 167 523 105T460 18T306 -8Q200 -8 152 17T88 105T72 302V688H175V267Q175 180 182 144T216 95T306 81Q369 81 395 94T428 143T435 267V688H538ZM284 750L179 887V892H280L356
755V750H284Z" />
<glyph unicode="&#xda;" glyph-name="Uacute" horiz-adv-x="611" d="M538 688V302Q538 167 523 105T460 18T306 -8Q200 -8 152 17T88 105T72 302V688H175V267Q175 180 182 144T216 95T306 81Q369 81 395 94T428 143T435 267V688H538ZM268 750V755L344 892H445V887L340
750H268Z" />
<glyph unicode="&#xdb;" glyph-name="Ucircumflex" horiz-adv-x="611" d="M538 688V302Q538 167 523 105T460 18T306 -8Q200 -8 152 17T88 105T72 302V688H175V267Q175 180 182 144T216 95T306 81Q369 81 395 94T428 143T435 267V688H538ZM169 750V756L257 890H357L445
756V750H378L306 841L235 750H169Z" />
<glyph unicode="&#xdc;" glyph-name="Udieresis" horiz-adv-x="611" d="M538 688V302Q538 167 523 105T460 18T306 -8Q200 -8 152 17T88 105T72 302V688H175V267Q175 180 182 144T216 95T306 81Q369 81 395 94T428 143T435 267V688H538ZM168 776V864H256V776H168ZM355
776V864H442V776H355Z" />
<glyph unicode="&#xdd;" glyph-name="Yacute" horiz-adv-x="530" d="M213 0V255L4 688H113L264 365H271L421 688H525L316 255V0H213ZM231 750V755L307 892H408V887L303 750H231Z" />
<glyph unicode="&#xde;" glyph-name="Thorn" horiz-adv-x="562" d="M79 688H182V572H339Q417 572 457 545T511 472T524 351Q524 279 511 233T458 158T338 129H182V0H79V688ZM304 217Q357 217 382 229T414 269T421 351Q421 406 414 432T383 471T305 484H182V217H304Z" />
<glyph unicode="&#xdf;" glyph-name="germandbls" horiz-adv-x="536" d="M238 0V81H274Q328 81 349 90T378 130T385 241Q385 307 376 338T345 381T279 392H256V474H279Q337 474 357 494T378 567Q378 609 369 630T337 660T271 668Q231 668 209 659T177 623T166
543V0H69V551Q69 623 88 666T153 729T274 750Q351 750 395 732T457 676T475 578Q475 514 450 482T371 439V435Q429 423 456 380T483 241Q483 148 469 98T414 24T291 0H238Z" />
<glyph unicode="&#xe0;" glyph-name="agrave" horiz-adv-x="498" d="M110 -8T76 26T41 142Q41 201 54 234T98 282T185 297Q236 297 332 293V320Q332 376 323 399T289 429T205 436Q177 436 135 433T70 426V504Q145 518 236 518Q319 518 360 499T415 439T429 318V0H341L337
66H331Q312 22 274 7T184 -8Q110 -8 76 26ZM260 73T282 81T316 111Q332 143 332 205V229H209Q178 229 163 224T142 202T136 150Q136 117 142 101T167 79T225 73Q260 73 282 81ZM221 601L116 738V743H217L293 606V601H221Z" />
<glyph unicode="&#xe1;" glyph-name="aacute" horiz-adv-x="498" d="M110 -8T76 26T41 142Q41 201 54 234T98 282T185 297Q236 297 332 293V320Q332 376 323 399T289 429T205 436Q177 436 135 433T70 426V504Q145 518 236 518Q319 518 360 499T415 439T429 318V0H341L337
66H331Q312 22 274 7T184 -8Q110 -8 76 26ZM260 73T282 81T316 111Q332 143 332 205V229H209Q178 229 163 224T142 202T136 150Q136 117 142 101T167 79T225 73Q260 73 282 81ZM203 601V606L279 743H380V738L275 601H203Z" />
<glyph unicode="&#xe2;" glyph-name="acircumflex" horiz-adv-x="498" d="M110 -8T76 26T41 142Q41 201 54 234T98 282T185 297Q236 297 332 293V320Q332 376 323 399T289 429T205 436Q177 436 135 433T70 426V504Q145 518 236 518Q319 518 360 499T415 439T429
318V0H341L337 66H331Q312 22 274 7T184 -8Q110 -8 76 26ZM260 73T282 81T316 111Q332 143 332 205V229H209Q178 229 163 224T142 202T136 150Q136 117 142 101T167 79T225 73Q260 73 282 81ZM112 603V609L200 743H300L388 609V603H321L249 694L178 603H112Z" />
<glyph unicode="&#xe3;" glyph-name="atilde" horiz-adv-x="498" d="M110 -8T76 26T41 142Q41 201 54 234T98 282T185 297Q236 297 332 293V320Q332 376 323 399T289 429T205 436Q177 436 135 433T70 426V504Q145 518 236 518Q319 518 360 499T415 439T429 318V0H341L337
66H331Q312 22 274 7T184 -8Q110 -8 76 26ZM260 73T282 81T316 111Q332 143 332 205V229H209Q178 229 163 224T142 202T136 150Q136 117 142 101T167 79T225 73Q260 73 282 81ZM414 953T410 929T390 891T341 878Q319 878 297 883T239 900Q218 907 198 912T164 918Q146
918 142 908T138 867H83Q83 913 87 937T107 974T156 987Q195 987 259 965Q279 958 299 953T334 948Q351 948 355 957T359 999H414Q414 953 410 929Z" />
<glyph unicode="&#xe4;" glyph-name="adieresis" horiz-adv-x="498" d="M110 -8T76 26T41 142Q41 201 54 234T98 282T185 297Q236 297 332 293V320Q332 376 323 399T289 429T205 436Q177 436 135 433T70 426V504Q145 518 236 518Q319 518 360 499T415 439T429
318V0H341L337 66H331Q312 22 274 7T184 -8Q110 -8 76 26ZM260 73T282 81T316 111Q332 143 332 205V229H209Q178 229 163 224T142 202T136 150Q136 117 142 101T167 79T225 73Q260 73 282 81ZM112 896V984H200V896H112ZM299 896V984H386V896H299Z" />
<glyph unicode="&#xe5;" glyph-name="aring" horiz-adv-x="498" d="M110 -8T76 26T41 142Q41 201 54 234T98 282T185 297Q236 297 332 293V320Q332 376 323 399T289 429T205 436Q177 436 135 433T70 426V504Q145 518 236 518Q319 518 360 499T415 439T429 318V0H341L337
66H331Q312 22 274 7T184 -8Q110 -8 76 26ZM260 73T282 81T316 111Q332 143 332 205V229H209Q178 229 163 224T142 202T136 150Q136 117 142 101T167 79T225 73Q260 73 282 81ZM191 847T166 857T133 888T126 952Q126 995 133 1016T165 1048T247 1059Q304 1059 330
1048T364 1016T371 952Q371 910 364 889T331 858T247 847Q191 847 166 857ZM278 895T291 900T307 915T310 952Q310 978 307 989T291 1005T247 1010Q218 1010 205 1005T189 989T186 952Q186 927 189 916T205 900T247 895Q278 895 291 900Z" />
<glyph unicode="&#xe6;" glyph-name="ae" horiz-adv-x="777" d="M724 225H430Q430 155 437 126T472 85T565 73Q619 73 707 83V7Q678 0 633 -4T544 -8Q471 -8 431 7T369 59Q342 18 299 5T200 -8Q116 -8 79 25T41 141Q41 200 54 233T98 281T185 296L278 294L332
293V320Q332 376 323 399T289 429T205 436Q177 436 134 433T69 426V504Q157 518 236 518Q294 518 329 507T385 469Q407 494 444 506T537 518Q625 518 664 493T714 416T724 256V225ZM487 437T466 427T438 387T430 292H631V296Q631 359 623 388T595 427T535 437Q487
437 466 427ZM332 226H209Q177 226 162 221T141 200T135 150Q135 116 141 100T166 78T224 72Q263 72 286 81T320 119Q332 152 332 205V226Z" />
<glyph unicode="&#xe7;" glyph-name="ccedilla" horiz-adv-x="407" d="M318 74T367 83V6Q343 0 308 -4T240 -8H236L199 -190H105V-185L168 -2Q116 9 91 39T59 119T51 255Q51 356 64 410T118 491T238 518Q270 518 305 514T363 504V427Q313 436 262 436Q211 436
188 422T157 372T149 255Q149 174 157 137T188 87T264 74Q318 74 367 83Z" />
<glyph unicode="&#xe8;" glyph-name="egrave" horiz-adv-x="495" d="M443 223H149Q149 153 156 124T191 84T284 73Q338 73 426 83V7Q398 0 352 -4T263 -8Q168 -8 124 16T65 94T51 254Q51 359 64 412T120 492T255 518Q344 518 383 493T433 416T443 255V223ZM205
437T185 426T157 386T149 291H349V296Q349 360 341 389T314 427T253 437Q205 437 185 426ZM227 601L122 738V743H223L299 606V601H227Z" />
<glyph unicode="&#xe9;" glyph-name="eacute" horiz-adv-x="495" d="M443 223H149Q149 153 156 124T191 84T284 73Q338 73 426 83V7Q398 0 352 -4T263 -8Q168 -8 124 16T65 94T51 254Q51 359 64 412T120 492T255 518Q344 518 383 493T433 416T443 255V223ZM205
437T185 426T157 386T149 291H349V296Q349 360 341 389T314 427T253 437Q205 437 185 426ZM210 601V606L286 743H387V738L282 601H210Z" />
<glyph unicode="&#xea;" glyph-name="ecircumflex" horiz-adv-x="495" d="M443 223H149Q149 153 156 124T191 84T284 73Q338 73 426 83V7Q398 0 352 -4T263 -8Q168 -8 124 16T65 94T51 254Q51 359 64 412T120 492T255 518Q344 518 383 493T433 416T443 255V223ZM205
437T185 426T157 386T149 291H349V296Q349 360 341 389T314 427T253 437Q205 437 185 426ZM113 603V609L201 743H301L389 609V603H322L250 694L179 603H113Z" />
<glyph unicode="&#xeb;" glyph-name="edieresis" horiz-adv-x="495" d="M443 223H149Q149 153 156 124T191 84T284 73Q338 73 426 83V7Q398 0 352 -4T263 -8Q168 -8 124 16T65 94T51 254Q51 359 64 412T120 492T255 518Q344 518 383 493T433 416T443 255V223ZM205
437T185 426T157 386T149 291H349V296Q349 360 341 389T314 427T253 437Q205 437 185 426ZM116 896V984H204V896H116ZM303 896V984H390V896H303Z" />
<glyph unicode="&#xec;" glyph-name="igrave" horiz-adv-x="235" d="M69 0V510H166V0H69ZM350 601L245 738V743H346L422 606V601H350Z" />
<glyph unicode="&#xed;" glyph-name="iacute" horiz-adv-x="235" d="M69 0V510H166V0H69ZM70 601V606L146 743H247V738L142 601H70Z" />
<glyph unicode="&#xee;" glyph-name="icircumflex" horiz-adv-x="235" d="M69 0V510H166V0H69ZM236 603V609L324 743H424L512 609V603H445L373 694L302 603H236Z" />
<glyph unicode="&#xef;" glyph-name="idieresis" horiz-adv-x="235" d="M69 0V510H166V0H69ZM237 896V984H325V896H237ZM424 896V984H511V896H424Z" />
<glyph unicode="&#xf0;" glyph-name="eth" horiz-adv-x="512" d="M159 -8T117 15T63 89T51 254Q51 360 62 413T110 491T228 517Q293 517 331 495L334 498Q314 565 285 614L179 598V661L248 672Q220 707 188 739V743H292Q318 717 342 686L441 702V639L380 629Q423
551 442 444Q457 368 457 268Q457 146 446 93T393 16T254 -8Q159 -8 117 15ZM308 73T329 85T355 131T360 254Q360 336 355 370T328 420T254 436Q200 436 180 424T154 379T149 254Q149 164 154 131T179 86T254 73Q308 73 329 85Z" />
<glyph unicode="&#xf1;" glyph-name="ntilde" horiz-adv-x="526" d="M361 284Q361 354 355 383T330 422T268 431Q222 431 200 413T172 361T166 264V0H69V510H157L161 442H168Q184 479 218 498T310 518Q373 518 404 498T447 436T458 322V0H361V284ZM432 953T428
929T408 891T359 878Q337 878 315 883T257 900Q236 907 216 912T182 918Q164 918 160 908T156 867H101Q101 913 105 937T125 974T174 987Q213 987 277 965Q297 958 317 953T352 948Q369 948 373 957T377 999H432Q432 953 428 929Z" />
<glyph unicode="&#xf2;" glyph-name="ograve" horiz-adv-x="509" d="M158 -8T117 14T63 87T51 255Q51 371 63 423T116 496T254 518Q350 518 391 497T445 423T457 255Q457 139 445 88T392 14T254 -8Q158 -8 117 14ZM308 74T329 86T355 132T360 255Q360 345 355
378T329 424T254 436Q201 436 180 424T154 379T149 255Q149 166 154 132T180 86T254 74Q308 74 329 86ZM228 601L123 738V743H224L300 606V601H228Z" />
<glyph unicode="&#xf3;" glyph-name="oacute" horiz-adv-x="509" d="M158 -8T117 14T63 87T51 255Q51 371 63 423T116 496T254 518Q350 518 391 497T445 423T457 255Q457 139 445 88T392 14T254 -8Q158 -8 117 14ZM308 74T329 86T355 132T360 255Q360 345 355
378T329 424T254 436Q201 436 180 424T154 379T149 255Q149 166 154 132T180 86T254 74Q308 74 329 86ZM210 601V606L286 743H387V738L282 601H210Z" />
<glyph unicode="&#xf4;" glyph-name="ocircumflex" horiz-adv-x="509" d="M158 -8T117 14T63 87T51 255Q51 371 63 423T116 496T254 518Q350 518 391 497T445 423T457 255Q457 139 445 88T392 14T254 -8Q158 -8 117 14ZM308 74T329 86T355 132T360 255Q360 345
355 378T329 424T254 436Q201 436 180 424T154 379T149 255Q149 166 154 132T180 86T254 74Q308 74 329 86ZM117 603V609L205 743H305L393 609V603H326L254 694L183 603H117Z" />
<glyph unicode="&#xf5;" glyph-name="otilde" horiz-adv-x="509" d="M158 -8T117 14T63 87T51 255Q51 371 63 423T116 496T254 518Q350 518 391 497T445 423T457 255Q457 139 445 88T392 14T254 -8Q158 -8 117 14ZM308 74T329 86T355 132T360 255Q360 345 355
378T329 424T254 436Q201 436 180 424T154 379T149 255Q149 166 154 132T180 86T254 74Q308 74 329 86ZM421 953T417 929T397 891T348 878Q326 878 304 883T246 900Q225 907 205 912T171 918Q153 918 149 908T145 867H90Q90 913 94 937T114 974T163 987Q202 987
266 965Q286 958 306 953T341 948Q358 948 362 957T366 999H421Q421 953 417 929Z" />
<glyph unicode="&#xf6;" glyph-name="odieresis" horiz-adv-x="509" d="M158 -8T117 14T63 87T51 255Q51 371 63 423T116 496T254 518Q350 518 391 497T445 423T457 255Q457 139 445 88T392 14T254 -8Q158 -8 117 14ZM308 74T329 86T355 132T360 255Q360 345 355
378T329 424T254 436Q201 436 180 424T154 379T149 255Q149 166 154 132T180 86T254 74Q308 74 329 86ZM118 896V984H206V896H118ZM305 896V984H392V896H305Z" />
<glyph unicode="&#xf7;" glyph-name="divide" horiz-adv-x="512" d="M215 390V470H297V390H215ZM66 213V292H446V213H66ZM215 34V116H297V34H215Z" />
<glyph unicode="&#xf8;" glyph-name="oslash" horiz-adv-x="509" d="M441 456T449 407T457 255Q457 139 445 88T392 14T254 -8Q195 -8 160 -1L131 -55H52L96 28Q67 54 59 103T51 255Q51 371 63 423T116 496T254 518Q314 518 349 511L378 565H457L413 481Q441 456
449 407ZM149 164T153 137L308 432Q289 436 254 436Q201 436 180 424T154 379T149 255Q149 164 153 137ZM308 74T329 86T355 132T360 255Q360 346 356 373L201 78Q220 74 254 74Q308 74 329 86Z" />
<glyph unicode="&#xf9;" glyph-name="ugrave" horiz-adv-x="526" d="M364 68H358Q343 30 309 11T215 -8Q153 -8 122 12T79 74T68 188V510H165V226Q165 156 171 127T196 88T258 79Q304 79 326 97T354 148T360 246V510H457V0H368L364 68ZM237 601L132 738V743H233L309
606V601H237Z" />
<glyph unicode="&#xfa;" glyph-name="uacute" horiz-adv-x="526" d="M364 68H358Q343 30 309 11T215 -8Q153 -8 122 12T79 74T68 188V510H165V226Q165 156 171 127T196 88T258 79Q304 79 326 97T354 148T360 246V510H457V0H368L364 68ZM226 601V606L302 743H403V738L298
601H226Z" />
<glyph unicode="&#xfb;" glyph-name="ucircumflex" horiz-adv-x="526" d="M364 68H358Q343 30 309 11T215 -8Q153 -8 122 12T79 74T68 188V510H165V226Q165 156 171 127T196 88T258 79Q304 79 326 97T354 148T360 246V510H457V0H368L364 68ZM124 603V609L212 743H312L400
609V603H333L261 694L190 603H124Z" />
<glyph unicode="&#xfc;" glyph-name="udieresis" horiz-adv-x="526" d="M364 68H358Q343 30 309 11T215 -8Q153 -8 122 12T79 74T68 188V510H165V226Q165 156 171 127T196 88T258 79Q304 79 326 97T354 148T360 246V510H457V0H368L364 68ZM124 896V984H212V896H124ZM311
896V984H398V896H311Z" />
<glyph unicode="&#xfd;" glyph-name="yacute" horiz-adv-x="526" d="M163 -203T93 -194V-117L125 -118Q183 -121 224 -121Q288 -121 316 -108T352 -63T360 38V65H354Q339 31 307 14T215 -4Q152 -4 121 17T79 80T68 198V510H165V229Q165 158 171 129T196 91T258
82Q304 82 326 99T354 150T360 248V510H457V64Q457 -41 443 -95T384 -176T245 -203Q163 -203 93 -194ZM225 601V606L301 743H402V738L297 601H225Z" />
<glyph unicode="&#xfe;" glyph-name="thorn" horiz-adv-x="520" d="M69 743H166V447H172Q189 487 223 502T306 518Q369 518 403 495T453 416T468 256Q468 152 454 96T405 16T309 -8Q257 -8 224 7T172 60H166V-190H69V743ZM316 79T336 90T364 136T371 255Q371 339
364 374T337 420T268 432Q231 432 210 420T179 378Q171 359 169 331T166 255Q166 174 175 142Q185 108 206 94T268 79Q316 79 336 90Z" />
<glyph unicode="&#xff;" glyph-name="ydieresis" horiz-adv-x="526" d="M163 -203T93 -194V-117L125 -118Q183 -121 224 -121Q288 -121 316 -108T352 -63T360 38V65H354Q339 31 307 14T215 -4Q152 -4 121 17T79 80T68 198V510H165V229Q165 158 171 129T196 91T258
82Q304 82 326 99T354 150T360 248V510H457V64Q457 -41 443 -95T384 -176T245 -203Q163 -203 93 -194ZM125 896V984H213V896H125ZM312 896V984H399V896H312Z" />
<glyph unicode="&#x2013;" glyph-name="endash" horiz-adv-x="453" d="M52 264V344H401V264H52Z" />
<glyph unicode="&#x2014;" glyph-name="emdash" horiz-adv-x="850" d="M52 264V344H797V264H52Z" />
<glyph unicode="&#x2018;" glyph-name="quoteleft" horiz-adv-x="218" d="M55 543Q55 605 63 634T97 676T176 688V645Q140 645 129 633T118 581V564H161V460H55V543Z" />
<glyph unicode="&#x2019;" glyph-name="quoteright" horiz-adv-x="218" d="M78 503T89 515T100 567V584H57V688H163V606Q163 543 155 514T121 472T42 460V503Q78 503 89 515Z" />
<glyph unicode="&#x201a;" glyph-name="quotesinglbase" horiz-adv-x="225" d="M80 -80T91 -68T102 -17V0H59V104H165V22Q165 -40 157 -70T123 -112T44 -124V-80Q80 -80 91 -68Z" />
<glyph unicode="&#x201c;" glyph-name="quotedblleft" horiz-adv-x="385" d="M55 543Q55 605 63 634T97 676T176 688V645Q140 645 129 633T118 581V564H161V460H55V543ZM222 543Q222 605 230 634T264 676T343 688V645Q307 645 296 633T285 581V564H328V460H222V543Z" />
<glyph unicode="&#x201d;" glyph-name="quotedblright" horiz-adv-x="385" d="M78 503T89 515T100 567V584H57V688H163V606Q163 543 155 514T121 472T42 460V503Q78 503 89 515ZM245 503T256 515T267 567V584H224V688H330V606Q330 543 322 514T288 472T209 460V503Q245
503 256 515Z" />
<glyph unicode="&#x201e;" glyph-name="quotedblbase" horiz-adv-x="392" d="M80 -80T91 -68T102 -17V0H59V104H165V22Q165 -40 157 -70T123 -112T44 -124V-80Q80 -80 91 -68ZM247 -80T258 -68T269 -17V0H226V104H332V22Q332 -40 324 -70T290 -112T211 -124V-80Q247
-80 258 -68Z" />
<glyph unicode="&#x2022;" glyph-name="bullet" horiz-adv-x="339" d="M273 293T268 273T241 246T168 239Q117 239 97 246T72 273T66 342Q66 393 71 413T97 440T168 448Q220 448 241 441T267 413T273 342Q273 293 268 273Z" />
<glyph unicode="&#x2039;" glyph-name="guilsinglleft" horiz-adv-x="272" d="M147 102L33 305L147 510H215L120 305L215 102H147Z" />
<glyph unicode="&#x203a;" glyph-name="guilsinglright" horiz-adv-x="272" d="M56 102L151 305L56 510H124L239 305L124 102H56Z" />
</font>
</defs>
</svg>
