<?xml version="1.0" standalone="no"?>
<!DOCTYPE svg PUBLIC "-//W3C//DTD SVG 1.1//EN" "http://www.w3.org/Graphics/SVG/1.1/DTD/svg11.dtd">
<svg xmlns="http://www.w3.org/2000/svg">
<defs >
<font id="SairaSemiCondensed" horiz-adv-x="515" ><font-face
    font-family="Saira SemiCondensed SemiCond"
    units-per-em="1000"
    panose-1="0 0 8 6 0 0 0 0 0 0"
    ascent="1135"
    descent="-439"
    alphabetic="0" />
<glyph unicode=" " glyph-name="space" horiz-adv-x="218" />
<glyph unicode="!" glyph-name="exclam" horiz-adv-x="295" d="M92 297T80 448T67 641V688H238V641Q238 599 226 448T204 225H101Q92 297 80 448ZM75 0V138H231V0H75Z" />
<glyph unicode="&quot;" glyph-name="quotedbl" horiz-adv-x="429" d="M72 429L57 632V688H189V632L173 429H72ZM255 429L240 632V688H372V632L356 429H255Z" />
<glyph unicode="#" glyph-name="numbersign" horiz-adv-x="651" d="M307 0L340 178H226L194 0H94L126 178H49V273H144L170 413H79V508H187L221 688H321L287 508H401L435 688H534L500 508H582V413H483L457 273H552V178H439L407 0H307ZM383 413H270L244 273H357L383 413Z" />
<glyph unicode="$" glyph-name="dollar" horiz-adv-x="476" d="M187 70Q122 73 60 84V194Q151 186 201 186Q241 186 259 190T283 203T289 234Q289 255 286 263T275 275T246 281L166 293Q116 300 90 319T55 371T46 457Q46 537 82 573T187 616V696H294V617Q359 614
403 603V493Q329 501 271 501Q235 501 218 498T194 486T187 457Q187 437 189 429T199 417T227 411L316 399Q356 393 380 380T417 334T430 240Q430 153 396 116T294 71V-8H187V70Z" />
<glyph unicode="%" glyph-name="percent" horiz-adv-x="805" d="M122 311T93 326T56 380T47 503Q47 587 55 625T93 680T187 696Q252 696 280 680T317 626T326 503Q326 418 318 380T281 327T187 311Q122 311 93 326ZM154 0L561 688H652L244 0H154ZM212 383T220
389T231 417T234 503Q234 567 232 589T221 618T187 624Q161 624 153 618T142 590T139 503Q139 439 141 417T152 389T187 383Q212 383 220 389ZM554 -8T526 7T488 61T479 184Q479 268 488 306T525 361T619 377Q684 377 712 361T750 307T759 184Q759 100 750 62T713
8T619 -8Q554 -8 526 7ZM644 64T652 70T663 98T666 184Q666 248 664 270T653 298T619 304Q594 304 586 298T575 270T572 184Q572 120 574 98T585 70T619 64Q644 64 652 70Z" />
<glyph unicode="&amp;" glyph-name="ampersand" horiz-adv-x="645" d="M625 405V289H533V12Q484 3 423 -2T315 -8Q206 -8 147 14T66 77T44 183Q44 264 70 299T156 349V353Q101 367 76 405T50 516Q50 576 74 615T157 675T317 696Q364 696 424 690T531 675V567Q434
578 350 578Q280 578 250 572T209 548T199 490Q199 456 204 439T227 413T281 405H324V289H281Q243 289 225 282T199 256T192 199Q192 159 204 140T242 115T324 109Q346 109 388 111V405H625Z" />
<glyph unicode="&apos;" glyph-name="quotesingle" horiz-adv-x="245" d="M72 429L57 632V688H189V632L173 429H72Z" />
<glyph unicode="(" glyph-name="parenleft" horiz-adv-x="323" d="M137 -70T110 -23T70 96T57 297Q57 426 70 499T111 622T199 743H302Q258 677 238 636T207 516T195 297Q195 155 206 77T237 -42T302 -150H199Q137 -70 110 -23Z" />
<glyph unicode=")" glyph-name="parenright" horiz-adv-x="323" d="M65 -84T84 -43T115 77T127 297Q127 438 116 516T84 635T20 743H123Q183 671 211 622T252 500T265 297Q265 168 252 96T212 -23T123 -150H20Q65 -84 84 -43Z" />
<glyph unicode="*" glyph-name="asterisk" horiz-adv-x="430" d="M244 463L255 340H175L186 463L83 391L43 461L155 513L43 567L83 636L186 565L175 688H255L244 566L347 636L387 567L274 513L387 461L347 391L244 463Z" />
<glyph unicode="+" glyph-name="plus" horiz-adv-x="508" d="M197 62V197H64V309H197V443H310V309H444V197H310V62H197Z" />
<glyph unicode="," glyph-name="comma" horiz-adv-x="271" d="M91 -86T102 -73T114 -16V0H58V138H214V37Q214 -42 203 -79T159 -132T52 -148V-86Q91 -86 102 -73Z" />
<glyph unicode="-" glyph-name="hyphen" horiz-adv-x="337" d="M49 224V346H288V224H49Z" />
<glyph unicode="." glyph-name="period" horiz-adv-x="271" d="M58 0V138H214V0H58Z" />
<glyph unicode="/" glyph-name="slash" horiz-adv-x="369" d="M1 -55L243 743H368L125 -55H1Z" />
<glyph unicode="0" glyph-name="zero" horiz-adv-x="574" d="M172 -8T123 20T61 117T47 344Q47 502 60 570T123 667T287 696Q402 696 450 668T512 571T526 344Q526 185 513 117T451 21T287 -8Q172 -8 123 20ZM332 119T347 130T367 182T371 344Q371 465 367 506T348
558T287 569Q242 569 227 558T207 506T202 344Q202 224 206 183T226 130T287 119Q332 119 347 130Z" />
<glyph unicode="1" glyph-name="one" horiz-adv-x="354" d="M132 0V522L17 474V605L178 688H288V0H132Z" />
<glyph unicode="2" glyph-name="two" horiz-adv-x="535" d="M197 128H488V0H46V92Q46 183 51 226T76 298T142 347L244 395L274 409Q300 421 311 430T327 453T332 495Q332 530 323 545T293 564T225 569Q163 569 57 557V676Q99 684 158 690T268 696Q338 696 384
683T459 629T488 505Q488 416 464 374T387 308L240 242Q226 236 218 231T206 218Q200 208 199 193T197 146V128Z" />
<glyph unicode="3" glyph-name="three" horiz-adv-x="526" d="M192 -8T136 -2T38 12V129Q138 119 212 119Q259 119 281 123T313 144T323 199Q323 236 316 254T291 278T239 285H134V410H239Q270 410 286 415T309 438T317 490Q317 527 308 543T277 564T205 569Q129
569 41 558V676Q81 685 136 690T236 696Q324 696 375 677T450 619T473 516Q473 443 448 405T368 353V349Q425 335 452 299T479 183Q479 117 458 76T384 14T235 -8Q192 -8 136 -2Z" />
<glyph unicode="4" glyph-name="four" horiz-adv-x="564" d="M312 0V138H28V250L218 688H384L188 264H315L358 436H466V264H539V138H466V0H312Z" />
<glyph unicode="5" glyph-name="five" horiz-adv-x="542" d="M154 119T228 119Q279 119 302 126T334 152T343 213Q343 256 334 275T301 301T225 307Q145 307 65 297V688H458V560H204V426Q249 433 307 433Q383 433 425 409T483 341T499 226Q499 139 479 90T407
16T256 -8Q212 -8 157 -3T59 11V129Q154 119 228 119Z" />
<glyph unicode="6" glyph-name="six" horiz-adv-x="573" d="M227 -8T184 1T113 35T69 110Q47 172 47 342Q47 499 72 571Q96 640 150 668T309 696Q346 696 399 690T498 675V557Q395 569 338 569Q275 569 248 556T212 507T203 385H210Q223 404 253 418T342 433Q410
433 449 418T509 359T530 230Q530 137 511 87T443 15T297 -8Q227 -8 184 1ZM331 117T348 122T373 147T380 211Q380 257 373 276T349 301T291 307Q251 307 234 300T211 277T205 223Q205 173 212 151T237 123T291 117Q331 117 348 122Z" />
<glyph unicode="7" glyph-name="seven" horiz-adv-x="500" d="M84 0L308 560H28V688H472V573L253 0H84Z" />
<glyph unicode="8" glyph-name="eight" horiz-adv-x="588" d="M197 -8T143 13T68 75T46 183Q46 264 72 299T157 349V353Q103 366 78 404T52 516Q52 581 75 620T151 677T294 696Q384 696 437 678T513 620T536 516Q536 442 511 404T431 353V349Q470 339 494 322T530
272T542 183Q542 116 521 75T445 13T294 -8Q197 -8 143 13ZM333 405T350 410T374 433T381 489Q381 528 375 545T352 567T294 573Q254 573 237 568T213 545T207 489Q207 451 213 434T237 411T294 405Q333 405 350 410ZM334 115T352 120T378 144T386 201Q386 242
379 260T353 284T294 290Q254 290 236 284T210 260T202 201Q202 162 209 144T235 121T294 115Q334 115 352 120Z" />
<glyph unicode="9" glyph-name="nine" horiz-adv-x="573" d="M225 -8T172 -2T75 13V131Q178 119 235 119Q298 119 325 132T361 181T370 303H364Q329 255 231 255Q163 255 124 270T64 329T43 458Q43 551 62 601T130 673T276 696Q349 696 393 687T464 654T505 580Q517
541 521 485T526 346Q526 259 519 200T495 102Q469 42 416 17T264 -8Q225 -8 172 -2ZM322 381T339 388T362 411T368 465Q368 515 361 537T336 565T282 571Q242 571 225 566T200 541T193 477Q193 431 200 412T224 387T282 381Q322 381 339 388Z" />
<glyph unicode=":" glyph-name="colon" horiz-adv-x="271" d="M58 372V510H214V372H58ZM58 0V138H214V0H58Z" />
<glyph unicode=";" glyph-name="semicolon" horiz-adv-x="271" d="M58 372V510H214V372H58ZM91 -86T102 -73T114 -16V0H58V138H214V37Q214 -42 203 -79T159 -132T52 -148V-86Q91 -86 102 -73Z" />
<glyph unicode="&lt;" glyph-name="less" horiz-adv-x="509" d="M445 55L64 196V309L445 451V338L198 253L445 168V55Z" />
<glyph unicode="=" glyph-name="equal" horiz-adv-x="508" d="M64 294V406H444V294H64ZM64 99V211H444V99H64Z" />
<glyph unicode="&gt;" glyph-name="greater" horiz-adv-x="509" d="M64 55V168L311 253L64 338V451L444 309V196L64 55Z" />
<glyph unicode="?" glyph-name="question" horiz-adv-x="456" d="M118 301Q118 338 124 359T144 393T180 416L205 426Q227 437 237 445T250 466T254 505Q254 535 246 548T219 565T162 569Q137 569 99 567T33 560V679Q70 686 121 691T214 696Q312 696 360 657T408
518Q408 444 388 410T321 353L296 342Q271 330 262 324T251 305T248 263V225H118V301ZM106 0V138H261V0H106Z" />
<glyph unicode="@" glyph-name="at" horiz-adv-x="827" d="M240 -108T171 -81T84 22T65 294Q65 490 83 566T170 669T414 696Q590 696 658 670T745 567T764 294Q764 188 752 142T717 86T639 75H472L468 127H461Q444 93 417 81T352 68Q292 68 266 99T239 200Q239
252 249 280T286 321T362 333Q396 333 466 329V348Q466 383 460 397T437 415T374 419Q341 419 261 413V505Q342 518 414 518Q492 518 529 500T579 446T592 340V134H647Q672 134 681 141T695 181T699 294Q699 437 693 497T663 589T580 629Q537 636 414 636Q304 636
258 631Q195 622 169 593T136 502T129 294Q129 134 137 72T181 -16T303 -47Q331 -48 415 -48Q555 -48 591 -44V-106Q552 -108 414 -108Q240 -108 171 -81ZM444 163T455 178T466 237V262H400Q372 262 365 253T357 211Q357 182 366 173T407 163Q444 163 455 178Z"
/>
<glyph unicode="A" glyph-name="A" horiz-adv-x="602" d="M435 0L400 138H197L164 0H8L192 688H410L593 0H435ZM301 548H295L228 266H369L301 548Z" />
<glyph unicode="B" glyph-name="B" horiz-adv-x="588" d="M64 688H357Q449 688 494 645T540 515Q540 442 514 404T433 353V349Q493 335 519 298T546 183Q546 93 502 47T357 0H64V688ZM339 411T355 417T377 438T383 485Q383 518 378 533T357 553T307 559H218V411H307Q339
411 355 417ZM345 129T360 135T382 156T388 206Q388 240 382 256T360 278T311 284H218V129H311Q345 129 360 135Z" />
<glyph unicode="C" glyph-name="C" horiz-adv-x="490" d="M426 2T383 -3T302 -8Q189 -8 136 23T65 127T47 344Q47 487 65 559T136 664T302 696Q341 696 382 691T451 678V558Q366 567 338 567Q270 567 245 554T212 499T205 344Q205 231 212 190T244 135T338 121Q396
121 454 130V9Q426 2 383 -3Z" />
<glyph unicode="D" glyph-name="D" horiz-adv-x="596" d="M64 688H280Q410 688 465 658T534 562T548 344Q548 192 535 126T466 30T280 0H64V688ZM276 129Q338 129 359 139T385 188T391 344Q391 460 385 499T359 549T276 559H219V129H276Z" />
<glyph unicode="E" glyph-name="E" horiz-adv-x="524" d="M64 0V688H478V559H219V412H441V283H219V129H478V0H64Z" />
<glyph unicode="F" glyph-name="F" horiz-adv-x="490" d="M64 0V688H460V559H219V394H431V264H219V0H64Z" />
<glyph unicode="G" glyph-name="G" horiz-adv-x="583" d="M301 277V400H526V15Q482 5 424 -1T316 -8Q201 -8 146 19T69 120T47 344Q47 488 69 562T148 666T321 696Q377 696 436 689T523 674V554Q419 567 373 567Q288 567 257 556T215 502T204 344Q204 240 211
195T242 134T321 118Q345 118 381 120V277H301Z" />
<glyph unicode="H" glyph-name="H" horiz-adv-x="621" d="M402 0V278H218V0H62V688H218V414H402V688H558V0H402Z" />
<glyph unicode="I" glyph-name="I" horiz-adv-x="281" d="M63 0V688H219V0H63Z" />
<glyph unicode="J" glyph-name="J" horiz-adv-x="353" d="M81 121T103 128T132 160T138 254V688H294V307Q294 147 280 90T214 17T18 0V120Q81 121 103 128Z" />
<glyph unicode="K" glyph-name="K" horiz-adv-x="594" d="M415 0L261 284H219V0H64V688H219V415H261L418 688H585L385 360L587 0H415Z" />
<glyph unicode="L" glyph-name="L" horiz-adv-x="466" d="M64 0V688H219V134H447V0H64Z" />
<glyph unicode="M" glyph-name="M" horiz-adv-x="805" d="M593 0V476H586L461 0H339L215 476H208V0H62V688H285L400 247H407L522 688H743V0H593Z" />
<glyph unicode="N" glyph-name="N" horiz-adv-x="624" d="M418 0L216 393H211V0H62V688H219L408 327H413V688H562V0H418Z" />
<glyph unicode="O" glyph-name="O" horiz-adv-x="612" d="M181 -8T128 22T61 120T47 344Q47 500 60 567T127 665T306 696Q432 696 485 666T552 568T565 344Q565 187 552 120T486 23T306 -8Q181 -8 128 22ZM360 121T378 132T402 184T407 344Q407 463 402 504T379
556T306 567Q252 567 234 556T210 504T205 344Q205 225 210 184T233 132T306 121Q360 121 378 132Z" />
<glyph unicode="P" glyph-name="P" horiz-adv-x="567" d="M64 688H343Q426 688 468 662T524 586T539 455Q539 377 526 328T469 250T342 221H219V0H64V688ZM289 350Q333 350 352 357T377 385T383 455Q383 504 377 524T352 552T289 559H219V350H289Z" />
<glyph unicode="Q" glyph-name="Q" horiz-adv-x="609" d="M363 -5Q336 -8 304 -8Q180 -8 127 22T61 119T48 344Q48 501 61 568T127 666T304 696Q428 696 481 666T547 569T561 344Q561 205 550 138T498 38L596 -110V-115H431L363 -5ZM358 119T376 130T399 182T405
344Q405 464 400 505T376 558T304 569Q251 569 233 558T209 506T204 344Q204 224 209 183T232 130T304 119Q358 119 376 130Z" />
<glyph unicode="R" glyph-name="R" horiz-adv-x="592" d="M399 0L319 241H219V0H64V688H347Q432 688 475 663T532 590T547 465Q547 392 531 341T466 265L562 0H399ZM341 369T359 376T384 401T390 464Q390 509 385 527T361 552T298 559H219V369H297Q341 369 359 376Z" />
<glyph unicode="S" glyph-name="S" horiz-adv-x="537" d="M151 -8T55 9V131Q179 121 231 121Q272 121 295 125T328 139Q337 148 339 161T342 198Q342 230 338 243T322 263T279 274L168 290Q92 301 65 349T38 487Q38 574 67 620T146 681T273 696Q368 696 468 676V556Q378
567 308 567Q234 567 213 553Q201 546 198 534T195 495Q195 466 198 454T211 437T248 427L367 410Q407 404 433 390T477 342Q498 298 498 216Q498 120 471 71T398 7T276 -8Q151 -8 55 9Z" />
<glyph unicode="T" glyph-name="T" horiz-adv-x="507" d="M175 0V554H13V688H494V554H331V0H175Z" />
<glyph unicode="U" glyph-name="U" horiz-adv-x="602" d="M543 688V308Q543 170 529 108T465 19T301 -8Q187 -8 137 19T73 108T58 308V688H214V267Q214 194 218 166T240 129T301 120Q345 120 361 129T382 165T387 267V688H543Z" />
<glyph unicode="V" glyph-name="V" horiz-adv-x="577" d="M181 0L10 688H169L287 165H295L410 688H567L396 0H181Z" />
<glyph unicode="W" glyph-name="W" horiz-adv-x="871" d="M533 0L445 451H439L351 0H147L17 688H173L256 173H262L360 688H529L629 173H635L713 688H868L737 0H533Z" />
<glyph unicode="X" glyph-name="X" horiz-adv-x="598" d="M412 0L300 230H292L180 0H13L198 346L16 688H189L297 465H305L415 688H583L401 349L585 0H412Z" />
<glyph unicode="Y" glyph-name="Y" horiz-adv-x="554" d="M199 0V237L1 688H161L276 395H284L396 688H552L355 237V0H199Z" />
<glyph unicode="Z" glyph-name="Z" horiz-adv-x="534" d="M38 0V123L309 559H47V688H495V568L222 129H497V0H38Z" />
<glyph unicode="[" glyph-name="bracketleft" horiz-adv-x="342" d="M65 -150V743H303V652L198 648V-55L303 -59V-150H65Z" />
<glyph unicode="\" glyph-name="backslash" horiz-adv-x="369" d="M243 -55L1 743H126L368 -55H243Z" />
<glyph unicode="]" glyph-name="bracketright" horiz-adv-x="341" d="M39 -150V-59L144 -55V648L39 652V743H277V-150H39Z" />
<glyph unicode="^" glyph-name="asciicircum" horiz-adv-x="413" d="M286 459L207 649L127 459H16L150 749H263L397 459H286Z" />
<glyph unicode="_" glyph-name="underscore" horiz-adv-x="374" d="M0 -185V-74H374V-185H0Z" />
<glyph unicode="`" glyph-name="grave" horiz-adv-x="241" d="M120 598L13 738V743H155L228 603V598H120Z" />
<glyph unicode="a" glyph-name="a" horiz-adv-x="499" d="M95 -8T64 28T32 146Q32 205 45 239T89 288T179 303Q222 303 300 299V320Q300 361 293 377T264 398T191 403Q120 403 60 396V502Q145 518 237 518Q327 518 371 497T430 434T445 310V0H307L303 60H295Q275
21 242 7T164 -8Q95 -8 64 28ZM254 105T267 110T289 128Q300 148 300 196V218H223Q200 218 190 214T175 198T171 159Q171 136 175 125T191 110T231 105Q254 105 267 110Z" />
<glyph unicode="b" glyph-name="b" horiz-adv-x="518" d="M286 -8T253 7T204 61H196L192 0H54V743H199V456H207Q225 490 255 504T331 518Q387 518 418 494T464 413T479 254Q479 151 465 95T418 15T330 -8Q286 -8 253 7ZM300 116T313 124T330 159T334 255Q334 324
330 351T313 386T266 394Q242 394 230 388T210 366Q204 351 202 325T199 255Q199 174 209 146Q215 129 228 123T266 116Q300 116 313 124Z" />
<glyph unicode="c" glyph-name="c" horiz-adv-x="405" d="M309 -8T236 -8Q148 -8 106 20T52 102T40 255Q40 353 53 407T107 489T235 518Q310 518 368 503V396Q323 403 276 403Q234 403 216 393T192 353T186 255Q186 185 192 156T215 117T276 107Q328 107 371 114V8Q309
-8 236 -8Z" />
<glyph unicode="d" glyph-name="d" horiz-adv-x="518" d="M133 -8T101 15T55 94T40 254Q40 356 54 413T99 494T187 518Q232 518 262 504T311 456H319V743H464V0H327L323 61H314Q298 22 265 7T189 -8Q133 -8 101 15ZM279 116T292 123T311 150Q316 167 317 191T319
255Q319 328 312 352Q307 377 294 385T253 394Q219 394 206 386T189 351T185 255Q185 186 189 159T206 124T253 116Q279 116 292 123Z" />
<glyph unicode="e" glyph-name="e" horiz-adv-x="494" d="M453 215H184Q184 161 190 141T218 113T298 106Q341 106 437 114V8Q407 1 359 -3T264 -8Q161 -8 114 18T53 96T40 254Q40 358 53 411T111 491T253 518Q349 518 391 493T443 416T453 254V215ZM220 407T207
400T189 372T184 300H316Q316 351 311 372T293 400T251 407Q220 407 207 400Z" />
<glyph unicode="f" glyph-name="f" horiz-adv-x="368" d="M97 395H18V510H97V544Q97 640 116 680T183 731T346 742V639Q296 639 276 635T250 617T243 569V510H346V395H243V0H97V395Z" />
<glyph unicode="g" glyph-name="g" horiz-adv-x="518" d="M195 -204T150 -201T76 -192V-87Q120 -89 202 -89Q260 -89 283 -82T312 -52T319 28V64H311Q294 30 264 16T189 2Q132 2 100 25T54 103T40 259Q40 361 54 417T101 495T189 518Q284 518 314 449H322L326
510H464V60Q464 -43 451 -96T389 -176T238 -204Q195 -204 150 -201ZM278 124T291 131T310 157Q316 172 317 195T319 259Q319 297 318 319T311 356Q305 378 292 386T252 394Q218 394 206 387T189 353T185 259Q185 192 189 166T206 132T252 124Q278 124 291 131Z"
/>
<glyph unicode="h" glyph-name="h" horiz-adv-x="524" d="M325 273Q325 334 322 357T307 387T265 394Q234 394 221 384T203 348T199 264V0H54V743H199V451H207Q225 487 257 502T334 518Q392 518 421 498T460 437T470 328V0H325V273Z" />
<glyph unicode="i" glyph-name="i" horiz-adv-x="255" d="M53 618V743H201V618H53ZM54 0V510H200V0H54Z" />
<glyph unicode="j" glyph-name="j" horiz-adv-x="255" d="M53 618V743H201V618H53ZM-17 -93Q16 -93 31 -88T50 -73T54 -40V510H200V2Q200 -91 183 -132T122 -185T-17 -198V-93Z" />
<glyph unicode="k" glyph-name="k" horiz-adv-x="504" d="M335 0L229 197H199V0H54V743H199V311H229L339 510H491L348 266L493 0H335Z" />
<glyph unicode="l" glyph-name="l" horiz-adv-x="255" d="M54 0V743H200V0H54Z" />
<glyph unicode="m" glyph-name="m" horiz-adv-x="774" d="M575 273Q575 333 572 357T557 387T519 394Q491 394 479 384T463 348T459 264V0H315V273Q315 333 312 357T297 387T259 394Q231 394 219 384T203 348T199 264V0H54V510H192L196 449H203Q221 486 253 502T331
518Q383 518 411 502T450 449H459Q493 518 588 518Q642 518 670 498T709 437T720 329V0H575V273Z" />
<glyph unicode="n" glyph-name="n" horiz-adv-x="524" d="M325 273Q325 334 322 357T307 387T265 394Q234 394 221 384T203 348T199 264V0H54V510H192L196 449H204Q236 518 334 518Q392 518 421 498T460 437T470 327V0H325V273Z" />
<glyph unicode="o" glyph-name="o" horiz-adv-x="507" d="M153 -8T109 14T52 87T40 255Q40 371 52 422T108 496T254 518Q355 518 399 496T455 423T468 255Q468 140 456 89T399 15T254 -8Q153 -8 109 14ZM290 107T303 116T319 152T323 255Q323 331 320 358T303
394T254 403Q218 403 205 395T188 359T185 255Q185 178 188 152T204 116T254 107Q290 107 303 116Z" />
<glyph unicode="p" glyph-name="p" horiz-adv-x="518" d="M54 510H192L196 449H204Q234 518 330 518Q386 518 418 495T464 416T479 256Q479 154 465 97T419 16T331 -8Q286 -8 256 6T207 55H199V-197H54V510ZM300 116T313 124T330 159T334 255Q334 324 330 351T313
386T266 394Q240 394 227 387T207 359Q202 344 201 320T199 255Q199 178 206 156Q212 133 225 125T266 116Q300 116 313 124Z" />
<glyph unicode="q" glyph-name="q" horiz-adv-x="519" d="M319 55H311Q293 20 263 6T187 -8Q131 -8 100 16T54 96T40 255Q40 359 54 415T101 495T189 518Q284 518 314 449H323L327 510H464V-197H319V55ZM279 116T292 124T312 152Q319 173 319 255Q319 300 317
325T309 365Q302 382 290 388T253 394Q219 394 206 386T189 351T185 255Q185 186 189 159T206 124T253 116Q279 116 292 124Z" />
<glyph unicode="r" glyph-name="r" horiz-adv-x="363" d="M54 510H192L196 424H204Q222 477 255 497T344 518V378Q289 378 258 363T213 312T199 211V0H54V510Z" />
<glyph unicode="s" glyph-name="s" horiz-adv-x="438" d="M182 -8T132 -4T46 7V113Q112 105 184 105Q223 105 240 108T263 121T269 150Q269 170 266 178T254 189T222 196L120 210Q69 217 51 252T32 363Q32 425 55 459T120 505T223 518Q263 518 308 514T380 502V397Q296
405 252 405Q217 405 201 402T178 391T171 363Q171 344 173 337T183 326T211 319L308 306Q341 301 361 289T394 246T406 156Q406 88 385 53T325 5T225 -8Q182 -8 132 -4Z" />
<glyph unicode="t" glyph-name="t" horiz-adv-x="357" d="M96 0V395H17V510H96V658H242V510H339V395H242V0H96Z" />
<glyph unicode="u" glyph-name="u" horiz-adv-x="524" d="M328 61H320Q288 -8 189 -8Q132 -8 103 12T63 73T53 183V510H198V237Q198 177 202 153T217 123T259 116Q289 116 302 126T320 163T324 246V510H469V0H332L328 61Z" />
<glyph unicode="v" glyph-name="v" horiz-adv-x="486" d="M144 0L12 510H159L240 139H250L329 510H474L342 0H144Z" />
<glyph unicode="w" glyph-name="w" horiz-adv-x="747" d="M441 0L378 274H369L308 0H128L16 510H160L221 158H230L307 510H444L523 158H531L592 510H731L619 0H441Z" />
<glyph unicode="x" glyph-name="x" horiz-adv-x="500" d="M332 0L250 160H242L161 0H11L157 259L16 510H173L250 359H257L334 510H483L343 260L489 0H332Z" />
<glyph unicode="y" glyph-name="y" horiz-adv-x="524" d="M147 -204T86 -193V-88Q135 -89 212 -89Q268 -89 290 -82T318 -52T324 26V68H317Q300 32 268 17T190 1Q132 1 103 22T63 85T53 200V510H198V245Q198 185 202 162T217 132T259 125Q290 125 303 135T320
170T324 254V510H469V59Q469 -44 456 -97T395 -177T246 -204Q147 -204 86 -193Z" />
<glyph unicode="z" glyph-name="z" horiz-adv-x="463" d="M38 0V107L246 395H48V510H423V403L215 115H425V0H38Z" />
<glyph unicode="{" glyph-name="braceleft" horiz-adv-x="340" d="M198 -137T170 -110T122 -46T103 34V151Q103 199 86 229T22 264V328Q69 332 86 362T103 441V558Q103 600 122 638T170 703T224 743H319Q283 702 260 659T237 563V445Q237 323 127 300V293Q237
270 237 147V30Q237 -22 259 -64T319 -150H224Q198 -137 170 -110Z" />
<glyph unicode="|" glyph-name="bar" horiz-adv-x="267" d="M70 -161V743H198V-161H70Z" />
<glyph unicode="}" glyph-name="braceright" horiz-adv-x="340" d="M57 -107T79 -65T102 30V147Q102 270 212 293V300Q102 323 102 445V563Q102 614 80 656T21 743H116Q142 730 169 703T216 638T236 558V441Q236 393 253 363T317 328V264Q270 260 253 230T236
151V34Q236 -7 217 -45T170 -110T116 -150H21Q57 -107 79 -65Z" />
<glyph unicode="~" glyph-name="asciitilde" horiz-adv-x="479" d="M425 325T421 299T397 257T337 241Q312 241 289 245T224 259Q170 271 154 271Q137 271 134 264T130 230H52Q52 281 57 308T81 350T141 366Q166 366 189 362T254 348Q308 336 324 336Q341 336
344 343T348 377H425Q425 325 421 299Z" />
<glyph unicode="&#xa0;" glyph-name="uni00A0" horiz-adv-x="218" />
<glyph unicode="&#xa1;" glyph-name="exclamdown" horiz-adv-x="285" d="M64 372V510H220V372H64ZM56 -131Q56 -91 68 57T90 285H193Q202 211 215 61T228 -131V-178H56V-131Z" />
<glyph unicode="&#xa2;" glyph-name="cent" horiz-adv-x="414" d="M184 72Q124 81 94 114T54 200T44 342Q44 431 54 485T95 571T184 613V696H291V616Q342 610 371 602V491Q322 498 281 498Q240 498 222 488T198 446T192 342Q192 270 198 239T223 198T282 187Q323
187 374 194V84Q332 73 291 70V-8H184V72Z" />
<glyph unicode="&#xa3;" glyph-name="sterling" horiz-adv-x="524" d="M485 127V0H38V127H104V292H38V415H105V420Q105 525 124 583T192 669T337 696Q373 696 412 692T476 680V561Q410 569 376 569Q342 569 322 566T290 554Q272 540 266 511T260 420V415H415V292H260V127H485Z"
/>
<glyph unicode="&#xa4;" glyph-name="currency" horiz-adv-x="611" d="M40 81L111 152Q99 180 95 224T91 345Q91 421 94 464T110 536L40 607L120 686L199 606Q235 615 305 615Q376 615 412 606L493 686L572 607L500 535Q511 506 515 462T519 345Q519 272 515 228T499
154L572 81L492 2L411 82Q371 73 305 73Q240 73 199 82L120 2L40 81ZM341 188T354 197T370 235T374 345Q374 425 371 454T354 492T305 501Q269 501 256 492T240 454T236 345Q236 264 239 235T256 197T305 188Q341 188 354 197Z" />
<glyph unicode="&#xa5;" glyph-name="yen" horiz-adv-x="571" d="M207 0V212H48V290H192L157 364H48V443H125L24 688H181L284 396H291L393 688H546L445 443H522V364H412L378 290H522V212H363V0H207Z" />
<glyph unicode="&#xa6;" glyph-name="brokenbar" horiz-adv-x="267" d="M70 390V743H198V390H70ZM70 -161V192H198V-161H70Z" />
<glyph unicode="&#xa7;" glyph-name="section" horiz-adv-x="600" d="M229 -171T181 -166T112 -154V-39Q196 -46 254 -46Q293 -46 311 -43T337 -30T344 -1Q344 25 338 32T302 50L167 95Q120 111 94 127T52 176T36 266Q36 343 56 383T127 435Q109 465 109 528Q109
623 162 659T317 696Q372 696 420 691T488 679V564Q469 567 427 569T346 571Q307 571 288 568T262 555T255 526Q255 500 262 492T299 474L434 429Q480 413 506 397T547 349T563 258Q563 181 543 141T472 89Q490 57 490 -3Q490 -98 437 -134T283 -171Q229 -171 181
-166ZM422 166T422 236Q422 266 415 279T387 300L241 349Q213 359 205 359Q178 359 178 288Q178 258 186 245T217 223L361 174Q387 166 395 166Q422 166 422 236Z" />
<glyph unicode="&#xa8;" glyph-name="dieresis" horiz-adv-x="339" d="M14 624V730H135V624H14ZM205 624V730H326V624H205Z" />
<glyph unicode="&#xa9;" glyph-name="copyright" horiz-adv-x="668" d="M202 -8T149 16T82 107T68 344Q68 514 82 580T149 671T334 696Q466 696 519 672T586 581T600 344Q600 174 586 107T519 16T334 -8Q202 -8 149 16ZM446 47T484 61T532 130T542 344Q542 504
532 557T484 625T334 640Q222 640 184 626T135 557T125 344Q125 185 135 131T183 62T334 47Q446 47 484 61ZM294 154T266 171T228 227T218 343Q218 420 227 459T265 515T353 532Q374 532 396 530T432 523V457Q396 461 372 461Q338 461 325 454T309 425T305 343Q305
283 308 261T325 232T372 225Q404 225 434 229V163Q398 154 353 154Q294 154 266 171Z" />
<glyph unicode="&#xaa;" glyph-name="ordfeminine" horiz-adv-x="375" d="M77 310T55 337T32 424Q32 467 41 491T73 526T138 537Q184 537 225 534V550Q225 580 220 591T200 606T145 610Q133 610 75 606L51 604V684Q116 696 180 696Q247 696 279 681T322 634T333
543V315H230L226 358H220Q194 310 127 310Q77 310 55 337ZM194 392T204 396T220 412Q225 425 225 458V476H170Q147 476 141 468T134 433Q134 408 141 400T176 392Q194 392 204 396Z" />
<glyph unicode="&#xab;" glyph-name="guillemotleft" horiz-adv-x="460" d="M139 109L28 309L139 510H236L148 309L236 109H139ZM316 109L206 309L316 510H413L326 309L413 109H316Z" />
<glyph unicode="&#xac;" glyph-name="logicalnot" horiz-adv-x="508" d="M332 60V194H64V307H444V60H332Z" />
<glyph unicode="&#xad;" glyph-name="uni00AD" horiz-adv-x="337" d="M49 224V346H288V224H49Z" />
<glyph unicode="&#xae;" glyph-name="registered" horiz-adv-x="668" d="M466 696T519 672T586 581T600 344Q600 174 586 107T519 16T333 -8Q201 -8 148 16T81 107T67 344Q67 513 81 580T148 671T333 696Q466 696 519 672ZM445 47T483 61T532 130T542 344Q542
503 532 557T484 625T333 640Q222 640 184 626T135 557T125 344Q125 185 135 131T183 62T333 47Q445 47 483 61ZM465 368T456 342T422 302L473 159H385L343 288H336H292V159H208V528H358Q404 528 427 515T457 476T465 409Q465 368 456 342ZM355 356T364 360T377
374T380 408Q380 431 377 440T365 453T334 457H292V356H332Q355 356 364 360Z" />
<glyph unicode="&#xaf;" glyph-name="overscore" horiz-adv-x="338" d="M49 621V743H290V621H49Z" />
<glyph unicode="&#xb0;" glyph-name="degree" horiz-adv-x="359" d="M116 397T88 410T52 453T44 546Q44 609 51 638T87 682T180 696Q244 696 272 682T307 639T315 546Q315 482 308 453T272 411T180 397Q116 397 88 410ZM203 464T212 470T224 491T226 546Q226 586
224 601T213 622T180 628Q156 628 147 622T136 601T133 546Q133 507 135 492T147 470T180 464Q203 464 212 470Z" />
<glyph unicode="&#xb1;" glyph-name="plusminus" horiz-adv-x="508" d="M197 191V326H64V438H197V572H310V438H444V326H310V191H197ZM64 14V126H444V14H64Z" />
<glyph unicode="&#xb2;" glyph-name="uni00B2" horiz-adv-x="336" d="M137 397H293V315H43V372Q43 437 50 463T87 503L132 524Q142 529 151 533T167 541Q185 550 190 557T196 582Q196 604 186 609T145 615Q122 615 48 607V685Q110 696 169 696Q209 696 235 689T277
659T293 588Q293 540 280 516T237 478Q217 470 162 445Q147 439 142 433T137 409V397Z" />
<glyph unicode="&#xb3;" glyph-name="uni00B3" horiz-adv-x="333" d="M98 306T40 318V394Q101 388 139 388Q171 388 181 394T191 425Q191 451 184 458T154 466H90V540H154Q174 540 181 547T188 578Q188 602 178 608T135 615Q99 615 41 607V685Q102 696 152 696Q225
696 255 672T286 594Q286 558 274 537T237 507V503Q289 485 289 415Q289 358 260 332T152 306Q98 306 40 318Z" />
<glyph unicode="&#xb4;" glyph-name="acute" horiz-adv-x="241" d="M13 598V603L86 743H228V738L121 598H13Z" />
<glyph unicode="&#xb5;" glyph-name="uni00B5" horiz-adv-x="525" d="M470 510V0H333L329 61H321Q304 28 275 12T200 -5H199V-189H54V510H199V237Q199 177 203 153T218 123T260 116Q290 116 303 126T321 163T325 246V510H470Z" />
<glyph unicode="&#xb6;" glyph-name="paragraph" horiz-adv-x="563" d="M236 222Q140 222 101 238T51 298T40 454Q40 565 51 610T101 671T236 688H337V-144H236V222ZM396 -144V688H497V-144H396Z" />
<glyph unicode="&#xb7;" glyph-name="middot" horiz-adv-x="271" d="M58 230V368H214V230H58Z" />
<glyph unicode="&#xb8;" glyph-name="cedilla" horiz-adv-x="194" d="M14 -189V-184L84 8H180V3L144 -189H14Z" />
<glyph unicode="&#xb9;" glyph-name="uni00B9" horiz-adv-x="245" d="M98 315V582L36 556V641L128 688H195V315H98Z" />
<glyph unicode="&#xba;" glyph-name="ordmasculine" horiz-adv-x="389" d="M123 310T91 326T48 382T38 503Q38 585 48 624T90 679T194 696Q265 696 298 680T341 624T351 503Q351 421 341 382T298 327T194 310Q123 310 91 326ZM219 396T228 402T240 428T243 503Q243
558 241 578T229 604T194 611Q169 611 160 605T148 579T146 503Q146 447 148 428T159 402T194 396Q219 396 228 402Z" />
<glyph unicode="&#xbb;" glyph-name="guillemotright" horiz-adv-x="460" d="M47 109L134 309L47 510H144L254 309L144 109H47ZM224 109L312 309L224 510H321L432 309L321 109H224Z" />
<glyph unicode="&#xbc;" glyph-name="onequarter" horiz-adv-x="691" d="M98 315V582L36 556V641L127 688H195V315H98ZM78 0L479 688H571L170 0H78ZM516 0V70H363V138L466 375H570L462 151H521L551 243H613V151H651V70H613V0H516Z" />
<glyph unicode="&#xbd;" glyph-name="onehalf" horiz-adv-x="732" d="M98 315V582L36 556V641L127 688H195V315H98ZM479 688H571L170 0H78L479 688ZM530 83H686V0H436V57Q436 103 438 125T450 163T479 188L498 197L559 226Q578 235 583 242T589 268Q589 289 579
294T538 300Q506 300 441 293V370Q494 381 562 381Q602 381 628 374T670 344T686 273Q686 225 672 201T629 164Q615 157 556 132Q541 125 536 118T530 95V83Z" />
<glyph unicode="&#xbe;" glyph-name="threequarters" horiz-adv-x="750" d="M101 388T140 388Q171 388 181 394T191 425Q191 451 184 458T154 466H91V540H154Q174 540 181 547T188 578Q188 602 179 608T135 615Q98 615 42 607V685Q101 696 152 696Q225 696 255
672T286 594Q286 558 274 537T237 507V503Q289 485 289 415Q289 358 260 332T152 306Q100 306 40 318V394Q101 388 140 388ZM137 0L538 688H630L229 0H137ZM575 0V70H422V138L524 375H628L521 151H580L609 243H671V151H709V70H671V0H575Z" />
<glyph unicode="&#xbf;" glyph-name="questiondown" horiz-adv-x="412" d="M192 372V510H348V372H192ZM139 -186T93 -147T46 -8Q46 64 64 99T125 155L163 172Q185 181 193 187T203 205T205 247V285H336V209Q336 172 330 151T310 117T274 94L252 85Q228 74 218
66T204 44T200 5Q200 -25 208 -38T235 -55T291 -59Q348 -59 420 -50V-169Q384 -176 333 -181T240 -186Q139 -186 93 -147Z" />
<glyph unicode="&#xc0;" glyph-name="Agrave" horiz-adv-x="599" d="M435 0L400 138H197L164 0H8L192 688H410L593 0H435ZM301 548H295L228 266H369L301 548ZM261 750L154 890V895H296L369 755V750H261Z" />
<glyph unicode="&#xc1;" glyph-name="Aacute" horiz-adv-x="599" d="M435 0L400 138H197L164 0H8L192 688H410L593 0H435ZM301 548H295L228 266H369L301 548ZM222 750V755L295 895H437V890L330 750H222Z" />
<glyph unicode="&#xc2;" glyph-name="Acircumflex" horiz-adv-x="599" d="M435 0L400 138H197L164 0H8L192 688H410L593 0H435ZM301 548H295L228 266H369L301 548ZM145 750V758L230 889H369L455 758V750H358L299 827L241 750H145Z" />
<glyph unicode="&#xc3;" glyph-name="Atilde" horiz-adv-x="599" d="M435 0L400 138H197L164 0H8L192 688H410L593 0H435ZM301 548H295L228 266H369L301 548ZM475 845T471 818T448 776T391 761Q368 761 345 765T288 779Q279 781 257 786T222 792Q207 792 204 784T200
750H123Q123 802 127 829T150 871T207 886Q230 886 252 882T311 868Q329 863 347 860T376 856Q391 856 394 863T398 897H475Q475 845 471 818Z" />
<glyph unicode="&#xc4;" glyph-name="Adieresis" horiz-adv-x="599" d="M435 0L400 138H197L164 0H8L192 688H410L593 0H435ZM301 548H295L228 266H369L301 548ZM144 778V884H265V778H144ZM335 778V884H456V778H335Z" />
<glyph unicode="&#xc5;" glyph-name="Aring" horiz-adv-x="602" d="M593 0H435L400 138H197L164 0H8L191 687Q171 699 166 720T161 782Q161 828 169 851T206 887T300 899Q365 899 395 887T433 852T441 782Q441 743 436 722T411 688L593 0ZM274 832T263 828T249
814T246 782Q246 760 248 751T262 737T300 732Q327 732 338 736T353 750T356 782Q356 805 353 814T339 827T300 832Q274 832 263 828ZM228 266H369L301 548H295L228 266Z" />
<glyph unicode="&#xc6;" glyph-name="AE" horiz-adv-x="837" d="M412 0L392 138H190L140 0H-15L246 688H791V559H485L507 411H753V283H525L548 129H791V0H412ZM338 549H333L234 266H377L338 549Z" />
<glyph unicode="&#xc7;" glyph-name="Ccedilla" horiz-adv-x="490" d="M396 121T454 130V9Q426 2 383 -3T302 -8H292L258 -189H128V-184L196 1Q132 15 101 53T58 158T47 344Q47 487 65 559T136 664T302 696Q341 696 382 691T451 678V558Q366 567 338 567Q270 567
245 554T212 499T205 344Q205 231 212 190T244 135T338 121Q396 121 454 130Z" />
<glyph unicode="&#xc8;" glyph-name="Egrave" horiz-adv-x="518" d="M64 0V688H478V559H219V412H441V283H219V129H478V0H64ZM234 750L127 890V895H269L342 755V750H234Z" />
<glyph unicode="&#xc9;" glyph-name="Eacute" horiz-adv-x="518" d="M64 0V688H478V559H219V412H441V283H219V129H478V0H64ZM213 750V755L286 895H428V890L321 750H213Z" />
<glyph unicode="&#xca;" glyph-name="Ecircumflex" horiz-adv-x="518" d="M64 0V688H478V559H219V412H441V283H219V129H478V0H64ZM111 750V758L196 889H335L421 758V750H324L265 827L207 750H111Z" />
<glyph unicode="&#xcb;" glyph-name="Edieresis" horiz-adv-x="518" d="M64 0V688H478V559H219V412H441V283H219V129H478V0H64ZM113 771V877H234V771H113ZM304 771V877H425V771H304Z" />
<glyph unicode="&#xcc;" glyph-name="Igrave" horiz-adv-x="281" d="M63 0V688H219V0H63ZM111 750L4 890V895H146L219 755V750H111Z" />
<glyph unicode="&#xcd;" glyph-name="Iacute" horiz-adv-x="281" d="M63 0V688H219V0H63ZM65 750V755L138 895H280V890L173 750H65Z" />
<glyph unicode="&#xce;" glyph-name="Icircumflex" horiz-adv-x="281" d="M63 0V688H219V0H63ZM-14 750V758L71 889H210L296 758V750H199L140 827L82 750H-14Z" />
<glyph unicode="&#xcf;" glyph-name="Idieresis" horiz-adv-x="281" d="M63 0V688H219V0H63ZM-15 778V884H106V778H-15ZM176 778V884H297V778H176Z" />
<glyph unicode="&#xd0;" glyph-name="Eth" horiz-adv-x="596" d="M64 290H6V406H64V688H280Q410 688 465 658T534 562T548 344Q548 192 535 126T466 30T280 0H64V290ZM338 129T359 139T385 188T391 344Q391 460 385 499T359 549T276 559H219V406H294V290H219V129H276Q338
129 359 139Z" />
<glyph unicode="&#xd1;" glyph-name="Ntilde" horiz-adv-x="624" d="M418 0L216 393H211V0H62V688H219L408 327H413V688H562V0H418ZM487 846T483 819T460 777T403 762Q380 762 357 766T300 780Q291 782 269 787T234 793Q219 793 216 785T212 751H135Q135 803 139
830T162 872T219 887Q242 887 264 883T323 869Q341 864 359 861T388 857Q403 857 406 864T410 898H487Q487 846 483 819Z" />
<glyph unicode="&#xd2;" glyph-name="Ograve" horiz-adv-x="609" d="M181 -8T128 22T61 120T47 344Q47 500 60 567T127 665T306 696Q432 696 485 666T552 568T565 344Q565 187 552 120T486 23T306 -8Q181 -8 128 22ZM360 121T378 132T402 184T407 344Q407 463
402 504T379 556T306 567Q252 567 234 556T210 504T205 344Q205 225 210 184T233 132T306 121Q360 121 378 132ZM258 750L151 890V895H293L366 755V750H258Z" />
<glyph unicode="&#xd3;" glyph-name="Oacute" horiz-adv-x="609" d="M181 -8T128 22T61 120T47 344Q47 500 60 567T127 665T306 696Q432 696 485 666T552 568T565 344Q565 187 552 120T486 23T306 -8Q181 -8 128 22ZM360 121T378 132T402 184T407 344Q407 463
402 504T379 556T306 567Q252 567 234 556T210 504T205 344Q205 225 210 184T233 132T306 121Q360 121 378 132ZM239 750V755L312 895H454V890L347 750H239Z" />
<glyph unicode="&#xd4;" glyph-name="Ocircumflex" horiz-adv-x="609" d="M181 -8T128 22T61 120T47 344Q47 500 60 567T127 665T306 696Q432 696 485 666T552 568T565 344Q565 187 552 120T486 23T306 -8Q181 -8 128 22ZM360 121T378 132T402 184T407 344Q407
463 402 504T379 556T306 567Q252 567 234 556T210 504T205 344Q205 225 210 184T233 132T306 121Q360 121 378 132ZM149 750V758L234 889H373L459 758V750H362L303 827L245 750H149Z" />
<glyph unicode="&#xd5;" glyph-name="Otilde" horiz-adv-x="609" d="M181 -8T128 22T61 120T47 344Q47 500 60 567T127 665T306 696Q432 696 485 666T552 568T565 344Q565 187 552 120T486 23T306 -8Q181 -8 128 22ZM360 121T378 132T402 184T407 344Q407 463
402 504T379 556T306 567Q252 567 234 556T210 504T205 344Q205 225 210 184T233 132T306 121Q360 121 378 132ZM481 846T477 819T454 777T397 762Q374 762 351 766T294 780Q285 782 263 787T228 793Q213 793 210 785T206 751H129Q129 803 133 830T156 872T213
887Q236 887 258 883T317 869Q335 864 353 861T382 857Q397 857 400 864T404 898H481Q481 846 477 819Z" />
<glyph unicode="&#xd6;" glyph-name="Odieresis" horiz-adv-x="609" d="M181 -8T128 22T61 120T47 344Q47 500 60 567T127 665T306 696Q432 696 485 666T552 568T565 344Q565 187 552 120T486 23T306 -8Q181 -8 128 22ZM360 121T378 132T402 184T407 344Q407 463
402 504T379 556T306 567Q252 567 234 556T210 504T205 344Q205 225 210 184T233 132T306 121Q360 121 378 132ZM149 778V884H270V778H149ZM340 778V884H461V778H340Z" />
<glyph unicode="&#xd7;" glyph-name="multiply" horiz-adv-x="482" d="M240 173L142 75L63 154L161 253L62 351L142 431L241 332L340 431L419 352L320 253L419 154L339 74L240 173Z" />
<glyph unicode="&#xd8;" glyph-name="Oslash" horiz-adv-x="609" d="M537 620T548 581T562 490T565 344Q565 187 552 120T486 23T306 -8Q240 -8 199 -1L172 -55H48L97 46Q64 82 56 145T47 344Q47 500 60 567T127 665T306 696Q369 696 410 689L436 743H561L513
644Q537 620 548 581ZM360 121T378 132T402 184T407 344Q407 463 402 504T379 556T306 567Q252 567 234 556T210 504T205 344Q205 225 210 184T233 132T306 121Q360 121 378 132Z" />
<glyph unicode="&#xd9;" glyph-name="Ugrave" horiz-adv-x="602" d="M543 688V308Q543 170 529 108T465 19T301 -8Q187 -8 137 19T73 108T58 308V688H214V267Q214 194 218 166T240 129T301 120Q345 120 361 129T382 165T387 267V688H543ZM257 750L150 890V895H292L365
755V750H257Z" />
<glyph unicode="&#xda;" glyph-name="Uacute" horiz-adv-x="602" d="M543 688V308Q543 170 529 108T465 19T301 -8Q187 -8 137 19T73 108T58 308V688H214V267Q214 194 218 166T240 129T301 120Q345 120 361 129T382 165T387 267V688H543ZM244 750V755L317 895H459V890L352
750H244Z" />
<glyph unicode="&#xdb;" glyph-name="Ucircumflex" horiz-adv-x="602" d="M543 688V308Q543 170 529 108T465 19T301 -8Q187 -8 137 19T73 108T58 308V688H214V267Q214 194 218 166T240 129T301 120Q345 120 361 129T382 165T387 267V688H543ZM147 750V758L232
889H371L457 758V750H360L301 827L243 750H147Z" />
<glyph unicode="&#xdc;" glyph-name="Udieresis" horiz-adv-x="602" d="M543 688V308Q543 170 529 108T465 19T301 -8Q187 -8 137 19T73 108T58 308V688H214V267Q214 194 218 166T240 129T301 120Q345 120 361 129T382 165T387 267V688H543ZM145 778V884H266V778H145ZM336
778V884H457V778H336Z" />
<glyph unicode="&#xdd;" glyph-name="Yacute" horiz-adv-x="554" d="M199 0V237L1 688H161L276 395H284L396 688H552L355 237V0H199ZM224 750V755L297 895H439V890L332 750H224Z" />
<glyph unicode="&#xde;" glyph-name="Thorn" horiz-adv-x="567" d="M64 688H219V585H343Q426 585 468 559T524 483T539 351Q539 274 526 225T469 147T342 118H219V0H64V688ZM289 247Q333 247 352 254T377 282T383 351Q383 400 377 420T353 448T289 455H219V247H289Z" />
<glyph unicode="&#xdf;" glyph-name="germandbls" horiz-adv-x="534" d="M253 0V114H273Q310 114 324 121T343 154T348 248Q348 307 342 333T321 366T273 374H260V489H273Q303 489 316 494T335 514T340 560Q340 593 334 609T313 630T270 636Q242 636 228 630T206
603T199 540V0H54V550Q54 621 74 664T141 729T271 750Q354 750 401 731T467 675T487 579Q487 515 462 482T382 438V434Q440 422 467 379T494 240Q494 149 479 99T419 25T288 0H253Z" />
<glyph unicode="&#xe0;" glyph-name="agrave" horiz-adv-x="499" d="M95 -8T64 28T32 146Q32 205 45 239T89 288T179 303Q222 303 300 299V320Q300 361 293 377T264 398T191 403Q120 403 60 396V502Q145 518 237 518Q327 518 371 497T430 434T445 310V0H307L303
60H295Q275 21 242 7T164 -8Q95 -8 64 28ZM254 105T267 110T289 128Q300 148 300 196V218H223Q200 218 190 214T175 198T171 159Q171 136 175 125T191 110T231 105Q254 105 267 110ZM204 598L97 738V743H239L312 603V598H204Z" />
<glyph unicode="&#xe1;" glyph-name="aacute" horiz-adv-x="499" d="M95 -8T64 28T32 146Q32 205 45 239T89 288T179 303Q222 303 300 299V320Q300 361 293 377T264 398T191 403Q120 403 60 396V502Q145 518 237 518Q327 518 371 497T430 434T445 310V0H307L303
60H295Q275 21 242 7T164 -8Q95 -8 64 28ZM254 105T267 110T289 128Q300 148 300 196V218H223Q200 218 190 214T175 198T171 159Q171 136 175 125T191 110T231 105Q254 105 267 110ZM189 598V603L262 743H404V738L297 598H189Z" />
<glyph unicode="&#xe2;" glyph-name="acircumflex" horiz-adv-x="499" d="M95 -8T64 28T32 146Q32 205 45 239T89 288T179 303Q222 303 300 299V320Q300 361 293 377T264 398T191 403Q120 403 60 396V502Q145 518 237 518Q327 518 371 497T430 434T445 310V0H307L303
60H295Q275 21 242 7T164 -8Q95 -8 64 28ZM254 105T267 110T289 128Q300 148 300 196V218H223Q200 218 190 214T175 198T171 159Q171 136 175 125T191 110T231 105Q254 105 267 110ZM96 604V612L181 743H320L406 612V604H309L250 681L192 604H96Z" />
<glyph unicode="&#xe3;" glyph-name="atilde" horiz-adv-x="499" d="M95 -8T64 28T32 146Q32 205 45 239T89 288T179 303Q222 303 300 299V320Q300 361 293 377T264 398T191 403Q120 403 60 396V502Q145 518 237 518Q327 518 371 497T430 434T445 310V0H307L303
60H295Q275 21 242 7T164 -8Q95 -8 64 28ZM254 105T267 110T289 128Q300 148 300 196V218H223Q200 218 190 214T175 198T171 159Q171 136 175 125T191 110T231 105Q254 105 267 110ZM425 691T421 664T398 622T341 607Q318 607 295 611T238 625Q229 627 207 632T172
638Q157 638 154 630T150 596H73Q73 648 77 675T100 717T157 732Q180 732 202 728T261 714Q279 709 297 706T326 702Q341 702 344 709T348 743H425Q425 691 421 664Z" />
<glyph unicode="&#xe4;" glyph-name="adieresis" horiz-adv-x="499" d="M95 -8T64 28T32 146Q32 205 45 239T89 288T179 303Q222 303 300 299V320Q300 361 293 377T264 398T191 403Q120 403 60 396V502Q145 518 237 518Q327 518 371 497T430 434T445 310V0H307L303
60H295Q275 21 242 7T164 -8Q95 -8 64 28ZM254 105T267 110T289 128Q300 148 300 196V218H223Q200 218 190 214T175 198T171 159Q171 136 175 125T191 110T231 105Q254 105 267 110ZM95 878V984H216V878H95ZM286 878V984H407V878H286Z" />
<glyph unicode="&#xe5;" glyph-name="aring" horiz-adv-x="499" d="M95 -8T64 28T32 146Q32 205 45 239T89 288T179 303Q222 303 300 299V320Q300 361 293 377T264 398T191 403Q120 403 60 396V502Q145 518 237 518Q327 518 371 497T430 434T445 310V0H307L303
60H295Q275 21 242 7T164 -8Q95 -8 64 28ZM254 105T267 110T289 128Q300 148 300 196V218H223Q200 218 190 214T175 198T171 159Q171 136 175 125T191 110T231 105Q254 105 267 110ZM188 837T159 848T122 882T114 950Q114 996 122 1019T159 1053T250 1065Q313 1065
342 1054T379 1019T387 950Q387 905 379 883T342 849T250 837Q188 837 159 848ZM277 901T288 905T302 918T305 950Q305 973 303 982T289 996T250 1001Q224 1001 213 997T200 983T197 950Q197 927 199 918T213 905T250 901Q277 901 288 905Z" />
<glyph unicode="&#xe6;" glyph-name="ae" horiz-adv-x="756" d="M714 216H445Q445 162 451 141T480 113T560 106Q606 106 698 114V8Q668 1 620 -3T526 -8Q461 -8 421 3T359 39Q328 11 287 2T195 -8Q104 -8 68 27T32 145Q32 205 45 238T89 287T179 303Q220 303
300 299V319Q300 360 293 377T264 398T191 403Q126 403 59 396V502Q153 518 231 518Q331 518 376 480Q423 518 519 518Q613 518 653 493T704 417T714 254V216ZM482 407T469 400T451 372T445 300H578Q578 350 573 372T555 400T513 407Q482 407 469 400ZM300 216H222Q199
216 189 212T174 197T170 159Q170 135 174 124T190 107T230 102Q257 102 271 109T293 136Q300 156 300 194V216Z" />
<glyph unicode="&#xe7;" glyph-name="ccedilla" horiz-adv-x="405" d="M371 8Q315 -6 250 -8L216 -189H86V-184L153 1Q103 13 79 45T47 125T40 255Q40 353 53 407T107 489T235 518Q310 518 368 503V396Q323 403 276 403Q234 403 216 393T192 353T186 255Q186 185
192 156T215 117T276 107Q328 107 371 114V8Z" />
<glyph unicode="&#xe8;" glyph-name="egrave" horiz-adv-x="494" d="M453 215H184Q184 161 190 141T218 113T298 106Q341 106 437 114V8Q407 1 359 -3T264 -8Q161 -8 114 18T53 96T40 254Q40 358 53 411T111 491T253 518Q349 518 391 493T443 416T453 254V215ZM220
407T207 400T189 372T184 300H316Q316 351 311 372T293 400T251 407Q220 407 207 400ZM208 598L101 738V743H243L316 603V598H208Z" />
<glyph unicode="&#xe9;" glyph-name="eacute" horiz-adv-x="494" d="M453 215H184Q184 161 190 141T218 113T298 106Q341 106 437 114V8Q407 1 359 -3T264 -8Q161 -8 114 18T53 96T40 254Q40 358 53 411T111 491T253 518Q349 518 391 493T443 416T453 254V215ZM220
407T207 400T189 372T184 300H316Q316 351 311 372T293 400T251 407Q220 407 207 400ZM194 598V603L267 743H409V738L302 598H194Z" />
<glyph unicode="&#xea;" glyph-name="ecircumflex" horiz-adv-x="494" d="M453 215H184Q184 161 190 141T218 113T298 106Q341 106 437 114V8Q407 1 359 -3T264 -8Q161 -8 114 18T53 96T40 254Q40 358 53 411T111 491T253 518Q349 518 391 493T443 416T453 254V215ZM220
407T207 400T189 372T184 300H316Q316 351 311 372T293 400T251 407Q220 407 207 400ZM99 604V612L184 743H323L409 612V604H312L253 681L195 604H99Z" />
<glyph unicode="&#xeb;" glyph-name="edieresis" horiz-adv-x="494" d="M453 215H184Q184 161 190 141T218 113T298 106Q341 106 437 114V8Q407 1 359 -3T264 -8Q161 -8 114 18T53 96T40 254Q40 358 53 411T111 491T253 518Q349 518 391 493T443 416T453 254V215ZM220
407T207 400T189 372T184 300H316Q316 351 311 372T293 400T251 407Q220 407 207 400ZM99 878V984H220V878H99ZM290 878V984H411V878H290Z" />
<glyph unicode="&#xec;" glyph-name="igrave" horiz-adv-x="255" d="M54 0V510H200V0H54ZM348 598L241 738V743H383L456 603V598H348Z" />
<glyph unicode="&#xed;" glyph-name="iacute" horiz-adv-x="255" d="M54 0V510H200V0H54ZM55 598V603L128 743H270V738L163 598H55Z" />
<glyph unicode="&#xee;" glyph-name="icircumflex" horiz-adv-x="255" d="M54 0V510H200V0H54ZM229 604V612L314 743H453L539 612V604H442L383 681L325 604H229Z" />
<glyph unicode="&#xef;" glyph-name="idieresis" horiz-adv-x="255" d="M54 0V510H200V0H54ZM228 878V984H349V878H228ZM419 878V984H540V878H419Z" />
<glyph unicode="&#xf0;" glyph-name="eth" horiz-adv-x="510" d="M153 -8T109 15T53 89T40 254Q40 355 50 408T96 489T206 517Q252 517 291 504L294 508Q283 547 260 595L152 579V663L212 671Q180 711 152 739V743H304Q329 718 349 691L456 707V624L399 615Q433
550 453 450Q467 375 467 260Q467 143 455 91T399 15T254 -8Q153 -8 109 15ZM290 106T303 115T320 150T323 254Q323 328 320 355T304 393T254 403Q218 403 205 395T188 359T185 254Q185 177 188 151T204 115T254 106Q290 106 303 115Z" />
<glyph unicode="&#xf1;" glyph-name="ntilde" horiz-adv-x="524" d="M325 273Q325 334 322 357T307 387T265 394Q234 394 221 384T203 348T199 264V0H54V510H192L196 449H204Q236 518 334 518Q392 518 421 498T460 437T470 327V0H325V273ZM441 691T437 664T414
622T357 607Q334 607 311 611T254 625Q245 627 223 632T188 638Q173 638 170 630T166 596H89Q89 648 93 675T116 717T173 732Q196 732 218 728T277 714Q295 709 313 706T342 702Q357 702 360 709T364 743H441Q441 691 437 664Z" />
<glyph unicode="&#xf2;" glyph-name="ograve" horiz-adv-x="507" d="M153 -8T109 14T52 87T40 255Q40 371 52 422T108 496T254 518Q355 518 399 496T455 423T468 255Q468 140 456 89T399 15T254 -8Q153 -8 109 14ZM290 107T303 116T319 152T323 255Q323 331 320
358T303 394T254 403Q218 403 205 395T188 359T185 255Q185 178 188 152T204 116T254 107Q290 107 303 116ZM207 598L100 738V743H242L315 603V598H207Z" />
<glyph unicode="&#xf3;" glyph-name="oacute" horiz-adv-x="507" d="M153 -8T109 14T52 87T40 255Q40 371 52 422T108 496T254 518Q355 518 399 496T455 423T468 255Q468 140 456 89T399 15T254 -8Q153 -8 109 14ZM290 107T303 116T319 152T323 255Q323 331 320
358T303 394T254 403Q218 403 205 395T188 359T185 255Q185 178 188 152T204 116T254 107Q290 107 303 116ZM192 598V603L265 743H407V738L300 598H192Z" />
<glyph unicode="&#xf4;" glyph-name="ocircumflex" horiz-adv-x="507" d="M153 -8T109 14T52 87T40 255Q40 371 52 422T108 496T254 518Q355 518 399 496T455 423T468 255Q468 140 456 89T399 15T254 -8Q153 -8 109 14ZM290 107T303 116T319 152T323 255Q323 331
320 358T303 394T254 403Q218 403 205 395T188 359T185 255Q185 178 188 152T204 116T254 107Q290 107 303 116ZM100 604V612L185 743H324L410 612V604H313L254 681L196 604H100Z" />
<glyph unicode="&#xf5;" glyph-name="otilde" horiz-adv-x="507" d="M153 -8T109 14T52 87T40 255Q40 371 52 422T108 496T254 518Q355 518 399 496T455 423T468 255Q468 140 456 89T399 15T254 -8Q153 -8 109 14ZM290 107T303 116T319 152T323 255Q323 331 320
358T303 394T254 403Q218 403 205 395T188 359T185 255Q185 178 188 152T204 116T254 107Q290 107 303 116ZM431 691T427 664T404 622T347 607Q324 607 301 611T244 625Q235 627 213 632T178 638Q163 638 160 630T156 596H79Q79 648 83 675T106 717T163 732Q186
732 208 728T267 714Q285 709 303 706T332 702Q347 702 350 709T354 743H431Q431 691 427 664Z" />
<glyph unicode="&#xf6;" glyph-name="odieresis" horiz-adv-x="507" d="M153 -8T109 14T52 87T40 255Q40 371 52 422T108 496T254 518Q355 518 399 496T455 423T468 255Q468 140 456 89T399 15T254 -8Q153 -8 109 14ZM290 107T303 116T319 152T323 255Q323 331
320 358T303 394T254 403Q218 403 205 395T188 359T185 255Q185 178 188 152T204 116T254 107Q290 107 303 116ZM99 878V984H220V878H99ZM290 878V984H411V878H290Z" />
<glyph unicode="&#xf7;" glyph-name="divide" horiz-adv-x="508" d="M197 381V478H310V381H197ZM64 197V309H444V197H64ZM197 27V125H310V27H197Z" />
<glyph unicode="&#xf8;" glyph-name="oslash" horiz-adv-x="507" d="M83 32Q55 58 48 107T40 255Q40 371 52 422T108 496T254 518Q297 518 322 514L348 565H468L424 478Q452 452 460 403T468 255Q468 140 456 89T399 15T254 -8Q210 -8 185 -4L160 -55H40L83 32ZM290
107T303 116T319 152T323 255Q323 331 320 358T303 394T254 403Q218 403 205 395T188 359T185 255Q185 178 188 152T204 116T254 107Q290 107 303 116Z" />
<glyph unicode="&#xf9;" glyph-name="ugrave" horiz-adv-x="524" d="M328 61H320Q288 -8 189 -8Q132 -8 103 12T63 73T53 183V510H198V237Q198 177 202 153T217 123T259 116Q289 116 302 126T320 163T324 246V510H469V0H332L328 61ZM214 598L107 738V743H249L322
603V598H214Z" />
<glyph unicode="&#xfa;" glyph-name="uacute" horiz-adv-x="524" d="M328 61H320Q288 -8 189 -8Q132 -8 103 12T63 73T53 183V510H198V237Q198 177 202 153T217 123T259 116Q289 116 302 126T320 163T324 246V510H469V0H332L328 61ZM207 598V603L280 743H422V738L315
598H207Z" />
<glyph unicode="&#xfb;" glyph-name="ucircumflex" horiz-adv-x="524" d="M328 61H320Q288 -8 189 -8Q132 -8 103 12T63 73T53 183V510H198V237Q198 177 202 153T217 123T259 116Q289 116 302 126T320 163T324 246V510H469V0H332L328 61ZM107 604V612L192 743H331L417
612V604H320L261 681L203 604H107Z" />
<glyph unicode="&#xfc;" glyph-name="udieresis" horiz-adv-x="524" d="M328 61H320Q288 -8 189 -8Q132 -8 103 12T63 73T53 183V510H198V237Q198 177 202 153T217 123T259 116Q289 116 302 126T320 163T324 246V510H469V0H332L328 61ZM106 878V984H227V878H106ZM297
878V984H418V878H297Z" />
<glyph unicode="&#xfd;" glyph-name="yacute" horiz-adv-x="524" d="M147 -204T86 -193V-88Q135 -89 212 -89Q268 -89 290 -82T318 -52T324 26V68H317Q300 32 268 17T190 1Q132 1 103 22T63 85T53 200V510H198V245Q198 185 202 162T217 132T259 125Q290 125 303
135T320 170T324 254V510H469V59Q469 -44 456 -97T395 -177T246 -204Q147 -204 86 -193ZM204 598V603L277 743H419V738L312 598H204Z" />
<glyph unicode="&#xfe;" glyph-name="thorn" horiz-adv-x="518" d="M54 743H199V450H207Q224 489 255 503T330 518Q386 518 418 495T464 416T479 256Q479 154 465 97T419 16T331 -8Q286 -8 256 6T207 54H199V-190H54V743ZM300 116T313 124T330 159T334 255Q334
324 330 351T313 387T266 395Q239 395 226 387T207 355Q202 340 201 317T199 255Q199 185 205 162Q211 135 224 126T266 116Q300 116 313 124Z" />
<glyph unicode="&#xff;" glyph-name="ydieresis" horiz-adv-x="524" d="M147 -204T86 -193V-88Q135 -89 212 -89Q268 -89 290 -82T318 -52T324 26V68H317Q300 32 268 17T190 1Q132 1 103 22T63 85T53 200V510H198V245Q198 185 202 162T217 132T259 125Q290 125
303 135T320 170T324 254V510H469V59Q469 -44 456 -97T395 -177T246 -204Q147 -204 86 -193ZM106 878V984H227V878H106ZM297 878V984H418V878H297Z" />
<glyph unicode="&#x2013;" glyph-name="endash" horiz-adv-x="462" d="M44 249V360H418V249H44Z" />
<glyph unicode="&#x2014;" glyph-name="emdash" horiz-adv-x="849" d="M44 249V360H805V249H44Z" />
<glyph unicode="&#x2018;" glyph-name="quoteleft" horiz-adv-x="263" d="M58 513Q58 588 68 623T110 673T211 688V630Q173 630 162 617T150 563V548H205V418H58V513Z" />
<glyph unicode="&#x2019;" glyph-name="quoteright" horiz-adv-x="263" d="M90 476T101 489T113 543V558H58V688H205V593Q205 518 195 483T153 433T52 418V476Q90 476 101 489Z" />
<glyph unicode="&#x201a;" glyph-name="quotesinglbase" horiz-adv-x="264" d="M90 -82T101 -69T113 -15V0H58V130H205V35Q205 -40 195 -75T153 -125T52 -140V-82Q90 -82 101 -69Z" />
<glyph unicode="&#x201c;" glyph-name="quotedblleft" horiz-adv-x="467" d="M58 513Q58 588 68 623T110 673T211 688V630Q173 630 162 617T150 563V548H205V418H58V513ZM262 513Q262 588 272 623T314 673T415 688V630Q377 630 366 617T354 563V548H409V418H262V513Z" />
<glyph unicode="&#x201d;" glyph-name="quotedblright" horiz-adv-x="467" d="M90 476T101 489T113 543V558H58V688H205V593Q205 518 195 483T153 433T52 418V476Q90 476 101 489ZM294 476T305 489T317 543V558H262V688H409V593Q409 518 399 483T357 433T256 418V476Q294
476 305 489Z" />
<glyph unicode="&#x201e;" glyph-name="quotedblbase" horiz-adv-x="468" d="M90 -82T101 -69T113 -15V0H58V130H205V35Q205 -40 195 -75T153 -125T52 -140V-82Q90 -82 101 -69ZM294 -82T305 -69T317 -15V0H262V130H409V35Q409 -40 399 -75T357 -125T256 -140V-82Q294
-82 305 -69Z" />
<glyph unicode="&#x2022;" glyph-name="bullet" horiz-adv-x="344" d="M284 289T278 268T250 239T171 231Q116 231 95 239T67 268T61 342Q61 397 67 418T94 448T171 456Q227 456 249 448T278 418T284 342Q284 289 278 268Z" />
<glyph unicode="&#x2039;" glyph-name="guilsinglleft" horiz-adv-x="283" d="M138 109L28 309L138 510H235L148 309L235 109H138Z" />
<glyph unicode="&#x203a;" glyph-name="guilsinglright" horiz-adv-x="283" d="M47 109L134 309L47 510H144L255 309L144 109H47Z" />
</font>
</defs>
</svg>
