<?xml version="1.0" standalone="no"?>
<!DOCTYPE svg PUBLIC "-//W3C//DTD SVG 1.1//EN" "http://www.w3.org/Graphics/SVG/1.1/DTD/svg11.dtd">
<svg xmlns="http://www.w3.org/2000/svg">
<defs >
<font id="Sintony" horiz-adv-x="558" ><font-face
    font-family="Sintony"
    units-per-em="1000"
    panose-1="2 0 5 3 5 0 0 2 0 4"
    ascent="995"
    descent="-308"
    alphabetic="0" />
<glyph unicode=" " glyph-name="space" horiz-adv-x="275" />
<glyph unicode="!" glyph-name="exclam" horiz-adv-x="298" d="M215 18T198 5T150 -8T102 5T82 32T78 67T80 98T88 123T110 142T149 149T189 143T212 123Q222 102 222 75T219 33ZM75 730H223V548L189 209H109L75 548V730Z" />
<glyph unicode="&quot;" glyph-name="quotedbl" horiz-adv-x="416" d="M240 730H368V664L342 467H266L240 664V730ZM48 730H176V664L150 467H74L48 664V730Z" />
<glyph unicode="#" glyph-name="numbersign" horiz-adv-x="814" d="M415 -76L457 156H282L240 -76H105L147 156H44L63 261H166L203 468H100L119 573H222L265 805H400L357 573H532L575 805H710L667 573H770L751 468H648L611 261H715L696 156H592L550 -76H415ZM338
468L301 261H476L513 468H338Z" />
<glyph unicode="$" glyph-name="dollar" horiz-adv-x="630" d="M160 330T115 381T70 525T117 671T272 734V843H363V734Q468 725 513 674T559 526L441 517Q441 575 414 602T322 630T231 604T204 524Q204 438 289 427L377 415Q576 389 576 200T363 -5V-113H272V-5Q160
3 113 54T66 203L184 212Q184 154 213 125T314 95T414 121T443 200Q443 286 345 301L258 315Q160 330 115 381Z" />
<glyph unicode="%" glyph-name="percent" horiz-adv-x="976" d="M320 -66L534 735H619L404 -66H320ZM844 -8T750 -8T621 46T585 202T620 358T750 414T880 359T916 202T880 47ZM700 133T710 105T750 77T791 105T801 203T791 300T751 328T710 301T700 203ZM293 318T199
318T70 372T34 528T69 684T199 740T329 685T365 528T329 373ZM149 459T159 431T199 403T240 431T250 529T240 626T200 654T159 627T149 529Z" />
<glyph unicode="&amp;" glyph-name="ampersand" horiz-adv-x="645" d="M294 637Q240 637 217 610T193 530T216 446T279 414H290V321Q231 321 202 294T173 206T202 119T299 92T394 121T423 211V321H359V414H653V321H541V226Q541 160 532 119T496 45T419 -1T289
-15Q159 -15 99 41T39 195Q39 265 77 312T180 376Q127 395 93 440T59 544Q59 635 112 689T275 744T435 708T500 593L386 557Q373 637 294 637Z" />
<glyph unicode="&apos;" glyph-name="quotesingle" horiz-adv-x="224" d="M48 730H176V664L150 467H74L48 664V730Z" />
<glyph unicode="(" glyph-name="parenleft" horiz-adv-x="318" d="M309 28V-66Q188 -66 130 -6Q71 54 54 142Q37 226 37 315T41 455T63 562T108 653T188 712T309 735V641Q250 641 222 596T188 498T180 412T178 335T179 258T185 187T199 123T222 74Q250 28 309 28Z" />
<glyph unicode=")" glyph-name="parenright" horiz-adv-x="318" d="M9 641V735Q130 735 188 676Q247 615 264 528Q281 443 281 354T277 214T255 107T210 16T130 -43T9 -66V28Q68 28 96 73T130 171T138 257T140 334T139 411T133 482T119 546T96 596Q68 641 9 641Z" />
<glyph unicode="*" glyph-name="asterisk" horiz-adv-x="557" d="M214 779H342V684L298 577H258L214 684V779ZM24 554L60 661L151 631L241 564L228 526L115 523L24 554ZM181 293L84 366L140 447L235 506L267 481L239 373L181 293ZM473 366L376 293L318 373L289
481L322 505L417 447L473 366ZM497 661L533 554L442 523L329 525L317 564L405 631L497 661Z" />
<glyph unicode="+" glyph-name="plus" horiz-adv-x="580" d="M86 272V364H244V522H336V364H494V272H336V114H244V272H86Z" />
<glyph unicode="," glyph-name="comma" horiz-adv-x="226" d="M65 -5T55 24T45 72T47 101T55 124Q68 149 105 149T158 137T178 110T181 74Q181 -37 54 -138L19 -97Q65 -53 65 -18Q65 -5 55 24Z" />
<glyph unicode="-" glyph-name="hyphen" horiz-adv-x="476" d="M62 272V364H414V272H62Z" />
<glyph unicode="." glyph-name="period" horiz-adv-x="234" d="M172 5T157 -1T113 -8T69 5T49 32T45 67T47 98T56 123Q68 149 116 149Q166 149 178 123Q189 102 189 78T187 42T179 18Z" />
<glyph unicode="/" glyph-name="slash" horiz-adv-x="356" d="M-8 -106L229 775H364L127 -106H-8Z" />
<glyph unicode="0" glyph-name="zero" horiz-adv-x="646" d="M403 -14T323 -14T188 14T104 97T63 216T51 365T63 514T104 632T188 716T323 745T458 716T543 633T584 514T596 365T584 216T543 98T459 15ZM244 91T323 91T431 158T461 365T432 572T323 639Q269 639
238 605T197 514T186 341T215 158Z" />
<glyph unicode="1" glyph-name="one" horiz-adv-x="646" d="M129 596V675Q246 688 305 730H412V106H557V0H131V106H276V596H129Z" />
<glyph unicode="2" glyph-name="two" horiz-adv-x="646" d="M324 744Q439 744 499 689T560 539Q560 482 533 432T452 323L252 106H571V0H68V96L334 385Q383 438 404 470T426 543T398 611T315 638Q200 638 194 526L77 543Q94 744 324 744Z" />
<glyph unicode="3" glyph-name="three" horiz-adv-x="646" d="M307 92Q440 92 440 198Q440 312 297 312H223V410H298Q369 410 399 440T430 524T399 608T307 638Q195 638 189 525L72 541Q87 744 316 744Q436 744 500 685T564 526Q564 415 456 364Q573 317 573 189Q573
99 503 43T313 -14T132 33T59 178L176 193Q188 92 307 92Z" />
<glyph unicode="4" glyph-name="four" horiz-adv-x="646" d="M504 0H373V154H20V252L305 730H504V260H581V154H504V0ZM373 260V605L172 260H373Z" />
<glyph unicode="5" glyph-name="five" horiz-adv-x="646" d="M327 91Q391 91 422 125T454 218T404 313T222 348H98L123 730H543V624H236L225 457H269Q433 457 511 393T589 214Q589 117 522 52T327 -14Q99 -14 86 208L203 218Q209 91 327 91Z" />
<glyph unicode="6" glyph-name="six" horiz-adv-x="646" d="M334 638Q259 638 229 583T195 415Q280 434 353 434Q594 434 594 220Q594 107 530 47T328 -14Q63 -14 63 334Q63 537 123 640T334 744Q565 744 578 533L461 521Q455 638 334 638ZM323 334Q257 334 195
317Q199 192 231 142T334 91Q462 91 462 220Q462 334 323 334Z" />
<glyph unicode="7" glyph-name="seven" horiz-adv-x="646" d="M68 624V730H570V638L294 0H149L423 624H68Z" />
<glyph unicode="8" glyph-name="eight" horiz-adv-x="646" d="M58 190Q58 309 165 363Q68 413 68 533Q68 625 133 684T323 744T513 685T579 533Q579 423 483 370Q589 318 589 190Q589 101 517 44T324 -14T130 43T58 190ZM194 193Q194 146 227 117T323 88T420 117T454
196T432 276T356 316L288 326Q194 306 194 193ZM262 642T233 610T203 527T224 450T301 414L357 405Q400 416 422 448T444 528T415 609T324 642Z" />
<glyph unicode="9" glyph-name="nine" horiz-adv-x="646" d="M308 91Q382 91 412 141T447 310Q374 291 293 291Q165 291 108 350T51 509T123 676T330 744T523 653T583 390Q583 289 571 219T529 94Q470 -14 309 -14Q74 -14 63 194L179 207Q185 91 308 91ZM187 462T219
428T321 393T447 408Q444 528 417 583T323 638T222 603T187 515Z" />
<glyph unicode=":" glyph-name="colon" horiz-adv-x="234" d="M172 5T157 -1T113 -8T69 5T49 32T45 67T47 98T56 123Q68 149 116 149Q166 149 178 123Q189 102 189 78T187 42T179 18ZM172 402T157 396T113 389T69 402T49 429T45 464T47 495T56 520Q68 546 116
546Q166 546 178 520Q189 499 189 475T187 439T179 415Z" />
<glyph unicode=";" glyph-name="semicolon" horiz-adv-x="226" d="M65 -5T55 24T45 72T47 101T55 124Q68 149 105 149T158 137T178 110T181 74Q181 -37 54 -138L19 -97Q65 -53 65 -18Q65 -5 55 24ZM168 402T153 396T109 389T65 402T45 429T41 464T43 495T52 520Q64
546 112 546Q162 546 174 520Q185 499 185 475T183 439T175 415Z" />
<glyph unicode="&lt;" glyph-name="less" horiz-adv-x="580" d="M89 259V375L491 547V445L173 317L491 189V87L89 259Z" />
<glyph unicode="=" glyph-name="equal" horiz-adv-x="580" d="M86 380V472H494V380H86ZM86 164V256H494V164H86Z" />
<glyph unicode="&gt;" glyph-name="greater" horiz-adv-x="580" d="M491 375V259L89 87V189L406 317L89 445V547L491 375Z" />
<glyph unicode="?" glyph-name="question" horiz-adv-x="468" d="M265 5T250 -1T206 -8T162 5T142 32T138 67T140 98T148 123Q162 149 209 149Q258 149 272 123Q282 102 282 78T280 42T272 18ZM28 653T82 698T239 744T400 683T460 538T405 400T261 319L250 209H166L157
365Q248 393 287 432T326 524T303 609T231 643Q143 643 135 555L20 571Q28 653 82 698Z" />
<glyph unicode="@" glyph-name="at" horiz-adv-x="1052" d="M534 -113Q234 -113 134 60Q74 163 74 328Q74 533 188 651T524 769T862 662T978 365Q978 253 934 192Q884 125 749 125H630L597 173Q535 115 463 115Q310 115 310 340T496 565Q565 565 631 533L656 565H708V213H737Q807
213 834 247T861 365Q861 504 784 589T534 674Q350 674 272 578Q200 489 200 328Q200 262 207 213T237 118T296 44Q374 -18 534 -18H708V-113H534ZM513 206Q551 206 586 241V463Q560 473 529 473Q476 473 453 440T430 340Q430 206 513 206Z" />
<glyph unicode="A" glyph-name="A" horiz-adv-x="642" d="M233 730H410L634 0H503L441 202H201L140 0H8L233 730ZM321 601L232 305H410L321 601Z" />
<glyph unicode="B" glyph-name="B" horiz-adv-x="625" d="M358 0H94V730H324Q459 730 512 670Q559 616 559 543Q559 418 452 377Q524 357 557 307T591 195Q591 118 544 63Q520 34 472 17T358 0ZM230 105H350Q402 105 428 134T455 213T429 292T350 321H230V105ZM230
425H322Q370 425 396 451T423 524T397 598T322 625H230V425Z" />
<glyph unicode="C" glyph-name="C" horiz-adv-x="626" d="M352 634Q258 634 225 573T192 366T225 158T352 96Q425 96 455 136T488 252L598 247Q590 118 537 52T352 -14Q181 -14 116 86Q83 136 70 202T56 365T69 527T116 644Q181 744 352 744Q475 744 529 689T595
527L485 510Q479 570 448 602T352 634Z" />
<glyph unicode="D" glyph-name="D" horiz-adv-x="698" d="M94 730H337Q514 730 577 622Q608 570 620 509T632 374T625 248T599 149T547 69Q476 0 337 0H94V730ZM319 625H230V105H319Q426 105 464 182Q496 249 496 365T464 548Q426 625 319 625Z" />
<glyph unicode="E" glyph-name="E" horiz-adv-x="560" d="M94 730H506V625H230V423H481V319H230V105H526V0H94V730Z" />
<glyph unicode="F" glyph-name="F" horiz-adv-x="512" d="M94 730H486V625H230V423H453V319H230V0H94V730Z" />
<glyph unicode="G" glyph-name="G" horiz-adv-x="695" d="M348 96Q492 96 494 252V286H382V373H611V0H543L520 73Q456 -14 340 -14Q176 -14 114 88Q82 140 69 206T56 366T69 527T116 644Q181 744 352 744Q475 744 529 689T595 527L485 510Q479 570 448 602T352
634Q258 634 225 572T192 367T224 160T348 96Z" />
<glyph unicode="H" glyph-name="H" horiz-adv-x="730" d="M500 730H636V0H500V313H230V0H94V730H230V417H500V730Z" />
<glyph unicode="I" glyph-name="I" horiz-adv-x="324" d="M94 730H230V0H94V730Z" />
<glyph unicode="J" glyph-name="J" horiz-adv-x="485" d="M406 730V183Q406 137 400 107T373 46Q333 -14 194 -14Q81 -14 42 34Q16 67 11 101Q4 148 4 207H122Q122 145 138 121T196 96T254 115T270 183V730H406Z" />
<glyph unicode="K" glyph-name="K" horiz-adv-x="621" d="M230 319V0H94V730H230V422H281L466 730H606L386 370L625 0H480L275 319H230Z" />
<glyph unicode="L" glyph-name="L" horiz-adv-x="483" d="M94 0V730H230V105H479V0H94Z" />
<glyph unicode="M" glyph-name="M" horiz-adv-x="885" d="M592 730H782L801 0H667L656 562L493 87H375L228 546L218 0H84L102 730H293L436 269L592 730Z" />
<glyph unicode="N" glyph-name="N" horiz-adv-x="757" d="M527 730H663V0H519L230 496V0H94V730H238L527 233V730Z" />
<glyph unicode="O" glyph-name="O" horiz-adv-x="709" d="M563 43T503 15T363 -14T230 5T144 57T91 140Q56 228 56 365Q56 450 69 514T114 632Q178 744 354 744Q554 744 618 589Q653 502 653 365Q653 279 640 215T595 97ZM354 96Q445 96 481 167T517 365T481 563T354
634Q258 634 223 556Q192 485 192 365Q192 165 273 116Q306 96 354 96Z" />
<glyph unicode="P" glyph-name="P" horiz-adv-x="597" d="M346 259H230V0H94V730H346Q478 730 532 658Q579 593 579 494Q579 396 532 332Q478 259 346 259ZM230 364H325Q443 364 443 494T325 625H230V364Z" />
<glyph unicode="Q" glyph-name="Q" horiz-adv-x="699" d="M70 185T63 239T56 376T68 524T113 642T203 719T349 744T495 719T585 642T630 525T643 343T613 142T507 17L639 -39L585 -144L321 -13Q139 -4 88 137Q70 185 63 239ZM192 229T225 163T349 96T473 162T507
365T474 567T350 634T226 568T192 365Z" />
<glyph unicode="R" glyph-name="R" horiz-adv-x="660" d="M94 730H349Q488 730 542 657Q588 594 588 509Q588 358 470 309Q492 285 508 249L619 0H474L370 237Q356 267 340 278T290 289H230V0H94V730ZM230 394H333Q393 394 422 427T452 509T423 592T333 625H230V394Z" />
<glyph unicode="S" glyph-name="S" horiz-adv-x="603" d="M471 389T515 341T559 197T493 44T299 -14T114 40T44 199L153 216Q159 157 193 125T290 92Q423 92 423 193Q423 236 398 258T302 298L245 312Q145 337 102 386T59 532T122 687T308 744T486 690T554 531L446
514Q433 638 318 638Q255 638 225 611T195 538T218 471T306 432L369 415Q471 389 515 341Z" />
<glyph unicode="T" glyph-name="T" horiz-adv-x="515" d="M-2 627V730H517V627H326V0H190V627H-2Z" />
<glyph unicode="U" glyph-name="U" horiz-adv-x="703" d="M488 730H624V241Q624 174 607 126T565 52T501 10T429 -10T351 -14T274 -10T201 9T138 51T96 126T79 241V730H215V251Q215 158 251 128T351 97Q382 97 403 102T445 122Q488 153 488 251V730Z" />
<glyph unicode="V" glyph-name="V" horiz-adv-x="629" d="M402 0H226L10 730H146L314 132L482 730H619L402 0Z" />
<glyph unicode="W" glyph-name="W" horiz-adv-x="907" d="M360 0H163L22 730H158L266 135L386 730H521L640 135L749 730H885L744 0H547L453 455L360 0Z" />
<glyph unicode="X" glyph-name="X" horiz-adv-x="622" d="M5 730H160L324 477L476 730H619L396 366L634 0H479L306 266L149 0H7L235 376L5 730Z" />
<glyph unicode="Y" glyph-name="Y" horiz-adv-x="574" d="M355 0H219V254L-6 730H130L287 381L444 730H580L355 254V0Z" />
<glyph unicode="Z" glyph-name="Z" horiz-adv-x="562" d="M42 625V730H530V644L185 105H540V0H22V86L367 625H42Z" />
<glyph unicode="[" glyph-name="bracketleft" horiz-adv-x="328" d="M72 -66V735H319V643H209V26H319V-66H72Z" />
<glyph unicode="\" glyph-name="backslash" horiz-adv-x="356" d="M127 775L364 -106H229L-8 775H127Z" />
<glyph unicode="]" glyph-name="bracketright" horiz-adv-x="328" d="M256 735V-66H9V26H119V643H9V735H256Z" />
<glyph unicode="^" glyph-name="asciicircum" horiz-adv-x="580" d="M232 618H348L500 316H398L290 545L182 316H80L232 618Z" />
<glyph unicode="_" glyph-name="underscore" horiz-adv-x="564" d="M62 -92V0H502V-92H62Z" />
<glyph unicode="`" glyph-name="grave" horiz-adv-x="298" d="M271 692L226 620L16 729L76 825L271 692Z" />
<glyph unicode="a" glyph-name="a" horiz-adv-x="597" d="M295 586Q513 586 513 387V0H426L388 70Q308 -14 201 -14Q125 -14 86 28T46 142T91 258T259 320L379 338V386Q379 483 287 483Q200 483 184 395L80 426Q118 586 295 586ZM244 84Q312 84 379 151V254L283
237Q218 226 197 202T176 148T194 101T244 84Z" />
<glyph unicode="b" glyph-name="b" horiz-adv-x="628" d="M362 -14Q271 -14 189 38L158 0H94V752L228 762V558Q296 586 362 586Q592 586 592 286T362 -14ZM325 483Q277 483 228 463V112Q271 89 322 89Q458 89 458 286T325 483Z" />
<glyph unicode="c" glyph-name="c" horiz-adv-x="536" d="M170 387T170 286T195 137T284 89T375 115T405 197L510 192Q504 90 451 38T275 -14Q132 -14 80 79Q55 124 46 173T36 286T45 400T80 494Q131 586 275 586Q396 586 449 537T509 389L405 375Q403 431 376
457T285 483T196 435Z" />
<glyph unicode="d" glyph-name="d" horiz-adv-x="628" d="M229 -14Q36 -14 36 286T270 586Q336 586 400 562V752L534 762V0H447L410 71Q327 -14 229 -14ZM282 89Q344 89 400 153V463Q351 483 304 483Q232 483 201 433T170 286Q170 89 282 89Z" />
<glyph unicode="e" glyph-name="e" horiz-adv-x="563" d="M292 -14Q154 -14 95 60T36 286Q36 586 288 586Q433 586 486 496Q532 419 532 296V260H166Q167 166 197 128T296 89Q407 89 414 169L524 165Q508 -14 292 -14ZM344 483T287 483T204 452T169 351H400Q394
418 369 450Z" />
<glyph unicode="f" glyph-name="f" horiz-adv-x="351" d="M293 670Q240 670 240 611V572H348V485H240V0H106V485H44V572H106V611Q106 775 279 775Q344 775 393 757L360 656Q326 670 293 670Z" />
<glyph unicode="g" glyph-name="g" horiz-adv-x="578" d="M448 205T401 187T291 168T185 183L157 153Q140 136 140 120Q140 96 173 96H386Q465 96 510 53T556 -48T532 -140T463 -190Q387 -217 269 -217T86 -189T22 -91Q22 -58 41 -32T88 9Q27 28 27 98Q27 144
63 183L109 231Q62 285 62 377Q62 458 106 517Q156 586 288 586Q345 586 387 572H554V493H488Q515 444 515 391T505 303T472 237ZM190 497T190 377T288 257T387 377T289 497ZM144 -97T176 -107T284 -117T390 -106T422 -56Q422 0 344 0H173Q144 -26 144 -61Z" />
<glyph unicode="h" glyph-name="h" horiz-adv-x="663" d="M228 537Q310 586 400 586T535 538T579 404V0H445V390Q445 441 427 462T362 483Q290 483 228 438V0H94V752L228 762V537Z" />
<glyph unicode="i" glyph-name="i" horiz-adv-x="322" d="M94 572H228V0H94V572ZM161 640Q86 640 86 717T161 795Q238 795 238 718T161 640Z" />
<glyph unicode="j" glyph-name="j" horiz-adv-x="322" d="M41 -104Q94 -104 94 -45V572H228V-45Q228 -209 55 -209Q-9 -209 -60 -192L-27 -91Q6 -104 41 -104ZM161 640Q86 640 86 717T161 795Q238 795 238 718T161 640Z" />
<glyph unicode="k" glyph-name="k" horiz-adv-x="575" d="M228 0H94V752L228 762V354H269L420 572H565L373 300L583 0H438L256 264H228V0Z" />
<glyph unicode="l" glyph-name="l" horiz-adv-x="322" d="M228 0H94V752L228 770V0Z" />
<glyph unicode="m" glyph-name="m" horiz-adv-x="998" d="M371 586Q491 586 539 517Q625 586 722 586T867 538T914 404V0H780V382Q780 434 761 458T694 483Q626 483 569 436Q571 416 571 404V0H437V382Q437 434 417 458T341 483T228 443V0H94V572H165L200 525Q281
586 371 586Z" />
<glyph unicode="n" glyph-name="n" horiz-adv-x="663" d="M200 520Q294 586 392 586T535 538T579 404V0H445V390Q445 441 427 462T362 483Q290 483 228 438V0H94V572H157L200 520Z" />
<glyph unicode="o" glyph-name="o" horiz-adv-x="592" d="M222 89T296 89T396 139T422 286T396 433T296 483T196 433T170 286T196 139ZM556 -14T296 -14T36 286T296 586T556 286Z" />
<glyph unicode="p" glyph-name="p" horiz-adv-x="628" d="M362 586Q592 586 592 286T358 -14Q298 -14 228 6V-205L94 -223V572H158L193 529Q278 586 362 586ZM325 483Q274 483 228 455V103Q275 89 324 89Q396 89 427 139T458 286Q458 483 325 483Z" />
<glyph unicode="q" glyph-name="q" horiz-adv-x="628" d="M269 586Q363 586 439 534L471 572H534V-205L400 -223V12Q329 -14 269 -14Q36 -14 36 286T269 586ZM305 89Q354 89 400 107V459Q356 483 305 483Q170 483 170 286T305 89Z" />
<glyph unicode="r" glyph-name="r" horiz-adv-x="407" d="M228 0H94V572H157L210 483Q279 581 405 586V471Q287 468 228 399V0Z" />
<glyph unicode="s" glyph-name="s" horiz-adv-x="546" d="M503 160Q503 -11 263 -11Q158 -11 107 34T43 167L147 183Q158 87 266 87T375 155Q375 183 354 197T267 226L221 237Q132 258 94 298T55 416Q55 586 287 586Q387 586 436 541T498 408L394 393Q383 488
284 488T184 420Q184 392 203 378T283 349L335 336Q424 314 463 275T503 160Z" />
<glyph unicode="t" glyph-name="t" horiz-adv-x="360" d="M9 485V572H101V676L235 710V572H344V485H235V162Q235 119 247 101T284 83T338 91L355 8Q296 -14 250 -14T175 -3T133 22T112 62Q101 97 101 149V485H9Z" />
<glyph unicode="u" glyph-name="u" horiz-adv-x="664" d="M260 -14Q84 -14 84 168V572H218V190Q218 138 238 114T307 89Q375 89 436 153V572H570V0H483L445 69Q367 -14 260 -14Z" />
<glyph unicode="v" glyph-name="v" horiz-adv-x="545" d="M347 0H198L4 572H139L272 158L406 572H541L347 0Z" />
<glyph unicode="w" glyph-name="w" horiz-adv-x="758" d="M282 0H156L9 572H144L228 180L322 522H435L529 180L614 572H749L603 0H476L379 346L282 0Z" />
<glyph unicode="x" glyph-name="x" horiz-adv-x="530" d="M137 0H2L195 287L11 572H158L270 398L384 572H519L337 294L528 0H381L261 184L137 0Z" />
<glyph unicode="y" glyph-name="y" horiz-adv-x="542" d="M251 -237L132 -219L213 -8L4 572H139L276 174L400 572H537L251 -237Z" />
<glyph unicode="z" glyph-name="z" horiz-adv-x="509" d="M43 478V572H467V490L193 94H476V0H33V82L309 478H43Z" />
<glyph unicode="{" glyph-name="braceleft" horiz-adv-x="329" d="M209 512L217 404Q217 376 203 360T168 343V338Q188 338 202 321T217 277L209 164Q209 28 320 28V-66Q189 -66 130 -11T71 137L79 250Q79 274 57 284T12 294V376Q35 376 57 386T79 420Q79 420
71 533Q71 625 130 680T320 736V642Q209 642 209 512Z" />
<glyph unicode="|" glyph-name="bar" horiz-adv-x="337" d="M96 -106V775H241V-106H96Z" />
<glyph unicode="}" glyph-name="braceright" horiz-adv-x="329" d="M120 167L113 282Q113 310 127 327T161 344V349Q141 349 127 366T113 411L120 526Q120 581 95 611T9 642V736Q141 736 199 681T258 533L250 420Q250 396 271 386T317 376V294Q292 294 271 284T250
250Q250 250 258 137Q258 44 200 -11T9 -66V28Q120 28 120 167Z" />
<glyph unicode="~" glyph-name="asciitilde" horiz-adv-x="580" d="M86 364Q120 340 166 340T289 361T411 383T494 364V272Q456 293 411 293T290 272T168 250T86 272V364Z" />
<glyph unicode="&#xa0;" glyph-name="nbspace" horiz-adv-x="275" />
<glyph unicode="&#xa1;" glyph-name="exclamdown" horiz-adv-x="298" d="M83 560T100 573T148 586T197 573T217 546T220 508T217 470T197 442T153 429T109 435T86 455Q76 476 76 503T79 545ZM223 -152H76V30L110 369H189L223 30V-152Z" />
<glyph unicode="&#xa2;" glyph-name="cent" horiz-adv-x="630" d="M376 -81H286V40Q67 66 67 360T286 688V810H376V691Q555 675 571 471L465 466Q463 520 434 554T353 588T272 571T226 520Q201 462 201 365Q201 142 335 142T473 249L579 242Q564 57 376 40V-81Z" />
<glyph unicode="&#xa3;" glyph-name="sterling" horiz-adv-x="630" d="M62 298V389H127V524Q127 631 179 687T355 744T529 689T581 522L463 513Q463 638 361 638Q305 638 284 610T263 524V389H473V298H263V217Q263 175 253 151T217 106H592V0H67V83Q127 123 127
195V298H62Z" />
<glyph unicode="&#xa4;" glyph-name="currency" horiz-adv-x="630" d="M187 557Q243 593 320 593T448 562L533 647L597 583L511 497Q543 442 543 366T510 233L597 147L533 83L446 169Q392 137 314 137T185 172L97 83L33 147L125 238Q97 291 97 363T126 490L33
583L97 647L187 557ZM216 317T239 285T317 252T398 284T424 365T401 445T323 478T242 446T216 365Z" />
<glyph unicode="&#xa5;" glyph-name="yen" horiz-adv-x="630" d="M69 381V471H163L31 730H169L315 430L462 730H599L467 471H563V381H421L384 308H563V217H381V0H249V217H69V308H246L209 381H69Z" />
<glyph unicode="&#xa6;" glyph-name="brokenbar" horiz-adv-x="337" d="M96 421V775H241V421H96ZM96 -106V248H241V-106H96Z" />
<glyph unicode="&#xa7;" glyph-name="section" horiz-adv-x="504" d="M480 217Q480 99 354 38Q402 -26 402 -100T344 -229T182 -308L151 -211Q197 -201 232 -177T268 -120T259 -68T223 -17L96 133Q24 218 24 298Q24 417 151 477Q102 545 102 617T161 744T322 822L353
726Q307 716 272 692T236 635T243 584T272 542L405 384Q480 306 480 217ZM346 197Q346 227 338 246T301 297L219 393Q158 363 158 317Q158 288 165 270T194 228L284 120Q346 149 346 197Z" />
<glyph unicode="&#xa8;" glyph-name="dieresis" horiz-adv-x="372" d="M99 643T76 643T39 649T19 667Q9 687 9 710T11 743T19 766Q31 792 76 792Q123 792 135 766Q145 746 145 723T143 690T135 667T114 649ZM317 643T294 643T257 649T237 667Q227 687 227 710T229
743T237 766Q249 792 294 792Q341 792 353 766Q363 746 363 723T361 690T353 667T332 649Z" />
<glyph unicode="&#xa9;" glyph-name="copyright" horiz-adv-x="735" d="M360 711Q279 711 279 561T361 411Q434 411 437 500L503 497Q495 352 359 352Q272 352 238 404T203 560T239 716T358 769Q490 769 502 642L435 637Q432 675 415 693T360 711ZM212 243T131
324T50 560T131 796T367 878T603 796T685 560T604 325T367 243ZM122 811T122 561T367 310T613 560T368 811Z" />
<glyph unicode="&#xaa;" glyph-name="ordfeminine" horiz-adv-x="444" d="M221 760Q382 760 382 621V350H304L269 389Q218 340 159 340T69 371T39 454T71 538T194 583L261 592V620Q261 669 213 669T156 618L63 646Q78 704 115 732T221 760ZM155 460Q155 427 191
427T261 456V520L219 512Q155 500 155 460ZM32 204V281H389V204H32Z" />
<glyph unicode="&#xab;" glyph-name="guillemotleft" horiz-adv-x="536" d="M267 466L153 315L267 164L202 100L22 291V339L202 530L267 466ZM498 466L384 315L498 164L433 100L253 291V339L433 530L498 466Z" />
<glyph unicode="&#xac;" glyph-name="logicalnot" horiz-adv-x="580" d="M86 272V364H494V134H406V272H86Z" />
<glyph unicode="&#xae;" glyph-name="registered" horiz-adv-x="735" d="M212 243T131 324T50 560T131 796T367 878T603 796T685 560T604 325T367 243ZM122 811T122 561T367 310T613 560T368 811ZM242 762H373Q458 762 484 720Q505 686 505 643Q505 548 440 529Q454
516 464 494L522 360H442L386 490Q375 517 350 517H318V360H242V762ZM318 574H372Q429 574 429 639T372 704H318V574Z" />
<glyph unicode="&#xaf;" glyph-name="overscore" horiz-adv-x="354" d="M42 670V767H312V670H42Z" />
<glyph unicode="&#xb0;" glyph-name="degree" horiz-adv-x="409" d="M161 431T204 431T259 452T271 525T259 598T204 620T150 599T138 525T149 452ZM318 361T285 351T199 340T109 354T54 398T32 455T26 525T31 595T54 652T108 695T204 710T300 696T355 653T377
596T383 530T380 469T367 419T337 377Z" />
<glyph unicode="&#xb1;" glyph-name="plusminus" horiz-adv-x="580" d="M86 322V414H244V572H336V414H494V322H336V164H244V322H86ZM86 0V92H494V0H86Z" />
<glyph unicode="&#xb2;" glyph-name="twosuperior" horiz-adv-x="387" d="M39 633Q49 754 191 754Q262 754 297 721T333 634T272 514L193 426H341V340H38V407L175 550Q220 598 220 632T181 666Q159 666 149 656T137 622L39 633Z" />
<glyph unicode="&#xb3;" glyph-name="threesuperior" horiz-adv-x="387" d="M136 464Q139 417 187 417T235 459Q235 507 161 507H152V574H162Q232 574 232 627Q232 644 221 655T190 666Q150 666 145 623L46 635Q50 700 86 727T194 754T304 719T342 626T282 542Q348
516 348 450Q348 403 305 368T190 332T80 359T38 452L136 464Z" />
<glyph unicode="&#xb4;" glyph-name="acute" horiz-adv-x="298" d="M72 620L27 692L222 825L282 729L72 620Z" />
<glyph unicode="&#xb5;" glyph-name="mu" horiz-adv-x="625" d="M230 -227H96V572H230V129Q292 89 351 89T430 113T450 190V572H584V168Q584 -14 407 -14Q318 -14 230 32V-227Z" />
<glyph unicode="&#xb6;" glyph-name="paragraph" horiz-adv-x="513" d="M399 0H263V269H219Q117 269 66 326T14 469T65 612T219 670H399V0Z" />
<glyph unicode="&#xb7;" glyph-name="middot" horiz-adv-x="234" d="M172 270T157 264T113 257T69 270T49 297T45 332T47 363T56 388Q68 414 116 414Q166 414 178 388Q189 367 189 343T187 307T179 283Z" />
<glyph unicode="&#xb8;" glyph-name="cedilla" horiz-adv-x="283" d="M26 -130H110Q110 -167 142 -167Q156 -167 164 -161T173 -147T175 -129Q175 -98 139 -92L86 -83L95 -35H139Q196 -35 226 -55T257 -131T232 -213T141 -241Q26 -241 26 -130Z" />
<glyph unicode="&#xb9;" glyph-name="onesuperior" horiz-adv-x="387" d="M67 649V715Q136 722 169 745H264V340H149V649H67Z" />
<glyph unicode="&#xba;" glyph-name="ordmasculine" horiz-adv-x="409" d="M26 204V281H383V204H26ZM137 487T150 459T204 431T258 459T272 550T259 641T205 669T151 641T137 550ZM393 760T393 550T205 340T16 550T204 760Z" />
<glyph unicode="&#xbb;" glyph-name="guillemotright" horiz-adv-x="536" d="M263 164L377 315L263 466L328 530L508 339V291L328 100L263 164ZM32 164L146 315L32 466L97 530L277 339V291L97 100L32 164Z" />
<glyph unicode="&#xbc;" glyph-name="onequarter" horiz-adv-x="976" d="M865 0H760V69H567V147L698 405H865V155H898V69H865V0ZM760 155V322L677 155H760ZM72 635V701Q141 708 174 731H269V326H154V635H72ZM320 -36L534 765H619L404 -36H320Z" />
<glyph unicode="&#xbd;" glyph-name="onehalf" horiz-adv-x="976" d="M318 -36L532 765H617L402 -36H318ZM595 293Q605 414 747 414Q818 414 853 381T889 294T828 174L749 86H897V0H594V67L731 210Q776 258 776 292T737 326Q715 326 705 316T693 282L595 293ZM72
635V701Q141 708 174 731H269V326H154V635H72Z" />
<glyph unicode="&#xbe;" glyph-name="threequarters" horiz-adv-x="976" d="M865 0H760V69H567V147L698 405H865V155H898V69H865V0ZM760 155V322L677 155H760ZM141 450Q144 403 192 403T240 445Q240 493 166 493H157V560H167Q237 560 237 613Q237 630 226 641T195
652Q155 652 150 609L51 621Q55 686 91 713T199 740T309 705T347 612T287 528Q353 502 353 436Q353 389 310 354T195 318T85 345T43 438L141 450ZM340 -36L554 765H639L424 -36H340Z" />
<glyph unicode="&#xbf;" glyph-name="questiondown" horiz-adv-x="468" d="M213 573T228 579T272 586T316 573T336 546T340 511T338 480T330 455Q316 429 269 429Q220 429 206 455Q196 476 196 500T198 536T206 560ZM450 -75T396 -120T239 -166T78 -105T18 40T73
178T217 259L228 369H312L321 213Q230 185 191 146T152 54T175 -31T247 -65Q335 -65 343 23L458 7Q450 -75 396 -120Z" />
<glyph unicode="&#xc0;" glyph-name="Agrave" horiz-adv-x="642" d="M233 730H410L634 0H503L441 202H201L140 0H8L233 730ZM321 601L232 305H410L321 601ZM454 850L409 778L199 887L259 983L454 850Z" />
<glyph unicode="&#xc1;" glyph-name="Aacute" horiz-adv-x="642" d="M233 730H410L634 0H503L441 202H201L140 0H8L233 730ZM321 601L232 305H410L321 601ZM254 778L209 850L404 983L464 887L254 778Z" />
<glyph unicode="&#xc2;" glyph-name="Acircumflex" horiz-adv-x="642" d="M233 730H410L634 0H503L441 202H201L140 0H8L233 730ZM321 601L232 305H410L321 601ZM221 784L173 832L301 979H362L490 832L442 784L331 868L221 784Z" />
<glyph unicode="&#xc3;" glyph-name="Atilde" horiz-adv-x="642" d="M233 730H410L634 0H503L441 202H201L140 0H8L233 730ZM321 601L232 305H410L321 601ZM491 873T466 846T410 819T333 837T271 855Q242 855 229 811L154 835Q171 898 196 925T252 952T329 934T392
916Q421 916 434 960L508 936Q491 873 466 846Z" />
<glyph unicode="&#xc4;" glyph-name="Adieresis" horiz-adv-x="642" d="M233 730H410L634 0H503L441 202H201L140 0H8L233 730ZM321 601L232 305H410L321 601ZM244 801T221 801T184 807T164 825Q154 845 154 868T156 901T164 924Q176 950 221 950Q268 950 280
924Q290 904 290 881T288 848T280 825T259 807ZM462 801T439 801T402 807T382 825Q372 845 372 868T374 901T382 924Q394 950 439 950Q486 950 498 924Q508 904 508 881T506 848T498 825T477 807Z" />
<glyph unicode="&#xc5;" glyph-name="Aring" horiz-adv-x="642" d="M233 730H410L634 0H503L441 202H201L140 0H8L233 730ZM321 601L232 305H410L321 601ZM330 834Q371 834 371 883T330 932Q293 932 293 883T330 834ZM330 770Q219 770 219 882T330 995Q395 995
420 962T445 882T420 803T330 770Z" />
<glyph unicode="&#xc6;" glyph-name="AE" horiz-adv-x="935" d="M881 730V625H605V403H856V299H605V105H901V0H469V299H266L143 0H11L316 730H881ZM469 625H400L308 403H469V625Z" />
<glyph unicode="&#xc7;" glyph-name="Ccedilla" horiz-adv-x="626" d="M352 634Q258 634 225 573T192 366T225 158T352 96Q425 96 455 136T488 252L598 247Q590 118 537 52T352 -14Q181 -14 116 86Q83 136 70 202T56 365T69 527T116 644Q181 744 352 744Q475 744
529 689T595 527L485 510Q479 570 448 602T352 634ZM212 -130H296Q296 -167 328 -167Q342 -167 350 -161T359 -147T361 -129Q361 -98 325 -92L272 -83L281 -35H325Q382 -35 412 -55T443 -131T418 -213T327 -241Q212 -241 212 -130Z" />
<glyph unicode="&#xc8;" glyph-name="Egrave" horiz-adv-x="560" d="M94 730H506V625H230V423H481V319H230V105H526V0H94V730ZM437 850L392 778L182 887L242 983L437 850Z" />
<glyph unicode="&#xc9;" glyph-name="Eacute" horiz-adv-x="560" d="M94 730H506V625H230V423H481V319H230V105H526V0H94V730ZM245 778L200 850L395 983L455 887L245 778Z" />
<glyph unicode="&#xca;" glyph-name="Ecircumflex" horiz-adv-x="560" d="M94 730H506V625H230V423H481V319H230V105H526V0H94V730ZM204 784L156 832L284 979H345L473 832L425 784L314 868L204 784Z" />
<glyph unicode="&#xcb;" glyph-name="Edieresis" horiz-adv-x="560" d="M94 730H506V625H230V423H481V319H230V105H526V0H94V730ZM227 801T204 801T167 807T147 825Q137 845 137 868T139 901T147 924Q159 950 204 950Q251 950 263 924Q273 904 273 881T271 848T263
825T242 807ZM445 801T422 801T385 807T365 825Q355 845 355 868T357 901T365 924Q377 950 422 950Q469 950 481 924Q491 904 491 881T489 848T481 825T460 807Z" />
<glyph unicode="&#xcc;" glyph-name="Igrave" horiz-adv-x="324" d="M94 730H230V0H94V730ZM285 850L240 778L30 887L90 983L285 850Z" />
<glyph unicode="&#xcd;" glyph-name="Iacute" horiz-adv-x="324" d="M94 730H230V0H94V730ZM105 778L60 850L255 983L315 887L105 778Z" />
<glyph unicode="&#xce;" glyph-name="Icircumflex" horiz-adv-x="324" d="M94 730H230V0H94V730ZM52 784L4 832L132 979H193L321 832L273 784L162 868L52 784Z" />
<glyph unicode="&#xcf;" glyph-name="Idieresis" horiz-adv-x="324" d="M94 730H230V0H94V730ZM75 801T52 801T15 807T-5 825Q-15 845 -15 868T-13 901T-5 924Q7 950 52 950Q99 950 111 924Q121 904 121 881T119 848T111 825T90 807ZM293 801T270 801T233 807T213
825Q203 845 203 868T205 901T213 924Q225 950 270 950Q317 950 329 924Q339 904 339 881T337 848T329 825T308 807Z" />
<glyph unicode="&#xd0;" glyph-name="Eth" horiz-adv-x="698" d="M52 316V408H94V730H337Q514 730 577 622Q608 570 620 509T632 374T625 248T599 149T547 69Q476 0 337 0H94V316H52ZM319 625H230V408H404V316H230V105H319Q426 105 464 182Q496 249 496 365T464
548Q426 625 319 625Z" />
<glyph unicode="&#xd1;" glyph-name="Ntilde" horiz-adv-x="757" d="M527 730H663V0H519L230 496V0H94V730H238L527 233V730ZM547 873T522 846T466 819T389 837T327 855Q298 855 285 811L210 835Q227 898 252 925T308 952T385 934T448 916Q477 916 490 960L564
936Q547 873 522 846Z" />
<glyph unicode="&#xd2;" glyph-name="Ograve" horiz-adv-x="709" d="M563 43T503 15T363 -14T230 5T144 57T91 140Q56 228 56 365Q56 450 69 514T114 632Q178 744 354 744Q554 744 618 589Q653 502 653 365Q653 279 640 215T595 97ZM354 96Q445 96 481 167T517
365T481 563T354 634Q258 634 223 556Q192 485 192 365Q192 165 273 116Q306 96 354 96ZM477 850L432 778L222 887L282 983L477 850Z" />
<glyph unicode="&#xd3;" glyph-name="Oacute" horiz-adv-x="709" d="M563 43T503 15T363 -14T230 5T144 57T91 140Q56 228 56 365Q56 450 69 514T114 632Q178 744 354 744Q554 744 618 589Q653 502 653 365Q653 279 640 215T595 97ZM354 96Q445 96 481 167T517
365T481 563T354 634Q258 634 223 556Q192 485 192 365Q192 165 273 116Q306 96 354 96ZM277 778L232 850L427 983L487 887L277 778Z" />
<glyph unicode="&#xd4;" glyph-name="Ocircumflex" horiz-adv-x="709" d="M563 43T503 15T363 -14T230 5T144 57T91 140Q56 228 56 365Q56 450 69 514T114 632Q178 744 354 744Q554 744 618 589Q653 502 653 365Q653 279 640 215T595 97ZM354 96Q445 96 481 167T517
365T481 563T354 634Q258 634 223 556Q192 485 192 365Q192 165 273 116Q306 96 354 96ZM244 784L196 832L324 979H385L513 832L465 784L354 868L244 784Z" />
<glyph unicode="&#xd5;" glyph-name="Otilde" horiz-adv-x="709" d="M563 43T503 15T363 -14T230 5T144 57T91 140Q56 228 56 365Q56 450 69 514T114 632Q178 744 354 744Q554 744 618 589Q653 502 653 365Q653 279 640 215T595 97ZM354 96Q445 96 481 167T517
365T481 563T354 634Q258 634 223 556Q192 485 192 365Q192 165 273 116Q306 96 354 96ZM514 873T489 846T433 819T356 837T294 855Q265 855 252 811L177 835Q194 898 219 925T275 952T352 934T415 916Q444 916 457 960L531 936Q514 873 489 846Z" />
<glyph unicode="&#xd6;" glyph-name="Odieresis" horiz-adv-x="709" d="M563 43T503 15T363 -14T230 5T144 57T91 140Q56 228 56 365Q56 450 69 514T114 632Q178 744 354 744Q554 744 618 589Q653 502 653 365Q653 279 640 215T595 97ZM354 96Q445 96 481 167T517
365T481 563T354 634Q258 634 223 556Q192 485 192 365Q192 165 273 116Q306 96 354 96ZM267 801T244 801T207 807T187 825Q177 845 177 868T179 901T187 924Q199 950 244 950Q291 950 303 924Q313 904 313 881T311 848T303 825T282 807ZM485 801T462 801T425 807T405
825Q395 845 395 868T397 901T405 924Q417 950 462 950Q509 950 521 924Q531 904 531 881T529 848T521 825T500 807Z" />
<glyph unicode="&#xd7;" glyph-name="multiply" horiz-adv-x="580" d="M161 123L95 189L225 318L95 447L161 513L290 383L419 513L485 447L355 318L485 189L419 123L290 253L161 123Z" />
<glyph unicode="&#xd8;" glyph-name="Oslash" horiz-adv-x="709" d="M56 374Q56 450 69 514T114 632Q178 744 354 744Q371 744 399 742L419 827H504L480 724Q575 688 614 596T653 365Q653 279 640 215T595 97Q529 -14 354 -14Q329 -14 308 -11L289 -94H205L228
5Q129 41 90 140Q56 231 56 374ZM354 96Q445 96 481 167T517 365Q517 542 451 600L333 97Q340 96 354 96ZM374 633L354 634Q258 634 223 556Q192 485 192 365Q192 187 256 129L374 633Z" />
<glyph unicode="&#xd9;" glyph-name="Ugrave" horiz-adv-x="703" d="M488 730H624V241Q624 174 607 126T565 52T501 10T429 -10T351 -14T274 -10T201 9T138 51T96 126T79 241V730H215V251Q215 158 251 128T351 97Q382 97 403 102T445 122Q488 153 488 251V730ZM448
850L403 778L193 887L253 983L448 850Z" />
<glyph unicode="&#xda;" glyph-name="Uacute" horiz-adv-x="703" d="M488 730H624V241Q624 174 607 126T565 52T501 10T429 -10T351 -14T274 -10T201 9T138 51T96 126T79 241V730H215V251Q215 158 251 128T351 97Q382 97 403 102T445 122Q488 153 488 251V730ZM328
778L283 850L478 983L538 887L328 778Z" />
<glyph unicode="&#xdb;" glyph-name="Ucircumflex" horiz-adv-x="703" d="M488 730H624V241Q624 174 607 126T565 52T501 10T429 -10T351 -14T274 -10T201 9T138 51T96 126T79 241V730H215V251Q215 158 251 128T351 97Q382 97 403 102T445 122Q488 153 488 251V730ZM244
784L196 832L324 979H385L513 832L465 784L354 868L244 784Z" />
<glyph unicode="&#xdc;" glyph-name="Udieresis" horiz-adv-x="703" d="M488 730H624V241Q624 174 607 126T565 52T501 10T429 -10T351 -14T274 -10T201 9T138 51T96 126T79 241V730H215V251Q215 158 251 128T351 97Q382 97 403 102T445 122Q488 153 488 251V730ZM268
801T245 801T208 807T188 825Q178 845 178 868T180 901T188 924Q200 950 245 950Q292 950 304 924Q314 904 314 881T312 848T304 825T283 807ZM486 801T463 801T426 807T406 825Q396 845 396 868T398 901T406 924Q418 950 463 950Q510 950 522 924Q532 904 532
881T530 848T522 825T501 807Z" />
<glyph unicode="&#xdd;" glyph-name="Yacute" horiz-adv-x="574" d="M355 0H219V254L-6 730H130L287 381L444 730H580L355 254V0ZM225 778L180 850L375 983L435 887L225 778Z" />
<glyph unicode="&#xde;" glyph-name="Thorn" horiz-adv-x="587" d="M342 137H230V0H94V730H230V592H342Q465 592 517 529T569 365T517 201T342 137ZM230 247H320Q383 247 408 278T433 364T408 451T320 482H230V247Z" />
<glyph unicode="&#xdf;" glyph-name="germandbls" horiz-adv-x="660" d="M568 370T607 320T646 185T598 43T454 -14T316 35T274 195H383Q383 138 396 115T446 92Q512 92 512 207Q512 266 488 291T409 317H308V416H360Q403 416 424 447T445 528Q445 640 339 640Q238
640 238 528V0H104V528Q104 746 350 746Q461 746 520 691T579 543T496 385Q568 370 607 320Z" />
<glyph unicode="&#xe0;" glyph-name="agrave" horiz-adv-x="597" d="M295 586Q513 586 513 387V0H426L388 70Q308 -14 201 -14Q125 -14 86 28T46 142T91 258T259 320L379 338V386Q379 483 287 483Q200 483 184 395L80 426Q118 586 295 586ZM244 84Q312 84 379
151V254L283 237Q218 226 197 202T176 148T194 101T244 84ZM412 692L367 620L157 729L217 825L412 692Z" />
<glyph unicode="&#xe1;" glyph-name="aacute" horiz-adv-x="597" d="M295 586Q513 586 513 387V0H426L388 70Q308 -14 201 -14Q125 -14 86 28T46 142T91 258T259 320L379 338V386Q379 483 287 483Q200 483 184 395L80 426Q118 586 295 586ZM244 84Q312 84 379
151V254L283 237Q218 226 197 202T176 148T194 101T244 84ZM258 620L213 692L408 825L468 729L258 620Z" />
<glyph unicode="&#xe2;" glyph-name="acircumflex" horiz-adv-x="597" d="M295 586Q513 586 513 387V0H426L388 70Q308 -14 201 -14Q125 -14 86 28T46 142T91 258T259 320L379 338V386Q379 483 287 483Q200 483 184 395L80 426Q118 586 295 586ZM244 84Q312 84
379 151V254L283 237Q218 226 197 202T176 148T194 101T244 84ZM179 626L131 674L259 821H320L448 674L400 626L289 710L179 626Z" />
<glyph unicode="&#xe3;" glyph-name="atilde" horiz-adv-x="597" d="M295 586Q513 586 513 387V0H426L388 70Q308 -14 201 -14Q125 -14 86 28T46 142T91 258T259 320L379 338V386Q379 483 287 483Q200 483 184 395L80 426Q118 586 295 586ZM244 84Q312 84 379
151V254L283 237Q218 226 197 202T176 148T194 101T244 84ZM449 715T424 688T368 661T291 679T229 697Q200 697 187 653L112 677Q129 740 154 767T210 794T287 776T350 758Q379 758 392 802L466 778Q449 715 424 688Z" />
<glyph unicode="&#xe4;" glyph-name="adieresis" horiz-adv-x="597" d="M295 586Q513 586 513 387V0H426L388 70Q308 -14 201 -14Q125 -14 86 28T46 142T91 258T259 320L379 338V386Q379 483 287 483Q200 483 184 395L80 426Q118 586 295 586ZM244 84Q312 84 379
151V254L283 237Q218 226 197 202T176 148T194 101T244 84ZM219 643T196 643T159 649T139 667Q129 687 129 710T131 743T139 766Q151 792 196 792Q243 792 255 766Q265 746 265 723T263 690T255 667T234 649ZM437 643T414 643T377 649T357 667Q347 687 347 710T349
743T357 766Q369 792 414 792Q461 792 473 766Q483 746 483 723T481 690T473 667T452 649Z" />
<glyph unicode="&#xe5;" glyph-name="aring" horiz-adv-x="597" d="M295 586Q513 586 513 387V0H426L388 70Q308 -14 201 -14Q125 -14 86 28T46 142T91 258T259 320L379 338V386Q379 483 287 483Q200 483 184 395L80 426Q118 586 295 586ZM244 84Q312 84 379 151V254L283
237Q218 226 197 202T176 148T194 101T244 84ZM308 676Q349 676 349 725T308 774Q271 774 271 725T308 676ZM308 612Q197 612 197 724T308 837Q373 837 398 804T423 724T398 645T308 612Z" />
<glyph unicode="&#xe6;" glyph-name="ae" horiz-adv-x="902" d="M631 -14Q474 -14 417 84Q319 -14 197 -14Q123 -14 84 28T45 142T89 257T255 322L371 341V386Q371 483 284 483T181 395L76 423Q114 586 291 586Q403 586 457 531Q518 586 627 586Q772 586 826 496Q871
419 871 296V260H505Q506 166 536 128T635 89Q746 89 753 169L863 165Q847 -14 631 -14ZM240 81Q323 81 389 149Q376 208 375 250L279 232Q215 220 195 197T174 145T191 98T240 81ZM683 483T626 483T543 452T508 351H739Q733 418 708 450Z" />
<glyph unicode="&#xe7;" glyph-name="ccedilla" horiz-adv-x="536" d="M170 387T170 286T195 137T284 89T375 115T405 197L510 192Q504 90 451 38T275 -14Q132 -14 80 79Q55 124 46 173T36 286T45 400T80 494Q131 586 275 586Q396 586 449 537T509 389L405 375Q403
431 376 457T285 483T196 435ZM149 -130H233Q233 -167 265 -167Q279 -167 287 -161T296 -147T298 -129Q298 -98 262 -92L209 -83L218 -35H262Q319 -35 349 -55T380 -131T355 -213T264 -241Q149 -241 149 -130Z" />
<glyph unicode="&#xe8;" glyph-name="egrave" horiz-adv-x="563" d="M292 -14Q154 -14 95 60T36 286Q36 586 288 586Q433 586 486 496Q532 419 532 296V260H166Q167 166 197 128T296 89Q407 89 414 169L524 165Q508 -14 292 -14ZM344 483T287 483T204 452T169
351H400Q394 418 369 450ZM408 692L363 620L153 729L213 825L408 692Z" />
<glyph unicode="&#xe9;" glyph-name="eacute" horiz-adv-x="563" d="M292 -14Q154 -14 95 60T36 286Q36 586 288 586Q433 586 486 496Q532 419 532 296V260H166Q167 166 197 128T296 89Q407 89 414 169L524 165Q508 -14 292 -14ZM344 483T287 483T204 452T169
351H400Q394 418 369 450ZM246 620L201 692L396 825L456 729L246 620Z" />
<glyph unicode="&#xea;" glyph-name="ecircumflex" horiz-adv-x="563" d="M292 -14Q154 -14 95 60T36 286Q36 586 288 586Q433 586 486 496Q532 419 532 296V260H166Q167 166 197 128T296 89Q407 89 414 169L524 165Q508 -14 292 -14ZM344 483T287 483T204 452T169
351H400Q394 418 369 450ZM175 626L127 674L255 821H316L444 674L396 626L285 710L175 626Z" />
<glyph unicode="&#xeb;" glyph-name="edieresis" horiz-adv-x="561" d="M290 -14Q152 -14 93 60T34 286Q34 586 286 586Q431 586 484 496Q530 419 530 296V260H164Q165 166 195 128T294 89Q405 89 412 169L522 165Q506 -14 290 -14ZM342 483T285 483T202 452T167
351H398Q392 418 367 450ZM196 643T173 643T136 649T116 667Q106 687 106 710T108 743T116 766Q128 792 173 792Q220 792 232 766Q242 746 242 723T240 690T232 667T211 649ZM414 643T391 643T354 649T334 667Q324 687 324 710T326 743T334 766Q346 792 391 792Q438
792 450 766Q460 746 460 723T458 690T450 667T429 649Z" />
<glyph unicode="&#xec;" glyph-name="igrave" horiz-adv-x="322" d="M94 572H228V0H94V572ZM274 692L229 620L19 729L79 825L274 692Z" />
<glyph unicode="&#xed;" glyph-name="iacute" horiz-adv-x="322" d="M94 572H228V0H94V572ZM99 620L54 692L249 825L309 729L99 620Z" />
<glyph unicode="&#xee;" glyph-name="icircumflex" horiz-adv-x="322" d="M94 572H228V0H94V572ZM41 626L-7 674L121 821H182L310 674L262 626L151 710L41 626Z" />
<glyph unicode="&#xef;" glyph-name="idieresis" horiz-adv-x="322" d="M94 572H228V0H94V572ZM74 643T51 643T14 649T-6 667Q-16 687 -16 710T-14 743T-6 766Q6 792 51 792Q98 792 110 766Q120 746 120 723T118 690T110 667T89 649ZM292 643T269 643T232 649T212
667Q202 687 202 710T204 743T212 766Q224 792 269 792Q316 792 328 766Q338 746 338 723T336 690T328 667T307 649Z" />
<glyph unicode="&#xf0;" glyph-name="eth" horiz-adv-x="592" d="M556 267V246Q556 52 404 2Q357 -14 296 -14T188 1T113 42T67 102Q36 162 36 246Q36 347 86 420Q113 460 167 483T286 506T400 472Q382 530 349 583L252 544V631L299 650L262 689L325 764Q367 728
400 690L534 743V656L450 623Q556 463 556 267ZM170 85T296 85T422 246T296 407T170 246Z" />
<glyph unicode="&#xf1;" glyph-name="ntilde" horiz-adv-x="663" d="M200 520Q294 586 392 586T535 538T579 404V0H445V390Q445 441 427 462T362 483Q290 483 228 438V0H94V572H157L200 520ZM511 715T486 688T430 661T353 679T291 697Q262 697 249 653L174 677Q191
740 216 767T272 794T349 776T412 758Q441 758 454 802L528 778Q511 715 486 688Z" />
<glyph unicode="&#xf2;" glyph-name="ograve" horiz-adv-x="592" d="M222 89T296 89T396 139T422 286T396 433T296 483T196 433T170 286T196 139ZM556 -14T296 -14T36 286T296 586T556 286ZM419 692L374 620L164 729L224 825L419 692Z" />
<glyph unicode="&#xf3;" glyph-name="oacute" horiz-adv-x="592" d="M222 89T296 89T396 139T422 286T396 433T296 483T196 433T170 286T196 139ZM556 -14T296 -14T36 286T296 586T556 286ZM256 620L211 692L406 825L466 729L256 620Z" />
<glyph unicode="&#xf4;" glyph-name="ocircumflex" horiz-adv-x="592" d="M222 89T296 89T396 139T422 286T396 433T296 483T196 433T170 286T196 139ZM556 -14T296 -14T36 286T296 586T556 286ZM185 626L137 674L265 821H326L454 674L406 626L295 710L185 626Z" />
<glyph unicode="&#xf5;" glyph-name="otilde" horiz-adv-x="592" d="M222 89T296 89T396 139T422 286T396 433T296 483T196 433T170 286T196 139ZM556 -14T296 -14T36 286T296 586T556 286ZM456 715T431 688T375 661T298 679T236 697Q207 697 194 653L119 677Q136
740 161 767T217 794T294 776T357 758Q386 758 399 802L473 778Q456 715 431 688Z" />
<glyph unicode="&#xf6;" glyph-name="odieresis" horiz-adv-x="592" d="M222 89T296 89T396 139T422 286T396 433T296 483T196 433T170 286T196 139ZM556 -14T296 -14T36 286T296 586T556 286ZM209 643T186 643T149 649T129 667Q119 687 119 710T121 743T129 766Q141
792 186 792Q233 792 245 766Q255 746 255 723T253 690T245 667T224 649ZM427 643T404 643T367 649T347 667Q337 687 337 710T339 743T347 766Q359 792 404 792Q451 792 463 766Q473 746 473 723T471 690T463 667T442 649Z" />
<glyph unicode="&#xf7;" glyph-name="divide" horiz-adv-x="580" d="M86 272V364H494V272H86ZM339 72T325 66T290 59T255 65T235 84T228 106T226 133T227 160T235 183Q248 208 289 208Q333 208 344 183Q354 162 354 140T352 107T345 84ZM339 431T325 425T290 418T255
424T235 443T228 465T226 492T227 519T235 542Q248 567 289 567Q333 567 344 542Q354 521 354 499T352 466T345 443Z" />
<glyph unicode="&#xf8;" glyph-name="oslash" horiz-adv-x="592" d="M36 286Q36 586 296 586Q309 586 333 584L361 686H446L414 566Q556 509 556 286Q556 -14 296 -14Q282 -14 258 -12L231 -115H147L179 5Q36 62 36 286ZM222 483T196 433T170 273T210 120L306
483H296Q222 483 196 433ZM296 89Q370 89 396 139T422 298T383 450L286 89H296Z" />
<glyph unicode="&#xf9;" glyph-name="ugrave" horiz-adv-x="664" d="M260 -14Q84 -14 84 168V572H218V190Q218 138 238 114T307 89Q375 89 436 153V572H570V0H483L445 69Q367 -14 260 -14ZM428 692L383 620L173 729L233 825L428 692Z" />
<glyph unicode="&#xfa;" glyph-name="uacute" horiz-adv-x="664" d="M260 -14Q84 -14 84 168V572H218V190Q218 138 238 114T307 89Q375 89 436 153V572H570V0H483L445 69Q367 -14 260 -14ZM299 620L254 692L449 825L509 729L299 620Z" />
<glyph unicode="&#xfb;" glyph-name="ucircumflex" horiz-adv-x="664" d="M260 -14Q84 -14 84 168V572H218V190Q218 138 238 114T307 89Q375 89 436 153V572H570V0H483L445 69Q367 -14 260 -14ZM225 626L177 674L305 821H366L494 674L446 626L335 710L225 626Z" />
<glyph unicode="&#xfc;" glyph-name="udieresis" horiz-adv-x="664" d="M260 -14Q84 -14 84 168V572H218V190Q218 138 238 114T307 89Q375 89 436 153V572H570V0H483L445 69Q367 -14 260 -14ZM248 643T225 643T188 649T168 667Q158 687 158 710T160 743T168 766Q180
792 225 792Q272 792 284 766Q294 746 294 723T292 690T284 667T263 649ZM466 643T443 643T406 649T386 667Q376 687 376 710T378 743T386 766Q398 792 443 792Q490 792 502 766Q512 746 512 723T510 690T502 667T481 649Z" />
<glyph unicode="&#xfd;" glyph-name="yacute" horiz-adv-x="542" d="M251 -237L132 -219L213 -8L4 572H139L276 174L400 572H537L251 -237ZM222 620L177 692L372 825L432 729L222 620Z" />
<glyph unicode="&#xfe;" glyph-name="thorn" horiz-adv-x="634" d="M370 586Q598 586 598 286T369 -14Q303 -14 228 11V-205H94V730L228 742V542Q298 586 370 586ZM336 482Q279 482 228 443V109Q282 90 344 90Q464 90 464 286T336 482Z" />
<glyph unicode="&#xff;" glyph-name="ydieresis" horiz-adv-x="542" d="M251 -237L132 -219L213 -8L4 572H139L276 174L400 572H537L251 -237ZM207 643T184 643T147 649T127 667Q117 687 117 710T119 743T127 766Q139 792 184 792Q231 792 243 766Q253 746 253
723T251 690T243 667T222 649ZM425 643T402 643T365 649T345 667Q335 687 335 710T337 743T345 766Q357 792 402 792Q449 792 461 766Q471 746 471 723T469 690T461 667T440 649Z" />
<glyph unicode="&#x2013;" glyph-name="endash" horiz-adv-x="564" d="M62 272V364H502V272H62Z" />
<glyph unicode="&#x2014;" glyph-name="emdash" horiz-adv-x="897" d="M62 272V364H835V272H62Z" />
<glyph unicode="&#x2018;" glyph-name="quoteleft" horiz-adv-x="274" d="M172 652T182 622T192 571T190 539T182 514Q171 489 127 489Q56 489 56 567Q56 689 183 783L218 742Q172 708 172 663Q172 652 182 622Z" />
<glyph unicode="&#x2019;" glyph-name="quoteright" horiz-adv-x="250" d="M102 620T92 649T82 700T84 733T92 758Q103 783 147 783Q218 783 218 705Q218 583 91 489L56 529Q102 563 102 608Q102 620 92 649Z" />
<glyph unicode="&#x201a;" glyph-name="quotesinglbase" horiz-adv-x="226" d="M65 -5T55 24T45 72T47 101T55 124Q68 149 105 149T158 137T178 110T181 74Q181 -37 54 -138L19 -97Q65 -53 65 -18Q65 -5 55 24Z" />
<glyph unicode="&#x201c;" glyph-name="quotedblleft" horiz-adv-x="455" d="M172 652T182 622T192 568T189 529T170 502T119 489T70 510T56 567Q56 689 183 783L218 742Q172 701 172 663Q172 652 182 622ZM353 652T363 622T373 571T371 539T364 514Q352 489 308
489Q237 489 237 567Q237 689 364 783L399 742Q353 708 353 663Q353 652 363 622Z" />
<glyph unicode="&#x201d;" glyph-name="quotedblright" horiz-adv-x="455" d="M283 620T273 649T263 703T266 743T285 770T336 783T385 762T399 705Q399 583 272 489L237 529Q283 570 283 608Q283 620 273 649ZM102 620T92 649T82 700T84 733T92 758Q103 783 147
783Q218 783 218 705Q218 583 91 489L56 529Q102 563 102 608Q102 620 92 649Z" />
<glyph unicode="&#x201e;" glyph-name="quotedblbase" horiz-adv-x="407" d="M246 -7T236 22T226 76T229 116T248 143T299 156T348 135T362 78Q362 -44 235 -138L200 -98Q246 -57 246 -19Q246 -7 236 22ZM65 -7T55 22T45 73T47 106T54 130Q66 156 110 156Q181
156 181 78Q181 -44 54 -138L19 -98Q65 -64 65 -19Q65 -7 55 22Z" />
<glyph unicode="&#x2022;" glyph-name="bullet" horiz-adv-x="272" d="M215 234T192 224T132 214T73 224T40 253Q24 283 24 320T27 374T40 411Q60 449 131 449Q206 449 224 410Q240 379 240 343T237 289T225 253Z" />
<glyph unicode="&#x2039;" glyph-name="guilsinglleft" horiz-adv-x="305" d="M267 466L153 315L267 164L202 100L22 291V339L202 530L267 466Z" />
<glyph unicode="&#x203a;" glyph-name="guilsinglright" horiz-adv-x="305" d="M38 164L152 315L38 466L103 530L283 339V291L103 100L38 164Z" />
</font>
</defs>
</svg>
