<?xml version="1.0" standalone="no"?>
<!DOCTYPE svg PUBLIC "-//W3C//DTD SVG 1.1//EN" "http://www.w3.org/Graphics/SVG/1.1/DTD/svg11.dtd">
<svg xmlns="http://www.w3.org/2000/svg">
<defs >
<font id="Sora" horiz-adv-x="590" ><font-face
    font-family="Sora ExtraLight"
    units-per-em="1000"
    panose-1="0 0 0 0 0 0 0 0 0 0"
    ascent="970"
    descent="-290"
    alphabetic="0" />
<glyph unicode=" " horiz-adv-x="239" />
<glyph unicode="!" horiz-adv-x="269" d="M108 186V730H162V186H108ZM99 0V77H170V0H99Z" />
<glyph unicode="&quot;" horiz-adv-x="394" d="M106 476V730H153V476H106ZM241 476V730H288V476H241Z" />
<glyph unicode="#" horiz-adv-x="669" d="M137 0L252 730H300L186 0H137ZM369 0L484 730H532L418 0H369ZM39 221V263H596V221H39ZM73 467V509H631V467H73Z" />
<glyph unicode="$" horiz-adv-x="657" d="M330 1Q241 1 183 29T95 108T65 223H117Q117 174 138 135T207 72T330 49Q434 49 484 90T535 198Q535 258 491 299T359 349L293 355Q203 364 151 410T98 538Q98 593 124 636T200 704T326 729Q403 729 454 701T532 625T559
516H508Q508 560 489 597T430 658T326 681Q265 681 227 662T169 611T150 538Q150 479 188 445T299 404L365 398Q470 388 528 334T587 198Q587 140 558 96T472 27T330 1ZM305 -129V17H354V-129H305ZM301 699V827H350V699H301Z" />
<glyph unicode="%" horiz-adv-x="822" d="M245 0L534 730H578L290 0H245ZM199 346Q147 346 114 371T64 438T47 533V550Q47 604 63 646T114 712T199 737Q250 737 284 713T334 646T351 550V533Q351 481 335 439T285 371T199 346ZM199 385Q254 385 281 425T309 541Q309
617 282 657T199 698Q144 698 117 658T89 542Q89 467 116 426T199 385ZM623 -7Q571 -7 538 18T488 85T471 180V197Q471 251 487 293T538 359T623 384Q674 384 708 360T758 293T775 197V180Q775 128 759 86T709 18T623 -7ZM623 32Q678 32 705 72T733 188Q733 264
706 304T623 345Q568 345 541 305T513 188Q513 114 540 73T623 32Z" />
<glyph unicode="&amp;" horiz-adv-x="661" d="M544 0L229 334Q187 379 162 413T126 481T114 553Q114 611 137 651T209 713T335 735Q371 735 411 733T489 725V677Q463 681 434 683T377 686T325 687Q242 687 204 653T166 552Q166 501 189 460T262 366L609 0H544ZM278
-17Q213 -17 159 9T72 83T40 192V203Q40 274 80 330T180 418L207 378Q154 351 123 304T92 197Q92 143 118 106T188 50T278 31Q358 31 411 76T490 207T517 412H566Q566 315 548 236T495 101T405 14T278 -17ZM385 404V448H630V404H385Z" />
<glyph unicode="&apos;" horiz-adv-x="259" d="M106 476V730H153V476H106Z" />
<glyph unicode="(" horiz-adv-x="363" d="M277 -182Q222 -120 181 -49T116 108T92 300Q92 406 115 491T181 646T277 776H337Q277 708 234 636T168 483T145 300Q145 199 167 117T233 -38T337 -182H277Z" />
<glyph unicode=")" horiz-adv-x="363" d="M86 -182Q141 -120 182 -49T247 108T271 300Q271 406 248 491T182 646T86 776H26Q86 708 129 636T195 483T218 300Q218 199 196 117T130 -38T26 -182H86Z" />
<glyph unicode="*" horiz-adv-x="565" d="M480 387L322 489V573L480 675L506 629L364 554V508L506 433L480 387ZM306 777L297 589L224 547L57 633L83 679L219 593L260 616L253 777H306ZM57 429L224 515L297 473L306 285H254L260 446L219 469L84 383L57 429Z" />
<glyph unicode="+" horiz-adv-x="586" d="M269 115V574H317V115H269ZM79 323V367H507V323H79Z" />
<glyph unicode="," horiz-adv-x="254" d="M88 -150L45 -133L126 90L171 73L88 -150Z" />
<glyph unicode="-" horiz-adv-x="499" d="M85 255V301H414V255H85Z" />
<glyph unicode="." horiz-adv-x="254" d="M92 0V77H162V0H92Z" />
<glyph unicode="/" horiz-adv-x="303" d="M24 -60L228 780H278L74 -60H24Z" />
<glyph unicode="0" horiz-adv-x="726" d="M363 -17Q292 -17 239 9T152 83T101 197T84 344V385Q84 497 115 578T208 704T363 749Q456 749 518 705T611 579T642 385V344Q642 263 626 197T575 84T488 10T363 -17ZM363 33Q477 33 532 114T588 365Q588 539 531 619T363
699Q252 699 195 619T138 365Q138 196 194 115T363 33Z" />
<glyph unicode="1" horiz-adv-x="412" d="M220 0V701L241 683H50V730H273V0H220Z" />
<glyph unicode="2" horiz-adv-x="610" d="M87 0V103Q87 143 98 172T138 226T217 274L367 344Q420 369 453 411T487 520Q487 605 439 653T310 701Q230 701 182 653T133 520H80Q80 586 107 638T186 719T310 749Q383 749 434 720T511 640T538 526V514Q538 437 495
385T384 302L234 231Q178 204 159 177T140 108V21L123 47H553V0H87Z" />
<glyph unicode="3" horiz-adv-x="605" d="M294 -17Q218 -17 164 14T81 97T52 213H105Q105 131 155 81T294 31Q352 31 394 53T460 116T484 210Q484 293 434 343T296 393Q263 393 239 386T196 365L164 421L467 669L459 683H80V730H511V647L226 412L198 413Q217 425
241 431T298 437Q373 437 426 407T508 327T537 216V204Q537 145 509 95T426 14T294 -17Z" />
<glyph unicode="4" horiz-adv-x="621" d="M55 191V261L372 740L409 710L102 248L110 235H589V191H55ZM436 0V511H488V0H436Z" />
<glyph unicode="5" horiz-adv-x="610" d="M310 -17Q229 -17 174 16T92 103T64 219H117Q117 167 138 124T203 56T310 31Q373 31 416 56T482 124T504 219Q504 272 482 315T417 383T310 409Q267 409 227 394T158 351H109L146 730H490V683H173L191 701L159 384L139
386Q172 419 214 437T311 455Q393 455 447 423T528 338T556 226V213Q556 154 529 102T446 16T310 -17Z" />
<glyph unicode="6" horiz-adv-x="649" d="M342 -17Q276 -17 227 5T146 71T99 178T83 323V359Q83 542 163 638T408 735Q438 735 465 733T523 726V679Q492 683 463 685T405 687Q308 687 248 649T159 536T131 356V259L115 229Q116 301 143 355T223 439T349 470Q427
470 480 438T561 351T589 229Q589 162 562 106T479 17T342 -17ZM342 31Q407 31 450 58T515 129T537 229Q537 284 516 328T452 397T344 423Q281 423 236 398T168 329T144 227Q144 178 165 133T231 59T342 31Z" />
<glyph unicode="7" horiz-adv-x="557" d="M159 0L466 672L459 683H59V730H514V660L214 0H159ZM59 553V730H105V553H59Z" />
<glyph unicode="8" horiz-adv-x="622" d="M311 -17Q232 -17 175 12T88 90T57 198Q57 249 78 288T133 352T205 386V396Q175 407 147 428T101 481T83 559Q83 616 112 658T192 724T311 748Q378 748 429 725T510 659T539 559Q539 514 521 482T476 428T416 396V386Q455
378 489 353T544 288T565 198Q565 139 535 90T447 12T311 -17ZM311 31Q376 31 420 53T488 113T512 199Q512 248 489 286T420 347T311 369Q246 369 201 347T133 287T109 199Q109 152 132 114T201 53T311 31ZM311 413Q389 413 437 451T486 558Q486 626 439 663T311
701Q230 701 183 663T135 558Q135 489 183 451T311 413Z" />
<glyph unicode="9" horiz-adv-x="649" d="M307 747Q373 747 422 725T503 659T550 552T566 407V371Q566 188 486 92T241 -5Q211 -5 184 -3T126 4V51Q157 47 186 45T244 43Q341 43 401 81T490 194T518 374V471L534 501Q533 429 506 375T426 291T300 260Q222 260
169 292T88 379T60 501Q60 568 87 624T170 713T307 747ZM307 699Q242 699 199 672T134 601T112 501Q112 446 133 402T197 333T305 307Q368 307 413 332T481 401T505 503Q505 552 484 597T418 671T307 699Z" />
<glyph unicode=":" horiz-adv-x="254" d="M92 0V77H162V0H92ZM92 383V460H162V383H92Z" />
<glyph unicode=";" horiz-adv-x="254" d="M92 -150L49 -133L130 90L175 73L92 -150ZM97 383V460H167V383H97Z" />
<glyph unicode="&lt;" horiz-adv-x="583" d="M502 520V473L81 324V370L502 520ZM81 333L502 184V138L81 289V333ZM119 352V306H94V352H119Z" />
<glyph unicode="=" horiz-adv-x="586" d="M79 393V437H507V393H79ZM79 229V273H507V229H79Z" />
<glyph unicode="&gt;" horiz-adv-x="583" d="M81 139V186L502 335V289L81 139ZM502 326L81 475V521L502 370V326ZM464 307V353H489V307H464Z" />
<glyph unicode="?" horiz-adv-x="544" d="M216 186V371H263Q343 371 386 418T429 536Q429 585 409 622T353 680T267 701Q217 701 179 679T119 617T97 523H47Q47 587 73 638T149 719T267 749Q333 749 381 721T455 645T481 541V530Q481 476 456 429T381 353T255
324L270 353L269 186H216ZM207 0V77H278V0H207Z" />
<glyph unicode="@" horiz-adv-x="1118" d="M564 -238Q456 -238 367 -203T213 -103T114 52T79 253Q79 362 114 452T215 609T370 712T569 749Q669 749 755 719T907 632T1009 493T1046 306Q1046 218 1021 153T953 51T853 14Q816 14 785 30T736 81T717 171V232H737Q733
160 706 113T635 42T537 19Q477 19 430 49T355 131T327 248V260Q327 325 354 375T430 453T538 482Q593 482 637 458T708 390T740 281H717V472H761V172Q761 128 774 104T809 70T852 60Q893 60 926 89T977 173T996 305Q996 400 963 474T872 599T737 676T570 702Q472
702 391 670T251 577T161 434T129 252Q129 119 183 19T336 -136T564 -191Q594 -191 621 -188T674 -179V-227Q648 -232 622 -235T564 -238ZM543 65Q588 65 626 85T688 146T711 247V264Q711 322 687 360T625 417T543 436Q495 436 458 414T399 351T378 254Q378 197
399 155T457 89T543 65Z" />
<glyph unicode="A" horiz-adv-x="741" d="M37 0L312 730H420L704 0H648L377 699L410 681H319L353 699L91 0H37ZM168 246L187 295H549L568 246H168Z" />
<glyph unicode="B" horiz-adv-x="667" d="M159 -3V46H382Q453 46 493 88T533 196Q533 263 494 304T382 346H159V384H373Q437 384 485 364T560 302T588 201V191Q588 135 565 92T493 23T373 -3H159ZM122 -3V733H176V-3H122ZM159 356V394H355Q431 394 467 434T503
539Q503 602 467 643T355 684H159V733H345Q453 733 505 682T558 545V535Q558 476 532 436T459 376T345 356H159Z" />
<glyph unicode="C" horiz-adv-x="793" d="M427 -17Q332 -17 263 17T151 107T86 229T65 359V374Q65 442 86 508T151 629T262 716T420 749Q509 749 576 717T685 626T735 489H680Q671 557 635 604T544 675T420 699Q346 699 290 673T196 600T139 493T120 366Q120 304
139 244T196 137T291 62T427 33Q533 33 605 87T694 243H749Q738 167 697 109T587 17T427 -17Z" />
<glyph unicode="D" horiz-adv-x="800" d="M157 -3V47H373Q454 47 513 73T612 144T670 246T690 366Q690 431 671 488T611 589T512 658T373 683H157V733H367Q464 733 535 703T652 621T722 506T745 374V358Q745 293 723 229T655 112T537 29T367 -3H157ZM122 -3V733H176V-3H122Z"
/>
<glyph unicode="E" horiz-adv-x="605" d="M122 0V730H176V0H122ZM159 0V49H535V0H159ZM159 346V396H499V346H159ZM159 681V730H523V681H159Z" />
<glyph unicode="F" horiz-adv-x="560" d="M122 0V730H176V0H122ZM157 348V398L490 399V350L157 348ZM157 681V730L510 731V681H157Z" />
<glyph unicode="G" horiz-adv-x="831" d="M434 -17Q339 -17 270 15T155 101T87 222T65 360V376Q65 445 87 511T154 632T265 717T418 749Q505 749 572 717T681 626T731 489H676Q668 557 632 603T541 674T418 699Q347 699 292 673T198 602T140 496T120 368Q120 300
139 239T197 132T295 60T434 33Q521 33 588 65T692 153L669 83V299H721V107Q676 51 604 17T434 -17ZM407 285V331H789V285H407Z" />
<glyph unicode="H" horiz-adv-x="808" d="M632 0V730H686V0H632ZM122 0V730H176V0H122ZM161 336V386H647V336H161Z" />
<glyph unicode="I" horiz-adv-x="302" d="M124 0V730H178V0H124Z" />
<glyph unicode="J" horiz-adv-x="636" d="M285 -17Q212 -17 157 13T73 98T43 230V257H97V221Q97 134 147 84T285 33Q373 33 422 83T472 221V699H526V230Q526 153 497 98T413 13T285 -17ZM141 681V730H526V681H141Z" />
<glyph unicode="K" horiz-adv-x="637" d="M579 0L240 348H159L507 730H570L246 375L243 418L649 0H579ZM122 0V730H176V0H122Z" />
<glyph unicode="L" horiz-adv-x="535" d="M122 0V730H176V0H122ZM157 0V49H509V0H157Z" />
<glyph unicode="M" horiz-adv-x="889" d="M122 0V730H189L433 207H453L697 730H767V0H713V668L719 667L481 157H403L165 667L172 668V0H122Z" />
<glyph unicode="N" horiz-adv-x="831" d="M122 0V730H216L644 49H676L656 35V730H709V0H614L186 681H154L174 695V0H122Z" />
<glyph unicode="O" horiz-adv-x="870" d="M436 -17Q344 -17 275 16T159 105T89 227T65 359V375Q65 444 89 510T161 630T277 717T436 749Q525 749 593 717T709 631T781 510T805 375V359Q805 293 782 227T712 106T597 17T436 -17ZM436 33Q511 33 569 61T668 136T729
243T750 366Q750 432 729 492T667 598T568 672T436 699Q362 699 304 672T204 599T142 492T120 366Q120 303 141 244T202 137T301 61T436 33Z" />
<glyph unicode="P" horiz-adv-x="620" d="M157 279V328H333Q399 328 439 352T498 416T517 506Q517 555 498 595T439 660T333 684H157V733H326Q411 733 465 704T545 624T571 512V500Q571 439 545 389T465 309T326 279H157ZM122 0V733H176V0H122Z" />
<glyph unicode="Q" horiz-adv-x="870" d="M569 -206Q519 -206 485 -191T432 -141T413 -54V18H465V-62Q465 -109 489 -133T560 -157H686V-206H569ZM436 -17Q344 -17 275 16T159 105T89 227T65 359V375Q65 444 89 510T161 630T277 717T436 749Q525 749 593 717T709
631T781 510T805 375V359Q805 293 782 227T712 106T597 17T436 -17ZM436 33Q511 33 569 61T668 136T729 243T750 366Q750 432 729 492T667 598T568 672T436 699Q362 699 304 672T204 599T142 492T120 366Q120 303 141 244T202 137T301 61T436 33Z" />
<glyph unicode="R" horiz-adv-x="675" d="M122 0V733H176V0H122ZM578 0L320 320H385L644 0H578ZM151 289V338H347Q410 338 448 361T505 423T524 511Q524 559 506 598T449 661T347 684H151V733H340Q420 733 473 706T552 630T578 517V505Q578 441 552 393T473 317T340
289H151Z" />
<glyph unicode="S" horiz-adv-x="704" d="M352 -17Q259 -17 197 12T104 93T73 210H127Q127 160 150 120T224 57T352 33Q425 33 474 54T547 111T572 196Q572 255 528 296T394 347L307 354Q216 362 163 412T110 543Q110 601 137 647T218 721T351 749Q431 749 486
720T569 641T598 529H544Q544 574 524 612T462 675T351 699Q285 699 244 678T184 621T164 543Q164 483 202 447T313 404L400 397Q473 391 523 364T600 293T626 196Q626 135 594 87T501 11T352 -17Z" />
<glyph unicode="T" horiz-adv-x="582" d="M264 0V698H318V0H264ZM30 681V730H552V681H30Z" />
<glyph unicode="U" horiz-adv-x="800" d="M400 -17Q301 -17 236 21T140 127T108 280V730H162V273Q162 202 188 148T267 63T400 33Q482 33 534 63T612 147T638 273V730H692V280Q692 194 661 127T566 22T400 -17Z" />
<glyph unicode="V" horiz-adv-x="689" d="M294 0L26 730H82L337 31L303 49H396L360 31L601 730H655L402 0H294Z" />
<glyph unicode="W" horiz-adv-x="1022" d="M243 0L37 730H92L285 34L262 49H337L314 34L474 697H525L355 0H243ZM682 0L497 697H549L725 34L700 49H778L753 34L931 730H985L795 0H682Z" />
<glyph unicode="X" horiz-adv-x="673" d="M21 1L305 391L303 370L50 730H110L331 414H343L569 730H628L365 363L366 384L642 0H582L338 340H326L81 0L21 1Z" />
<glyph unicode="Y" horiz-adv-x="647" d="M263 287L27 730H83L302 319L277 332H380L355 319L563 730H617L391 287H263ZM301 0V302H354V0H301Z" />
<glyph unicode="Z" horiz-adv-x="659" d="M77 0V75L549 684L543 656L524 700L539 683H83V730H589V655L117 46L122 75L143 29L125 47H605V0H77Z" />
<glyph unicode="[" horiz-adv-x="363" d="M127 -182V776H179V-182H127ZM142 -182V-138H298V-182H142ZM142 732V776H298V732H142Z" />
<glyph unicode="\" horiz-adv-x="303" d="M236 -60L17 780H67L285 -60H236Z" />
<glyph unicode="]" horiz-adv-x="363" d="M236 -182V776H184V-182H236ZM221 -182V-138H65V-182H221ZM221 732V776H65V732H221Z" />
<glyph unicode="^" horiz-adv-x="555" d="M79 329L241 723H314L475 329H429L288 683H268L125 329H79Z" />
<glyph unicode="_" horiz-adv-x="564" d="M0 -111V-68H564V-111H0Z" />
<glyph unicode="`" horiz-adv-x="300" d="M101 612L0 801H58L149 612H101Z" />
<glyph unicode="a" horiz-adv-x="562" d="M424 0V157H414V350Q414 413 381 447T272 482Q245 482 217 481T164 478T119 473V521Q139 524 161 526T207 529T251 530Q330 530 377 510T445 448T466 342V0H424ZM241 -14Q188 -14 146 5T80 61T55 151Q55 202 78 238T146
293T254 312H419V269H249Q181 269 145 237T108 151Q108 95 147 63T249 30Q288 30 325 45T387 95T414 191L434 168Q431 107 405 67T336 6T241 -14Z" />
<glyph unicode="b" horiz-adv-x="679" d="M365 -17Q293 -17 240 16T157 106T126 230H145V0H103V730H156V356L131 293Q133 368 162 423T245 510T368 541Q427 541 474 519T553 458T603 371T620 268V258Q620 206 604 158T554 70T474 7T365 -17ZM360 31Q426 31 472
63T543 149T567 263Q567 327 542 379T471 462T360 493Q300 493 254 467T180 394T153 287V236Q153 179 179 133T252 59T360 31Z" />
<glyph unicode="c" horiz-adv-x="602" d="M318 -17Q253 -17 205 7T124 71T75 160T59 259V269Q59 320 75 369T123 456T204 518T318 541Q381 541 430 518T511 454T551 354H499Q490 414 443 453T318 493Q249 493 203 462T135 379T112 264Q112 203 135 150T204 65T318
32Q371 32 411 51T477 103T507 175H559Q552 117 519 75T434 8T318 -17Z" />
<glyph unicode="d" horiz-adv-x="679" d="M314 -17Q255 -17 208 5T127 66T77 154T59 257V267Q59 319 76 367T125 455T205 518T313 541Q384 541 436 509T518 422T550 295L523 354V730H576V0H534V233H554Q552 158 521 102T437 14T314 -17ZM319 31Q380 31 426 58T499
131T526 238V290Q526 347 500 393T427 466T319 493Q253 493 207 461T137 377T112 262Q112 198 137 146T208 62T319 31Z" />
<glyph unicode="e" horiz-adv-x="605" d="M317 -17Q250 -17 201 6T121 69T75 158T59 259V269Q59 321 74 369T121 456T200 518T311 541Q391 541 445 506T528 413T556 293V257H84V301H521L505 281Q505 342 483 390T417 465T311 493Q244 493 199 462T132 379T109
264Q109 201 131 149T200 64T317 31Q393 31 439 66T496 150H548Q537 101 506 63T428 4T317 -17Z" />
<glyph unicode="f" horiz-adv-x="372" d="M118 0V579Q118 657 157 694T277 731H346V685H265Q219 685 195 661T170 592V0H118ZM37 479V521H357V479H37Z" />
<glyph unicode="g" horiz-adv-x="668" d="M303 -205Q268 -205 230 -202T157 -193V-146Q193 -152 232 -155T307 -159Q387 -159 433 -139T499 -72T519 52V160L543 233Q542 161 513 106T431 20T309 -12Q250 -12 204 10T125 71T76 159T59 261V271Q59 322 76 370T125
457T204 518T311 541Q384 541 437 508T518 419T548 295L528 322V525H571V52Q571 -42 545 -98T460 -180T303 -205ZM316 37Q376 37 422 63T494 136T520 242V293Q520 350 495 395T423 468T317 495Q251 495 206 463T136 379T112 266Q112 203 137 151T207 68T316 37Z"
/>
<glyph unicode="h" horiz-adv-x="631" d="M103 0V730H156V340L137 306Q137 375 158 427T224 509T335 539H337Q435 539 485 478T535 310V0H481V322Q481 398 440 444T324 490Q247 490 202 442T156 315V0H103Z" />
<glyph unicode="i" horiz-adv-x="289" d="M131 0V525H185V0H131ZM44 479V525H185V479H44ZM136 635Q115 635 104 646T93 676Q93 695 104 707T137 719Q158 719 169 707T180 676Q180 658 170 647T136 635Z" />
<glyph unicode="j" horiz-adv-x="298" d="M-5 -203V-154H60Q100 -154 121 -130T142 -60V525H194V-46Q194 -103 179 -137T132 -187T47 -203H-5ZM52 479V525H194V479H52ZM145 644Q124 644 113 655T102 686Q102 704 113 716T146 728Q167 728 178 716T189 686Q189
667 179 656T145 644Z" />
<glyph unicode="k" horiz-adv-x="526" d="M454 0L230 247H146L402 525H462L234 278L235 311L518 0H454ZM103 0V730H156V0H103Z" />
<glyph unicode="l" horiz-adv-x="262" d="M106 0V730H159V0H106ZM27 685V730H159V685H27Z" />
<glyph unicode="m" horiz-adv-x="956" d="M103 0V525H145V310H133Q133 378 153 429T215 510T319 539H322Q384 539 425 511T485 431T505 310H485Q485 378 505 429T567 510T672 539H675Q737 539 778 511T840 431T860 310V0H807V322Q807 397 771 443T663 490Q591
490 550 442T508 317V0H455V322Q455 397 419 443T311 490Q239 490 198 442T156 317V0H103Z" />
<glyph unicode="n" horiz-adv-x="631" d="M103 0V525H145V310H133Q133 379 155 430T222 510T333 539H336Q435 539 485 478T535 310V0H481V322Q481 397 441 443T324 490Q247 490 202 443T156 317V0H103Z" />
<glyph unicode="o" horiz-adv-x="661" d="M331 -17Q265 -17 214 7T129 70T77 157T59 257V267Q59 319 77 368T130 456T215 518T331 541Q395 541 445 518T531 456T584 368T603 267V257Q603 206 585 158T533 70T448 7T331 -17ZM331 32Q401 32 449 64T523 148T549
262Q549 325 523 377T449 461T331 493Q263 493 214 462T138 378T112 262Q112 201 137 149T212 64T331 32Z" />
<glyph unicode="p" horiz-adv-x="679" d="M103 -200V525H145V301L129 294Q130 368 160 423T244 510T367 541Q427 541 474 519T553 458T603 370T620 267V257Q620 206 603 158T554 70T474 7T367 -17Q297 -17 244 15T160 103T128 232L156 162V-200H103ZM360 31Q426
31 472 63T543 148T567 262Q567 326 543 378T472 462T360 493Q300 493 254 467T180 394T153 287V236Q153 179 179 133T252 59T360 31Z" />
<glyph unicode="q" horiz-adv-x="679" d="M523 -200V160L549 232Q548 159 518 103T435 15T312 -17Q253 -17 206 6T126 68T76 156T59 259V269Q59 320 76 368T125 456T205 518T314 541Q388 541 441 508T523 419T554 294L534 308V525H576V-200H523ZM319 33Q380 33
426 59T499 133T526 240V291Q526 348 500 394T427 467T319 495Q253 495 207 463T137 378T112 264Q112 200 137 148T208 64T319 33Z" />
<glyph unicode="r" horiz-adv-x="397" d="M103 0V525H145V303H137Q137 417 188 473T353 529H371V481H343Q250 481 203 434T156 294V0H103Z" />
<glyph unicode="s" horiz-adv-x="523" d="M260 -15Q162 -15 110 30T56 145H108Q108 100 143 67T260 33Q339 33 376 66T413 146Q413 191 380 215T289 245L227 252Q158 260 118 295T77 390Q77 433 99 467T162 521T260 541Q342 541 392 501T444 392H392Q393 435 359
464T260 493Q193 493 161 462T128 389Q128 354 153 329T231 298L293 291Q367 284 415 248T464 145Q464 100 440 64T370 7T260 -15Z" />
<glyph unicode="t" horiz-adv-x="417" d="M278 -5Q229 -5 192 9T135 59T115 153V696H167V144Q167 96 193 70T267 43H365V-5H278ZM15 482V525H365V482H15Z" />
<glyph unicode="u" horiz-adv-x="612" d="M282 -15Q187 -15 138 46T89 211V525H143V199Q143 126 181 81T293 35Q367 35 410 82T454 205V525H507V0H465V212H477Q477 145 456 94T392 14T285 -15H282Z" />
<glyph unicode="v" horiz-adv-x="536" d="M224 0L33 525H89L277 0H224ZM240 0V45H313V0H240ZM276 0L444 525H496L327 0H276Z" />
<glyph unicode="w" horiz-adv-x="805" d="M241 0L361 507H441L576 0H527L392 504H408L288 0H241ZM205 0V45H277V0H205ZM192 0L35 525H88L242 0H192ZM542 0V45H609V0H542ZM575 0L712 525H762L624 0H575Z" />
<glyph unicode="x" horiz-adv-x="535" d="M36 0L237 277L241 256L50 525H109L261 310H273L418 525H474L297 266L292 286L505 0H446L273 234H260L92 0H36Z" />
<glyph unicode="y" horiz-adv-x="521" d="M44 -204V-155H104Q139 -155 165 -147T210 -116T243 -53L430 525H483L288 -70Q272 -119 246 -148T183 -191T100 -204H44ZM226 13V60H300V13H226ZM216 13L25 525H79L268 13H216Z" />
<glyph unicode="z" horiz-adv-x="481" d="M61 0V68L386 483L380 466L368 485L377 481H59V525H425V457L101 41L107 58L120 38L110 44H441V0H61Z" />
<glyph unicode="{" horiz-adv-x="363" d="M292 -182Q219 -182 175 -139T130 -5V195Q130 232 111 248T67 265V330Q92 330 111 347T130 401V599Q130 690 174 733T292 776H309V732H292Q239 732 211 702T182 603V412Q182 364 162 337T103 302V294Q141 287 161 260T182
183V-9Q182 -77 210 -107T292 -138H309V-182H292Z" />
<glyph unicode="|" horiz-adv-x="371" d="M161 -200V730L210 729V-201L161 -200Z" />
<glyph unicode="}" horiz-adv-x="363" d="M71 -182Q144 -182 188 -139T233 -5V195Q233 232 252 248T296 265V330Q271 330 252 347T233 401V599Q233 690 189 733T71 776H54V732H71Q124 732 152 702T181 603V412Q181 364 201 337T260 302V294Q222 287 202 260T181
183V-9Q181 -77 153 -107T71 -138H54V-182H71Z" />
<glyph unicode="~" horiz-adv-x="459" d="M320 254Q288 254 265 267T221 298T182 329T137 343Q113 343 94 328T64 275H23Q28 312 45 337T86 375T139 389Q171 389 194 376T238 345T278 314T322 300Q346 300 365 315T395 368H436Q431 332 414 307T372 268T320 254Z" />
<glyph unicode="&#xa0;" horiz-adv-x="239" />
<glyph unicode="&#xa1;" horiz-adv-x="269" d="M108 339V-205H162V339H108ZM99 525V448H170V525H99Z" />
<glyph unicode="&#xa2;" horiz-adv-x="615" d="M323 107Q260 107 212 128T131 185T82 267T65 360V375Q65 424 81 468T130 548T211 605T322 626Q383 626 431 606T511 548T555 457H503Q490 510 443 544T322 579Q256 579 211 551T142 475T118 368Q118 309 141 261T210
183T323 154Q399 154 449 191T511 284H563Q554 230 521 190T436 129T323 107ZM299 0V127H348V0H299ZM299 603V730H348V603H299Z" />
<glyph unicode="&#xa3;" horiz-adv-x="613" d="M135 0V493Q135 616 195 676T372 737Q396 737 423 735T478 730T526 723V676Q505 680 478 683T422 687T368 689Q313 689 272 671T208 610T185 491V0H135ZM47 0V44H559V0H47ZM53 327V367H443V327H53ZM525 0V157H573V0H525Z" />
<glyph unicode="&#xa4;" horiz-adv-x="649" d="M324 154Q258 154 210 184T136 262T110 364V376Q110 431 135 479T209 556T324 586Q391 586 439 557T513 479T539 376V364Q539 310 513 263T439 185T324 154ZM94 114L62 146L161 243L193 211L94 114ZM161 497L62 594L94
626L193 529L161 497ZM324 200Q376 200 413 222T470 284T490 370Q490 419 470 457T413 518T324 540Q274 540 237 518T179 458T158 370Q158 323 178 284T236 223T324 200ZM555 114L456 211L488 243L587 146L555 114ZM488 497L456 529L555 626L587 594L488 497Z"
/>
<glyph unicode="&#xa5;" horiz-adv-x="589" d="M254 315L25 730H82L293 344L266 351H340L311 344L511 730H565L348 315H254ZM275 0V327H325V0H275ZM58 168V209H543V168H58ZM58 311V351H543V311H58Z" />
<glyph unicode="&#xa6;" horiz-adv-x="371" d="M161 365V730H210V365H161ZM161 -200V149H210V-200H161Z" />
<glyph unicode="&#xa7;" horiz-adv-x="584" d="M286 -68Q190 -68 139 -27T87 80H138Q139 40 173 10T286 -20Q356 -20 390 11T424 88Q424 119 403 138T346 171T271 196Q236 207 202 219T139 248T93 291T76 356Q76 401 97 432T152 483T224 512L275 487Q238 483 204
467T149 425T127 359Q127 322 151 300T212 265T290 239Q325 230 357 219T417 192T459 152T475 92Q475 24 427 -22T286 -68ZM345 189L316 221Q382 234 419 269T457 347Q457 386 434 408T375 445T297 470Q263 481 230 492T170 521T127 564T110 629Q110 671 131 704T190
756T282 775Q363 775 412 738T463 634H411Q412 678 379 703T283 728Q220 728 191 699T162 631Q162 594 184 572T243 537T320 511Q354 502 387 491T448 462T492 419T508 352Q508 314 489 281T433 223T345 189Z" />
<glyph unicode="&#xa8;" horiz-adv-x="300" d="M44 651Q22 651 11 663T0 693Q0 711 11 723T44 735Q67 735 78 723T89 693Q89 675 78 663T44 651ZM237 651Q215 651 204 663T193 693Q193 711 204 723T237 735Q260 735 271 723T282 693Q282 675 271 663T237 651Z" />
<glyph unicode="&#xa9;" horiz-adv-x="729" d="M364 127Q291 127 234 152T137 220T78 317T58 432V444Q58 504 78 559T138 656T234 724T364 749Q438 749 495 724T591 657T650 559T671 444V432Q671 372 651 318T592 220T496 152T364 127ZM364 163Q449 163 508 200T599
300T631 438Q631 514 600 576T509 675T364 712Q280 712 221 675T130 576T98 438Q98 363 129 301T220 201T364 163ZM370 259Q317 259 282 285T230 351T213 434V445Q213 490 230 529T283 591T370 615Q427 615 465 583T510 492H469Q465 530 441 553T370 576Q312 576
284 539T255 440Q255 401 267 369T305 317T370 298Q414 298 440 321T471 380H512Q507 325 467 292T370 259Z" />
<glyph unicode="&#xaa;" horiz-adv-x="389" d="M284 358V466H276V594Q276 634 256 656T189 679Q172 679 154 678T117 676T82 671L81 714Q94 716 110 718T143 721T175 722Q233 722 265 706T310 660T323 590V358H284ZM164 348Q111 348 76 378T40 462Q40 497 56 522T104
559T178 572H280V539H175Q134 539 112 518T89 463Q89 427 113 407T175 387Q199 387 221 396T259 428T276 490L291 472Q288 413 254 381T164 348Z" />
<glyph unicode="&#xab;" horiz-adv-x="475" d="M182 39L56 242V276L183 483H234L104 269V252L235 39H182ZM365 39L239 242V276L366 483H417L287 269V252L418 39H365Z" />
<glyph unicode="&#xac;" horiz-adv-x="603" d="M79 293V337H524V125L478 124V316L502 293H79Z" />
<glyph unicode="&#xad;" horiz-adv-x="437" d="M80 255V301H357V255H80Z" />
<glyph unicode="&#xae;" horiz-adv-x="678" d="M339 183Q271 183 218 206T128 269T73 358T54 460V472Q54 526 73 575T128 663T218 726T339 749Q407 749 460 726T549 664T605 575T624 472V460Q624 407 606 358T550 270T461 207T339 183ZM339 219Q418 219 473 253T556
344T585 466Q585 533 557 588T473 678T339 713Q260 713 205 679T122 589T93 466Q93 401 121 345T205 254T339 219ZM241 319V622H280V319H241ZM424 319L321 446H366L470 319H424ZM260 432V468H343Q379 468 395 483T411 527Q411 559 395 573T343 587H260V622H340Q392
622 421 598T450 527Q450 483 421 458T340 432H260Z" />
<glyph unicode="&#xaf;" horiz-adv-x="300" d="M0 675V717H243V675H0Z" />
<glyph unicode="&#xb0;" horiz-adv-x="331" d="M166 465Q128 465 98 482T50 530T32 598Q32 636 49 665T97 712T166 730Q204 730 234 713T281 666T299 598Q299 560 282 530T234 483T166 465ZM166 504Q207 504 232 531T257 598Q257 637 232 664T166 691Q125 691
100 664T75 598Q75 558 100 531T166 504Z" />
<glyph unicode="&#xb1;" horiz-adv-x="593" d="M83 57V101H510V57H83ZM273 173V607H319V174L273 173ZM83 368V412H510V368H83Z" />
<glyph unicode="&#xb2;" horiz-adv-x="369" d="M54 420V482Q54 516 71 537T133 579L216 615Q246 628 263 649T281 704Q281 746 256 770T187 794Q145 794 119 770T93 704H50Q50 760 87 796T187 832Q251 832 287 797T324 709V702Q324 659 300 630T231 581L147 544Q119
532 109 519T98 486V448L85 458H331V420H54Z" />
<glyph unicode="&#xb3;" horiz-adv-x="367" d="M179 411Q112 411 74 447T35 538H78Q78 498 105 473T179 448Q226 448 253 473T281 538Q281 579 255 604T180 629Q161 629 147 625T123 613L99 652L263 776L259 783H51V822H310V771L141 644L122 650Q134 656 149 659T181
663Q247 663 285 628T324 541V534Q324 483 286 447T179 411Z" />
<glyph unicode="&#xb4;" horiz-adv-x="300" d="M0 612L85 801H142L47 612H0Z" />
<glyph unicode="&#xb5;" horiz-adv-x="639" d="M89 -200V525H143V199Q143 126 181 81T293 35Q343 35 378 57T434 119T454 208V525H507V98Q507 71 518 59T554 47H603V0H555Q525 0 503 10T470 42T459 99L467 206H475Q474 140 453 90T391 13T285 -15H282Q243 -15
208 -1T148 42T118 113L135 114Q135 86 136 58T140 2T143 -54V-200H89Z" />
<glyph unicode="&#xb6;" horiz-adv-x="599" d="M202 420Q113 420 64 461T14 572V583Q14 652 63 693T202 734H309V420H202ZM289 0V734H343V0H289ZM423 0V734H477V0H423Z" />
<glyph unicode="&#xb7;" horiz-adv-x="254" d="M92 227V304H162V227H92Z" />
<glyph unicode="&#xb8;" horiz-adv-x="300" d="M125 -229Q106 -229 89 -227T58 -220V-180Q73 -184 91 -186T125 -189Q159 -189 176 -177T193 -142Q193 -122 179 -110T131 -97H101V10H137V-85L116 -60H129Q179 -60 207 -82T235 -141Q235 -180 207 -204T125 -229Z" />
<glyph unicode="&#xb9;" horiz-adv-x="254" d="M129 420V793L141 783H34V822H172V420H129Z" />
<glyph unicode="&#xba;" horiz-adv-x="441" d="M220 347Q164 347 124 374T63 444T42 534V542Q42 591 63 633T125 703T220 730Q276 730 316 703T377 634T399 542V534Q399 488 378 445T318 374T220 347ZM220 390Q262 390 291 410T335 465T350 538Q350 579 335 612T290
666T220 686Q180 686 151 666T106 613T91 538Q91 499 105 465T149 411T220 390Z" />
<glyph unicode="&#xbb;" horiz-adv-x="475" d="M293 483L419 280V246L292 39H241L371 253V270L240 483H293ZM110 483L236 280V246L109 39H58L188 253V270L57 483H110Z" />
<glyph unicode="&#xbc;" horiz-adv-x="774" d="M129 255V628L141 618H34V657H172V255H129ZM145 -22L525 680H570L190 -22H145ZM431 98V148L610 407L644 385L475 141L480 134H750V98H431ZM652 0V283H694V0H652Z" />
<glyph unicode="&#xbd;" horiz-adv-x="816" d="M129 255V628L141 618H34V657H172V255H129ZM145 -22L525 680H570L190 -22H145ZM501 0V62Q501 96 518 117T580 159L663 195Q693 208 710 229T728 284Q728 326 703 350T634 374Q592 374 566 350T540 284H497Q497 340
534 376T634 412Q698 412 734 377T771 289V282Q771 239 747 210T678 161L594 124Q566 112 556 99T545 66V28L532 38H778V0H501Z" />
<glyph unicode="&#xbe;" horiz-adv-x="880" d="M179 246Q112 246 74 282T35 373H78Q78 333 105 308T179 283Q226 283 253 308T281 373Q281 414 255 439T180 464Q161 464 147 460T123 448L99 487L263 611L259 618H51V657H310V606L141 479L122 485Q134 491 149 494T181
498Q247 498 285 463T324 376V369Q324 318 286 282T179 246ZM251 -22L631 680H676L296 -22H251ZM537 98V148L716 407L750 385L581 141L586 134H856V98H537ZM758 0V283H800V0H758Z" />
<glyph unicode="&#xbf;" horiz-adv-x="544" d="M328 339V154H281Q201 154 158 107T115 -11Q115 -60 135 -97T191 -155T277 -176Q327 -176 365 -154T425 -92T447 2H497Q497 -62 471 -113T395 -194T277 -224Q211 -224 163 -196T89 -120T63 -16V-5Q63 49 88 96T163
172T289 201L274 172L275 339H328ZM337 525V448H266V525H337Z" />
<glyph unicode="&#xc0;" horiz-adv-x="741" d="M37 0L312 730H420L704 0H648L377 699L410 681H319L353 699L91 0H37ZM168 246L187 295H549L568 246H168ZM346 797L221 944H284L400 797H346Z" />
<glyph unicode="&#xc1;" horiz-adv-x="741" d="M37 0L312 730H420L704 0H648L377 699L410 681H319L353 699L91 0H37ZM168 246L187 295H549L568 246H168ZM330 797L447 944H509L383 797H330Z" />
<glyph unicode="&#xc2;" horiz-adv-x="741" d="M37 0L312 730H420L704 0H648L377 699L410 681H319L353 699L91 0H37ZM168 246L187 295H549L568 246H168ZM213 797L330 944H402L520 797H467L375 913H356L264 797H213Z" />
<glyph unicode="&#xc3;" horiz-adv-x="741" d="M37 0L312 730H420L704 0H648L377 699L410 681H319L353 699L91 0H37ZM168 246L187 295H549L568 246H168ZM437 824Q413 824 397 831T366 848T337 864T301 872Q280 872 260 862T228 829L207 859Q220 883 245 898T303
914Q326 914 342 907T373 890T403 874T438 866Q459 866 478 877T510 909L532 879Q517 855 493 840T437 824Z" />
<glyph unicode="&#xc4;" horiz-adv-x="741" d="M37 0L312 730H420L704 0H648L377 699L410 681H319L353 699L91 0H37ZM168 246L187 295H549L568 246H168ZM262 825Q241 825 229 837T216 869Q216 889 228 901T262 913Q284 913 295 901T307 869Q307 849 296 837T262
825ZM470 825Q449 825 437 837T424 869Q424 889 436 901T470 913Q492 913 503 901T515 869Q515 849 504 837T470 825Z" />
<glyph unicode="&#xc5;" horiz-adv-x="741" d="M37 0L312 730H420L704 0H648L377 699L410 681H319L353 699L91 0H37ZM168 246L187 295H549L568 246H168ZM366 776Q313 776 285 807T256 879Q256 919 284 950T366 981Q418 981 446 950T475 879Q475 839 447 808T366
776ZM366 811Q402 811 420 831T438 879Q438 907 420 927T366 947Q330 947 312 927T293 879Q293 851 311 831T366 811Z" />
<glyph unicode="&#xc6;" horiz-adv-x="965" d="M21 0L316 730H501V681H323L355 699L75 0H21ZM173 291L191 341H501V291H173ZM485 0V730H540V0H485ZM523 0V49H895V0H523ZM523 344V393H859V344H523ZM523 681V730H883V681H523Z" />
<glyph unicode="&#xc7;" horiz-adv-x="793" d="M427 -17Q332 -17 263 17T151 107T86 229T65 359V374Q65 442 86 508T151 629T262 716T420 749Q509 749 576 717T685 626T735 489H680Q671 557 635 604T544 675T420 699Q346 699 290 673T196 600T139 493T120 366Q120
304 139 244T196 137T291 62T427 33Q533 33 605 87T694 243H749Q738 167 697 109T587 17T427 -17ZM427 -237Q406 -237 387 -234T354 -227V-186Q369 -190 388 -193T427 -196Q462 -196 481 -184T500 -147Q500 -126 483 -114T434 -101H403V10H442V-88L420 -63H432Q483
-63 513 -85T543 -146Q543 -188 513 -212T427 -237Z" />
<glyph unicode="&#xc8;" horiz-adv-x="605" d="M122 0V730H176V0H122ZM159 0V49H535V0H159ZM159 346V396H499V346H159ZM159 681V730H523V681H159ZM303 797L178 944H241L357 797H303Z" />
<glyph unicode="&#xc9;" horiz-adv-x="605" d="M122 0V730H176V0H122ZM159 0V49H535V0H159ZM159 346V396H499V346H159ZM159 681V730H523V681H159ZM288 797L405 944H467L341 797H288Z" />
<glyph unicode="&#xca;" horiz-adv-x="605" d="M122 0V730H176V0H122ZM159 0V49H535V0H159ZM159 346V396H499V346H159ZM159 681V730H523V681H159ZM171 797L288 944H360L478 797H425L333 913H314L222 797H171Z" />
<glyph unicode="&#xcb;" horiz-adv-x="605" d="M122 0V730H176V0H122ZM159 0V49H535V0H159ZM159 346V396H499V346H159ZM159 681V730H523V681H159ZM220 825Q199 825 187 837T174 869Q174 889 186 901T220 913Q242 913 253 901T265 869Q265 849 254 837T220 825ZM428
825Q407 825 395 837T382 869Q382 889 394 901T428 913Q450 913 461 901T473 869Q473 849 462 837T428 825Z" />
<glyph unicode="&#xcc;" horiz-adv-x="302" d="M124 0V730H178V0H124ZM131 797L6 944H69L185 797H131Z" />
<glyph unicode="&#xcd;" horiz-adv-x="302" d="M124 0V730H178V0H124ZM115 797L232 944H294L168 797H115Z" />
<glyph unicode="&#xce;" horiz-adv-x="302" d="M124 0V730H178V0H124ZM254 797L371 944H443L561 797H508L416 913H397L305 797H254Z" />
<glyph unicode="&#xcf;" horiz-adv-x="302" d="M124 0V730H178V0H124ZM47 825Q26 825 14 837T1 869Q1 889 13 901T47 913Q69 913 80 901T92 869Q92 849 81 837T47 825ZM255 825Q234 825 222 837T209 869Q209 889 221 901T255 913Q277 913 288 901T300 869Q300
849 289 837T255 825Z" />
<glyph unicode="&#xd0;" horiz-adv-x="800" d="M157 -3V47H373Q454 47 513 73T612 144T670 246T690 366Q690 431 671 488T611 589T512 658T373 683H157V733H367Q464 733 535 703T652 621T722 506T745 374V358Q745 293 723 229T655 112T537 29T367 -3H157ZM122
-3V733H176V-3H122ZM29 342V389H383V342H29Z" />
<glyph unicode="&#xd1;" horiz-adv-x="831" d="M122 0V730H216L644 49H676L656 35V730H709V0H614L186 681H154L174 695V0H122ZM504 824Q480 824 464 831T433 848T404 864T368 872Q347 872 327 862T295 829L274 859Q287 883 312 898T370 914Q393 914 409 907T440
890T470 874T505 866Q526 866 545 877T577 909L599 879Q584 855 560 840T504 824Z" />
<glyph unicode="&#xd2;" horiz-adv-x="870" d="M436 -17Q344 -17 275 16T159 105T89 227T65 359V375Q65 444 89 510T161 630T277 717T436 749Q525 749 593 717T709 631T781 510T805 375V359Q805 293 782 227T712 106T597 17T436 -17ZM436 33Q511 33 569 61T668
136T729 243T750 366Q750 432 729 492T667 598T568 672T436 699Q362 699 304 672T204 599T142 492T120 366Q120 303 141 244T202 137T301 61T436 33ZM415 797L290 944H353L469 797H415Z" />
<glyph unicode="&#xd3;" horiz-adv-x="870" d="M436 -17Q344 -17 275 16T159 105T89 227T65 359V375Q65 444 89 510T161 630T277 717T436 749Q525 749 593 717T709 631T781 510T805 375V359Q805 293 782 227T712 106T597 17T436 -17ZM436 33Q511 33 569 61T668
136T729 243T750 366Q750 432 729 492T667 598T568 672T436 699Q362 699 304 672T204 599T142 492T120 366Q120 303 141 244T202 137T301 61T436 33ZM400 797L517 944H579L453 797H400Z" />
<glyph unicode="&#xd4;" horiz-adv-x="870" d="M436 -17Q344 -17 275 16T159 105T89 227T65 359V375Q65 444 89 510T161 630T277 717T436 749Q525 749 593 717T709 631T781 510T805 375V359Q805 293 782 227T712 106T597 17T436 -17ZM436 33Q511 33 569 61T668
136T729 243T750 366Q750 432 729 492T667 598T568 672T436 699Q362 699 304 672T204 599T142 492T120 366Q120 303 141 244T202 137T301 61T436 33ZM283 797L400 944H472L590 797H537L445 913H426L334 797H283Z" />
<glyph unicode="&#xd5;" horiz-adv-x="870" d="M436 -17Q344 -17 275 16T159 105T89 227T65 359V375Q65 444 89 510T161 630T277 717T436 749Q525 749 593 717T709 631T781 510T805 375V359Q805 293 782 227T712 106T597 17T436 -17ZM436 33Q511 33 569 61T668
136T729 243T750 366Q750 432 729 492T667 598T568 672T436 699Q362 699 304 672T204 599T142 492T120 366Q120 303 141 244T202 137T301 61T436 33ZM506 824Q482 824 466 831T435 848T406 864T370 872Q349 872 329 862T297 829L276 859Q289 883 314 898T372 914Q395
914 411 907T442 890T472 874T507 866Q528 866 547 877T579 909L601 879Q586 855 562 840T506 824Z" />
<glyph unicode="&#xd6;" horiz-adv-x="870" d="M436 -17Q344 -17 275 16T159 105T89 227T65 359V375Q65 444 89 510T161 630T277 717T436 749Q525 749 593 717T709 631T781 510T805 375V359Q805 293 782 227T712 106T597 17T436 -17ZM436 33Q511 33 569 61T668
136T729 243T750 366Q750 432 729 492T667 598T568 672T436 699Q362 699 304 672T204 599T142 492T120 366Q120 303 141 244T202 137T301 61T436 33ZM332 825Q311 825 299 837T286 869Q286 889 298 901T332 913Q354 913 365 901T377 869Q377 849 366 837T332 825ZM540
825Q519 825 507 837T494 869Q494 889 506 901T540 913Q562 913 573 901T585 869Q585 849 574 837T540 825Z" />
<glyph unicode="&#xd7;" horiz-adv-x="586" d="M472 136L503 168L114 555L83 523L472 136ZM113 137L503 524L473 554L83 167L113 137Z" />
<glyph unicode="&#xd8;" horiz-adv-x="870" d="M124 -39L690 767H746L180 -39H124ZM436 -17Q344 -17 275 16T159 105T89 227T65 359V375Q65 444 89 510T161 630T277 717T436 749Q525 749 593 717T709 631T781 510T805 375V359Q805 293 782 227T712 106T597 17T436
-17ZM436 33Q511 33 569 61T668 136T729 243T750 366Q750 432 729 492T667 598T568 672T436 699Q362 699 304 672T204 599T142 492T120 366Q120 303 141 244T202 137T301 61T436 33Z" />
<glyph unicode="&#xd9;" horiz-adv-x="800" d="M400 -17Q301 -17 236 21T140 127T108 280V730H162V273Q162 202 188 148T267 63T400 33Q482 33 534 63T612 147T638 273V730H692V280Q692 194 661 127T566 22T400 -17ZM380 797L255 944H318L434 797H380Z" />
<glyph unicode="&#xda;" horiz-adv-x="800" d="M400 -17Q301 -17 236 21T140 127T108 280V730H162V273Q162 202 188 148T267 63T400 33Q482 33 534 63T612 147T638 273V730H692V280Q692 194 661 127T566 22T400 -17ZM364 797L481 944H543L417 797H364Z" />
<glyph unicode="&#xdb;" horiz-adv-x="800" d="M400 -17Q301 -17 236 21T140 127T108 280V730H162V273Q162 202 188 148T267 63T400 33Q482 33 534 63T612 147T638 273V730H692V280Q692 194 661 127T566 22T400 -17ZM247 797L364 944H436L554 797H501L409 913H390L298
797H247Z" />
<glyph unicode="&#xdc;" horiz-adv-x="800" d="M400 -17Q301 -17 236 21T140 127T108 280V730H162V273Q162 202 188 148T267 63T400 33Q482 33 534 63T612 147T638 273V730H692V280Q692 194 661 127T566 22T400 -17ZM297 825Q276 825 264 837T251 869Q251 889
263 901T297 913Q319 913 330 901T342 869Q342 849 331 837T297 825ZM505 825Q484 825 472 837T459 869Q459 889 471 901T505 913Q527 913 538 901T550 869Q550 849 539 837T505 825Z" />
<glyph unicode="&#xdd;" horiz-adv-x="647" d="M263 287L27 730H83L302 319L277 332H380L355 319L563 730H617L391 287H263ZM301 0V302H354V0H301ZM285 797L402 944H464L338 797H285Z" />
<glyph unicode="&#xde;" horiz-adv-x="602" d="M157 151V200H319Q384 200 423 222T480 284T499 372Q499 421 481 459T423 521T319 544H157V593H313Q396 593 449 564T527 486T553 377V366Q553 308 528 259T449 180T313 151H157ZM122 0V731H176V0H122Z" />
<glyph unicode="&#xdf;" horiz-adv-x="597" d="M324 -11Q299 -11 273 -8T226 -1V46Q247 42 274 39T324 36Q411 36 452 81T494 194Q494 250 469 290T399 353T298 375H257V421H291Q336 421 364 441T407 492T421 558Q421 591 408 622T366 674T294 694Q248 694 218
671T174 608T159 520V0H105V511Q105 618 154 679T292 741H296Q353 741 392 716T453 650T474 559Q474 509 452 470T389 409T293 387L295 409Q371 409 428 383T516 308T547 191Q547 133 522 88T446 16T324 -11ZM45 472V517H129V472H45Z" />
<glyph unicode="&#xe0;" horiz-adv-x="562" d="M424 0V157H414V350Q414 413 381 447T272 482Q245 482 217 481T164 478T119 473V521Q139 524 161 526T207 529T251 530Q330 530 377 510T445 448T466 342V0H424ZM241 -14Q188 -14 146 5T80 61T55 151Q55 202 78 238T146
293T254 312H419V269H249Q181 269 145 237T108 151Q108 95 147 63T249 30Q288 30 325 45T387 95T414 191L434 168Q431 107 405 67T336 6T241 -14ZM259 613L158 802H216L307 613H259Z" />
<glyph unicode="&#xe1;" horiz-adv-x="562" d="M424 0V157H414V350Q414 413 381 447T272 482Q245 482 217 481T164 478T119 473V521Q139 524 161 526T207 529T251 530Q330 530 377 510T445 448T466 342V0H424ZM241 -14Q188 -14 146 5T80 61T55 151Q55 202 78 238T146
293T254 312H419V269H249Q181 269 145 237T108 151Q108 95 147 63T249 30Q288 30 325 45T387 95T414 191L434 168Q431 107 405 67T336 6T241 -14ZM242 613L327 802H384L289 613H242Z" />
<glyph unicode="&#xe2;" horiz-adv-x="562" d="M424 0V157H414V350Q414 413 381 447T272 482Q245 482 217 481T164 478T119 473V521Q139 524 161 526T207 529T251 530Q330 530 377 510T445 448T466 342V0H424ZM241 -14Q188 -14 146 5T80 61T55 151Q55 202 78 238T146
293T254 312H419V269H249Q181 269 145 237T108 151Q108 95 147 63T249 30Q288 30 325 45T387 95T414 191L434 168Q431 107 405 67T336 6T241 -14ZM133 613L240 802H309L416 613H370L279 771H271L180 613H133Z" />
<glyph unicode="&#xe3;" horiz-adv-x="562" d="M424 0V157H414V350Q414 413 381 447T272 482Q245 482 217 481T164 478T119 473V521Q139 524 161 526T207 529T251 530Q330 530 377 510T445 448T466 342V0H424ZM241 -14Q188 -14 146 5T80 61T55 151Q55 202 78 238T146
293T254 312H419V269H249Q181 269 145 237T108 151Q108 95 147 63T249 30Q288 30 325 45T387 95T414 191L434 168Q431 107 405 67T336 6T241 -14ZM339 651Q316 651 300 658T271 676T243 694T211 702Q191 702 175 691T145 660L126 692Q142 717 164 730T212 744Q235
744 252 736T282 718T309 701T341 693Q361 693 377 703T407 735L426 702Q410 677 388 664T339 651Z" />
<glyph unicode="&#xe4;" horiz-adv-x="562" d="M424 0V157H414V350Q414 413 381 447T272 482Q245 482 217 481T164 478T119 473V521Q139 524 161 526T207 529T251 530Q330 530 377 510T445 448T466 342V0H424ZM241 -14Q188 -14 146 5T80 61T55 151Q55 202 78 238T146
293T254 312H419V269H249Q181 269 145 237T108 151Q108 95 147 63T249 30Q288 30 325 45T387 95T414 191L434 168Q431 107 405 67T336 6T241 -14ZM178 652Q156 652 145 664T134 694Q134 712 145 724T178 736Q201 736 212 724T223 694Q223 676 212 664T178 652ZM371
652Q349 652 338 664T327 694Q327 712 338 724T371 736Q394 736 405 724T416 694Q416 676 405 664T371 652Z" />
<glyph unicode="&#xe5;" horiz-adv-x="562" d="M424 0V157H414V350Q414 413 381 447T272 482Q245 482 217 481T164 478T119 473V521Q139 524 161 526T207 529T251 530Q330 530 377 510T445 448T466 342V0H424ZM241 -14Q188 -14 146 5T80 61T55 151Q55 202 78 238T146
293T254 312H419V269H249Q181 269 145 237T108 151Q108 95 147 63T249 30Q288 30 325 45T387 95T414 191L434 168Q431 107 405 67T336 6T241 -14ZM275 603Q227 603 198 633T168 708Q168 752 197 783T275 814Q323 814 352 783T381 708Q381 664 352 634T275 603ZM275
638Q307 638 326 658T345 708Q345 739 326 759T275 779Q243 779 224 759T205 708Q205 678 224 658T275 638Z" />
<glyph unicode="&#xe6;" horiz-adv-x="954" d="M668 -17Q610 -17 569 0T498 45T452 106T425 175H442Q439 109 411 68T338 6T239 -14Q187 -14 145 5T79 61T55 151Q55 202 78 237T146 292T253 311H416V268H247Q179 268 144 236T108 151Q108 95 146 63T247 30Q287
30 323 45T385 95T412 191V350Q412 413 380 447T274 482Q245 482 217 481T164 478T119 473V521Q139 524 161 526T206 529T250 530Q329 530 374 510T439 448T458 342H425Q436 397 465 442T544 514T662 541Q741 541 795 505T877 413T905 292V257H450V301H870L854
281Q854 342 832 389T766 464T662 492Q596 492 552 461T485 379T462 264Q462 201 484 149T552 64T668 32Q742 32 788 66T845 150H897Q886 100 856 63T778 4T668 -17Z" />
<glyph unicode="&#xe7;" horiz-adv-x="602" d="M318 -17Q253 -17 205 7T124 71T75 160T59 259V269Q59 320 75 369T123 456T204 518T318 541Q381 541 430 518T511 454T551 354H499Q490 414 443 453T318 493Q249 493 203 462T135 379T112 264Q112 203 135 150T204
65T318 32Q371 32 411 51T477 103T507 175H559Q552 117 519 75T434 8T318 -17ZM319 -229Q300 -229 283 -227T252 -220V-180Q267 -184 285 -186T319 -189Q353 -189 370 -177T387 -142Q387 -122 373 -110T325 -97H295V10H331V-85L310 -60H323Q373 -60 401 -82T429
-141Q429 -180 401 -204T319 -229Z" />
<glyph unicode="&#xe8;" horiz-adv-x="605" d="M317 -17Q250 -17 201 6T121 69T75 158T59 259V269Q59 321 74 369T121 456T200 518T311 541Q391 541 445 506T528 413T556 293V257H84V301H521L505 281Q505 342 483 390T417 465T311 493Q244 493 199 462T132 379T109
264Q109 201 131 149T200 64T317 31Q393 31 439 66T496 150H548Q537 101 506 63T428 4T317 -17ZM295 612L194 801H252L343 612H295Z" />
<glyph unicode="&#xe9;" horiz-adv-x="605" d="M317 -17Q250 -17 201 6T121 69T75 158T59 259V269Q59 321 74 369T121 456T200 518T311 541Q391 541 445 506T528 413T556 293V257H84V301H521L505 281Q505 342 483 390T417 465T311 493Q244 493 199 462T132 379T109
264Q109 201 131 149T200 64T317 31Q393 31 439 66T496 150H548Q537 101 506 63T428 4T317 -17ZM278 612L363 801H420L325 612H278Z" />
<glyph unicode="&#xea;" horiz-adv-x="605" d="M317 -17Q250 -17 201 6T121 69T75 158T59 259V269Q59 321 74 369T121 456T200 518T311 541Q391 541 445 506T528 413T556 293V257H84V301H521L505 281Q505 342 483 390T417 465T311 493Q244 493 199 462T132 379T109
264Q109 201 131 149T200 64T317 31Q393 31 439 66T496 150H548Q537 101 506 63T428 4T317 -17ZM169 612L276 801H345L452 612H406L315 770H307L216 612H169Z" />
<glyph unicode="&#xeb;" horiz-adv-x="605" d="M317 -17Q250 -17 201 6T121 69T75 158T59 259V269Q59 321 74 369T121 456T200 518T311 541Q391 541 445 506T528 413T556 293V257H84V301H521L505 281Q505 342 483 390T417 465T311 493Q244 493 199 462T132 379T109
264Q109 201 131 149T200 64T317 31Q393 31 439 66T496 150H548Q537 101 506 63T428 4T317 -17ZM214 651Q192 651 181 663T170 693Q170 711 181 723T214 735Q237 735 248 723T259 693Q259 675 248 663T214 651ZM407 651Q385 651 374 663T363 693Q363 711 374 723T407
735Q430 735 441 723T452 693Q452 675 441 663T407 651Z" />
<glyph unicode="&#xec;" horiz-adv-x="289" d="M131 0V525H185V0H131ZM44 479V525H185V479H44ZM104 612L3 801H61L152 612H104Z" />
<glyph unicode="&#xed;" horiz-adv-x="289" d="M131 0V525H185V0H131ZM44 479V525H185V479H44ZM87 612L172 801H229L134 612H87Z" />
<glyph unicode="&#xee;" horiz-adv-x="289" d="M131 0V525H185V0H131ZM44 479V525H185V479H44ZM234 612L341 801H410L517 612H471L380 770H372L281 612H234Z" />
<glyph unicode="&#xef;" horiz-adv-x="289" d="M131 0V525H185V0H131ZM44 479V525H185V479H44ZM279 651Q257 651 246 663T235 693Q235 711 246 723T279 735Q302 735 313 723T324 693Q324 675 313 663T279 651ZM472 651Q450 651 439 663T428 693Q428 711 439 723T472
735Q495 735 506 723T517 693Q517 675 506 663T472 651Z" />
<glyph unicode="&#xf0;" horiz-adv-x="629" d="M314 -17Q250 -17 202 4T122 62T75 144T59 239V261Q59 328 87 386T171 480T310 516Q380 516 426 491T498 426T527 339H519Q518 451 498 529T433 641Q408 659 376 669T292 679Q267 679 242 677T192 671V717Q215 721
240 723T292 725Q390 725 450 684T539 549T567 297V281Q567 192 539 125T456 20T314 -17ZM314 31Q383 31 428 60T494 138T516 250Q516 315 493 364T425 441T314 469Q246 469 201 441T134 363T112 250Q112 189 134 139T201 60T314 31ZM346 547L324 574L540 748L562
721L346 547Z" />
<glyph unicode="&#xf1;" horiz-adv-x="631" d="M103 0V525H145V310H133Q133 379 155 430T222 510T333 539H336Q435 539 485 478T535 310V0H481V322Q481 397 441 443T324 490Q247 490 202 443T156 317V0H103ZM388 650Q365 650 349 657T320 675T292 693T260 701Q240
701 224 690T194 659L175 691Q191 716 213 729T261 743Q284 743 301 735T331 717T358 700T390 692Q410 692 426 702T456 734L475 701Q459 676 437 663T388 650Z" />
<glyph unicode="&#xf2;" horiz-adv-x="661" d="M331 -17Q265 -17 214 7T129 70T77 157T59 257V267Q59 319 77 368T130 456T215 518T331 541Q395 541 445 518T531 456T584 368T603 267V257Q603 206 585 158T533 70T448 7T331 -17ZM331 32Q401 32 449 64T523 148T549
262Q549 325 523 377T449 461T331 493Q263 493 214 462T138 378T112 262Q112 201 137 149T212 64T331 32ZM315 612L214 801H272L363 612H315Z" />
<glyph unicode="&#xf3;" horiz-adv-x="661" d="M331 -17Q265 -17 214 7T129 70T77 157T59 257V267Q59 319 77 368T130 456T215 518T331 541Q395 541 445 518T531 456T584 368T603 267V257Q603 206 585 158T533 70T448 7T331 -17ZM331 32Q401 32 449 64T523 148T549
262Q549 325 523 377T449 461T331 493Q263 493 214 462T138 378T112 262Q112 201 137 149T212 64T331 32ZM298 612L383 801H440L345 612H298Z" />
<glyph unicode="&#xf4;" horiz-adv-x="661" d="M331 -17Q265 -17 214 7T129 70T77 157T59 257V267Q59 319 77 368T130 456T215 518T331 541Q395 541 445 518T531 456T584 368T603 267V257Q603 206 585 158T533 70T448 7T331 -17ZM331 32Q401 32 449 64T523 148T549
262Q549 325 523 377T449 461T331 493Q263 493 214 462T138 378T112 262Q112 201 137 149T212 64T331 32ZM189 612L296 801H365L472 612H426L335 770H327L236 612H189Z" />
<glyph unicode="&#xf5;" horiz-adv-x="661" d="M331 -17Q265 -17 214 7T129 70T77 157T59 257V267Q59 319 77 368T130 456T215 518T331 541Q395 541 445 518T531 456T584 368T603 267V257Q603 206 585 158T533 70T448 7T331 -17ZM331 32Q401 32 449 64T523 148T549
262Q549 325 523 377T449 461T331 493Q263 493 214 462T138 378T112 262Q112 201 137 149T212 64T331 32ZM395 650Q372 650 356 657T327 675T299 693T267 701Q247 701 231 690T201 659L182 691Q198 716 220 729T268 743Q291 743 308 735T338 717T365 700T397 692Q417
692 433 702T463 734L482 701Q466 676 444 663T395 650Z" />
<glyph unicode="&#xf6;" horiz-adv-x="661" d="M331 -17Q265 -17 214 7T129 70T77 157T59 257V267Q59 319 77 368T130 456T215 518T331 541Q395 541 445 518T531 456T584 368T603 267V257Q603 206 585 158T533 70T448 7T331 -17ZM331 32Q401 32 449 64T523 148T549
262Q549 325 523 377T449 461T331 493Q263 493 214 462T138 378T112 262Q112 201 137 149T212 64T331 32ZM233 651Q211 651 200 663T189 693Q189 711 200 723T233 735Q256 735 267 723T278 693Q278 675 267 663T233 651ZM426 651Q404 651 393 663T382 693Q382 711
393 723T426 735Q449 735 460 723T471 693Q471 675 460 663T426 651Z" />
<glyph unicode="&#xf7;" horiz-adv-x="586" d="M79 323V367H507V323H79ZM258 114V190H328V114H258ZM258 499V575H328V499H258Z" />
<glyph unicode="&#xf8;" horiz-adv-x="661" d="M91 -41L526 577H576L141 -41H91ZM331 -17Q265 -17 214 7T129 70T77 157T59 257V267Q59 319 77 368T130 456T215 518T331 541Q395 541 445 518T531 456T584 368T603 267V257Q603 206 585 158T533 70T448 7T331 -17ZM331
32Q401 32 449 64T523 148T549 262Q549 325 523 377T449 461T331 493Q263 493 214 462T138 378T112 262Q112 201 137 149T212 64T331 32Z" />
<glyph unicode="&#xf9;" horiz-adv-x="612" d="M282 -15Q187 -15 138 46T89 211V525H143V199Q143 126 181 81T293 35Q367 35 410 82T454 205V525H507V0H465V212H477Q477 145 456 94T392 14T285 -15H282ZM282 612L181 801H239L330 612H282Z" />
<glyph unicode="&#xfa;" horiz-adv-x="612" d="M282 -15Q187 -15 138 46T89 211V525H143V199Q143 126 181 81T293 35Q367 35 410 82T454 205V525H507V0H465V212H477Q477 145 456 94T392 14T285 -15H282ZM265 612L350 801H407L312 612H265Z" />
<glyph unicode="&#xfb;" horiz-adv-x="612" d="M282 -15Q187 -15 138 46T89 211V525H143V199Q143 126 181 81T293 35Q367 35 410 82T454 205V525H507V0H465V212H477Q477 145 456 94T392 14T285 -15H282ZM156 612L263 801H332L439 612H393L302 770H294L203 612H156Z" />
<glyph unicode="&#xfc;" horiz-adv-x="612" d="M282 -15Q187 -15 138 46T89 211V525H143V199Q143 126 181 81T293 35Q367 35 410 82T454 205V525H507V0H465V212H477Q477 145 456 94T392 14T285 -15H282ZM201 651Q179 651 168 663T157 693Q157 711 168 723T201
735Q224 735 235 723T246 693Q246 675 235 663T201 651ZM394 651Q372 651 361 663T350 693Q350 711 361 723T394 735Q417 735 428 723T439 693Q439 675 428 663T394 651Z" />
<glyph unicode="&#xfd;" horiz-adv-x="521" d="M44 -204V-155H104Q139 -155 165 -147T210 -116T243 -53L430 525H483L288 -70Q272 -119 246 -148T183 -191T100 -204H44ZM226 13V60H300V13H226ZM216 13L25 525H79L268 13H216ZM222 612L307 801H364L269 612H222Z" />
<glyph unicode="&#xfe;" horiz-adv-x="679" d="M103 -200V730H156V358L130 298Q132 371 162 425T246 511T369 542Q428 542 475 520T554 460T603 372T620 268V257Q620 205 603 156T554 69T474 7T367 -16Q297 -16 244 16T160 104T128 233L156 163V-200H103ZM360
32Q426 32 472 64T543 150T567 264Q567 328 542 380T471 463T360 494Q301 494 254 468T180 395T153 288V236Q153 179 179 133T252 60T360 32Z" />
<glyph unicode="&#xff;" horiz-adv-x="521" d="M44 -204V-155H104Q139 -155 165 -147T210 -116T243 -53L430 525H483L288 -70Q272 -119 246 -148T183 -191T100 -204H44ZM226 13V60H300V13H226ZM216 13L25 525H79L268 13H216ZM158 651Q136 651 125 663T114 693Q114
711 125 723T158 735Q181 735 192 723T203 693Q203 675 192 663T158 651ZM351 651Q329 651 318 663T307 693Q307 711 318 723T351 735Q374 735 385 723T396 693Q396 675 385 663T351 651Z" />
<glyph unicode="&#x2013;" horiz-adv-x="500" d="M18 255V301H482V255H18Z" />
<glyph unicode="&#x2014;" horiz-adv-x="888" d="M18 255V301H870V255H18Z" />
<glyph unicode="&#x2018;" horiz-adv-x="232" d="M179 734V698H170Q141 698 123 688T96 651T87 578V520L74 542Q79 546 88 549T108 552Q129 552 142 539T155 504Q155 483 143 470T108 457Q91 457 78 465T57 492T49 546V565Q49 634 63 670T105 720T170 734H179Z" />
<glyph unicode="&#x2019;" horiz-adv-x="232" d="M53 458V494H62Q91 494 109 504T136 541T145 614V672L158 650Q153 646 144 643T124 640Q103 640 90 653T77 688Q77 709 89 722T124 735Q141 735 154 727T175 700T183 646V627Q183 558 169 522T127 472T62 458H53Z" />
<glyph unicode="&#x201a;" horiz-adv-x="232" d="M53 -183V-147H62Q91 -147 109 -137T136 -100T145 -27V31L158 9Q153 5 144 2T124 -1Q103 -1 90 12T77 47Q77 68 89 81T124 94Q141 94 154 86T175 59T183 5V-14Q183 -83 169 -119T127 -169T62 -183H53Z" />
<glyph unicode="&#x201c;" horiz-adv-x="406" d="M353 734V698H344Q315 698 297 688T270 651T261 578V520L248 542Q253 546 262 549T282 552Q303 552 316 539T329 504Q329 483 317 470T282 457Q265 457 252 465T231 492T223 546V565Q223 634 237 670T279 720T344
734H353ZM179 734V698H170Q141 698 123 688T96 651T87 578V520L74 542Q79 546 88 549T108 552Q129 552 142 539T155 504Q155 483 143 470T108 457Q91 457 78 465T57 492T49 546V565Q49 634 63 670T105 720T170 734H179Z" />
<glyph unicode="&#x201d;" horiz-adv-x="406" d="M53 458V494H62Q91 494 109 504T136 541T145 614V672L158 650Q153 646 144 643T124 640Q103 640 90 653T77 688Q77 709 89 722T124 735Q141 735 154 727T175 700T183 646V627Q183 558 169 522T127 472T62 458H53ZM227
458V494H236Q265 494 283 504T310 541T319 614V672L332 650Q327 646 318 643T298 640Q277 640 264 653T251 688Q251 709 263 722T298 735Q315 735 328 727T349 700T357 646V627Q357 558 343 522T301 472T236 458H227Z" />
<glyph unicode="&#x201e;" horiz-adv-x="406" d="M53 -183V-147H62Q91 -147 109 -137T136 -100T145 -27V31L158 9Q153 5 144 2T124 -1Q103 -1 90 12T77 47Q77 68 89 81T124 94Q141 94 154 86T175 59T183 5V-14Q183 -83 169 -119T127 -169T62 -183H53ZM227 -183V-147H236Q265
-147 283 -137T310 -100T319 -27V31L332 9Q327 5 318 2T298 -1Q277 -1 264 12T251 47Q251 68 263 81T298 94Q315 94 328 86T349 59T357 5V-14Q357 -83 343 -119T301 -169T236 -183H227Z" />
<glyph unicode="&#x2022;" horiz-adv-x="431" d="M107 173V401H324V173H107Z" />
<glyph unicode="&#x2039;" horiz-adv-x="293" d="M182 39L56 242V276L183 483H234L104 269V252L235 39H182Z" />
<glyph unicode="&#x203a;" horiz-adv-x="293" d="M111 483L237 280V246L110 39H59L189 253V270L58 483H111Z" />
</font>
</defs>
</svg>
