<?xml version="1.0" standalone="no"?>
<!DOCTYPE svg PUBLIC "-//W3C//DTD SVG 1.1//EN" "http://www.w3.org/Graphics/SVG/1.1/DTD/svg11.dtd">
<svg xmlns="http://www.w3.org/2000/svg">
<defs >
<font id="Sora" horiz-adv-x="590" ><font-face
    font-family="Sora"
    units-per-em="1000"
    panose-1="0 0 0 0 0 0 0 0 0 0"
    ascent="970"
    descent="-290"
    alphabetic="0" />
<glyph unicode=" " horiz-adv-x="228" />
<glyph unicode="!" horiz-adv-x="296" d="M99 218V730H197V218H99ZM90 0V122H206V0H90Z" />
<glyph unicode="&quot;" horiz-adv-x="430" d="M90 460V730H172V460H90ZM258 460V730H340V460H258Z" />
<glyph unicode="#" horiz-adv-x="692" d="M130 0L243 730H329L216 0H130ZM364 0L477 730H563L450 0H364ZM36 209V279H620V209H36ZM72 451V521H656V451H72Z" />
<glyph unicode="$" horiz-adv-x="652" d="M325 0Q239 0 179 28T88 109T56 233H146Q146 199 162 164T218 106T325 82Q415 82 458 120T502 207Q502 255 463 287T350 326L284 332Q188 341 131 390T74 530Q74 593 104 637T190 706T321 730Q396 730 450 704T535 627T565
505H475Q475 541 459 573T410 627T321 648Q272 648 238 633T185 590T166 530Q166 487 197 456T292 418L358 412Q465 402 529 350T594 207Q594 145 561 99T468 26T325 0ZM282 -129V17H368V-129H282ZM278 681V827H364V681H278Z" />
<glyph unicode="%" horiz-adv-x="850" d="M251 0L527 730H603L327 0H251ZM197 338Q140 338 105 364T53 433T36 526V552Q36 606 53 648T106 715T197 740Q253 740 288 716T341 649T358 552V526Q358 476 342 433T290 364T197 338ZM197 404Q243 404 265 437T288 538Q288
609 265 641T197 674Q152 674 129 642T106 539Q106 472 128 438T197 404ZM653 -10Q596 -10 561 16T509 85T492 178V204Q492 258 509 300T562 367T653 392Q709 392 744 368T797 301T814 204V178Q814 128 798 85T746 16T653 -10ZM653 56Q699 56 721 89T744 190Q744
261 721 293T653 326Q608 326 585 294T562 191Q562 124 584 90T653 56Z" />
<glyph unicode="&amp;" horiz-adv-x="688" d="M537 0L236 321Q190 371 165 407T129 475T118 544Q118 609 142 652T220 716T357 738Q390 738 431 735T504 728V644Q484 646 452 648T389 652T338 654Q267 654 239 626T210 542Q210 498 230 461T295 377L650 0H537ZM289
-18Q212 -18 154 11T64 90T32 201V216Q32 288 72 343T173 433L223 366Q179 344 152 302T124 208Q124 161 146 129T206 81T289 64Q359 64 410 103T488 220T516 413H602Q602 313 582 234T521 98T423 12T289 -18ZM400 400V476H662V400H400Z" />
<glyph unicode="&apos;" horiz-adv-x="262" d="M90 460V730H172V460H90Z" />
<glyph unicode="(" horiz-adv-x="376" d="M250 -182Q197 -121 157 -50T94 108T72 301Q72 407 94 493T157 649T250 776H360Q298 709 255 637T189 483T166 301Q166 202 188 119T253 -38T360 -182H250Z" />
<glyph unicode=")" horiz-adv-x="376" d="M126 -182Q179 -121 219 -50T282 108T304 301Q304 407 282 493T219 649T126 776H16Q78 709 121 637T187 483T210 301Q210 202 188 119T123 -38T16 -182H126Z" />
<glyph unicode="*" horiz-adv-x="567" d="M474 375L321 483V579L474 687L519 609L388 552V510L519 453L474 375ZM319 779L302 592L218 544L48 623L93 700L208 616L245 637L229 778L319 779ZM48 439L218 518L302 470L319 283L229 284L245 425L208 446L93 362L48 439Z" />
<glyph unicode="+" d="M254 106V582H336V106H254ZM66 306V382H524V306H66Z" />
<glyph unicode="," horiz-adv-x="262" d="M103 -157L26 -128L119 130L198 100L103 -157Z" />
<glyph unicode="-" horiz-adv-x="504" d="M66 237V319H438V237H66Z" />
<glyph unicode="." horiz-adv-x="262" d="M73 0V122H189V0H73Z" />
<glyph unicode="/" horiz-adv-x="344" d="M25 -60L229 780H319L115 -60H25Z" />
<glyph unicode="0" horiz-adv-x="743" d="M372 -18Q290 -18 233 10T140 88T88 201T72 338V392Q72 493 103 574T201 702T372 750Q476 750 542 703T639 574T671 392V338Q671 266 655 202T604 88T511 11T372 -18ZM372 70Q476 70 524 140T573 364Q573 524 524 593T372
662Q269 662 220 593T170 366Q170 212 219 141T372 70Z" />
<glyph unicode="1" horiz-adv-x="420" d="M204 0V682L248 648H42V730H300V0H204Z" />
<glyph unicode="2" horiz-adv-x="618" d="M76 0V120Q76 164 88 195T132 251T216 301L353 364Q403 387 432 423T461 518Q461 588 422 627T312 666Q242 666 202 627T162 518H68Q68 581 94 634T175 718T312 750Q395 750 448 719T528 636T555 525V511Q555 432 510
378T387 289L250 226Q204 205 188 184T172 128V36L146 82H564V0H76Z" />
<glyph unicode="3" horiz-adv-x="614" d="M299 -18Q217 -18 160 14T74 99T44 214H138Q138 146 181 106T299 66Q348 66 384 84T440 135T460 214Q460 282 417 324T300 366Q269 366 247 359T207 340L159 426L438 630L428 648H73V730H518V597L287 429L217 426Q234
432 254 436T303 440Q383 440 439 410T524 330T554 221V207Q554 149 525 98T439 14T299 -18Z" />
<glyph unicode="4" horiz-adv-x="642" d="M48 173V291L351 748L418 695L135 267L144 249H616V173H48ZM429 0V517H519V0H429Z" />
<glyph unicode="5" horiz-adv-x="623" d="M316 -18Q232 -18 174 16T86 107T56 226H150Q150 180 170 144T228 87T316 66Q366 66 403 86T462 143T483 226Q483 272 463 309T405 368T316 390Q279 390 241 378T180 342H92L129 730H512V648H185L209 681L181 398L155
407Q184 436 225 453T320 470Q404 470 461 436T547 347T577 233V219Q577 160 547 106T459 17T316 -18Z" />
<glyph unicode="6" horiz-adv-x="659" d="M349 -20Q269 -20 216 8T131 84T86 196T72 328V376Q72 549 158 642T407 736Q446 736 473 734T532 728V646Q499 650 471 652T403 654Q312 654 259 620T183 523T160 369V324L136 235Q137 314 166 366T247 444T366 470Q444
470 498 439T579 352T607 227Q607 156 578 100T492 12T349 -20ZM349 64Q404 64 441 85T496 142T515 227Q515 275 497 312T444 369T356 390Q305 390 265 371T201 316T178 226Q178 182 196 145T252 86T349 64Z" />
<glyph unicode="7" horiz-adv-x="574" d="M144 0L453 639L447 648H48V730H538V614L244 0H144ZM48 532V730H128V532H48Z" />
<glyph unicode="8" horiz-adv-x="637" d="M318 -18Q240 -18 180 10T85 88T50 204Q50 248 67 283T114 345T182 385V395Q152 408 128 430T89 482T74 550Q74 613 107 657T196 724T318 748Q385 748 440 725T529 657T562 550Q562 512 548 482T510 430T454 395V385Q493
371 523 345T570 283T587 204Q587 138 553 88T458 10T318 -18ZM318 64Q373 64 412 81T472 131T493 208Q493 252 473 284T413 333T318 351Q263 351 224 334T165 284T144 208Q144 164 164 132T224 82T318 64ZM318 427Q386 427 427 456T468 547Q468 609 427 637T318
666Q251 666 210 637T168 547Q168 486 209 457T318 427Z" />
<glyph unicode="9" horiz-adv-x="659" d="M310 750Q390 750 443 722T528 646T573 534T587 402V354Q587 181 501 88T252 -6Q213 -6 186 -4T127 2V84Q160 80 188 78T256 76Q347 76 400 110T476 207T499 361V406L523 495Q522 416 493 364T412 286T293 260Q215 260
161 291T80 378T52 503Q52 574 81 630T167 718T310 750ZM310 666Q255 666 218 645T163 588T144 503Q144 455 162 418T215 361T303 340Q354 340 394 359T458 414T481 504Q481 548 463 585T407 644T310 666Z" />
<glyph unicode=":" horiz-adv-x="262" d="M73 0V122H189V0H73ZM73 370V492H189V370H73Z" />
<glyph unicode=";" horiz-adv-x="262" d="M107 -157L30 -128L123 130L202 100L107 -157ZM79 370V492H195V370H79Z" />
<glyph unicode="&lt;" d="M514 538V458L76 314V391L514 538ZM76 342L514 198V120L76 267V342ZM146 369V287H116V369H146Z" />
<glyph unicode="=" d="M66 381V457H524V381H66ZM66 203V279H524V203H66Z" />
<glyph unicode="&gt;" d="M76 120V200L514 344V267L76 120ZM514 316L76 460V538L514 391V316ZM444 289V371H474V289H444Z" />
<glyph unicode="?" horiz-adv-x="552" d="M203 218V404H272Q343 404 377 442T412 535Q412 576 395 605T348 650T278 666Q233 666 201 648T150 598T132 525H40Q40 584 66 635T146 718T278 750Q348 750 398 722T476 646T504 541V529Q504 473 477 426T397 352T265
324L301 370L299 218H203ZM193 0V122H309V0H193Z" />
<glyph unicode="@" horiz-adv-x="1122" d="M565 -243Q457 -243 366 -208T207 -107T103 49T66 250Q66 356 102 447T204 606T364 712T570 750Q669 750 757 722T913 638T1019 501T1058 312Q1058 224 1031 155T957 46T846 6Q799 6 765 26T713 81T694 163V225H723Q720
154 693 107T622 37T527 14Q466 14 418 44T341 127T313 245V261Q313 327 342 378T420 458T531 487Q586 487 630 463T701 394T732 284H696V473H774V165Q774 137 783 119T809 93T844 84Q878 84 907 111T954 189T972 308Q972 399 941 467T853 580T725 647T571 670Q475
670 398 638T265 549T181 415T152 249Q152 127 204 35T349 -109T565 -161Q597 -161 627 -158T685 -147V-230Q657 -236 627 -239T565 -243ZM544 90Q583 90 616 108T670 161T690 246V272Q690 319 669 349T615 395T544 411Q501 411 469 392T419 337T401 253Q401 205
419 168T469 111T544 90Z" />
<glyph unicode="A" horiz-adv-x="756" d="M28 0L291 730H457L728 0H627L382 666L430 642H312L363 666L126 0H28ZM185 218L218 306H533L566 218H185Z" />
<glyph unicode="B" horiz-adv-x="680" d="M184 -4V82H388Q447 82 479 115T512 205Q512 262 480 294T388 327H184V391H374Q444 391 497 374T581 318T612 210V196Q612 132 586 88T507 20T374 -4H184ZM106 -4V734H204V-4H106ZM184 345V409H361Q423 409 452 442T482
528Q482 581 453 614T361 648H184V734H344Q464 734 523 684T582 538V524Q582 457 552 418T469 362T344 345H184Z" />
<glyph unicode="C" horiz-adv-x="795" d="M423 -18Q323 -18 253 17T139 108T76 229T56 356V378Q56 444 76 510T140 630T252 717T417 750Q515 750 585 716T696 621T746 477H646Q638 539 606 579T526 640T417 660Q352 660 303 638T222 575T173 481T156 366Q156 307
172 254T222 160T306 96T423 72Q517 72 581 119T659 255H759Q749 180 709 118T597 19T423 -18Z" />
<glyph unicode="D" horiz-adv-x="791" d="M184 -4V86H366Q432 86 483 107T571 167T627 256T646 366Q646 428 627 478T572 566T484 624T366 644H184V734H356Q455 734 528 704T649 622T722 507T746 377V355Q746 291 722 227T650 111T528 28T356 -4H184ZM106 -4V734H204V-4H106Z"
/>
<glyph unicode="E" horiz-adv-x="600" d="M106 0V730H204V0H106ZM184 0V88H538V0H184ZM184 327V415H507V327H184ZM184 642V730H528V642H184Z" />
<glyph unicode="F" horiz-adv-x="560" d="M106 0V730H204V0H106ZM184 325V413L497 414V326L184 325ZM184 642V730H514V642H184Z" />
<glyph unicode="G" horiz-adv-x="831" d="M432 -18Q347 -18 278 10T160 89T83 209T56 361V383Q56 453 80 518T151 636T265 719T416 750Q507 750 578 716T692 620T742 477H642Q635 538 602 578T521 639T416 660Q359 660 311 640T229 581T175 490T156 371Q156 296
176 240T234 146T321 89T432 70Q517 70 581 104T679 194L643 75V292H735V118Q686 54 609 18T432 -18ZM406 272V354H797V272H406Z" />
<glyph unicode="H" horiz-adv-x="804" d="M600 0V730H698V0H600ZM106 0V730H204V0H106ZM184 319V407H620V319H184Z" />
<glyph unicode="I" horiz-adv-x="314" d="M108 0V730H206V0H108Z" />
<glyph unicode="J" horiz-adv-x="640" d="M292 -18Q221 -18 163 12T72 101T38 248V273H136V230Q136 155 180 114T292 72Q360 72 404 113T448 230V662H546V248Q546 160 513 101T422 12T292 -18ZM134 642V730H546V642H134Z" />
<glyph unicode="K" horiz-adv-x="678" d="M566 0L269 341H162L501 730H613L305 378L296 447L688 0H566ZM106 0V730H204V0H106Z" />
<glyph unicode="L" horiz-adv-x="544" d="M106 0V730H204V0H106ZM184 0V88H518V0H184Z" />
<glyph unicode="M" horiz-adv-x="920" d="M106 0V730H236L452 243H468L683 730H814V0H716V623L723 621L516 151H396L188 621L196 623V0H106Z" />
<glyph unicode="N" horiz-adv-x="849" d="M106 0V730H266L637 88H669L649 70V730H743V0H581L210 642H178L198 660V0H106Z" />
<glyph unicode="O" horiz-adv-x="865" d="M433 -18Q335 -18 264 17T147 109T79 231T56 356V378Q56 443 79 509T149 629T266 717T433 750Q529 750 599 717T717 630T787 509T810 378V356Q810 296 788 231T719 109T602 17T433 -18ZM433 72Q497 72 548 96T636 161T691
255T710 366Q710 427 691 480T636 573T549 637T433 660Q369 660 318 637T230 574T175 480T156 366Q156 308 175 256T230 162T317 96T433 72Z" />
<glyph unicode="P" horiz-adv-x="640" d="M184 254V340H347Q399 340 433 360T484 416T502 494Q502 538 485 573T433 628T347 648H184V734H329Q419 734 479 706T571 625T602 502V486Q602 416 571 364T480 283T329 254H184ZM106 0V734H204V0H106Z" />
<glyph unicode="Q" horiz-adv-x="865" d="M568 -211Q514 -211 474 -196T412 -142T390 -38V50H480V-53Q480 -86 499 -105T551 -124H675V-211H568ZM433 -18Q335 -18 264 17T147 109T79 231T56 356V378Q56 443 79 509T149 629T266 717T433 750Q529 750 599 717T717
630T787 509T810 378V356Q810 296 788 231T719 109T602 17T433 -18ZM433 72Q497 72 548 96T636 161T691 255T710 366Q710 427 691 480T636 573T549 637T433 660Q369 660 318 637T230 574T175 480T156 366Q156 308 175 256T230 162T317 96T433 72Z" />
<glyph unicode="R" horiz-adv-x="700" d="M106 0V734H204V0H106ZM557 0L315 325H430L676 0H557ZM167 264V351H363Q409 351 442 370T493 422T511 499Q511 542 493 575T442 628T363 648H167V734H345Q425 734 485 710T578 636T611 507V491Q611 412 578 362T485 288T345
264H167Z" />
<glyph unicode="S" horiz-adv-x="689" d="M343 -18Q252 -18 188 12T90 95T56 215H154Q154 182 171 149T230 94T343 72Q409 72 451 91T513 142T533 211Q533 256 494 285T380 322L299 329Q202 337 144 389T86 526Q86 593 118 643T209 721T344 750Q420 750 478 722T568
644T601 523H503Q503 558 487 589T435 640T344 660Q290 660 255 641T202 592T184 526Q184 486 215 455T307 419L388 412Q463 406 517 381T601 313T631 211Q631 144 595 92T494 11T343 -18Z" />
<glyph unicode="T" horiz-adv-x="594" d="M248 0V662H346V0H248ZM26 642V730H568V642H26Z" />
<glyph unicode="U" horiz-adv-x="789" d="M395 -18Q296 -18 229 20T127 128T92 290V730H190V278Q190 217 213 171T283 98T395 72Q461 72 506 97T575 169T599 278V730H697V290Q697 198 663 129T562 21T395 -18Z" />
<glyph unicode="V" horiz-adv-x="708" d="M275 0L22 730H123L350 64L302 88H422L371 64L580 730H678L443 0H275Z" />
<glyph unicode="W" horiz-adv-x="1043" d="M227 0L30 730H131L302 64L255 88H374L322 64L461 700H553L394 0H227ZM666 0L491 700H586L743 64L693 88H813L762 64L915 730H1013L834 0H666Z" />
<glyph unicode="X" horiz-adv-x="696" d="M16 0L288 390V372L40 730H151L342 450H358L552 730H658L403 368L402 386L678 0H567L349 307H333L122 0H16Z" />
<glyph unicode="Y" horiz-adv-x="652" d="M248 284L16 730H118L314 348L276 359H394L354 348L538 730H634L416 284H248ZM284 0V304H380V0H284Z" />
<glyph unicode="Z" horiz-adv-x="654" d="M62 0V120L512 647L511 623L485 659L502 648H71V730H595V610L144 83L143 111L175 66L150 82H608V0H62Z" />
<glyph unicode="[" horiz-adv-x="376" d="M110 -182V776H202V-182H110ZM154 -182V-106H322V-182H154ZM154 700V776H322V700H154Z" />
<glyph unicode="\" horiz-adv-x="344" d="M239 -60L16 780H105L328 -60H239Z" />
<glyph unicode="]" horiz-adv-x="376" d="M266 -182V776H174V-182H266ZM222 -182V-106H54V-182H222ZM222 700V776H54V700H222Z" />
<glyph unicode="^" horiz-adv-x="572" d="M66 309L232 722H342L506 309H428L299 652H275L144 309H66Z" />
<glyph unicode="_" horiz-adv-x="576" d="M0 -132V-60H576V-132H0Z" />
<glyph unicode="`" horiz-adv-x="300" d="M110 612L0 810H105L192 612H110Z" />
<glyph unicode="a" horiz-adv-x="575" d="M415 0V160H399V345Q399 400 371 428T287 456Q256 456 223 455T160 453T108 450V534Q130 536 154 537T205 539T255 540Q337 540 389 521T466 457T491 338V0H415ZM240 -14Q180 -14 137 6T70 66T46 160Q46 217 71 255T146
312T264 332H409V260H260Q202 260 171 232T140 160Q140 116 171 89T260 62Q294 62 325 74T376 116T399 198L425 160Q420 103 398 65T336 6T240 -14Z" />
<glyph unicode="b" horiz-adv-x="689" d="M374 -18Q308 -18 257 11T175 95T142 229H168V0H92V730H188V375L154 302Q158 389 189 444T270 525T382 552Q439 552 486 531T567 472T619 385T637 278V260Q637 203 619 153T565 65T482 4T374 -18ZM363 66Q417 66 457 92T519
163T541 269Q541 329 519 374T456 443T363 468Q315 468 274 447T209 385T184 287V241Q184 186 209 147T275 87T363 66Z" />
<glyph unicode="c" horiz-adv-x="606" d="M321 -18Q252 -18 202 6T118 70T69 160T52 258V276Q52 327 68 376T118 464T202 528T319 552Q386 552 439 527T525 457T562 349H470Q463 399 424 432T319 466Q262 466 224 440T167 369T148 267Q148 212 167 167T224 95T321
68Q366 68 399 84T452 127T476 188H568Q565 125 532 79T444 8T321 -18Z" />
<glyph unicode="d" horiz-adv-x="689" d="M315 -18Q258 -18 210 3T127 62T72 150T52 258V276Q52 333 71 383T124 471T206 530T312 552Q373 552 423 527T505 447T541 307L501 371V730H597V0H521V237H549Q545 146 511 90T426 8T315 -18ZM328 66Q377 66 417 88T481
151T505 249V295Q505 350 481 388T416 447T327 468Q274 468 234 443T171 373T148 267Q148 206 171 161T235 91T328 66Z" />
<glyph unicode="e" horiz-adv-x="612" d="M319 -18Q249 -18 198 6T115 69T68 158T52 258V276Q52 328 67 377T115 465T196 528T313 552Q400 552 456 515T540 418T568 292V249H94V321H498L476 282Q476 339 458 380T404 445T313 468Q256 468 219 442T163 371T144
267Q144 210 162 165T220 93T319 66Q382 66 421 94T469 159H559Q548 104 515 64T432 3T319 -18Z" />
<glyph unicode="f" horiz-adv-x="379" d="M106 0V561Q106 650 153 692T291 734H357V654H275Q238 654 218 634T198 577V0H106ZM32 456V528H367V456H32Z" />
<glyph unicode="g" horiz-adv-x="675" d="M294 -208Q257 -208 220 -205T148 -197V-116Q184 -121 223 -124T298 -128Q371 -128 414 -109T477 -48T497 59V161L529 237Q526 156 495 103T415 23T305 -4Q249 -4 203 17T123 77T71 164T52 269V287Q52 343 71 391T124
476T205 532T310 552Q377 552 428 524T508 441T541 307L513 306V534H589V63Q589 -33 560 -92T466 -180T294 -208ZM323 84Q371 84 410 105T473 165T497 260V306Q497 360 473 397T409 453T324 472Q272 472 232 448T170 381T148 278Q148 219 170 175T232 108T323 84Z"
/>
<glyph unicode="h" horiz-adv-x="640" d="M92 0V730H188V294H164Q164 373 184 430T248 519T358 550H362Q458 550 507 487T556 305V0H460V325Q460 390 424 426T329 462Q265 462 227 420T188 308V0H92Z" />
<glyph unicode="i" horiz-adv-x="308" d="M118 0V534H214V0H118ZM36 458V534H214V458H36ZM145 620Q113 620 98 637T82 680Q82 706 97 723T145 740Q177 740 192 723T208 680Q208 654 193 637T145 620Z" />
<glyph unicode="j" horiz-adv-x="317" d="M-2 -204V-118H54Q92 -118 112 -97T133 -39V534H225V-25Q225 -92 207 -131T148 -187T40 -204H-2ZM49 458V534H225V458H49ZM156 628Q124 628 109 645T93 688Q93 714 108 731T156 748Q188 748 203 731T219 688Q219 662 204
645T156 628Z" />
<glyph unicode="k" horiz-adv-x="573" d="M460 0L259 249H171L416 534H517L295 277L302 328L571 0H460ZM92 0V730H188V0H92Z" />
<glyph unicode="l" horiz-adv-x="286" d="M98 0V730H194V0H98ZM24 654V730H194V654H24Z" />
<glyph unicode="m" horiz-adv-x="968" d="M92 0V534H168V305H156Q156 383 176 437T238 521T342 550H346Q409 550 450 521T512 438T532 305H504Q504 383 525 437T587 521T692 550H696Q759 550 801 521T863 438T884 305V0H788V326Q788 391 756 426T667 462Q608 462
572 425T536 320V0H440V326Q440 391 408 426T319 462Q260 462 224 425T188 320V0H92Z" />
<glyph unicode="n" horiz-adv-x="640" d="M92 0V534H168V305H156Q156 384 177 438T243 521T354 550H358Q459 550 507 487T556 305V0H460V325Q460 387 425 424T329 462Q266 462 227 423T188 319V0H92Z" />
<glyph unicode="o" horiz-adv-x="676" d="M338 -18Q268 -18 215 6T126 69T71 158T52 258V276Q52 327 71 376T127 465T217 528T338 552Q406 552 459 529T549 466T605 377T624 276V258Q624 207 606 158T551 70T461 6T338 -18ZM338 68Q398 68 440 94T505 166T528
267Q528 324 505 369T440 440T338 466Q280 466 237 440T171 369T148 267Q148 211 170 166T235 95T338 68Z" />
<glyph unicode="p" horiz-adv-x="689" d="M92 -200V534H168V303L150 305Q155 391 186 445T269 526T380 552Q438 552 485 530T567 470T619 382T637 276V258Q637 202 618 152T565 64T483 4T378 -18Q321 -18 269 7T183 88T144 235L188 155V-200H92ZM363 66Q417 66
457 91T519 162T541 267Q541 327 519 372T457 442T363 468Q315 468 274 447T209 385T184 287V241Q184 186 209 147T275 87T363 66Z" />
<glyph unicode="q" horiz-adv-x="689" d="M501 -200V159L539 235Q536 148 504 92T422 9T311 -18Q254 -18 207 4T125 65T71 154T52 262V280Q52 337 71 386T125 472T208 531T315 552Q383 552 434 523T516 439T549 305H521V534H597V-200H501ZM328 70Q377 70 417 92T481
155T505 253V299Q505 354 481 392T416 451T328 472Q274 472 234 447T171 377T148 271Q148 211 171 166T235 95T328 70Z" />
<glyph unicode="r" horiz-adv-x="410" d="M92 0V534H168V314H164Q164 431 215 485T370 540H388V454H354Q274 454 231 412T188 289V0H92Z" />
<glyph unicode="s" horiz-adv-x="536" d="M267 -16Q162 -16 105 29T45 152H135Q137 121 166 94T267 66Q331 66 365 91T399 154Q399 187 374 205T293 230L235 236Q159 244 111 281T63 387Q63 438 89 474T161 530T267 550Q357 550 413 510T471 391H381Q380 423 352
445T267 468Q211 468 182 445T153 387Q153 357 173 339T241 316L299 310Q385 301 437 263T489 154Q489 104 461 66T382 6T267 -16Z" />
<glyph unicode="t" horiz-adv-x="426" d="M300 -6Q240 -6 197 11T130 69T106 182V696H198V170Q198 127 221 104T288 80H382V-6H300ZM14 462V534H382V462H14Z" />
<glyph unicode="u" horiz-adv-x="628" d="M277 -16Q182 -16 131 46T80 225V535H176V206Q176 143 210 108T302 72Q362 72 400 110T438 216V535H534V0H458V229H470Q470 150 449 96T387 13T281 -16H277Z" />
<glyph unicode="v" horiz-adv-x="559" d="M206 0L24 534H124L302 0H206ZM230 0V76H346V0H230ZM276 0L431 534H525L367 0H276Z" />
<glyph unicode="w" horiz-adv-x="848" d="M248 0L356 516H486L612 0H530L404 514H436L327 0H248ZM199 0V76H310V0H199ZM177 0L26 534H118L265 0H177ZM550 0V76H661V0H550ZM595 0L723 534H810L679 0H595Z" />
<glyph unicode="x" horiz-adv-x="560" d="M28 0L219 281L216 261L37 534H143L272 333H286L408 534H507L338 268L341 286L541 0H435L285 217H271L127 0H28Z" />
<glyph unicode="y" horiz-adv-x="547" d="M56 -208V-122H133Q167 -122 190 -114T229 -85T255 -32L423 534H517L339 -57Q323 -110 294 -143T224 -192T127 -208H56ZM219 12V92H335V12H219ZM209 12L18 534H116L299 12H209Z" />
<glyph unicode="z" horiz-adv-x="488" d="M58 0V107L349 456V440L333 464L346 458H54V534H434V427L143 78V92L161 67L147 76H450V0H58Z" />
<glyph unicode="{" horiz-adv-x="376" d="M308 -182Q226 -182 175 -133T124 6V190Q124 221 105 237T56 254V344Q86 344 105 360T124 408V588Q124 678 175 727T308 776H330V700H308Q264 700 240 673T216 592V418Q216 366 192 338T122 303V295Q168 289 192 261T216
180V2Q216 -51 240 -78T308 -106H330V-182H308Z" />
<glyph unicode="|" horiz-adv-x="374" d="M144 -200V730H230V-200H144Z" />
<glyph unicode="}" horiz-adv-x="376" d="M68 -182Q150 -182 201 -133T252 6V190Q252 221 271 237T320 254V344Q290 344 271 360T252 408V588Q252 678 201 727T68 776H46V700H68Q112 700 136 673T160 592V418Q160 366 184 338T254 303V295Q208 289 184 261T160
180V2Q160 -51 136 -78T68 -106H46V-182H68Z" />
<glyph unicode="~" horiz-adv-x="495" d="M345 238Q309 238 283 252T234 284T192 316T148 330Q126 330 110 316T86 263L20 262Q24 307 43 338T91 387T150 404Q186 404 212 390T261 358T303 326T347 312Q369 312 385 327T409 379H475Q471 335 452 304T404 255T345 238Z" />
<glyph unicode="&#xa0;" horiz-adv-x="228" />
<glyph unicode="&#xa1;" horiz-adv-x="296" d="M99 316V-196H197V316H99ZM90 534V412H206V534H90Z" />
<glyph unicode="&#xa2;" horiz-adv-x="612" d="M320 104Q251 104 201 126T117 185T68 267T52 359V379Q52 427 68 472T118 554T201 612T320 634Q385 634 437 613T522 550T564 446H472Q465 493 424 522T320 552Q265 552 226 529T167 465T146 369Q146 316 166 275T224
210T320 186Q385 186 428 217T478 295H570Q564 235 529 192T440 127T320 104ZM277 0V146H363V0H277ZM277 584V730H363V584H277Z" />
<glyph unicode="&#xa3;" horiz-adv-x="624" d="M124 0V493Q124 609 189 673T381 738Q405 738 435 737T494 733T542 728V646Q523 649 494 651T434 654T379 656Q326 656 288 639T230 585T210 486V0H124ZM44 0V76H544V0H44ZM50 316V382H464V316H50ZM508 0V170H588V0H508Z" />
<glyph unicode="&#xa4;" horiz-adv-x="666" d="M333 145Q258 145 207 177T131 259T105 360V376Q105 428 130 477T207 559T333 591Q409 591 459 559T535 478T561 376V360Q561 309 536 260T460 178T333 145ZM100 93L42 151L145 254L203 196L100 93ZM145 482L42 585L100
643L203 540L145 482ZM333 225Q379 225 410 243T458 294T475 368Q475 411 458 443T410 493T333 511Q289 511 257 493T208 443T191 368Q191 327 207 295T256 244T333 225ZM566 93L463 196L521 254L624 151L566 93ZM521 482L463 540L566 643L624 585L521 482Z" />
<glyph unicode="&#xa5;" horiz-adv-x="624" d="M240 308L20 730H122L307 366L267 374H377L335 366L508 730H604L398 308H240ZM274 0V328H364V0H274ZM58 156V222H580V156H58ZM58 308V374H580V308H58Z" />
<glyph unicode="&#xa6;" horiz-adv-x="374" d="M144 350V730H230V350H144ZM144 -200V170H230V-200H144Z" />
<glyph unicode="&#xa7;" horiz-adv-x="584" d="M286 -85Q181 -85 124 -41T64 85H154Q156 51 185 24T286 -3Q339 -3 369 19T400 81Q400 108 380 125T328 154T259 179Q223 190 188 203T122 235T74 282T56 352Q56 396 75 429T128 484T203 516L292 472Q259 472 225
458T169 418T146 362Q146 330 168 310T225 277T299 252Q334 242 367 230T429 200T473 158T490 95Q490 15 437 -35T286 -85ZM358 178L309 230Q375 245 406 276T438 347Q438 379 418 398T363 430T290 455Q255 466 220 479T155 511T109 558T91 630Q91 677 115 712T183
768T281 789Q370 789 423 749T480 635H390Q389 667 363 687T284 707Q231 707 207 685T182 630Q182 598 202 579T257 548T329 525Q364 515 399 503T464 473T510 425T528 352Q528 307 507 273T448 215T358 178Z" />
<glyph unicode="&#xa8;" horiz-adv-x="300" d="M62 644Q31 644 16 661T0 703Q0 729 15 745T62 762Q94 762 109 746T124 703Q124 678 109 661T62 644ZM262 644Q231 644 216 661T200 703Q200 729 215 745T262 762Q294 762 309 746T324 703Q324 678 309 661T262 644Z" />
<glyph unicode="&#xa9;" horiz-adv-x="722" d="M361 116Q280 116 221 144T125 218T69 318T50 425V443Q50 497 69 551T126 651T223 723T361 750Q441 750 499 723T596 651T653 552T672 443V425Q672 373 654 319T598 218T501 144T361 116ZM361 170Q438 170 494 206T581
303T612 433Q612 506 582 565T495 660T361 696Q284 696 228 661T141 566T110 433Q110 363 140 303T227 207T361 170ZM367 250Q307 250 271 277T218 346T202 426V439Q202 481 219 521T273 588T367 614Q429 614 471 580T517 484H455Q451 516 429 535T367 554Q315
554 293 520T270 433Q270 399 279 371T310 327T367 310Q407 310 430 330T458 383H520Q517 321 473 286T367 250Z" />
<glyph unicode="&#xaa;" horiz-adv-x="407" d="M280 355V464H266V587Q266 619 251 636T200 654Q185 654 163 653T117 651T75 648V723Q91 725 110 726T150 727T186 728Q248 728 283 710T334 660T350 585V355H280ZM163 345Q108 345 72 376T35 463Q35 502 54 528T109
566T190 579H275V527H189Q157 527 140 511T122 467Q122 440 140 424T189 408Q208 408 225 415T253 441T266 491L288 467Q284 408 252 377T163 345Z" />
<glyph unicode="&#xab;" horiz-adv-x="542" d="M170 39L40 237V279L176 483H266L130 270V252L266 39H170ZM390 39L260 237V279L396 483H486L350 270V252L486 39H390Z" />
<glyph unicode="&#xac;" horiz-adv-x="611" d="M66 276V352H545V94L467 93V319L510 276H66Z" />
<glyph unicode="&#xad;" horiz-adv-x="432" d="M60 237V319H372V237H60Z" />
<glyph unicode="&#xae;" horiz-adv-x="678" d="M339 182Q269 182 216 206T126 271T72 361T54 459V475Q54 526 72 574T127 663T217 726T339 750Q408 750 461 727T550 663T605 575T624 475V459Q624 410 606 361T552 272T463 207T339 182ZM339 234Q408 234 459 265T539
349T568 466Q568 532 540 584T460 667T339 698Q270 698 219 668T139 585T110 466Q110 402 138 350T218 266T339 234ZM231 318V625H287V318H231ZM415 318L319 435H382L481 318H415ZM258 419V469H342Q372 469 387 482T403 522Q403 550 388 562T342 575H258V625H334Q391
625 425 598T460 522Q460 474 426 447T334 419H258Z" />
<glyph unicode="&#xaf;" horiz-adv-x="300" d="M0 666V735H278V666H0Z" />
<glyph unicode="&#xb0;" horiz-adv-x="370" d="M185 423Q139 423 104 444T48 500T28 577Q28 619 48 653T103 709T185 730Q232 730 267 709T322 654T342 577Q342 535 322 500T267 444T185 423ZM185 487Q226 487 249 514T272 577Q272 612 249 639T185 666Q144 666
121 639T98 577Q98 541 121 514T185 487Z" />
<glyph unicode="&#xb1;" horiz-adv-x="610" d="M76 65V141H534V65H76ZM266 200V640L344 641V201L266 200ZM76 383V459H534V383H76Z" />
<glyph unicode="&#xb2;" horiz-adv-x="380" d="M46 420V497Q46 533 65 557T134 602L206 632Q232 643 246 659T261 701Q261 729 242 747T190 765Q158 765 139 747T120 699H41Q41 759 81 796T190 833Q259 833 299 798T339 706V700Q339 655 315 625T235 571L163 541Q144
534 135 526T126 503V483L106 491H342V420H46Z" />
<glyph unicode="&#xb3;" horiz-adv-x="380" d="M186 410Q115 410 73 446T30 541H109Q109 513 129 495T186 477Q222 477 242 496T263 544Q263 573 243 591T187 610Q170 610 156 605T132 592L93 654L228 743L223 750H48V822H330V754L160 641L129 658Q143 663 158
665T188 668Q258 668 300 635T343 544V538Q343 482 301 446T186 410Z" />
<glyph unicode="&#xb4;" horiz-adv-x="300" d="M0 612L88 810H189L78 612H0Z" />
<glyph unicode="&#xb5;" horiz-adv-x="668" d="M80 -200V535H176V206Q176 143 210 108T302 72Q342 72 372 89T420 139T438 216V535H534V122Q534 103 544 93T574 82H630V0H580Q539 0 509 13T463 57T446 134L458 229H470Q470 150 449 96T387 13T281 -16H277Q245
-16 213 -4T157 35T130 110H158Q158 79 162 48T171 -14T176 -77V-200H80Z" />
<glyph unicode="&#xb6;" horiz-adv-x="634" d="M200 401Q106 401 58 445T10 562V573Q10 647 58 690T200 734H294V401H200ZM253 0V734H352V0H253ZM431 0V734H528V0H431Z" />
<glyph unicode="&#xb7;" horiz-adv-x="262" d="M73 212V334H189V212H73Z" />
<glyph unicode="&#xb8;" horiz-adv-x="300" d="M120 -242Q101 -242 84 -240T52 -233V-169Q66 -173 84 -175T120 -178Q152 -178 167 -168T182 -141Q182 -125 170 -116T128 -106H90V10H148V-85L107 -48H123Q180 -48 215 -71T250 -139Q250 -182 216 -212T120 -242Z" />
<glyph unicode="&#xb9;" horiz-adv-x="262" d="M115 420V762L132 749H30V822H197V420H115Z" />
<glyph unicode="&#xba;" horiz-adv-x="454" d="M227 342Q167 342 125 369T61 439T38 532V545Q38 596 61 639T126 709T227 736Q285 736 327 710T393 640T416 545V532Q416 483 394 440T330 369T227 342ZM227 417Q260 417 282 433T316 477T328 538Q328 573 316 600T282
644T227 660Q195 660 173 644T138 601T126 538Q126 504 137 477T171 434T227 417Z" />
<glyph unicode="&#xbb;" horiz-adv-x="542" d="M372 483L502 285V243L366 39H276L412 252V270L276 483H372ZM152 483L282 285V243L146 39H56L192 252V270L56 483H152Z" />
<glyph unicode="&#xbc;" horiz-adv-x="822" d="M115 255V597L132 584H30V657H197V255H115ZM147 -22L520 680H602L229 -22H147ZM452 80V162L617 410L682 370L538 156L545 146H800V80H452ZM674 0V288H750V0H674Z" />
<glyph unicode="&#xbd;" horiz-adv-x="858" d="M115 255V597L132 584H30V657H197V255H115ZM147 -22L520 680H602L229 -22H147ZM524 0V77Q524 113 543 137T612 182L684 212Q710 223 724 239T739 281Q739 309 720 327T668 345Q636 345 617 327T598 279H519Q519 339
559 376T668 413Q737 413 777 378T817 286V280Q817 235 793 205T713 151L641 121Q622 114 613 106T604 83V63L584 71H820V0H524Z" />
<glyph unicode="&#xbe;" horiz-adv-x="925" d="M186 245Q115 245 73 281T30 376H109Q109 348 129 330T186 312Q222 312 242 331T263 379Q263 408 243 426T187 445Q170 445 156 440T132 427L93 489L228 578L223 585H48V657H330V589L160 476L129 493Q143 498 158
500T188 503Q258 503 300 470T343 379V373Q343 317 301 281T186 245ZM250 -22L623 680H705L332 -22H250ZM555 80V162L720 410L785 370L641 156L648 146H903V80H555ZM777 0V288H853V0H777Z" />
<glyph unicode="&#xbf;" horiz-adv-x="552" d="M349 316V130H280Q209 130 175 92T140 -1Q140 -42 157 -71T204 -116T274 -132Q319 -132 351 -114T402 -64T420 9H512Q512 -50 486 -101T406 -184T274 -216Q204 -216 154 -188T76 -112T48 -7V5Q48 61 75 108T155 182T287
210L251 164L253 316H349ZM359 534V412H243V534H359Z" />
<glyph unicode="&#xc0;" horiz-adv-x="756" d="M28 0L291 730H457L728 0H627L382 666L430 642H312L363 666L126 0H28ZM185 218L218 306H533L566 218H185ZM330 788L182 952H296L420 788H330Z" />
<glyph unicode="&#xc1;" horiz-adv-x="756" d="M28 0L291 730H457L728 0H627L382 666L430 642H312L363 666L126 0H28ZM185 218L218 306H533L566 218H185ZM316 788L443 952H555L404 788H316Z" />
<glyph unicode="&#xc2;" horiz-adv-x="756" d="M28 0L291 730H457L728 0H627L382 666L430 642H312L363 666L126 0H28ZM185 218L218 306H533L566 218H185ZM189 788L317 952H433L563 788H474L382 904H366L276 788H189Z" />
<glyph unicode="&#xc3;" horiz-adv-x="756" d="M28 0L291 730H457L728 0H627L382 666L430 642H312L363 666L126 0H28ZM185 218L218 306H533L566 218H185ZM459 812Q432 812 413 819T377 835T345 851T305 858Q281 858 259 848T222 818L204 880Q218 900 245 914T307
928Q334 928 353 921T389 905T422 889T461 882Q485 882 507 892T544 922L562 860Q547 840 521 826T459 812Z" />
<glyph unicode="&#xc4;" horiz-adv-x="756" d="M28 0L291 730H457L728 0H627L382 666L430 642H312L363 666L126 0H28ZM185 218L218 306H533L566 218H185ZM268 812Q237 812 220 829T203 873Q203 900 220 917T268 934Q300 934 316 917T333 873Q333 846 317 829T268
812ZM480 812Q449 812 432 829T415 873Q415 900 432 917T480 934Q512 934 528 917T545 873Q545 846 529 829T480 812Z" />
<glyph unicode="&#xc5;" horiz-adv-x="756" d="M28 0L291 730H457L728 0H627L382 666L430 642H312L363 666L126 0H28ZM185 218L218 306H533L566 218H185ZM374 768Q319 768 287 800T255 876Q255 920 287 952T374 984Q429 984 461 952T493 876Q493 832 461 800T374
768ZM374 820Q404 820 420 836T437 876Q437 900 421 916T374 932Q344 932 328 916T311 876Q311 852 327 836T374 820Z" />
<glyph unicode="&#xc6;" horiz-adv-x="972" d="M12 0L301 730H499V642H321L372 666L110 0H12ZM178 247L214 336H499V247H178ZM478 0V730H577V0H478ZM556 0V88H910V0H556ZM556 327V415H880V327H556ZM556 642V730H900V642H556Z" />
<glyph unicode="&#xc7;" horiz-adv-x="795" d="M423 -18Q323 -18 253 17T139 108T76 229T56 356V378Q56 444 76 510T140 630T252 717T417 750Q515 750 585 716T696 621T746 477H646Q638 539 606 579T526 640T417 660Q352 660 303 638T222 575T173 481T156 366Q156
307 172 254T222 160T306 96T423 72Q517 72 581 119T659 255H759Q749 180 709 118T597 19T423 -18ZM417 -248Q398 -248 379 -245T345 -238V-170Q360 -174 380 -177T417 -180Q451 -180 468 -170T485 -143Q485 -128 470 -119T426 -110H386V10H450V-85L406 -48H422Q481
-48 518 -72T555 -141Q555 -185 519 -216T417 -248Z" />
<glyph unicode="&#xc8;" horiz-adv-x="600" d="M106 0V730H204V0H106ZM184 0V88H538V0H184ZM184 327V415H507V327H184ZM184 642V730H528V642H184ZM279 788L131 952H245L369 788H279Z" />
<glyph unicode="&#xc9;" horiz-adv-x="600" d="M106 0V730H204V0H106ZM184 0V88H538V0H184ZM184 327V415H507V327H184ZM184 642V730H528V642H184ZM265 788L392 952H504L353 788H265Z" />
<glyph unicode="&#xca;" horiz-adv-x="600" d="M106 0V730H204V0H106ZM184 0V88H538V0H184ZM184 327V415H507V327H184ZM184 642V730H528V642H184ZM138 788L266 952H382L512 788H423L331 904H315L225 788H138Z" />
<glyph unicode="&#xcb;" horiz-adv-x="600" d="M106 0V730H204V0H106ZM184 0V88H538V0H184ZM184 327V415H507V327H184ZM184 642V730H528V642H184ZM217 812Q186 812 169 829T152 873Q152 900 169 917T217 934Q249 934 265 917T282 873Q282 846 266 829T217 812ZM429
812Q398 812 381 829T364 873Q364 900 381 917T429 934Q461 934 477 917T494 873Q494 846 478 829T429 812Z" />
<glyph unicode="&#xcc;" horiz-adv-x="314" d="M108 0V730H206V0H108ZM369 788L221 952H335L459 788H369Z" />
<glyph unicode="&#xcd;" horiz-adv-x="314" d="M108 0V730H206V0H108ZM99 788L226 952H338L187 788H99Z" />
<glyph unicode="&#xce;" horiz-adv-x="314" d="M108 0V730H206V0H108ZM228 788L356 952H472L602 788H513L421 904H405L315 788H228Z" />
<glyph unicode="&#xcf;" horiz-adv-x="314" d="M108 0V730H206V0H108ZM307 812Q276 812 259 829T242 873Q242 900 259 917T307 934Q339 934 355 917T372 873Q372 846 356 829T307 812ZM519 812Q488 812 471 829T454 873Q454 900 471 917T519 934Q551 934 567 917T584
873Q584 846 568 829T519 812Z" />
<glyph unicode="&#xd0;" horiz-adv-x="791" d="M184 -4V86H366Q432 86 483 107T571 167T627 256T646 366Q646 428 627 478T572 566T484 624T366 644H184V734H356Q455 734 528 704T649 622T722 507T746 377V355Q746 291 722 227T650 111T528 28T356 -4H184ZM106
-4V734H204V-4H106ZM22 325V405H388V325H22Z" />
<glyph unicode="&#xd1;" horiz-adv-x="849" d="M106 0V730H266L637 88H669L649 70V730H743V0H581L210 642H178L198 660V0H106ZM528 812Q501 812 482 819T446 835T414 851T374 858Q350 858 328 848T291 818L273 880Q287 900 314 914T376 928Q403 928 422 921T458
905T491 889T530 882Q554 882 576 892T613 922L631 860Q616 840 590 826T528 812Z" />
<glyph unicode="&#xd2;" horiz-adv-x="865" d="M433 -18Q335 -18 264 17T147 109T79 231T56 356V378Q56 443 79 509T149 629T266 717T433 750Q529 750 599 717T717 630T787 509T810 378V356Q810 296 788 231T719 109T602 17T433 -18ZM433 72Q497 72 548 96T636
161T691 255T710 366Q710 427 691 480T636 573T549 637T433 660Q369 660 318 637T230 574T175 480T156 366Q156 308 175 256T230 162T317 96T433 72ZM389 788L241 952H355L479 788H389Z" />
<glyph unicode="&#xd3;" horiz-adv-x="865" d="M433 -18Q335 -18 264 17T147 109T79 231T56 356V378Q56 443 79 509T149 629T266 717T433 750Q529 750 599 717T717 630T787 509T810 378V356Q810 296 788 231T719 109T602 17T433 -18ZM433 72Q497 72 548 96T636
161T691 255T710 366Q710 427 691 480T636 573T549 637T433 660Q369 660 318 637T230 574T175 480T156 366Q156 308 175 256T230 162T317 96T433 72ZM375 788L502 952H614L463 788H375Z" />
<glyph unicode="&#xd4;" horiz-adv-x="865" d="M433 -18Q335 -18 264 17T147 109T79 231T56 356V378Q56 443 79 509T149 629T266 717T433 750Q529 750 599 717T717 630T787 509T810 378V356Q810 296 788 231T719 109T602 17T433 -18ZM433 72Q497 72 548 96T636
161T691 255T710 366Q710 427 691 480T636 573T549 637T433 660Q369 660 318 637T230 574T175 480T156 366Q156 308 175 256T230 162T317 96T433 72ZM248 788L376 952H492L622 788H533L441 904H425L335 788H248Z" />
<glyph unicode="&#xd5;" horiz-adv-x="865" d="M433 -18Q335 -18 264 17T147 109T79 231T56 356V378Q56 443 79 509T149 629T266 717T433 750Q529 750 599 717T717 630T787 509T810 378V356Q810 296 788 231T719 109T602 17T433 -18ZM433 72Q497 72 548 96T636
161T691 255T710 366Q710 427 691 480T636 573T549 637T433 660Q369 660 318 637T230 574T175 480T156 366Q156 308 175 256T230 162T317 96T433 72ZM518 812Q491 812 472 819T436 835T404 851T364 858Q340 858 318 848T281 818L263 880Q277 900 304 914T366 928Q393
928 412 921T448 905T481 889T520 882Q544 882 566 892T603 922L621 860Q606 840 580 826T518 812Z" />
<glyph unicode="&#xd6;" horiz-adv-x="865" d="M433 -18Q335 -18 264 17T147 109T79 231T56 356V378Q56 443 79 509T149 629T266 717T433 750Q529 750 599 717T717 630T787 509T810 378V356Q810 296 788 231T719 109T602 17T433 -18ZM433 72Q497 72 548 96T636
161T691 255T710 366Q710 427 691 480T636 573T549 637T433 660Q369 660 318 637T230 574T175 480T156 366Q156 308 175 256T230 162T317 96T433 72ZM327 812Q296 812 279 829T262 873Q262 900 279 917T327 934Q359 934 375 917T392 873Q392 846 376 829T327 812ZM539
812Q508 812 491 829T474 873Q474 900 491 917T539 934Q571 934 587 917T604 873Q604 846 588 829T539 812Z" />
<glyph unicode="&#xd7;" d="M465 118L522 175L125 571L68 514L465 118ZM121 118L522 518L469 571L68 171L121 118Z" />
<glyph unicode="&#xd8;" horiz-adv-x="865" d="M98 -52L671 772H767L194 -52H98ZM433 -18Q335 -18 264 17T147 109T79 231T56 356V378Q56 443 79 509T149 629T266 717T433 750Q529 750 599 717T717 630T787 509T810 378V356Q810 296 788 231T719 109T602 17T433
-18ZM433 72Q497 72 548 96T636 161T691 255T710 366Q710 427 691 480T636 573T549 637T433 660Q369 660 318 637T230 574T175 480T156 366Q156 308 175 256T230 162T317 96T433 72Z" />
<glyph unicode="&#xd9;" horiz-adv-x="789" d="M395 -18Q296 -18 229 20T127 128T92 290V730H190V278Q190 217 213 171T283 98T395 72Q461 72 506 97T575 169T599 278V730H697V290Q697 198 663 129T562 21T395 -18ZM351 788L203 952H317L441 788H351Z" />
<glyph unicode="&#xda;" horiz-adv-x="789" d="M395 -18Q296 -18 229 20T127 128T92 290V730H190V278Q190 217 213 171T283 98T395 72Q461 72 506 97T575 169T599 278V730H697V290Q697 198 663 129T562 21T395 -18ZM337 788L464 952H576L425 788H337Z" />
<glyph unicode="&#xdb;" horiz-adv-x="789" d="M395 -18Q296 -18 229 20T127 128T92 290V730H190V278Q190 217 213 171T283 98T395 72Q461 72 506 97T575 169T599 278V730H697V290Q697 198 663 129T562 21T395 -18ZM210 788L338 952H454L584 788H495L403 904H387L297
788H210Z" />
<glyph unicode="&#xdc;" horiz-adv-x="789" d="M395 -18Q296 -18 229 20T127 128T92 290V730H190V278Q190 217 213 171T283 98T395 72Q461 72 506 97T575 169T599 278V730H697V290Q697 198 663 129T562 21T395 -18ZM289 812Q258 812 241 829T224 873Q224 900 241
917T289 934Q321 934 337 917T354 873Q354 846 338 829T289 812ZM501 812Q470 812 453 829T436 873Q436 900 453 917T501 934Q533 934 549 917T566 873Q566 846 550 829T501 812Z" />
<glyph unicode="&#xdd;" horiz-adv-x="652" d="M248 284L16 730H118L314 348L276 359H394L354 348L538 730H634L416 284H248ZM284 0V304H380V0H284ZM265 788L392 952H504L353 788H265Z" />
<glyph unicode="&#xde;" horiz-adv-x="622" d="M184 140V227H338Q389 227 421 245T468 295T484 371Q484 414 469 446T421 497T338 516H184V602H324Q409 602 467 574T554 495T584 378V364Q584 299 555 248T467 169T324 140H184ZM106 0V730H204V0H106Z" />
<glyph unicode="&#xdf;" horiz-adv-x="622" d="M347 -12Q323 -12 299 -10T254 -3V79Q274 75 301 73T347 70Q418 70 452 108T486 201Q486 245 467 280T411 335T323 356H284V432H307Q345 432 368 449T403 492T414 547Q414 576 403 602T368 645T307 662Q268 662 243
642T205 589T192 513V0H96V499Q96 613 150 678T305 744H309Q373 744 418 718T486 648T510 552Q510 500 486 461T418 400T312 378L318 410Q404 410 463 383T552 308T582 197Q582 136 554 89T474 15T347 -12ZM36 448V524H126V448H36Z" />
<glyph unicode="&#xe0;" horiz-adv-x="575" d="M415 0V160H399V345Q399 400 371 428T287 456Q256 456 223 455T160 453T108 450V534Q130 536 154 537T205 539T255 540Q337 540 389 521T466 457T491 338V0H415ZM240 -14Q180 -14 137 6T70 66T46 160Q46 217 71 255T146
312T264 332H409V260H260Q202 260 171 232T140 160Q140 116 171 89T260 62Q294 62 325 74T376 116T399 198L425 160Q420 103 398 65T336 6T240 -14ZM250 612L140 810H245L332 612H250Z" />
<glyph unicode="&#xe1;" horiz-adv-x="575" d="M415 0V160H399V345Q399 400 371 428T287 456Q256 456 223 455T160 453T108 450V534Q130 536 154 537T205 539T255 540Q337 540 389 521T466 457T491 338V0H415ZM240 -14Q180 -14 137 6T70 66T46 160Q46 217 71 255T146
312T264 332H409V260H260Q202 260 171 232T140 160Q140 116 171 89T260 62Q294 62 325 74T376 116T399 198L425 160Q420 103 398 65T336 6T240 -14ZM230 612L318 810H419L308 612H230Z" />
<glyph unicode="&#xe2;" horiz-adv-x="575" d="M415 0V160H399V345Q399 400 371 428T287 456Q256 456 223 455T160 453T108 450V534Q130 536 154 537T205 539T255 540Q337 540 389 521T466 457T491 338V0H415ZM240 -14Q180 -14 137 6T70 66T46 160Q46 217 71 255T146
312T264 332H409V260H260Q202 260 171 232T140 160Q140 116 171 89T260 62Q294 62 325 74T376 116T399 198L425 160Q420 103 398 65T336 6T240 -14ZM115 612L225 810H333L441 612H363L283 762H275L193 612H115Z" />
<glyph unicode="&#xe3;" horiz-adv-x="575" d="M415 0V160H399V345Q399 400 371 428T287 456Q256 456 223 455T160 453T108 450V534Q130 536 154 537T205 539T255 540Q337 540 389 521T466 457T491 338V0H415ZM240 -14Q180 -14 137 6T70 66T46 160Q46 217 71 255T146
312T264 332H409V260H260Q202 260 171 232T140 160Q140 116 171 89T260 62Q294 62 325 74T376 116T399 198L425 160Q420 103 398 65T336 6T240 -14ZM347 641Q322 641 304 648T271 666T241 683T207 691Q186 691 169 681T137 652L121 716Q136 735 158 748T210 761Q235
761 253 754T286 736T316 719T350 711Q371 711 389 721T421 750L437 686Q422 667 399 654T347 641Z" />
<glyph unicode="&#xe4;" horiz-adv-x="575" d="M415 0V160H399V345Q399 400 371 428T287 456Q256 456 223 455T160 453T108 450V534Q130 536 154 537T205 539T255 540Q337 540 389 521T466 457T491 338V0H415ZM240 -14Q180 -14 137 6T70 66T46 160Q46 217 71 255T146
312T264 332H409V260H260Q202 260 171 232T140 160Q140 116 171 89T260 62Q294 62 325 74T376 116T399 198L425 160Q420 103 398 65T336 6T240 -14ZM179 644Q148 644 133 661T117 703Q117 729 132 745T179 762Q211 762 226 746T241 703Q241 678 226 661T179 644ZM379
644Q348 644 333 661T317 703Q317 729 332 745T379 762Q411 762 426 746T441 703Q441 678 426 661T379 644Z" />
<glyph unicode="&#xe5;" horiz-adv-x="575" d="M415 0V160H399V345Q399 400 371 428T287 456Q256 456 223 455T160 453T108 450V534Q130 536 154 537T205 539T255 540Q337 540 389 521T466 457T491 338V0H415ZM240 -14Q180 -14 137 6T70 66T46 160Q46 217 71 255T146
312T264 332H409V260H260Q202 260 171 232T140 160Q140 116 171 89T260 62Q294 62 325 74T376 116T399 198L425 160Q420 103 398 65T336 6T240 -14ZM279 602Q229 602 198 634T167 714Q167 762 198 794T279 826Q329 826 360 794T391 714Q391 666 360 634T279 602ZM279
654Q305 654 321 671T337 714Q337 740 321 757T279 774Q253 774 237 757T221 714Q221 688 237 671T279 654Z" />
<glyph unicode="&#xe6;" horiz-adv-x="955" d="M663 -18Q609 -18 568 -4T497 34T448 91T417 160H443Q438 102 412 64T342 6T240 -14Q180 -14 137 6T70 66T46 160Q46 217 71 255T146 312T264 332H409V260H260Q202 260 171 232T140 160Q140 116 171 89T260 62Q294
62 325 74T376 116T399 198V345Q399 400 371 428T288 456Q257 456 224 455T161 453T108 450V534Q130 536 154 537T205 539T255 540Q336 540 385 521T457 458T479 338H413Q423 397 451 445T531 521T657 550Q742 550 798 513T883 417T911 291V249H479V321H841L819
281Q819 338 801 379T746 442T657 464Q601 464 564 439T508 370T489 266Q489 209 507 164T564 94T663 68Q725 68 764 94T812 158H902Q891 103 858 64T776 3T663 -18Z" />
<glyph unicode="&#xe7;" horiz-adv-x="606" d="M321 -18Q252 -18 202 6T118 70T69 160T52 258V276Q52 327 68 376T118 464T202 528T319 552Q386 552 439 527T525 457T562 349H470Q463 399 424 432T319 466Q262 466 224 440T167 369T148 267Q148 212 167 167T224
95T321 68Q366 68 399 84T452 127T476 188H568Q565 125 532 79T444 8T321 -18ZM313 -242Q294 -242 277 -240T245 -233V-169Q259 -173 277 -175T313 -178Q345 -178 360 -168T375 -141Q375 -125 363 -116T321 -106H283V10H341V-85L300 -48H316Q373 -48 408 -71T443
-139Q443 -182 409 -212T313 -242Z" />
<glyph unicode="&#xe8;" horiz-adv-x="612" d="M319 -18Q249 -18 198 6T115 69T68 158T52 258V276Q52 328 67 377T115 465T196 528T313 552Q400 552 456 515T540 418T568 292V249H94V321H498L476 282Q476 339 458 380T404 445T313 468Q256 468 219 442T163 371T144
267Q144 210 162 165T220 93T319 66Q382 66 421 94T469 159H559Q548 104 515 64T432 3T319 -18ZM284 612L174 810H279L366 612H284Z" />
<glyph unicode="&#xe9;" horiz-adv-x="612" d="M319 -18Q249 -18 198 6T115 69T68 158T52 258V276Q52 328 67 377T115 465T196 528T313 552Q400 552 456 515T540 418T568 292V249H94V321H498L476 282Q476 339 458 380T404 445T313 468Q256 468 219 442T163 371T144
267Q144 210 162 165T220 93T319 66Q382 66 421 94T469 159H559Q548 104 515 64T432 3T319 -18ZM264 612L352 810H453L342 612H264Z" />
<glyph unicode="&#xea;" horiz-adv-x="612" d="M319 -18Q249 -18 198 6T115 69T68 158T52 258V276Q52 328 67 377T115 465T196 528T313 552Q400 552 456 515T540 418T568 292V249H94V321H498L476 282Q476 339 458 380T404 445T313 468Q256 468 219 442T163 371T144
267Q144 210 162 165T220 93T319 66Q382 66 421 94T469 159H559Q548 104 515 64T432 3T319 -18ZM149 612L259 810H367L475 612H397L317 762H309L227 612H149Z" />
<glyph unicode="&#xeb;" horiz-adv-x="612" d="M319 -18Q249 -18 198 6T115 69T68 158T52 258V276Q52 328 67 377T115 465T196 528T313 552Q400 552 456 515T540 418T568 292V249H94V321H498L476 282Q476 339 458 380T404 445T313 468Q256 468 219 442T163 371T144
267Q144 210 162 165T220 93T319 66Q382 66 421 94T469 159H559Q548 104 515 64T432 3T319 -18ZM213 644Q182 644 167 661T151 703Q151 729 166 745T213 762Q245 762 260 746T275 703Q275 678 260 661T213 644ZM413 644Q382 644 367 661T351 703Q351 729 366 745T413
762Q445 762 460 746T475 703Q475 678 460 661T413 644Z" />
<glyph unicode="&#xec;" horiz-adv-x="308" d="M118 0V534H214V0H118ZM36 458V534H214V458H36ZM361 612L251 810H356L443 612H361Z" />
<glyph unicode="&#xed;" horiz-adv-x="308" d="M118 0V534H214V0H118ZM36 458V534H214V458H36ZM85 612L173 810H274L163 612H85Z" />
<glyph unicode="&#xee;" horiz-adv-x="308" d="M118 0V534H214V0H118ZM36 458V534H214V458H36ZM226 612L336 810H444L552 612H474L394 762H386L304 612H226Z" />
<glyph unicode="&#xef;" horiz-adv-x="308" d="M118 0V534H214V0H118ZM36 458V534H214V458H36ZM290 644Q259 644 244 661T228 703Q228 729 243 745T290 762Q322 762 337 746T352 703Q352 678 337 661T290 644ZM490 644Q459 644 444 661T428 703Q428 729 443 745T490
762Q522 762 537 746T552 703Q552 678 537 661T490 644Z" />
<glyph unicode="&#xf0;" horiz-adv-x="648" d="M325 -20Q252 -20 200 2T116 62T68 146T52 240V260Q52 326 81 384T168 479T313 516Q376 516 420 495T489 438T520 355H510Q509 460 493 526T432 623Q409 640 378 649T298 658Q268 658 241 656T187 650V726Q214 730
240 732T298 734Q405 734 470 690T564 555T594 322V296Q594 207 568 135T482 22T325 -20ZM325 66Q384 66 423 89T482 153T502 250Q502 306 481 347T421 411T323 434Q266 434 227 412T168 348T148 250Q148 195 167 154T226 89T325 66ZM361 534L327 576L557 768L591
726L361 534Z" />
<glyph unicode="&#xf1;" horiz-adv-x="640" d="M92 0V534H168V305H156Q156 384 177 438T243 521T354 550H358Q459 550 507 487T556 305V0H460V325Q460 387 425 424T329 462Q266 462 227 423T188 319V0H92ZM396 641Q371 641 353 648T320 666T290 683T256 691Q235
691 218 681T186 652L170 716Q185 735 207 748T259 761Q284 761 302 754T335 736T365 719T399 711Q420 711 438 721T470 750L486 686Q471 667 448 654T396 641Z" />
<glyph unicode="&#xf2;" horiz-adv-x="676" d="M338 -18Q268 -18 215 6T126 69T71 158T52 258V276Q52 327 71 376T127 465T217 528T338 552Q406 552 459 529T549 466T605 377T624 276V258Q624 207 606 158T551 70T461 6T338 -18ZM338 68Q398 68 440 94T505 166T528
267Q528 324 505 369T440 440T338 466Q280 466 237 440T171 369T148 267Q148 211 170 166T235 95T338 68ZM309 612L199 810H304L391 612H309Z" />
<glyph unicode="&#xf3;" horiz-adv-x="676" d="M338 -18Q268 -18 215 6T126 69T71 158T52 258V276Q52 327 71 376T127 465T217 528T338 552Q406 552 459 529T549 466T605 377T624 276V258Q624 207 606 158T551 70T461 6T338 -18ZM338 68Q398 68 440 94T505 166T528
267Q528 324 505 369T440 440T338 466Q280 466 237 440T171 369T148 267Q148 211 170 166T235 95T338 68ZM289 612L377 810H478L367 612H289Z" />
<glyph unicode="&#xf4;" horiz-adv-x="676" d="M338 -18Q268 -18 215 6T126 69T71 158T52 258V276Q52 327 71 376T127 465T217 528T338 552Q406 552 459 529T549 466T605 377T624 276V258Q624 207 606 158T551 70T461 6T338 -18ZM338 68Q398 68 440 94T505 166T528
267Q528 324 505 369T440 440T338 466Q280 466 237 440T171 369T148 267Q148 211 170 166T235 95T338 68ZM174 612L284 810H392L500 612H422L342 762H334L252 612H174Z" />
<glyph unicode="&#xf5;" horiz-adv-x="676" d="M338 -18Q268 -18 215 6T126 69T71 158T52 258V276Q52 327 71 376T127 465T217 528T338 552Q406 552 459 529T549 466T605 377T624 276V258Q624 207 606 158T551 70T461 6T338 -18ZM338 68Q398 68 440 94T505 166T528
267Q528 324 505 369T440 440T338 466Q280 466 237 440T171 369T148 267Q148 211 170 166T235 95T338 68ZM406 641Q381 641 363 648T330 666T300 683T266 691Q245 691 228 681T196 652L180 716Q195 735 217 748T269 761Q294 761 312 754T345 736T375 719T409 711Q430
711 448 721T480 750L496 686Q481 667 458 654T406 641Z" />
<glyph unicode="&#xf6;" horiz-adv-x="676" d="M338 -18Q268 -18 215 6T126 69T71 158T52 258V276Q52 327 71 376T127 465T217 528T338 552Q406 552 459 529T549 466T605 377T624 276V258Q624 207 606 158T551 70T461 6T338 -18ZM338 68Q398 68 440 94T505 166T528
267Q528 324 505 369T440 440T338 466Q280 466 237 440T171 369T148 267Q148 211 170 166T235 95T338 68ZM238 644Q207 644 192 661T176 703Q176 729 191 745T238 762Q270 762 285 746T300 703Q300 678 285 661T238 644ZM438 644Q407 644 392 661T376 703Q376 729
391 745T438 762Q470 762 485 746T500 703Q500 678 485 661T438 644Z" />
<glyph unicode="&#xf7;" d="M66 306V382H524V306H66ZM243 88V200H347V88H243ZM243 488V600H347V488H243Z" />
<glyph unicode="&#xf8;" horiz-adv-x="676" d="M74 -52L518 586H600L156 -52H74ZM338 -18Q268 -18 215 6T126 69T71 158T52 258V276Q52 327 71 376T127 465T217 528T338 552Q406 552 459 529T549 466T605 377T624 276V258Q624 207 606 158T551 70T461 6T338 -18ZM338
68Q398 68 440 94T505 166T528 267Q528 324 505 369T440 440T338 466Q280 466 237 440T171 369T148 267Q148 211 170 166T235 95T338 68Z" />
<glyph unicode="&#xf9;" horiz-adv-x="628" d="M277 -16Q182 -16 131 46T80 225V535H176V206Q176 143 210 108T302 72Q362 72 400 110T438 216V535H534V0H458V229H470Q470 150 449 96T387 13T281 -16H277ZM278 612L168 810H273L360 612H278Z" />
<glyph unicode="&#xfa;" horiz-adv-x="628" d="M277 -16Q182 -16 131 46T80 225V535H176V206Q176 143 210 108T302 72Q362 72 400 110T438 216V535H534V0H458V229H470Q470 150 449 96T387 13T281 -16H277ZM258 612L346 810H447L336 612H258Z" />
<glyph unicode="&#xfb;" horiz-adv-x="628" d="M277 -16Q182 -16 131 46T80 225V535H176V206Q176 143 210 108T302 72Q362 72 400 110T438 216V535H534V0H458V229H470Q470 150 449 96T387 13T281 -16H277ZM143 612L253 810H361L469 612H391L311 762H303L221 612H143Z" />
<glyph unicode="&#xfc;" horiz-adv-x="628" d="M277 -16Q182 -16 131 46T80 225V535H176V206Q176 143 210 108T302 72Q362 72 400 110T438 216V535H534V0H458V229H470Q470 150 449 96T387 13T281 -16H277ZM207 644Q176 644 161 661T145 703Q145 729 160 745T207
762Q239 762 254 746T269 703Q269 678 254 661T207 644ZM407 644Q376 644 361 661T345 703Q345 729 360 745T407 762Q439 762 454 746T469 703Q469 678 454 661T407 644Z" />
<glyph unicode="&#xfd;" horiz-adv-x="547" d="M56 -208V-122H133Q167 -122 190 -114T229 -85T255 -32L423 534H517L339 -57Q323 -110 294 -143T224 -192T127 -208H56ZM219 12V92H335V12H219ZM209 12L18 534H116L299 12H209ZM223 612L311 810H412L301 612H223Z" />
<glyph unicode="&#xfe;" horiz-adv-x="689" d="M92 -200V730H188V355L154 307Q159 392 190 446T273 527T386 554Q443 554 489 534T568 476T619 388T637 277V257Q637 198 618 148T565 62T483 5T380 -16Q320 -16 268 9T183 90T144 237L188 157V-200H92ZM363 68Q417
68 457 94T519 167T541 271Q541 331 519 375T456 445T363 470Q315 470 274 449T209 387T184 289V243Q184 188 209 149T275 89T363 68Z" />
<glyph unicode="&#xff;" horiz-adv-x="547" d="M56 -208V-122H133Q167 -122 190 -114T229 -85T255 -32L423 534H517L339 -57Q323 -110 294 -143T224 -192T127 -208H56ZM219 12V92H335V12H219ZM209 12L18 534H116L299 12H209ZM172 644Q141 644 126 661T110 703Q110
729 125 745T172 762Q204 762 219 746T234 703Q234 678 219 661T172 644ZM372 644Q341 644 326 661T310 703Q310 729 325 745T372 762Q404 762 419 746T434 703Q434 678 419 661T372 644Z" />
<glyph unicode="&#x2013;" horiz-adv-x="512" d="M18 237V319H494V237H18Z" />
<glyph unicode="&#x2014;" horiz-adv-x="900" d="M18 237V319H882V237H18Z" />
<glyph unicode="&#x2018;" horiz-adv-x="244" d="M196 738V686H187Q155 686 136 675T109 641T100 581V506L76 551Q83 555 94 557T117 559Q145 559 163 542T182 493Q182 464 165 445T117 426Q98 426 81 435T53 467T42 533V554Q42 627 60 667T111 722T189 738H196Z" />
<glyph unicode="&#x2019;" horiz-adv-x="244" d="M48 426V478H57Q89 478 108 489T135 523T144 583V658L168 613Q161 609 150 607T127 605Q99 605 81 622T62 671Q62 700 79 719T127 738Q146 738 163 729T191 697T202 631V610Q202 537 184 497T133 442T55 426H48Z" />
<glyph unicode="&#x201a;" horiz-adv-x="244" d="M48 -181V-129H57Q89 -129 108 -118T135 -84T144 -24V51L168 6Q161 2 150 0T127 -2Q99 -2 81 15T62 64Q62 93 79 112T127 131Q146 131 163 122T191 90T202 24V3Q202 -70 184 -110T133 -165T55 -181H48Z" />
<glyph unicode="&#x201c;" horiz-adv-x="438" d="M390 738V686H381Q349 686 330 675T303 641T294 581V506L270 551Q277 555 288 557T311 559Q339 559 357 542T376 493Q376 464 359 445T311 426Q292 426 275 435T247 467T236 533V554Q236 627 254 667T305 722T383
738H390ZM196 738V686H187Q155 686 136 675T109 641T100 581V506L76 551Q83 555 94 557T117 559Q145 559 163 542T182 493Q182 464 165 445T117 426Q98 426 81 435T53 467T42 533V554Q42 627 60 667T111 722T189 738H196Z" />
<glyph unicode="&#x201d;" horiz-adv-x="438" d="M48 426V478H57Q89 478 108 489T135 523T144 583V658L168 613Q161 609 150 607T127 605Q99 605 81 622T62 671Q62 700 79 719T127 738Q146 738 163 729T191 697T202 631V610Q202 537 184 497T133 442T55 426H48ZM242
426V478H251Q283 478 302 489T329 523T338 583V658L362 613Q355 609 344 607T321 605Q293 605 275 622T256 671Q256 700 273 719T321 738Q340 738 357 729T385 697T396 631V610Q396 537 378 497T327 442T249 426H242Z" />
<glyph unicode="&#x201e;" horiz-adv-x="438" d="M48 -181V-129H57Q89 -129 108 -118T135 -84T144 -24V51L168 6Q161 2 150 0T127 -2Q99 -2 81 15T62 64Q62 93 79 112T127 131Q146 131 163 122T191 90T202 24V3Q202 -70 184 -110T133 -165T55 -181H48ZM242 -181V-129H251Q283
-129 302 -118T329 -84T338 -24V51L362 6Q355 2 344 0T321 -2Q293 -2 275 15T256 64Q256 93 273 112T321 131Q340 131 357 122T385 90T396 24V3Q396 -70 378 -110T327 -165T249 -181H242Z" />
<glyph unicode="&#x2022;" horiz-adv-x="432" d="M96 162V414H336V162H96Z" />
<glyph unicode="&#x2039;" horiz-adv-x="322" d="M170 39L40 237V279L176 483H266L130 270V252L266 39H170Z" />
<glyph unicode="&#x203a;" horiz-adv-x="322" d="M152 483L282 285V243L146 39H56L192 252V270L56 483H152Z" />
</font>
</defs>
</svg>
