<?xml version="1.0" standalone="no"?>
<!DOCTYPE svg PUBLIC "-//W3C//DTD SVG 1.1//EN" "http://www.w3.org/Graphics/SVG/1.1/DTD/svg11.dtd">
<svg xmlns="http://www.w3.org/2000/svg">
<defs >
<font id="Tajawal" horiz-adv-x="514" ><font-face
    font-family="Tajawal ExtraBold"
    units-per-em="1000"
    panose-1="0 0 8 0 0 0 0 0 0 0"
    ascent="643"
    descent="-357"
    alphabetic="0" />
<glyph unicode=" " glyph-name="space" horiz-adv-x="247" />
<glyph unicode="!" glyph-name="exclam" horiz-adv-x="302" d="M75 187V633H220V187H75ZM238 58Q238 57 238 56Q238 20 215 -3T153 -26Q115 -26 92 -3T68 58V60Q68 61 68 62Q71 97 94 118T153 140Q191 140 214 117T238 58Z" />
<glyph unicode="&quot;" glyph-name="quotedbl" horiz-adv-x="382" d="M70 416V589L174 645V472L70 416ZM209 416V589L312 645V472L209 416Z" />
<glyph unicode="#" glyph-name="numbersign" horiz-adv-x="470" d="M325 128L297 0H205L235 128H157L129 0H36Q49 61 65 128H2V237H85Q89 254 97 287Q106 325 110 343H31V451H135L168 609H260L227 451H301L338 609H428L394 451H469V343H370Q367 327 363 309Q352
261 346 237H436V128H325ZM202 343Q198 325 189 286Q181 254 178 237H254Q257 248 261 268Q272 317 280 343H202Z" />
<glyph unicode="$" glyph-name="dollar" horiz-adv-x="550" d="M244 643V700H295V645Q397 640 488 577Q468 547 423 484Q354 513 295 520V391L305 387L314 383Q414 341 458 295T502 186Q500 137 487 104Q465 51 414 22Q364 -8 295 -11V-74H244V-11Q208 -8 174
2Q140 12 77 47L74 49Q60 57 52 61L120 154Q185 125 244 122V276L236 279L229 281Q67 338 67 468Q71 556 132 603Q179 639 244 643ZM244 518Q208 507 207 467Q207 440 244 417V518ZM295 126Q343 141 344 196Q343 228 295 254V126Z" />
<glyph unicode="%" glyph-name="percent" horiz-adv-x="766" d="M188 0L479 565H584L293 0H188ZM298 412Q298 339 265 296T176 252Q117 252 84 294T50 411Q50 481 84 522T176 563Q230 563 264 521T298 412ZM220 410Q220 445 207 469T174 493Q154 493 141 470T127
410Q127 371 140 347T174 322Q194 322 207 347T220 410ZM716 156Q716 83 683 40T594 -4Q535 -4 502 38T468 155Q468 225 502 266T594 307Q648 307 682 265T716 156ZM639 154Q639 189 626 213T592 237Q572 237 559 213T545 154Q545 115 558 91T592 66Q612 66 625
91T639 154Z" />
<glyph unicode="&amp;" glyph-name="ampersand" horiz-adv-x="571" d="M374 329H509V290Q509 203 457 122Q504 68 569 0H415Q410 5 403 15Q394 27 387 33Q337 -12 236 -12Q137 -12 86 50Q47 98 47 164Q47 266 138 342L139 339Q68 409 68 484Q68 559 113 602T237
645Q320 645 406 578Q396 564 375 531L370 523Q366 517 357 503L354 498Q295 529 244 529Q216 529 199 515T182 477Q182 441 225 394L228 390Q234 383 238 380Q267 345 323 276Q377 210 404 179L362 227Q374 245 374 287V297V329ZM306 130Q291 150 257 191Q220
235 204 259Q185 234 185 190V183Q185 109 251 109Q288 109 306 130Z" />
<glyph unicode="&apos;" glyph-name="quotesingle" horiz-adv-x="244" d="M70 416V589L174 645V472L70 416Z" />
<glyph unicode="(" glyph-name="parenleft" horiz-adv-x="408" d="M346 645Q284 569 245 462T205 261Q205 107 275 -39Q294 -77 315 -108T343 -140H344H226Q227 -147 200 -115Q143 -46 111 53T78 261Q78 364 119 470T226 645H346Z" />
<glyph unicode=")" glyph-name="parenright" horiz-adv-x="408" d="M61 645H181Q247 577 288 471T329 261Q329 83 247 -57Q222 -99 196 -127Q180 -144 181 -140H62H63Q72 -140 98 -98T144 -10Q201 124 201 261Q201 354 162 461T61 645Z" />
<glyph unicode="*" glyph-name="asterisk" horiz-adv-x="318" d="M143 545L142 646Q161 642 208 630Q231 624 245 620Q237 607 223 584Q200 546 187 527L292 569L303 450L287 455L273 458Q219 473 194 478Q206 464 234 430Q251 410 262 397Q243 390 203 372Q168
358 154 352Q153 378 152 424L151 437Q151 451 151 458L146 451Q136 438 131 431Q103 392 90 373L21 460Q41 469 84 485Q110 494 120 499Q105 504 82 510Q37 524 15 532L79 626Q86 616 102 598L105 593Q131 561 143 545Z" />
<glyph unicode="+" glyph-name="plus" horiz-adv-x="491" d="M182 172H29V280H182V454H309V280H463V172H309V0H182V172Z" />
<glyph unicode="," glyph-name="comma" horiz-adv-x="292" d="M61 -36Q99 -23 108 -8Q63 1 63 61Q63 95 87 118T148 141Q184 141 208 113T232 42Q232 -33 179 -82Q154 -105 105 -117L61 -36Z" />
<glyph unicode="-" glyph-name="hyphen" horiz-adv-x="298" d="M287 184H12V292H287V184Z" />
<glyph unicode="." glyph-name="period" horiz-adv-x="350" d="M262 79Q262 78 262 77Q262 41 239 18T177 -5Q139 -5 116 18T92 79V81Q92 82 92 83Q95 118 118 139T177 161Q215 161 238 138T262 79Z" />
<glyph unicode="/" glyph-name="slash" horiz-adv-x="339" d="M380 633L67 -30H-38L272 633H380Z" />
<glyph unicode="0" glyph-name="zero" horiz-adv-x="564" d="M280 645Q396 645 468 534Q528 442 528 315Q528 163 452 71Q384 -12 280 -12Q159 -12 92 94Q35 183 35 315Q35 463 110 558Q177 645 280 645ZM282 525Q181 525 181 321Q181 218 210 159Q236 106 279
106Q327 106 354 163T382 321Q382 525 282 525Z" />
<glyph unicode="1" glyph-name="one" horiz-adv-x="408" d="M315 633V0H174V472Q161 463 135 448Q99 427 82 414Q69 437 39 487L35 493Q26 508 17 523Q51 549 119 595L130 602Q158 622 174 633H315Z" />
<glyph unicode="2" glyph-name="two" horiz-adv-x="486" d="M45 0V119L199 300Q267 379 282 404T297 463Q297 491 277 509T227 527Q168 527 96 478L37 564Q140 646 253 646Q340 646 391 600Q442 555 442 472Q442 386 366 283Q337 244 217 112H437V0H45Z" />
<glyph unicode="3" glyph-name="three" horiz-adv-x="508" d="M122 279V393H220H228Q263 393 276 407T290 458Q290 490 272 509T224 528Q162 528 97 470L46 561Q130 645 237 645Q325 645 382 595Q437 548 437 470Q437 420 421 393T364 347Q460 307 460 199Q460
79 379 26Q323 -11 238 -11Q192 -11 131 15T34 76L91 161Q143 111 229 111Q268 111 291 134T314 196Q314 279 220 279H122Z" />
<glyph unicode="4" glyph-name="four" horiz-adv-x="551" d="M22 233Q148 426 285 633H423V233H525V121H423V0H283V121H22V233ZM142 233H283V454Q259 417 223 360Q170 277 142 233Z" />
<glyph unicode="5" glyph-name="five" horiz-adv-x="539" d="M450 521H232V404Q244 407 259 407Q376 407 435 351Q490 299 490 205Q490 109 418 45Q354 -12 263 -12Q138 -12 48 79L106 168Q181 111 249 111Q347 111 347 196Q347 296 214 296Q166 296 111 283L107
282Q97 279 93 278V633H450V521Z" />
<glyph unicode="6" glyph-name="six" horiz-adv-x="537" d="M466 581L418 492Q349 525 297 525Q249 525 220 488T191 391V388Q224 414 288 414Q381 414 434 363Q489 309 489 205Q489 118 432 55Q372 -12 269 -12Q48 -12 48 287Q48 645 293 645Q340 645 389 627T466
581ZM191 291Q192 192 203 155Q220 97 267 97Q297 97 319 129T342 205Q342 315 255 315Q218 315 191 291Z" />
<glyph unicode="7" glyph-name="seven" horiz-adv-x="430" d="M254 521H29V633H408V528Q359 414 247 156L180 0H32Q64 77 135 240Q215 425 254 521Z" />
<glyph unicode="8" glyph-name="eight" horiz-adv-x="558" d="M184 320Q123 338 97 370T70 460Q70 551 144 603Q203 645 287 645Q375 645 432 588Q485 535 485 451Q485 404 455 367T376 319Q507 285 507 158Q507 71 431 25Q371 -12 279 -12Q172 -12 108 36Q48
82 48 159Q48 231 99 279Q138 315 184 320ZM285 368Q310 377 328 404T346 462Q346 495 328 516T279 538Q247 538 227 516T207 459Q207 430 228 405T285 368ZM288 272Q194 245 194 170Q194 138 218 118T280 97Q315 97 337 116T360 166Q360 201 340 230T288 272Z"
/>
<glyph unicode="9" glyph-name="nine" horiz-adv-x="537" d="M76 52L124 141Q193 108 245 108Q293 108 322 145T352 242V246Q318 219 255 219Q161 219 108 270Q53 324 53 428Q53 515 110 578Q170 645 273 645Q494 645 494 346Q494 -12 249 -12Q202 -12 153 6T76
52ZM352 343Q351 355 350 369Q347 456 335 488Q318 537 275 537Q245 537 223 504T200 428Q200 318 287 318Q324 318 352 343Z" />
<glyph unicode=":" glyph-name="colon" horiz-adv-x="310" d="M262 319Q262 318 262 317Q262 281 239 258T177 235Q139 235 116 258T92 319V321Q92 322 92 323Q95 358 118 379T177 401Q215 401 238 378T262 319ZM262 79Q262 78 262 77Q262 41 239 18T177 -5Q139
-5 116 18T92 79V81Q92 82 92 83Q95 118 118 139T177 161Q215 161 238 138T262 79Z" />
<glyph unicode=";" glyph-name="semicolon" horiz-adv-x="292" d="M60 317Q63 355 85 377T142 400Q176 400 199 376T223 317Q223 283 200 260T142 237Q107 237 85 259T60 317ZM61 -36Q98 -23 108 -8Q63 1 63 61Q63 95 87 118T148 141Q183 141 207 113T231 42Q231
-33 178 -82Q153 -105 105 -117L61 -36Z" />
<glyph unicode="&lt;" glyph-name="less" horiz-adv-x="522" d="M485 -15L29 155V314L485 479V369L121 235L485 97V-15Z" />
<glyph unicode="=" glyph-name="equal" d="M486 256H29V363H486V256ZM486 91H29V200H486V91Z" />
<glyph unicode="&gt;" glyph-name="greater" horiz-adv-x="522" d="M38 -15V97L402 235L38 369V479L494 314V155L38 -15Z" />
<glyph unicode="?" glyph-name="question" horiz-adv-x="401" d="M237 155H105V225V233Q105 285 117 309T175 367Q242 417 242 478Q242 504 221 523T172 543Q152 543 124 531T80 502L29 577Q98 645 202 645Q287 645 333 586Q368 541 368 482Q368 394 295 316Q291
312 281 302Q237 263 237 219V155ZM96 58Q96 88 117 109T168 131Q197 131 218 110T239 58Q239 29 218 9T168 -12Q138 -12 117 8T96 58Z" />
<glyph unicode="@" glyph-name="at" horiz-adv-x="692" d="M429 -82L432 -172Q388 -175 360 -175H358Q213 -174 120 -76Q35 14 35 151Q35 303 139 392Q227 466 353 466Q485 466 574 381Q658 302 658 182Q658 105 620 50Q576 -12 497 -12Q456 -12 431 3T403 44Q378
9 360 -1T303 -12Q251 -12 214 29T177 130Q177 217 235 269Q279 309 334 309Q368 309 381 297Q386 304 391 310H493V121Q493 119 492 115Q492 112 492 110Q492 81 505 81Q548 81 548 182Q548 278 476 333Q421 374 353 374Q256 374 200 309Q149 250 149 154Q149
19 245 -42Q308 -82 396 -84H398Q413 -84 429 -82ZM368 218Q350 222 339 222Q302 222 302 148Q302 84 335 84Q355 84 361 94T368 137V218Z" />
<glyph unicode="A" glyph-name="A" horiz-adv-x="587" d="M236 633H352L586 0H443Q426 49 403 129H184Q161 58 142 0H2L236 633ZM295 447Q273 386 225 245H363Q320 370 295 447Z" />
<glyph unicode="B" glyph-name="B" horiz-adv-x="555" d="M77 1V632Q151 645 265 645Q391 645 453 585Q502 537 502 460Q502 414 463 376T377 338Q376 338 375 338H374V337Q441 330 480 287T519 176Q519 81 438 32Q368 -12 250 -12Q147 -12 77 1ZM218 527V391H287Q364
391 364 458Q364 534 269 534Q246 534 218 527ZM218 278V107Q241 98 281 98H284Q373 98 373 177Q373 278 280 278H218Z" />
<glyph unicode="C" glyph-name="C" horiz-adv-x="571" d="M527 561L473 471Q400 525 343 525Q269 525 226 467T183 310Q183 232 226 174Q273 111 354 111Q406 111 481 158L535 74Q452 -12 337 -12Q172 -12 92 110Q37 195 37 310Q37 464 115 554Q193 645 335 645Q429
645 527 561Z" />
<glyph unicode="D" glyph-name="D" horiz-adv-x="630" d="M77 1V632Q90 636 151 640T254 645Q426 645 517 545Q594 460 594 323Q594 152 495 66Q405 -12 242 -12Q141 -12 77 1ZM218 528V103Q235 98 257 98Q259 98 261 98H262Q447 98 447 319Q447 429 386 486Q336
532 259 532H253Q240 532 218 528Z" />
<glyph unicode="E" glyph-name="E" horiz-adv-x="548" d="M73 633H494V521H214V382H447V270H214V112H507V0H73V633Z" />
<glyph unicode="F" glyph-name="F" horiz-adv-x="535" d="M73 0V633H494V521H214V381H447V269H214V0H73Z" />
<glyph unicode="G" glyph-name="G" horiz-adv-x="606" d="M527 561L473 471Q400 525 333 525Q269 525 226 464T183 311Q183 214 240 155Q286 107 349 107Q387 107 418 118V238H305V361H551V54Q480 16 432 2T321 -12Q168 -12 92 105Q37 191 37 315Q37 462 122 557Q201
645 325 645Q440 645 527 561Z" />
<glyph unicode="H" glyph-name="H" horiz-adv-x="696" d="M77 0V633H215V382H479V633H620V0H479V270H215V0H77Z" />
<glyph unicode="I" glyph-name="I" horiz-adv-x="292" d="M215 633V0H77V633H215Z" />
<glyph unicode="J" glyph-name="J" horiz-adv-x="271" d="M195 633V-23Q195 -168 54 -168Q-30 -168 -98 -115L-51 -37Q-10 -64 27 -64Q56 -64 56 -16V633H195Z" />
<glyph unicode="K" glyph-name="K" horiz-adv-x="629" d="M210 633V375V376Q297 495 395 633H568Q445 468 344 335Q476 177 621 0H434Q339 127 213 293H210V0H77V633H210Z" />
<glyph unicode="L" glyph-name="L" horiz-adv-x="494" d="M77 0V633H218V112H453V0H77Z" />
<glyph unicode="M" glyph-name="M" horiz-adv-x="845" d="M768 633V0H627V513Q575 288 480 0H361Q249 343 215 507V0H77V633H275Q360 392 419 163Q479 381 561 633H768Z" />
<glyph unicode="N" glyph-name="N" horiz-adv-x="727" d="M77 0V633H193Q301 498 510 209V633H651V0H532Q429 121 215 410V0H77Z" />
<glyph unicode="O" glyph-name="O" horiz-adv-x="652" d="M327 645Q474 645 554 528Q616 437 616 308Q616 160 534 71Q457 -12 327 -12Q177 -12 99 95Q37 180 37 308Q37 459 118 553Q196 645 327 645ZM327 106Q469 106 469 308Q469 415 428 473Q390 525 327 525Q258
525 221 468T183 308Q183 106 327 106Z" />
<glyph unicode="P" glyph-name="P" horiz-adv-x="540" d="M77 0V632Q88 635 155 640T259 645Q504 645 504 446Q504 318 417 260Q361 223 288 223Q272 223 246 226T218 231V0H77ZM218 345Q243 334 278 334Q313 334 334 362T356 436Q356 532 277 532Q224 532 218 525V345Z" />
<glyph unicode="Q" glyph-name="Q" horiz-adv-x="661" d="M497 34Q554 -31 624 -107H460L377 -10Q356 -12 327 -12Q177 -12 99 93Q37 177 37 303Q37 462 122 557Q200 645 327 645Q474 645 554 527Q616 434 616 303Q616 122 497 34ZM183 303Q183 106 327 106Q469
106 469 303Q469 413 428 472Q390 525 327 525Q258 525 221 467T183 303Z" />
<glyph unicode="R" glyph-name="R" horiz-adv-x="567" d="M77 0V632Q88 635 155 640T259 645Q504 645 504 446Q504 338 421 264L544 0H402L298 226Q285 223 271 223Q267 223 264 223Q232 225 218 230V0H77ZM218 345Q245 337 274 337Q278 337 280 337Q356 338 356
446Q356 532 277 532Q224 532 218 525V345Z" />
<glyph unicode="S" glyph-name="S" horiz-adv-x="535" d="M37 66L100 153Q155 115 247 115Q345 115 345 190Q345 235 232 276Q60 338 60 471Q60 552 120 600Q176 645 271 645Q378 645 473 579Q455 552 413 492Q329 527 269 527Q193 527 193 470Q193 446 213 430T294
389Q398 349 444 300T491 184Q491 84 417 31Q357 -12 266 -12Q160 -12 37 66Z" />
<glyph unicode="T" glyph-name="T" horiz-adv-x="541" d="M193 521H12V633H530V521H335V0H193V521Z" />
<glyph unicode="U" glyph-name="U" horiz-adv-x="647" d="M77 633H219V249Q219 106 324 106Q432 106 432 249V633H571V266Q571 -12 324 -12Q77 -12 77 266V633Z" />
<glyph unicode="V" glyph-name="V" horiz-adv-x="572" d="M286 228L426 633H571L339 0H232L2 633H145L286 228Z" />
<glyph unicode="W" glyph-name="W" horiz-adv-x="782" d="M464 633L568 228Q582 318 612 487Q628 581 637 633H781L631 0H516Q466 176 390 428L373 369Q300 127 263 0H147Q114 141 50 422L37 478L2 633H145Q172 476 211 228Q239 337 300 562L309 595L319 633H464Z" />
<glyph unicode="X" glyph-name="X" horiz-adv-x="617" d="M616 633L408 322Q466 230 566 69L610 0H450L307 250Q233 122 165 0H2L215 325L29 633H192L322 418Q348 459 403 552Q438 609 452 633H616Z" />
<glyph unicode="Y" glyph-name="Y" horiz-adv-x="577" d="M2 633H154Q221 493 291 355L424 633H576L360 250V0H220V250Q101 457 2 633Z" />
<glyph unicode="Z" glyph-name="Z" horiz-adv-x="484" d="M466 633V517Q383 392 193 112H473V0H12V99Q103 233 301 521H21V633H466Z" />
<glyph unicode="[" glyph-name="bracketleft" horiz-adv-x="375" d="M317 -140H78V645H317V541H208V-40H317V-140Z" />
<glyph unicode="\" glyph-name="backslash" horiz-adv-x="339" d="M-51 633H57L367 -30H262L-51 633Z" />
<glyph unicode="]" glyph-name="bracketright" horiz-adv-x="376" d="M59 645H299V-140H59V-40H166V541H59V645Z" />
<glyph unicode="^" glyph-name="asciicircum" horiz-adv-x="454" d="M433 299H309L225 446L156 299H22L176 609H279L433 299Z" />
<glyph unicode="_" glyph-name="underscore" horiz-adv-x="402" d="M411 -139H-8V-30H411V-139Z" />
<glyph unicode="`" glyph-name="grave" horiz-adv-x="231" d="M12 655H145L220 503H125L12 655Z" />
<glyph unicode="a" glyph-name="a" horiz-adv-x="498" d="M437 0H327L317 42Q315 41 311 37Q253 -12 186 -12Q35 -12 35 136Q35 209 97 249Q163 292 291 292H304V293Q304 333 288 347T227 361Q161 361 107 319Q87 355 71 389Q133 435 174 450T277 466Q437 466
437 264V0ZM299 210H292Q239 210 205 191T171 142Q171 85 218 85Q250 85 273 104T299 152V210Z" />
<glyph unicode="b" glyph-name="b" horiz-adv-x="567" d="M65 0V568L201 645V402Q222 436 262 454Q291 467 325 467Q426 467 482 400Q533 338 533 236Q533 104 458 38Q401 -12 315 -12Q233 -12 186 45L176 0H65ZM201 171Q204 133 230 108T293 82Q338 82 363 120T389
226Q389 293 365 331T299 369Q201 369 201 262V171Z" />
<glyph unicode="c" glyph-name="c" horiz-adv-x="479" d="M447 397L405 324Q354 371 295 371Q242 371 208 330T174 222Q174 161 207 123T292 84Q358 84 404 135L451 61Q376 -12 280 -12Q163 -12 94 62Q35 127 35 225Q35 335 111 405Q178 466 274 466Q384 466 447 397Z" />
<glyph unicode="d" glyph-name="d" horiz-adv-x="562" d="M362 431V568L498 643V0H389L369 48Q354 22 319 5T246 -12Q137 -12 81 59Q35 117 35 209Q35 343 112 413Q169 466 248 466Q316 466 362 431ZM362 294Q355 328 332 349T278 370Q229 370 202 332T174 228Q174
85 262 85Q297 85 328 114T362 181V294Z" />
<glyph unicode="e" glyph-name="e" horiz-adv-x="528" d="M494 183H184Q187 142 219 114T292 85Q357 85 430 126L464 54Q432 25 380 7T280 -12Q163 -12 98 53Q35 115 35 225Q35 332 106 402Q171 466 270 466Q379 466 440 395Q494 333 494 233V183ZM176 283H358Q353
371 268 371Q186 371 176 283Z" />
<glyph unicode="f" glyph-name="f" horiz-adv-x="382" d="M29 344V454H101V513Q101 583 130 614T225 645Q309 645 381 588L331 517Q289 544 262 544Q237 544 237 498V454H362V344H237V0H101V344H29Z" />
<glyph unicode="g" glyph-name="g" horiz-adv-x="569" d="M367 57Q322 -12 241 -12Q141 -12 86 59Q40 118 40 209Q40 342 117 413Q175 466 253 466Q318 466 363 434Q394 411 390 405L400 454H504V48Q504 -65 447 -128Q390 -191 284 -191Q171 -191 94 -117L127
-49Q188 -88 265 -88Q367 -88 367 56V57ZM367 196V294Q364 325 339 347T283 370Q235 370 208 332T180 228Q180 85 270 85Q310 85 338 116T367 191Q367 193 367 196Z" />
<glyph unicode="h" glyph-name="h" horiz-adv-x="551" d="M65 570L201 645V399Q215 430 266 453Q299 467 326 467Q413 467 452 420T492 266V0H356V261Q356 352 279 352Q220 352 201 322V0H65V570Z" />
<glyph unicode="i" glyph-name="i" horiz-adv-x="287" d="M214 454V0H77V454H214ZM142 487Q106 487 83 511T60 573Q60 608 84 633T142 659Q179 659 204 634T229 573Q229 535 205 511T142 487Z" />
<glyph unicode="j" glyph-name="j" horiz-adv-x="287" d="M211 454V-59Q211 -130 181 -160T82 -191Q-5 -191 -77 -135Q-69 -124 -53 -98Q-39 -77 -32 -66Q11 -92 42 -92H44Q75 -91 75 -45V454H211ZM138 487Q102 487 79 511T56 573Q56 608 80 633T138 659Q174 659
199 634T225 573Q225 535 201 511T138 487Z" />
<glyph unicode="k" glyph-name="k" horiz-adv-x="513" d="M507 454L290 270Q380 132 468 0H316Q242 136 201 210V0H65V574L201 645V351Q243 383 327 454H507Z" />
<glyph unicode="l" glyph-name="l" horiz-adv-x="265" d="M201 645V0H65V574Q105 593 184 636L194 641L201 645Z" />
<glyph unicode="m" glyph-name="m" horiz-adv-x="893" d="M190 410Q248 466 335 466Q394 466 439 441T503 374Q523 414 571 440T674 466Q833 466 833 272V0H696V234Q696 299 679 325T619 352Q552 352 513 301L512 0H376V250Q376 307 357 329T288 352Q233 352 201
326V0H65V454H181L190 410Z" />
<glyph unicode="n" glyph-name="n" horiz-adv-x="552" d="M196 410Q215 433 255 449T331 466Q418 466 455 420T493 266V0H356V261Q356 352 275 352Q254 352 232 344T201 326V0H65V454H181L196 410Z" />
<glyph unicode="o" glyph-name="o" horiz-adv-x="524" d="M262 466Q375 466 438 387Q490 322 490 226Q490 115 411 45Q347 -12 262 -12Q164 -12 97 62Q35 129 35 226Q35 337 102 404Q164 466 262 466ZM174 226Q174 89 263 89Q351 89 351 226Q351 370 262 370Q174
370 174 226Z" />
<glyph unicode="p" glyph-name="p" horiz-adv-x="547" d="M199 21V-178H65V454H167L180 412Q219 466 293 466Q401 466 461 394Q513 333 513 236Q513 110 436 42Q376 -12 288 -12Q264 -12 236 -2T199 21ZM199 169Q199 82 274 82Q315 82 343 123T371 226Q371 291
347 330T281 369Q199 369 199 268V169Z" />
<glyph unicode="q" glyph-name="q" horiz-adv-x="550" d="M348 -176V47Q348 29 310 9T238 -12Q133 -12 79 61Q35 120 35 213Q35 339 109 410Q168 466 251 466Q292 466 329 447T371 405L377 454H486V-176H348ZM348 288Q348 324 328 347T276 370Q228 370 200 332T172
228Q172 85 269 85Q348 85 348 194V288Z" />
<glyph unicode="r" glyph-name="r" horiz-adv-x="428" d="M180 454L193 417Q202 436 230 451T286 466Q379 466 424 375Q407 366 367 345Q329 324 310 314Q277 353 240 353Q211 353 199 322V0H65V454H180Z" />
<glyph unicode="s" glyph-name="s" horiz-adv-x="427" d="M35 52L85 128Q134 85 210 85Q235 85 251 98T268 131Q268 171 203 182Q130 194 90 233T50 331Q50 389 97 427T215 466Q312 466 385 409L335 337Q286 370 222 370Q180 370 180 333Q180 298 239 284Q321
264 350 239Q393 203 393 129Q393 65 347 27T223 -12Q111 -12 35 52Z" />
<glyph unicode="t" glyph-name="t" horiz-adv-x="407" d="M334 112L379 43Q303 -17 212 -17Q91 -17 91 117V345H29V454H92V532Q151 564 229 605V454H357V345H228V130Q228 102 234 93T257 84Q285 84 334 112Z" />
<glyph unicode="u" glyph-name="u" horiz-adv-x="537" d="M360 52Q313 -12 224 -12Q136 -12 101 31T65 182V454H199V219Q199 151 215 126T274 100Q290 100 312 108T337 126V454H473V0H372L360 52Z" />
<glyph unicode="v" glyph-name="v" horiz-adv-x="470" d="M283 0H180L2 454H138L229 167L327 454H469L426 348Q333 119 283 0Z" />
<glyph unicode="w" glyph-name="w" horiz-adv-x="693" d="M277 0H159L2 454H138L216 166L276 454H413Q427 381 458 226L468 182L471 166L552 454H692L670 394L656 354Q571 119 527 0H408Q399 36 382 111Q358 212 342 274Q330 227 312 146Q288 46 277 0Z" />
<glyph unicode="x" glyph-name="x" horiz-adv-x="480" d="M477 454Q432 389 329 241L318 225L480 0H331L243 132L147 0H-1L34 44L47 59Q132 164 181 222Q150 271 90 361Q54 418 30 454H179L248 327Q266 355 298 405Q320 439 330 454H477Z" />
<glyph unicode="y" glyph-name="y" horiz-adv-x="479" d="M478 454L289 -65Q243 -191 156 -191Q87 -191 14 -130Q35 -95 50 -66Q88 -91 117 -91Q156 -91 184 0H158L2 454H136Q147 420 171 346L173 338Q213 218 231 157L343 454H478Z" />
<glyph unicode="z" glyph-name="z" horiz-adv-x="422" d="M411 0H12V111L240 345H26V454H405V342L173 108H411V0Z" />
<glyph unicode="{" glyph-name="braceleft" horiz-adv-x="396" d="M353 -38V-139H305Q196 -139 163 -98Q134 -62 134 36V97Q134 153 112 176T35 200V298Q134 298 134 408V469Q134 574 168 609T305 644H353V543H326H318Q283 543 273 529T263 469V408Q263 281 196
249Q233 233 248 199T263 97V36Q263 -10 273 -24T318 -38H326H353Z" />
<glyph unicode="|" glyph-name="bar" horiz-adv-x="280" d="M203 662V-179H77V662H203Z" />
<glyph unicode="}" glyph-name="braceright" horiz-adv-x="396" d="M44 544V645H92Q200 645 234 604Q263 568 263 470V409Q263 299 362 299V202Q308 202 286 178T263 98V37Q263 -68 229 -103T92 -138H44V-36H70H79Q113 -36 123 -23T134 37V98Q134 166 148 200T200
251Q134 282 134 409V470Q134 517 124 530T79 544H70H44Z" />
<glyph unicode="~" glyph-name="asciitilde" horiz-adv-x="527" d="M432 324L499 275Q469 167 359 167Q326 167 245 201Q186 226 167 226Q122 226 97 167L29 216Q57 323 157 323Q185 323 265 293Q341 264 367 264Q405 264 432 324Z" />
<glyph unicode="&#xa0;" glyph-name="space" horiz-adv-x="247" />
<glyph unicode="&#xa1;" glyph-name="exclamdown" horiz-adv-x="302" d="M75 272H220V-174H75V272ZM238 401Q238 364 215 342T153 319Q117 319 94 340T68 397Q68 398 68 399Q68 400 68 401Q68 438 91 461T153 485Q191 485 214 462T238 403Q238 402 238 401Z" />
<glyph unicode="&#xa2;" glyph-name="cent" horiz-adv-x="482" d="M288 -14V-52H238V-11Q138 2 83 74Q35 136 35 225Q35 322 98 390Q154 450 238 463V512H288V465Q363 463 447 397Q440 382 429 353Q422 336 418 324Q356 370 289 370H288V85H289Q365 85 412 137Q421
120 438 87Q446 70 451 61Q387 -7 288 -14ZM238 93V361Q174 320 174 222Q174 180 191 144T238 93Z" />
<glyph unicode="&#xa3;" glyph-name="sterling" horiz-adv-x="526" d="M382 278H235V112H452V0H31V112H94V278H29V379H94V426Q94 645 305 645Q357 645 400 627T511 556L458 471Q367 528 318 528Q235 528 235 432V379H382V278Z" />
<glyph unicode="&#xa4;" glyph-name="currency" horiz-adv-x="473" d="M412 85L338 157Q298 134 244 134Q189 134 151 156L79 85Q76 83 73 83Q62 83 46 99T29 128Q29 130 31 132L100 199Q66 245 66 302Q66 362 99 404L31 471Q29 473 29 476Q29 487 45 503T72 520Q76
520 79 518L150 447Q192 472 244 472Q297 472 341 447L412 517Q414 520 418 520Q429 520 445 504T461 476Q461 473 460 471L390 402Q420 359 420 302Q420 247 388 202L460 132Q461 130 461 127Q461 115 446 99T419 82Q414 82 412 85ZM245 212Q282 212 305 237T329
305Q328 345 305 369T245 394Q207 394 183 369T157 304Q157 263 181 238T245 212Z" />
<glyph unicode="&#xa5;" glyph-name="yen" horiz-adv-x="577" d="M2 633H154Q205 524 287 363H295L424 633H576L424 363H519V256H364L360 250V200H519V91H360V0H220V91H63V200H220V250Q217 252 217 256H63V363H155L2 633Z" />
<glyph unicode="&#xa6;" glyph-name="brokenbar" horiz-adv-x="266" d="M71 230H196V-179H71V230ZM196 662V286H71V662H196Z" />
<glyph unicode="&#xa7;" glyph-name="section" horiz-adv-x="468" d="M51 -79L103 -5Q151 -41 217 -41Q248 -41 267 -25T286 18Q286 53 242 77Q238 79 234 81Q216 91 173 106Q102 131 76 156Q37 192 37 256Q37 295 59 330T115 380Q52 420 52 498Q52 562 104 603T237
645Q326 645 399 588Q393 579 381 560Q360 528 351 511Q305 545 236 545Q184 545 184 498Q184 440 300 398Q432 351 432 232Q432 160 379 130Q383 123 386 121Q420 80 420 15Q420 -52 363 -97Q310 -140 232 -140Q119 -140 51 -79ZM301 177Q307 190 307 219Q307
263 283 288T201 327Q192 329 189 330Q187 328 185 325Q167 291 167 271Q167 270 167 269V268Q167 209 260 190L301 177Z" />
<glyph unicode="&#xa8;" glyph-name="dieresis" horiz-adv-x="374" d="M21 574Q21 604 42 624T93 645Q119 645 140 623T162 574Q162 544 142 523T93 502Q61 502 41 522T21 574ZM211 574Q211 602 231 623T280 645Q309 645 330 624T352 574Q352 542 332 522T280
502Q250 502 231 522T211 574Z" />
<glyph unicode="&#xa9;" glyph-name="copyright" horiz-adv-x="672" d="M468 459L441 406Q392 434 352 434Q309 434 284 400T258 308Q258 256 285 221T353 185Q405 185 447 223L474 171Q425 121 351 121Q257 121 206 172Q158 220 158 308Q158 396 219 453Q272
502 345 502Q405 502 468 459ZM35 315Q35 448 135 539Q221 617 336 617Q470 617 560 517Q638 431 638 315Q638 182 538 92Q452 14 336 14Q203 14 113 114Q35 200 35 315ZM113 313Q113 212 186 146Q251 88 339 88Q439 88 510 162Q572 227 572 313Q572 414 496 483Q430
543 344 543Q242 543 172 467Q113 401 113 313Z" />
<glyph unicode="&#xaa;" glyph-name="ordfeminine" horiz-adv-x="259" d="M236 406H178L174 436Q148 400 93 400Q63 400 42 421T20 473Q20 511 54 535T142 559H169V561Q169 588 139 588Q98 588 60 570L46 611Q88 645 143 645Q236 645 236 544V406ZM168 518H150Q85
518 85 476Q85 444 121 444Q168 444 168 490V518Z" />
<glyph unicode="&#xab;" glyph-name="guillemotleft" horiz-adv-x="675" d="M338 -5H335Q245 -5 160 73Q87 140 50 236Q92 347 180 416Q256 477 333 477Q336 477 338 477V349Q240 314 200 236Q239 160 338 123V-5ZM635 -5H632Q543 -5 457 73Q385 140 347 236Q390
347 477 416Q553 477 630 477Q633 477 635 477V349Q538 314 498 236Q538 159 635 124V-5Z" />
<glyph unicode="&#xac;" glyph-name="logicalnot" horiz-adv-x="475" d="M309 0V139H29V249H447V0H309Z" />
<glyph unicode="&#xae;" glyph-name="registered" horiz-adv-x="384" d="M195 470H187V410H138V567H214Q266 567 266 520Q266 494 239 477L279 410H222L195 470ZM187 527V501H192Q220 501 220 513Q220 527 195 527H187ZM194 322Q122 322 74 376Q32 422 32 484Q32
556 86 604Q132 646 194 646Q265 646 312 592Q353 546 353 484Q353 412 301 364Q256 322 194 322ZM194 607Q140 607 108 573T75 484Q75 429 108 395T194 361Q248 361 280 394T313 484Q313 537 279 572T194 607Z" />
<glyph unicode="&#xaf;" glyph-name="overscore" horiz-adv-x="257" d="M255 534H3V633H255V534Z" />
<glyph unicode="&#xb0;" glyph-name="degree" horiz-adv-x="253" d="M12 537Q12 584 46 618T127 652Q173 652 207 618T242 537Q242 491 208 456T127 421Q81 421 47 455T12 537ZM79 539Q79 519 93 505T128 490Q147 490 161 504T176 539Q176 558 162 572T128 587Q108
587 94 573T79 539Z" />
<glyph unicode="&#xb1;" glyph-name="plusminus" d="M196 218H29V327H196V454H321V327H486V218H321V114H196V218ZM486 0H29V108H486V0Z" />
<glyph unicode="&#xb2;" glyph-name="twosuperior" horiz-adv-x="381" d="M49 316V396Q217 464 217 527Q217 561 168 561Q135 561 92 533L44 582Q106 645 191 645Q268 645 303 596Q325 567 325 533Q325 430 213 396H313V316H49Z" />
<glyph unicode="&#xb3;" glyph-name="threesuperior" horiz-adv-x="385" d="M128 521H171Q217 521 217 541Q217 561 192 561Q156 561 112 536L62 585Q123 645 201 645Q258 645 291 621T325 557Q325 501 248 491Q285 485 307 464T330 411Q330 314 215 314Q119 314
62 373Q100 408 116 424Q159 394 191 394Q222 394 222 420Q222 442 168 442H128V521Z" />
<glyph unicode="&#xb4;" glyph-name="acute" horiz-adv-x="231" d="M220 655L107 503H12L87 655H220Z" />
<glyph unicode="&#xb5;" glyph-name="mu" horiz-adv-x="600" d="M65 -181V454H197V239Q197 158 216 125T284 92Q335 92 362 109V454H496V115Q496 90 511 90H512Q525 90 546 104L590 41Q537 -13 458 -13Q401 -13 378 32Q374 30 367 24Q316 -12 278 -12Q225 -12
197 21V-181H65Z" />
<glyph unicode="&#xb6;" glyph-name="paragraph" horiz-adv-x="547" d="M471 0H372V633H471V0ZM343 633V0H243V357H200Q113 357 73 389T33 492Q33 559 74 596T190 633H343Z" />
<glyph unicode="&#xb7;" glyph-name="middot" horiz-adv-x="194" d="M26 374Q26 404 47 425T98 447Q127 447 148 426T169 374Q169 345 148 325T98 304Q68 304 47 324T26 374Z" />
<glyph unicode="&#xb8;" glyph-name="cedilla" horiz-adv-x="224" d="M61 10H157L145 -23H152Q179 -25 195 -42T212 -86Q212 -124 184 -145T106 -166Q55 -166 12 -150L26 -97Q65 -106 80 -106Q118 -106 118 -81Q118 -53 73 -53Q54 -53 40 -55L61 10Z" />
<glyph unicode="&#xb9;" glyph-name="onesuperior" horiz-adv-x="335" d="M260 633V318H153V509L81 446L19 518L139 633H260Z" />
<glyph unicode="&#xba;" glyph-name="ordmasculine" horiz-adv-x="284" d="M146 645Q199 645 232 611T265 522Q265 468 232 434T147 400Q91 400 56 434T20 522Q20 578 54 611T146 645ZM177 522Q177 581 145 581Q108 581 108 522Q108 462 142 462Q177 462 177 522Z" />
<glyph unicode="&#xbb;" glyph-name="guillemotright" horiz-adv-x="675" d="M40 -5V124Q137 159 177 236Q137 314 40 349V477Q42 477 45 477Q134 477 218 399Q291 332 328 236Q285 125 197 56Q121 -5 43 -5H40ZM337 -5V124Q435 159 475 236Q435 314 337 349V477Q339
477 342 477Q431 477 516 399Q588 332 625 236Q582 125 495 56Q418 -5 340 -5H337Z" />
<glyph unicode="&#xbc;" glyph-name="onequarter" horiz-adv-x="934" d="M718 318H828V137H882V53H828V0H721V53H571V147Q590 170 631 217Q688 282 718 318ZM724 137V207Q713 192 703 180Q685 156 673 137H724ZM769 633L640 412Q473 126 381 -30H299L683 633H769ZM303
633V318H196V509L124 446L62 518L182 633H303Z" />
<glyph unicode="&#xbd;" glyph-name="onehalf" horiz-adv-x="890" d="M303 633V318H196V509L124 446L62 518L182 633H303ZM550 0V80Q717 148 717 211Q717 245 668 245Q613 245 596 214L542 261Q608 329 691 329Q769 329 804 280Q825 251 825 217Q825 172 796 136T714
80H814V0H550ZM664 633L278 -30H196L580 633H664Z" />
<glyph unicode="&#xbe;" glyph-name="threequarters" horiz-adv-x="921" d="M125 521H170Q216 521 216 541Q216 561 190 561Q155 561 110 536L63 586Q123 645 199 645Q256 645 290 622T324 559Q324 493 246 491Q329 475 329 411Q329 371 292 343T205 314Q111 314
62 371L115 424Q158 394 190 394Q221 394 221 420Q221 442 167 442H125V521ZM699 318H804V137H860V53H804V0H699V53H547V147Q583 186 645 256Q680 296 699 318ZM702 137V207Q690 191 679 177Q661 156 649 137H702ZM694 633Q626 515 501 302Q374 85 308 -30H226L610
633H694Z" />
<glyph unicode="&#xbf;" glyph-name="questiondown" horiz-adv-x="407" d="M168 297H300V227V218Q300 167 288 143T230 85Q163 34 163 -26Q163 -52 184 -71T233 -91Q253 -91 281 -79T325 -50L376 -125Q307 -193 203 -193Q118 -193 72 -134Q37 -89 37 -30Q37 58
110 136Q114 141 124 150Q168 189 168 233V297ZM309 394Q309 364 288 343T237 321Q208 321 187 342T166 394Q166 423 187 443T237 464Q267 464 288 444T309 394Z" />
<glyph unicode="&#xc0;" glyph-name="Agrave" horiz-adv-x="602" d="M236 633H352L586 0H443Q433 31 416 87Q408 111 403 129H184Q176 104 159 52Q148 21 142 0H2L236 633ZM295 447Q275 391 245 304L225 245H363L352 278L346 294Q310 398 295 447ZM128 823H260L335
671H241L128 823Z" />
<glyph unicode="&#xc1;" glyph-name="Aacute" horiz-adv-x="602" d="M236 633H352L586 0H443Q433 31 416 87Q408 111 403 129H184Q176 104 159 52Q148 21 142 0H2L236 633ZM295 447Q275 391 245 304L225 245H363L352 278L346 294Q310 398 295 447ZM453 823L340
671H245L320 823H453Z" />
<glyph unicode="&#xc2;" glyph-name="Acircumflex" horiz-adv-x="602" d="M236 633H352L586 0H443Q433 31 416 87Q408 111 403 129H184Q176 104 159 52Q148 21 142 0H2L236 633ZM295 447Q275 391 245 304L225 245H363L352 278L346 294Q310 398 295 447ZM252 823H338Q352
801 377 765Q420 702 440 671H343L297 746V745L245 671H149L252 823Z" />
<glyph unicode="&#xc3;" glyph-name="Atilde" horiz-adv-x="602" d="M236 633H352L586 0H443Q433 31 416 87Q408 111 403 129H184Q176 104 159 52Q148 21 142 0H2L236 633ZM295 447Q275 391 245 304L225 245H363L352 278L346 294Q310 398 295 447ZM196 665L148
698Q168 807 240 807Q266 807 301 781Q331 761 348 761Q368 761 395 815L444 778Q425 672 351 672Q321 672 289 691Q256 710 240 710Q218 710 196 665Z" />
<glyph unicode="&#xc4;" glyph-name="Adieresis" horiz-adv-x="602" d="M236 633H352L586 0H443Q433 31 416 87Q408 111 403 129H184Q176 104 159 52Q148 21 142 0H2L236 633ZM295 447Q275 391 245 304L225 245H363L352 278L346 294Q310 398 295 447ZM130 742Q130
772 151 792T202 813Q228 813 249 791T271 742Q271 712 251 691T202 670Q170 670 150 690T130 742ZM320 742Q320 770 340 791T389 813Q418 813 439 792T461 742Q461 710 441 690T389 670Q359 670 340 690T320 742Z" />
<glyph unicode="&#xc5;" glyph-name="Aring" horiz-adv-x="602" d="M291 835Q328 835 353 809T379 747Q379 710 354 684T291 658Q255 658 229 684T203 747Q203 783 229 809T291 835ZM291 781Q256 779 256 747Q256 732 266 722T291 712Q306 712 316 722T326 747Q326
779 291 781ZM236 633H352L586 0H443Q433 31 416 87Q408 111 403 129H184Q176 104 159 52Q148 21 142 0H2L236 633ZM295 447Q275 391 245 304L225 245H363L352 278L346 294Q310 398 295 447Z" />
<glyph unicode="&#xc6;" glyph-name="AE" horiz-adv-x="866" d="M819 633V521H539V382H772V270H539V112H832V0H398V119H193L143 0H2L263 633H819ZM240 235H398V522H349Q322 451 276 330L261 292L240 235Z" />
<glyph unicode="&#xc7;" glyph-name="Ccedilla" horiz-adv-x="581" d="M245 -55L262 -5Q137 20 77 132Q35 211 35 310Q35 464 113 554Q191 645 333 645Q427 645 525 561L471 471Q398 525 341 525Q267 525 224 467T181 310Q181 232 224 174Q271 111 352 111Q404
111 479 158L533 74Q458 -3 355 -11L351 -23H358Q385 -25 401 -42T418 -86Q418 -124 390 -145T311 -166Q260 -166 218 -150L232 -97Q271 -106 286 -106Q324 -106 324 -81Q324 -53 278 -53Q260 -53 245 -55Z" />
<glyph unicode="&#xc8;" glyph-name="Egrave" horiz-adv-x="548" d="M69 633H490V521H210V382H443V270H210V112H503V0H69V633ZM139 825H271L346 674H252L139 825Z" />
<glyph unicode="&#xc9;" glyph-name="Eacute" horiz-adv-x="548" d="M69 633H490V521H210V382H443V270H210V112H503V0H69V633ZM432 823L319 671H224L299 823H432Z" />
<glyph unicode="&#xca;" glyph-name="Ecircumflex" horiz-adv-x="548" d="M69 633H490V521H210V382H443V270H210V112H503V0H69V633ZM231 823H316Q331 801 356 765Q399 702 419 671H322L276 746L275 745L223 671H127L231 823Z" />
<glyph unicode="&#xcb;" glyph-name="Edieresis" horiz-adv-x="548" d="M69 633H490V521H210V382H443V270H210V112H503V0H69V633ZM116 751Q116 780 137 801T188 822Q214 822 235 800T256 751Q256 721 236 700T188 679Q155 679 136 698T116 751ZM305 751Q305 779
326 800T375 822Q404 822 425 801T447 751Q447 719 427 699T375 679Q345 679 325 699T305 751Z" />
<glyph unicode="&#xcc;" glyph-name="Igrave" horiz-adv-x="328" d="M233 633V0H94V633H233ZM7 824H140L215 673H120L7 824Z" />
<glyph unicode="&#xcd;" glyph-name="Iacute" horiz-adv-x="327" d="M215 633V0H77V633H215ZM304 823L191 671H96L171 823H304Z" />
<glyph unicode="&#xce;" glyph-name="Icircumflex" horiz-adv-x="333" d="M230 633V0H92V633H230ZM117 834H202Q217 812 242 776Q285 713 305 682H208L162 757L161 756L109 682H13L117 834Z" />
<glyph unicode="&#xcf;" glyph-name="Idieresis" horiz-adv-x="338" d="M231 633V0H93V633H231ZM-6 742Q-6 772 15 792T66 813Q92 813 113 791T135 742Q135 712 115 691T66 670Q34 670 14 690T-6 742ZM184 742Q184 770 204 791T253 813Q282 813 303 792T325 742Q325
710 305 690T253 670Q223 670 204 690T184 742Z" />
<glyph unicode="&#xd0;" glyph-name="Eth" horiz-adv-x="667" d="M103 273H28V377H103V627Q108 631 176 638T279 645Q450 645 541 545Q620 460 620 323Q620 154 522 66Q435 -12 285 -12Q250 -12 177 -6T103 4V273ZM243 535V377H388V273H243V97Q247 95 285 95Q381
95 430 158Q474 216 474 319Q474 429 411 489Q360 537 282 537Q280 537 274 537Q267 538 262 538Q246 538 243 535Z" />
<glyph unicode="&#xd1;" glyph-name="Ntilde" horiz-adv-x="765" d="M77 0V633H193Q240 577 510 209V633H651V0H532Q466 74 258 353Q228 393 215 410V0H77ZM250 682L202 716Q222 824 295 824Q320 824 356 799Q385 778 403 778Q423 778 449 832L498 796Q479 689
405 689Q376 689 343 708Q311 728 295 728Q272 728 250 682Z" />
<glyph unicode="&#xd2;" glyph-name="Ograve" horiz-adv-x="662" d="M327 645Q474 645 554 528Q616 437 616 308Q616 160 534 71Q457 -12 327 -12Q177 -12 99 95Q37 180 37 308Q37 459 118 553Q196 645 327 645ZM327 106Q469 106 469 308Q469 415 428 473Q390
525 327 525Q258 525 221 468T183 308Q183 106 327 106ZM167 821H299L374 669H280L167 821Z" />
<glyph unicode="&#xd3;" glyph-name="Oacute" horiz-adv-x="662" d="M327 645Q474 645 554 528Q616 437 616 308Q616 160 534 71Q457 -12 327 -12Q177 -12 99 95Q37 180 37 308Q37 459 118 553Q196 645 327 645ZM327 106Q469 106 469 308Q469 415 428 473Q390
525 327 525Q258 525 221 468T183 308Q183 106 327 106ZM476 823L363 672H269L344 823H476Z" />
<glyph unicode="&#xd4;" glyph-name="Ocircumflex" horiz-adv-x="662" d="M327 645Q474 645 554 528Q616 437 616 308Q616 160 534 71Q457 -12 327 -12Q177 -12 99 95Q37 180 37 308Q37 459 118 553Q196 645 327 645ZM327 106Q469 106 469 308Q469 415 428 473Q390
525 327 525Q258 525 221 468T183 308Q183 106 327 106ZM284 826H370Q384 804 409 768Q452 705 472 674H375L329 749V748L277 674H181L284 826Z" />
<glyph unicode="&#xd5;" glyph-name="Otilde" horiz-adv-x="662" d="M327 645Q474 645 554 528Q616 437 616 308Q616 160 534 71Q457 -12 327 -12Q177 -12 99 95Q37 180 37 308Q37 459 118 553Q196 645 327 645ZM327 106Q469 106 469 308Q469 415 428 473Q390
525 327 525Q258 525 221 468T183 308Q183 106 327 106ZM221 665L173 698Q192 807 265 807Q290 807 326 781Q355 761 373 761Q393 761 420 815L469 778Q449 672 376 672Q346 672 313 691Q281 710 265 710Q242 710 221 665Z" />
<glyph unicode="&#xd6;" glyph-name="Odieresis" horiz-adv-x="662" d="M327 645Q474 645 554 528Q616 437 616 308Q616 160 534 71Q457 -12 327 -12Q177 -12 99 95Q37 180 37 308Q37 459 118 553Q196 645 327 645ZM327 106Q469 106 469 308Q469 415 428 473Q390
525 327 525Q258 525 221 468T183 308Q183 106 327 106ZM165 750Q165 779 186 800T237 821Q263 821 284 799T306 750Q306 719 286 699T237 678Q205 678 185 697T165 750ZM355 750Q355 778 375 799T424 821Q453 821 474 800T496 750Q496 718 476 698T424 678Q394
678 375 698T355 750Z" />
<glyph unicode="&#xd7;" glyph-name="multiply" horiz-adv-x="521" d="M268 148L106 -14L22 68L186 232L32 389L115 470L265 315L416 474L498 389L344 231L496 64L453 23L415 -14L268 148Z" />
<glyph unicode="&#xd8;" glyph-name="Oslash" horiz-adv-x="652" d="M571 645L530 558Q616 462 616 308Q616 159 533 71Q453 -12 314 -12Q303 -12 264 -8Q260 -8 255 -7L241 -30H135Q141 -19 151 3Q158 21 163 31Q37 113 37 308Q37 459 118 553Q196 645 327 645Q392
645 450 619L463 645H571ZM224 151Q333 382 394 505Q362 525 327 525Q258 525 221 468T183 308Q183 202 224 151ZM462 422L306 101Q309 99 316 99Q317 99 321 99Q325 99 327 99Q395 99 432 153T469 308Q469 347 462 422Z" />
<glyph unicode="&#xd9;" glyph-name="Ugrave" horiz-adv-x="660" d="M77 633H219V249Q219 106 324 106Q432 106 432 249V633H571V266Q571 -12 324 -12Q77 -12 77 266V633ZM162 822H294L369 670H275L162 822Z" />
<glyph unicode="&#xda;" glyph-name="Uacute" horiz-adv-x="660" d="M77 633H219V249Q219 106 324 106Q432 106 432 249V633H571V266Q571 -12 324 -12Q77 -12 77 266V633ZM484 822L371 670H276L351 822H484Z" />
<glyph unicode="&#xdb;" glyph-name="Ucircumflex" horiz-adv-x="660" d="M77 633H219V249Q219 106 324 106Q432 106 432 249V633H571V266Q571 -12 324 -12Q77 -12 77 266V633ZM279 822H364Q375 806 399 771L404 763Q446 702 467 670H370L324 745V744L271 670H175L279
822Z" />
<glyph unicode="&#xdc;" glyph-name="Udieresis" horiz-adv-x="660" d="M77 633H219V249Q219 106 324 106Q432 106 432 249V633H571V266Q571 -12 324 -12Q77 -12 77 266V633ZM159 749Q159 779 180 799T231 820Q257 820 278 799T299 749Q299 719 279 698T231 677Q198
677 179 697T159 749ZM348 749Q348 778 369 799T418 820Q447 820 468 799T490 749Q490 718 470 698T418 677Q388 677 368 697T348 749Z" />
<glyph unicode="&#xdd;" glyph-name="Yacute" horiz-adv-x="577" d="M2 633H154Q221 493 291 355L424 633H576L360 250V0H220V250Q101 457 2 633ZM428 818L315 666H221L296 818H428Z" />
<glyph unicode="&#xde;" glyph-name="Thorn" horiz-adv-x="552" d="M77 0V633H217V538H259Q502 538 502 335Q502 227 429 172Q371 127 279 127H278L218 128V0H77ZM218 430V236H278Q356 236 356 335Q356 430 269 430H218Z" />
<glyph unicode="&#xdf;" glyph-name="germandbls" horiz-adv-x="512" d="M224 8L250 89Q262 82 282 82Q301 82 308 101T315 175Q315 261 257 261H222V382H254Q307 382 307 473Q307 545 253 545Q199 545 199 473V0H65V457Q65 643 254 643Q350 643 405 586Q452 539
452 472Q452 417 418 377T335 331Q477 311 477 173Q477 84 434 36T309 -12Q263 -12 224 8Z" />
<glyph unicode="&#xe0;" glyph-name="agrave" horiz-adv-x="507" d="M437 0H327L317 42Q250 -12 186 -12Q35 -12 35 136Q35 209 97 249Q163 292 291 292H304V293Q304 333 288 347T227 361Q161 361 107 319Q87 355 71 389Q133 435 174 450T277 466Q437 466 437
264V0ZM299 210H292Q239 210 205 191T171 142Q171 85 218 85Q250 85 273 104T299 152V210ZM115 678H248L323 526H228L115 678Z" />
<glyph unicode="&#xe1;" glyph-name="aacute" horiz-adv-x="507" d="M437 0H327L317 42Q315 41 311 37Q253 -12 186 -12Q35 -12 35 136Q35 209 97 249Q163 292 291 292H304V293Q304 333 288 347T227 361Q161 361 107 319Q87 355 71 389Q133 435 174 450T277 466Q437
466 437 264V0ZM299 210H292Q239 210 205 191T171 142Q171 85 218 85Q250 85 273 104T299 152V210ZM413 676L300 525H206L281 676H413Z" />
<glyph unicode="&#xe2;" glyph-name="acircumflex" horiz-adv-x="507" d="M437 0H327L317 42Q315 41 311 37Q253 -12 186 -12Q35 -12 35 136Q35 209 97 249Q163 292 291 292H304V293Q304 333 288 347T227 361Q161 361 107 319Q87 355 71 389Q133 435 174 450T277
466Q437 466 437 264V0ZM299 210H292Q239 210 205 191T171 142Q171 85 218 85Q250 85 273 104T299 152V210ZM222 655H307Q318 639 342 604L347 596Q389 535 410 503H313L267 578V577L214 503H118L222 655Z" />
<glyph unicode="&#xe3;" glyph-name="atilde" horiz-adv-x="507" d="M437 0H327L317 42Q315 41 311 37Q253 -12 186 -12Q35 -12 35 136Q35 209 97 249Q163 292 291 292H304V293Q304 333 288 347T227 361Q161 361 107 319Q87 355 71 389Q133 435 174 450T277 466Q437
466 437 264V0ZM299 210H292Q239 210 205 191T171 142Q171 85 218 85Q250 85 273 104T299 152V210ZM165 517L117 550Q137 659 210 659Q235 659 271 633Q300 612 318 612Q338 612 364 667L413 630Q394 524 320 524Q291 524 258 543Q226 562 210 562Q187 562 165
517Z" />
<glyph unicode="&#xe4;" glyph-name="adieresis" horiz-adv-x="507" d="M437 0H327L317 42Q315 41 311 37Q253 -12 186 -12Q35 -12 35 136Q35 209 97 249Q163 292 291 292H304V293Q304 333 288 347T227 361Q161 361 107 319Q87 355 71 389Q133 435 174 450T277
466Q437 466 437 264V0ZM299 210H292Q239 210 205 191T171 142Q171 85 218 85Q250 85 273 104T299 152V210ZM98 574Q98 604 119 624T170 645Q196 645 217 623T238 574Q238 544 218 523T170 502Q137 502 118 522T98 574ZM287 574Q287 602 308 623T357 645Q386 645
407 624T429 574Q429 542 409 522T357 502Q327 502 307 522T287 574Z" />
<glyph unicode="&#xe5;" glyph-name="aring" horiz-adv-x="507" d="M437 0H327L317 42Q315 41 311 37Q253 -12 186 -12Q35 -12 35 136Q35 209 97 249Q163 292 291 292H304V293Q304 333 288 347T227 361Q161 361 107 319Q87 355 71 389Q133 435 174 450T277 466Q437
466 437 264V0ZM299 210H292Q239 210 205 191T171 142Q171 85 218 85Q250 85 273 104T299 152V210ZM258 675Q295 675 320 649T346 587Q346 550 321 525T258 499Q222 499 196 524T170 587Q170 623 196 649T258 675ZM258 621Q223 619 223 587Q223 572 233 562T258
552Q273 552 283 562T293 587Q293 620 258 621Z" />
<glyph unicode="&#xe6;" glyph-name="ae" horiz-adv-x="799" d="M759 183H449L448 189Q449 147 481 116T557 85Q623 85 696 126L729 54Q698 25 646 7T546 -12Q487 -12 437 13T362 82L361 81Q302 -12 186 -12Q35 -12 35 136Q35 209 97 249Q163 292 291 292H304V293Q304
333 288 347T227 361Q161 361 107 319Q87 355 71 389Q133 435 174 450T277 466Q350 466 391 421Q453 466 536 466Q644 466 705 395Q759 333 759 233V183ZM299 210H292Q239 210 205 191T171 142Q171 85 218 85Q250 85 273 104T299 152V210ZM441 283H624Q619 371
534 371Q452 371 441 283Z" />
<glyph unicode="&#xe7;" glyph-name="ccedilla" horiz-adv-x="489" d="M206 -55L221 -6Q130 12 79 81Q35 141 35 225Q35 335 111 405Q178 466 274 466Q384 466 447 397L405 324Q354 371 295 371Q242 371 208 330T174 222Q174 161 207 123T292 84Q358 84 404 135L451
61Q389 1 316 -10L311 -23H318Q345 -25 361 -42T378 -86Q378 -124 350 -145T272 -166Q221 -166 178 -150L192 -97Q231 -106 246 -106Q284 -106 284 -81Q284 -53 239 -53Q220 -53 206 -55Z" />
<glyph unicode="&#xe8;" glyph-name="egrave" horiz-adv-x="545" d="M494 183H184Q187 142 219 114T292 85Q357 85 430 126L464 54Q432 25 380 7T280 -12Q163 -12 98 53Q35 115 35 225Q35 332 106 402Q171 466 270 466Q379 466 440 395Q494 333 494 233V183ZM176
283H358Q353 371 268 371Q186 371 176 283ZM115 655H247L322 503H228L115 655Z" />
<glyph unicode="&#xe9;" glyph-name="eacute" horiz-adv-x="545" d="M494 183H184Q187 142 219 114T292 85Q357 85 430 126L464 54Q432 25 380 7T280 -12Q163 -12 98 53Q35 115 35 225Q35 332 106 402Q171 466 270 466Q379 466 440 395Q494 333 494 233V183ZM176
283H358Q353 371 268 371Q186 371 176 283ZM419 655L306 503H212L287 655H419Z" />
<glyph unicode="&#xea;" glyph-name="ecircumflex" horiz-adv-x="545" d="M494 183H184Q187 142 219 114T292 85Q357 85 430 126L464 54Q432 25 380 7T280 -12Q163 -12 98 53Q35 115 35 225Q35 332 106 402Q171 466 270 466Q379 466 440 395Q494 333 494 233V183ZM176
283H358Q353 371 268 371Q186 371 176 283ZM223 655H309Q323 633 348 597Q391 534 411 503H314L268 578V577L216 503H120L223 655Z" />
<glyph unicode="&#xeb;" glyph-name="edieresis" horiz-adv-x="545" d="M494 183H184Q187 142 219 114T292 85Q357 85 430 126L464 54Q432 25 380 7T280 -12Q163 -12 98 53Q35 115 35 225Q35 332 106 402Q171 466 270 466Q379 466 440 395Q494 333 494 233V183ZM176
283H358Q353 371 268 371Q186 371 176 283ZM97 574Q97 604 118 624T169 645Q195 645 216 623T238 574Q238 544 218 523T169 502Q137 502 117 522T97 574ZM287 574Q287 602 307 623T356 645Q385 645 406 624T428 574Q428 542 408 522T356 502Q326 502 307 522T287
574Z" />
<glyph unicode="&#xec;" glyph-name="igrave" horiz-adv-x="341" d="M242 454V0H109V454H242ZM14 655H147L222 503H127L14 655Z" />
<glyph unicode="&#xed;" glyph-name="iacute" horiz-adv-x="333" d="M224 454V0H90V454H224ZM315 655L202 503H108L183 655H315Z" />
<glyph unicode="&#xee;" glyph-name="icircumflex" horiz-adv-x="342" d="M243 454V0H110V454H243ZM131 655H216Q231 633 256 597Q299 534 319 503H222L176 578L175 577L123 503H27L131 655Z" />
<glyph unicode="&#xef;" glyph-name="idieresis" horiz-adv-x="347" d="M227 454V0H93V454H227ZM3 574Q3 604 24 624T75 645Q101 645 122 623T144 574Q144 544 124 523T75 502Q43 502 23 522T3 574ZM193 574Q193 602 213 623T262 645Q291 645 312 624T334 574Q334
542 314 522T262 502Q232 502 213 522T193 574Z" />
<glyph unicode="&#xf0;" glyph-name="eth" horiz-adv-x="522" d="M223 558Q193 572 119 595Q133 607 161 627L168 632Q179 640 185 645Q251 633 317 610Q378 637 419 658Q429 648 451 624Q474 599 488 586Q470 579 433 561L429 560Q412 552 397 545Q432 507 454
442T476 313Q476 162 417 76Q356 -12 245 -12Q137 -12 79 72Q35 137 35 224Q35 326 108 379Q158 415 221 415Q252 415 272 407Q309 392 335 367V369Q335 470 304 492Q283 481 241 461Q210 447 194 438Q182 449 155 474Q134 494 121 505Q143 515 183 537Q210 551
223 558ZM336 275Q309 315 251 315H250Q175 315 175 205Q175 144 189 119T237 94Q285 94 308 136T336 275Z" />
<glyph unicode="&#xf1;" glyph-name="ntilde" horiz-adv-x="564" d="M196 410Q215 433 255 449T331 466Q418 466 455 420T493 266V0H356V261Q356 352 275 352Q254 352 232 344T201 326V0H65V454H181Q186 428 191 410H196ZM180 513L132 546Q151 655 224 655Q249
655 285 629Q314 609 332 609Q352 609 379 663L428 626Q408 520 335 520Q305 520 272 539Q240 558 224 558Q201 558 180 513Z" />
<glyph unicode="&#xf2;" glyph-name="ograve" horiz-adv-x="529" d="M262 466Q375 466 438 387Q490 322 490 226Q490 115 411 45Q347 -12 262 -12Q164 -12 97 62Q35 129 35 226Q35 337 102 404Q164 466 262 466ZM174 226Q174 89 263 89Q351 89 351 226Q351 370
262 370Q174 370 174 226ZM113 655H245L320 503H226L113 655Z" />
<glyph unicode="&#xf3;" glyph-name="oacute" horiz-adv-x="529" d="M262 466Q375 466 438 387Q490 322 490 226Q490 115 411 45Q347 -12 262 -12Q164 -12 97 62Q35 129 35 226Q35 337 102 404Q164 466 262 466ZM174 226Q174 89 263 89Q351 89 351 226Q351 370
262 370Q174 370 174 226ZM412 655L299 503H204L279 655H412Z" />
<glyph unicode="&#xf4;" glyph-name="ocircumflex" horiz-adv-x="529" d="M262 466Q375 466 438 387Q490 322 490 226Q490 115 411 45Q347 -12 262 -12Q164 -12 97 62Q35 129 35 226Q35 337 102 404Q164 466 262 466ZM174 226Q174 89 263 89Q351 89 351 226Q351
370 262 370Q174 370 174 226ZM221 655H306Q317 639 341 604L346 596Q388 535 409 503H312L266 578V577L213 503H117L221 655Z" />
<glyph unicode="&#xf5;" glyph-name="otilde" horiz-adv-x="529" d="M262 466Q375 466 438 387Q490 322 490 226Q490 115 411 45Q347 -12 262 -12Q164 -12 97 62Q35 129 35 226Q35 337 102 404Q164 466 262 466ZM174 226Q174 89 263 89Q351 89 351 226Q351 370
262 370Q174 370 174 226ZM164 513L116 546Q136 655 209 655Q234 655 270 629Q299 609 317 609Q337 609 363 663L412 626Q393 520 319 520Q290 520 257 539Q225 558 209 558Q186 558 164 513Z" />
<glyph unicode="&#xf6;" glyph-name="odieresis" horiz-adv-x="529" d="M262 466Q375 466 438 387Q490 322 490 226Q490 115 411 45Q347 -12 262 -12Q164 -12 97 62Q35 129 35 226Q35 337 102 404Q164 466 262 466ZM174 226Q174 89 263 89Q351 89 351 226Q351
370 262 370Q174 370 174 226ZM103 574Q103 604 124 624T175 645Q201 645 222 623T244 574Q244 544 224 523T175 502Q143 502 123 522T103 574ZM293 574Q293 602 313 623T362 645Q391 645 412 624T434 574Q434 542 414 522T362 502Q332 502 313 522T293 574Z" />
<glyph unicode="&#xf7;" glyph-name="divide" horiz-adv-x="470" d="M442 185H29V292H442V185ZM166 58Q166 88 186 109T238 131Q267 131 287 110T308 58Q308 29 288 9T238 -12Q207 -12 187 8T166 58ZM167 411Q167 441 188 462T239 484Q268 484 289 463T310 411Q310
382 289 362T239 341Q209 341 188 361T167 411Z" />
<glyph unicode="&#xf8;" glyph-name="oslash" d="M316 459L330 489H414L387 428Q480 360 480 226Q480 114 404 45Q341 -12 257 -12Q222 -12 196 -2L184 -30H95L124 33Q35 103 35 226Q35 338 100 404Q160 466 260 466Q284 466 316 459ZM237 91Q248 89 258 89Q341
89 341 226Q341 273 334 308L237 91ZM180 156L276 369Q266 370 260 370Q174 370 174 226Q174 186 180 156Z" />
<glyph unicode="&#xf9;" glyph-name="ugrave" horiz-adv-x="549" d="M360 52Q312 -12 224 -12Q136 -12 101 31T65 182V454H199V219Q199 151 215 126T274 100Q290 100 312 108T337 126V454H473V0H372L360 52ZM102 655H234L309 503H215L102 655Z" />
<glyph unicode="&#xfa;" glyph-name="uacute" horiz-adv-x="549" d="M360 52Q312 -12 224 -12Q136 -12 101 31T65 182V454H199V219Q199 151 215 126T274 100Q290 100 312 108T337 126V454H473V0H372L360 52ZM430 655L317 503H223L298 655H430Z" />
<glyph unicode="&#xfb;" glyph-name="ucircumflex" horiz-adv-x="549" d="M360 52Q312 -12 224 -12Q136 -12 101 31T65 182V454H199V219Q199 151 215 126T274 100Q290 100 312 108T337 126V454H473V0H372L360 52ZM230 655H316Q327 638 350 604L356 596Q398 535
418 503H321L275 578V577L223 503H127L230 655Z" />
<glyph unicode="&#xfc;" glyph-name="udieresis" horiz-adv-x="549" d="M360 52Q312 -12 224 -12Q136 -12 101 31T65 182V454H199V219Q199 151 215 126T274 100Q290 100 312 108T337 126V454H473V0H372L360 52ZM109 574Q109 604 129 624T181 645Q207 645 228 623T249
574Q249 544 229 523T181 502Q148 502 129 522T109 574ZM298 574Q298 602 319 623T368 645Q397 645 418 624T440 574Q440 542 420 522T368 502Q338 502 318 522T298 574Z" />
<glyph unicode="&#xfd;" glyph-name="yacute" horiz-adv-x="479" d="M478 454L289 -65Q243 -191 156 -191Q87 -191 14 -130Q35 -95 50 -66Q88 -91 117 -91Q156 -91 189 13L184 0H158L2 454H136Q147 420 171 346L173 338Q213 218 231 157L343 454H478ZM392 651L279
500H185L260 651H392Z" />
<glyph unicode="&#xfe;" glyph-name="thorn" horiz-adv-x="546" d="M65 576Q87 588 121 606Q171 632 197 646V432Q206 446 233 456T290 466Q396 466 458 392Q511 330 511 236Q511 113 434 44Q372 -12 285 -12Q259 -12 229 -3T197 16V-178H65V576ZM197 299V141Q197
119 220 101T272 82Q314 82 342 123T371 226Q371 292 346 330T279 369Q253 369 230 349T197 299Z" />
<glyph unicode="&#xff;" glyph-name="ydieresis" horiz-adv-x="479" d="M478 454L287 -65Q241 -191 156 -191Q87 -191 14 -130Q20 -119 32 -99Q44 -77 50 -66Q88 -91 107 -91Q110 -91 116 -92V-93Q121 -93 123 -93Q141 -93 185 13L180 0H158L75 242L2 454H136Q172
337 228 157Q252 220 307 361L312 375L325 407L343 454H478ZM70 574Q70 604 90 624T142 645Q170 645 191 624T213 574Q213 543 193 523T142 502Q109 502 90 521T70 574ZM260 574Q260 602 281 623T331 645Q359 645 381 624T403 574Q403 543 383 523T331 502Q300
502 280 522T260 574Z" />
<glyph unicode="&#x2013;" glyph-name="endash" horiz-adv-x="402" d="M411 172H-8V280H411V172Z" />
<glyph unicode="&#x2014;" glyph-name="emdash" horiz-adv-x="587" d="M596 172H-8V280H596V172Z" />
<glyph unicode="&#x2018;" glyph-name="quoteleft" horiz-adv-x="335" d="M186 512Q225 512 250 486T275 419Q275 373 246 343T171 313Q125 313 98 344T70 426V631L148 643V512H186Z" />
<glyph unicode="&#x2019;" glyph-name="quoteright" horiz-adv-x="335" d="M149 446Q110 446 85 472T60 539Q60 585 89 615T164 645Q210 645 237 614T265 532V327L187 315V446H149Z" />
<glyph unicode="&#x201a;" glyph-name="quotesinglbase" horiz-adv-x="340" d="M149 -1Q110 -1 85 24T60 92Q60 137 89 167T164 198Q210 198 237 167T265 85V-120L187 -132V-1H149Z" />
<glyph unicode="&#x201c;" glyph-name="quotedblleft" horiz-adv-x="568" d="M186 512Q225 512 250 486T275 419Q275 373 246 343T171 313Q125 313 98 344T70 426V631L148 643V512H186ZM419 512Q458 512 483 486T508 419Q508 373 479 343T404 313Q358 313 331
344T303 426V631L381 643V512H419Z" />
<glyph unicode="&#x201d;" glyph-name="quotedblright" horiz-adv-x="573" d="M149 446Q110 446 85 472T60 539Q60 585 89 615T164 645Q210 645 237 614T265 532V327L187 315V446H149ZM387 446Q348 446 323 472T298 539Q298 585 327 615T402 645Q448 645 475 614T503
532V327L425 315V446H387Z" />
<glyph unicode="&#x201e;" glyph-name="quotedblbase" horiz-adv-x="573" d="M149 -2Q110 -2 85 24T60 91Q60 137 89 167T164 197Q210 197 237 166T265 84V-121L187 -133V-2H149ZM387 -2Q348 -2 323 24T298 91Q298 137 327 167T402 197Q448 197 475 166T503 84V-121L425
-133V-2H387Z" />
<glyph unicode="&#x2022;" glyph-name="bullet" horiz-adv-x="393" d="M198 150Q70 150 70 279Q70 406 198 406Q323 406 323 279Q323 150 198 150Z" />
<glyph unicode="&#x2039;" glyph-name="guilsinglleft" horiz-adv-x="378" d="M338 -5H335Q245 -5 160 73Q87 140 50 236Q92 347 180 416Q256 477 333 477Q336 477 338 477V349Q240 314 200 236Q239 160 338 123V-5Z" />
<glyph unicode="&#x203a;" glyph-name="guilsinglright" horiz-adv-x="378" d="M40 -5V123Q137 159 177 236Q137 314 40 349V477Q42 477 45 477Q134 477 218 399Q291 332 328 236Q285 125 197 56Q121 -5 43 -5H40Z" />
</font>
</defs>
</svg>
