<?xml version="1.0" standalone="no"?>
<!DOCTYPE svg PUBLIC "-//W3C//DTD SVG 1.1//EN" "http://www.w3.org/Graphics/SVG/1.1/DTD/svg11.dtd">
<svg xmlns="http://www.w3.org/2000/svg">
<defs >
<font id="Trispace" horiz-adv-x="1241" ><font-face
    font-family="Trispace Thin"
    units-per-em="2000"
    panose-1="0 0 0 0 0 0 0 0 0 0"
    ascent="1830"
    descent="-430"
    alphabetic="0" />
<glyph unicode=" " horiz-adv-x="1000" />
<glyph unicode="!" horiz-adv-x="1000" d="M385 457L333 1400H701L650 457H385ZM345 298H683V0H345V298Z" />
<glyph unicode="&quot;" horiz-adv-x="1300" d="M575 882L509 1400H841L777 882H575ZM768 882L702 1400H1034L970 882H768Z" />
<glyph unicode="#" horiz-adv-x="1800" d="M995 0L1157 1400H1448L1286 0H995ZM112 335L141 572H1566L1536 335H112ZM319 0L481 1400H772L610 0H319ZM178 831L207 1068H1632L1602 831H178Z" />
<glyph unicode="$" horiz-adv-x="1300" d="M551 0V342H794V0H551ZM551 1104V1400H794V1104H551ZM677 184Q557 184 461 205T293 266T174 366L429 531Q448 504 474 484T533 451T605 431T687 425Q725 425 758 430T818 444T859 468T874 503Q874 529 842 547T746 580T585
609Q513 620 444 641T321 698T234 789T202 923Q202 988 229 1038T304 1124T414 1184T547 1219T689 1230Q808 1230 900 1204T1055 1137T1150 1054L903 896Q890 917 867 934T812 965T745 985T669 993Q637 993 607 989T551 976T512 954T497 921Q497 896 525 881T607
854T732 831Q785 823 846 811T966 778T1074 724T1151 642T1180 524Q1180 453 1153 398T1076 303T963 236T826 197T677 184Z" />
<glyph unicode="%" horiz-adv-x="1300" d="M98 0L935 1400H1154L317 0H98ZM945 5Q874 5 814 32T716 118T679 274Q679 370 716 428T813 514T945 541Q1015 541 1075 514T1173 429T1210 274Q1210 177 1173 118T1076 32T945 5ZM945 160Q966 160 984 170T1014 205T1026
274Q1026 316 1015 341T985 376T945 386Q923 386 905 376T874 341T862 274Q862 231 874 206T904 170T945 160ZM311 845Q240 845 180 872T82 958T45 1114Q45 1210 82 1268T179 1354T311 1381Q382 1381 442 1354T539 1269T576 1114Q576 1017 540 958T443 872T311
845ZM311 1000Q332 1000 351 1010T381 1045T393 1114Q393 1156 382 1181T351 1216T311 1226Q289 1226 271 1216T241 1181T230 1114Q230 1071 241 1046T270 1010T311 1000Z" />
<glyph unicode="&amp;" horiz-adv-x="1700" d="M733 -16Q575 -16 451 28T254 161T182 380Q182 476 221 546T329 669T488 767T678 855Q777 898 826 932T893 1002T910 1080Q910 1112 899 1133T870 1168T830 1186T784 1191Q761 1191 739 1185T699 1165T671 1131T660
1079Q660 1047 677 1009T720 935T769 869T807 822L1531 0H1200L610 655Q579 690 543 735T474 834T421 950T400 1079Q400 1163 432 1225T519 1329T643 1391T786 1412Q863 1412 933 1393T1058 1332T1145 1228T1177 1077Q1177 981 1135 905T1009 768T804 654Q732 623
676 594T582 535T523 470T503 393Q503 356 518 324T563 269T640 234T750 221Q816 221 883 235T1010 280T1116 355T1190 461T1217 597H1504Q1504 493 1461 400T1343 232T1169 100T959 14T733 -16Z" />
<glyph unicode="&apos;" horiz-adv-x="1000" d="M403 882L337 1400H669L605 882H403Z" />
<glyph unicode="(" horiz-adv-x="1300" d="M834 -471Q810 -451 761 -400T655 -265T544 -60T457 222T422 588Q422 792 456 953T544 1235T655 1440T762 1574T835 1644L1082 1481Q1062 1465 1023 1422T938 1305T849 1129T780 891T752 588Q752 420 779 286T849 48T937
-128T1022 -245T1081 -307L834 -471Z" />
<glyph unicode=")" horiz-adv-x="1300" d="M468 -471L221 -307Q241 -289 280 -245T365 -129T453 47T522 285T550 588Q550 756 523 890T453 1128T365 1305T280 1421T220 1481L467 1644Q491 1624 540 1574T647 1440T758 1235T845 953T880 588Q880 383 846 222T758
-60T647 -265T541 -400T468 -471Z" />
<glyph unicode="*" horiz-adv-x="1300" d="M697 999L560 1222L696 1331L865 1118L697 999ZM499 999L331 1118L501 1331L636 1222L499 999ZM560 1222L268 1294L336 1495L598 1405L560 1222ZM598 1217Q555 1217 524 1243T493 1307Q493 1343 524 1374T598 1405Q640
1405 670 1374T701 1307Q701 1269 671 1243T598 1217ZM501 1331L487 1600H711L696 1331H501ZM636 1222L598 1405L861 1495L929 1294L636 1222Z" />
<glyph unicode="+" horiz-adv-x="1300" d="M475 195V1019H737V195H475ZM193 477V739H1017V477H193Z" />
<glyph unicode="," horiz-adv-x="1000" d="M423 -337L292 -177Q331 -158 360 -137T405 -82T422 5L641 0Q641 -99 605 -166T519 -275T423 -337ZM300 0V298H641V0H300Z" />
<glyph unicode="-" horiz-adv-x="1300" d="M328 477V739H973V477H328Z" />
<glyph unicode="." horiz-adv-x="1000" d="M337 298H674V0H337V298Z" />
<glyph unicode="/" horiz-adv-x="919" d="M61 -284L559 1600H861L363 -284H61Z" />
<glyph unicode="0" horiz-adv-x="1300" d="M640 -22Q535 -22 440 13T270 131T152 351T109 696Q109 901 152 1039T269 1259T439 1376T640 1412Q745 1412 840 1377T1010 1260T1127 1040T1170 696Q1170 490 1127 352T1010 131T841 14T640 -22ZM640 212Q679 212 712
233T772 308T813 456T828 696Q828 840 813 933T772 1080T713 1156T640 1178Q602 1178 568 1156T507 1081T466 934T451 696Q451 550 466 456T507 309T567 234T640 212Z" />
<glyph unicode="1" horiz-adv-x="1300" d="M182 0V241H472V1109L189 1020V1295L516 1400H802V241H1091V0H182Z" />
<glyph unicode="2" horiz-adv-x="1300" d="M113 0V235Q143 257 193 295T305 383T432 492T559 613T670 739T748 862T777 974Q777 1024 765 1060T731 1118T678 1152T609 1163Q549 1163 504 1127T429 1039T387 935L103 1057Q130 1167 204 1247T383 1369T610 1412Q718
1412 810 1390T970 1317T1077 1183T1116 977Q1116 901 1080 821T986 662T860 513T727 385T613 290T543 239H1099V0H113Z" />
<glyph unicode="3" horiz-adv-x="1300" d="M638 -22Q502 -22 396 16T219 122T116 280L395 419Q416 363 448 320T528 254T641 231Q704 231 752 257T826 335T853 460Q853 515 837 556T793 625T729 667T651 681Q628 681 607 677T565 665T526 648L348 841L715 1159H171V1400H1105V1159L722
842Q736 850 769 855T833 861Q891 861 950 839T1059 768T1140 644T1171 461Q1171 343 1131 253T1018 102T848 9T638 -22Z" />
<glyph unicode="4" horiz-adv-x="1300" d="M713 0V277H109V517L516 1400H1040V517H1228V277H1040V0H713ZM438 517H713V1189H730L438 517Z" />
<glyph unicode="5" horiz-adv-x="1300" d="M625 -22Q494 -22 391 18T218 125T115 273L391 411Q400 379 427 337T504 263T625 231Q695 231 742 258T813 337T837 465Q837 535 811 584T737 660T630 687Q571 687 526 667T449 616T401 553L268 627Q284 697 324 754T426
853T565 917T729 939Q847 939 943 889T1097 735T1154 472Q1154 339 1110 245T990 92T820 6T625 -22ZM401 553L134 647L240 1400H1055V1159H485L401 553Z" />
<glyph unicode="6" horiz-adv-x="1300" d="M618 -22Q507 -22 411 17T242 137T129 347T88 656Q88 846 137 988T270 1225T464 1365T693 1412Q808 1412 886 1383T1012 1314T1078 1240L876 1065Q865 1083 844 1107T786 1150T693 1168Q628 1168 575 1135T485 1035T429
865T409 622Q409 500 425 423T471 303T539 244T621 227Q677 227 724 256T800 342T829 476Q829 557 802 606T730 677T627 700Q583 700 546 686T481 645T436 581T412 498L235 548Q249 635 292 707T400 834T543 917T710 946Q824 946 923 896T1084 743T1146 487Q1146
375 1107 282T997 121T830 15T618 -22Z" />
<glyph unicode="7" horiz-adv-x="1300" d="M466 0Q466 134 485 273T537 546T611 799T697 1011T784 1159H215V1400H1127V1159Q1073 1085 1026 987T940 774T872 531T828 269T812 0H466Z" />
<glyph unicode="8" horiz-adv-x="1300" d="M646 -22Q488 -22 368 28T179 173T111 400Q111 519 161 600T292 731T466 803T646 825Q732 825 824 803T997 732T1127 601T1177 400Q1177 268 1110 174T923 29T646 -22ZM646 227Q694 227 741 246T819 308T850 423Q850
500 819 543T740 604T646 622Q598 622 550 604T471 543T439 423Q439 351 470 308T549 246T646 227ZM646 649Q568 649 485 675T331 750T215 870T170 1030Q170 1122 204 1193T303 1313T454 1388T646 1414Q750 1414 836 1389T986 1314T1085 1193T1120 1030Q1120 941
1076 871T960 751T807 675T646 649ZM646 852Q715 852 763 893T812 1011Q812 1052 798 1081T759 1128T705 1156T646 1165Q615 1165 586 1156T532 1129T493 1081T478 1011Q478 935 526 894T646 852Z" />
<glyph unicode="9" horiz-adv-x="1300" d="M561 -22Q446 -22 368 7T243 76T176 150L378 325Q389 307 410 283T468 240T561 222Q626 222 679 255T769 355T825 525T845 768Q845 888 829 964T783 1084T715 1145T633 1163Q577 1163 530 1134T454 1048T425 914Q425
834 452 785T524 713T627 690Q670 690 707 705T773 749T822 816T851 901L1019 842Q1005 755 962 683T854 556T711 473T544 444Q430 444 331 494T170 647T108 903Q108 1015 147 1108T257 1269T425 1375T636 1412Q747 1412 843 1373T1012 1253T1125 1043T1166 734Q1166
544 1117 402T984 165T790 25T561 -22Z" />
<glyph unicode=":" horiz-adv-x="1000" d="M300 1000H637V702H300V1000ZM556 298H893V0H556V298Z" />
<glyph unicode=";" horiz-adv-x="1000" d="M344 999H681V701H344V999ZM457 -337L326 -177Q365 -158 394 -137T439 -82T456 5L675 0Q675 -99 639 -166T553 -275T457 -337ZM334 0V298H675V0H334Z" />
<glyph unicode="&lt;" horiz-adv-x="1300" d="M973 1066L1089 866L367 447V591L1089 172L973 -28L237 419V619L973 1066Z" />
<glyph unicode="=" horiz-adv-x="1300" d="M185 661V923H1009V661H185ZM185 293V555H1009V293H185Z" />
<glyph unicode="&gt;" horiz-adv-x="1300" d="M299 -28L182 172L905 591V447L182 866L299 1066L1035 619V419L299 -28Z" />
<glyph unicode="?" horiz-adv-x="1300" d="M425 445V482Q425 548 445 602T500 700T574 782T654 852Q690 883 721 912T771 971T790 1033Q790 1065 779 1087T745 1123T694 1143T627 1150Q584 1150 542 1136T461 1096T394 1034T349 956L98 1100Q125 1178 197 1249T377
1366T619 1412Q721 1412 810 1392T967 1328T1072 1215T1110 1047Q1110 973 1078 915T995 809T892 719Q846 681 806 644T740 565T715 473V445H425ZM403 298H740V0H403V298Z" />
<glyph unicode="@" horiz-adv-x="1700" d="M715 -18Q647 -18 559 0T381 63T215 181T93 367T46 632Q46 794 92 920T223 1140T420 1293T666 1382T943 1412Q1085 1412 1212 1378T1437 1270T1592 1076T1649 783Q1649 671 1616 581T1521 426T1378 327T1199 292Q1137
292 1092 305T1020 346T984 418Q975 389 944 367T867 333T772 321Q723 321 671 338T572 393T498 495T469 653Q469 754 504 832T601 966T747 1049T927 1077Q979 1077 1026 1069T1112 1047T1172 1021Q1164 947 1156 867T1140 715T1128 592T1124 524Q1124 494 1132
476T1158 449T1202 441Q1265 441 1303 470T1361 548T1386 660T1393 786Q1393 893 1360 970T1265 1096T1117 1169T927 1193Q830 1193 738 1173T568 1110T430 1003T337 851T304 654Q304 550 336 468T428 326T573 235T761 204Q841 204 889 219T951 243L1074 44Q1061
37 1017 22T899 -5T715 -18ZM825 527Q847 527 868 538T904 570T925 622Q926 629 929 653T935 713T941 786T949 858Q941 860 923 863T877 867Q836 867 807 851T758 808T730 744T721 668Q721 622 731 594T758 552T791 532T825 527Z" />
<glyph unicode="A" horiz-adv-x="1300" d="M1231 0H897L837 300H467L407 0H73L393 1400H911L1231 0ZM641 1159L514 541H790L663 1159H641Z" />
<glyph unicode="B" horiz-adv-x="1300" d="M163 0V1400H676Q726 1400 789 1394T916 1368T1034 1312T1120 1213T1153 1058Q1153 953 1116 884T1025 778T922 736Q966 732 1016 711T1111 650T1184 548T1213 399Q1213 266 1158 178T1009 45T795 0H163ZM493 241H666Q726
241 775 257T852 313T881 423Q881 499 851 537T771 589T664 603H493V241ZM493 841H633Q693 841 738 857T808 909T833 1007Q833 1051 820 1080T780 1127T717 1152T630 1159H493V841Z" />
<glyph unicode="C" horiz-adv-x="1300" d="M692 -22Q607 -22 520 -1T355 70T215 203T118 407T82 696Q82 863 117 984T214 1188T355 1320T521 1390T693 1412Q784 1412 863 1388T1009 1318T1125 1206T1207 1053L920 909Q908 949 890 993T846 1078T782 1143T693 1168Q640
1168 591 1142T502 1060T441 914T418 696Q418 568 440 478T502 331T590 248T692 222Q743 222 780 247T845 312T890 396T920 479L1207 336Q1175 251 1125 185T1009 72T864 2T692 -22Z" />
<glyph unicode="D" horiz-adv-x="1300" d="M128 0V1400H575Q648 1400 723 1390T868 1353T1000 1277T1107 1150T1180 962T1206 700Q1206 550 1180 439T1108 250T1000 124T869 48T723 11T575 0H128ZM458 241H549Q625 241 684 265T784 342T846 484T867 700Q867 828
846 916T785 1057T685 1135T549 1159H458V241Z" />
<glyph unicode="E" horiz-adv-x="1300" d="M187 0V1400H1139V1159H517V807H1069V569H517V241H1139V0H187Z" />
<glyph unicode="F" horiz-adv-x="1300" d="M245 0V1400H1128V1159H575V712H1031V471H575V0H245Z" />
<glyph unicode="G" horiz-adv-x="1300" d="M677 -22Q591 -22 505 1T341 76T204 210T109 414T74 696Q74 856 108 975T202 1178T338 1313T500 1388T673 1412Q772 1412 858 1388T1010 1319T1121 1208T1181 1061L879 946Q872 989 855 1028T812 1099T749 1149T666 1168Q626
1168 588 1152T516 1100T457 1010T418 877T403 696Q403 567 425 477T486 330T575 248T680 222Q734 222 773 240T838 294T877 379T890 494H656V739H1202V586Q1202 460 1175 362T1099 191T985 72T841 1T677 -22Z" />
<glyph unicode="H" horiz-adv-x="1300" d="M113 0V1400H443V847H858V1400H1188V0H858V609H443V0H113Z" />
<glyph unicode="I" horiz-adv-x="1300" d="M205 0V241H484V1159H205V1400H1095V1159H814V241H1095V0H205Z" />
<glyph unicode="J" horiz-adv-x="1300" d="M613 -22Q504 -22 409 10T242 111T130 292T89 566H421Q421 453 444 379T511 268T613 231Q672 231 715 268T781 379T805 566V1159H295V1400H1135V534Q1135 385 1095 280T984 108T818 10T613 -22Z" />
<glyph unicode="K" horiz-adv-x="1300" d="M129 0V1400H459V837H524L866 1400H1223L747 661V777L1239 0H880L525 599H459V0H129Z" />
<glyph unicode="L" horiz-adv-x="1000" d="M117 0V1400H449V241H931V0H117Z" />
<glyph unicode="M" horiz-adv-x="1700" d="M793 186L868 606L1080 1400H1257L1261 1126L986 186H793ZM82 0L192 1400H496L420 0H82ZM713 186L437 1126L441 1400H618L836 606L902 186H713ZM1278 0L1202 1400H1506L1615 0H1278Z" />
<glyph unicode="N" horiz-adv-x="1300" d="M97 0V1400H586L935 272H872V1400H1202V0H786L414 1124H427V0H97Z" />
<glyph unicode="O" horiz-adv-x="1300" d="M647 -22Q556 -22 469 3T307 81T173 219T83 422T50 696Q50 850 82 968T173 1171T306 1308T469 1387T647 1412Q736 1412 822 1387T985 1309T1118 1171T1208 969T1241 696Q1241 541 1209 423T1119 220T985 82T823 3T647
-22ZM647 222Q698 222 745 248T828 331T886 478T907 696Q907 822 886 912T829 1058T745 1141T647 1168Q595 1168 548 1142T464 1059T406 912T384 696Q384 569 405 479T463 332T547 249T647 222Z" />
<glyph unicode="P" horiz-adv-x="1300" d="M167 0V1400H657Q715 1400 784 1388T923 1345T1049 1259T1142 1119T1177 911Q1177 789 1142 703T1050 561T923 473T785 429T657 416H498V0H167ZM498 657H627Q669 657 707 670T776 713T823 792T841 910Q841 980 824 1027T776
1104T708 1146T627 1159H498V657Z" />
<glyph unicode="Q" horiz-adv-x="1300" d="M517 -348V0H787V-143L757 -113H1142V-348H517ZM647 -22Q556 -22 469 3T307 81T173 219T83 422T50 696Q50 850 82 968T173 1171T306 1308T469 1387T647 1412Q736 1412 822 1387T985 1309T1118 1171T1208 969T1241 696Q1241
541 1209 423T1119 220T985 82T823 3T647 -22ZM647 222Q698 222 745 248T828 331T886 478T907 696Q907 822 886 912T829 1058T745 1141T647 1168Q595 1168 548 1142T464 1059T406 912T384 696Q384 569 405 479T463 332T547 249T647 222Z" />
<glyph unicode="R" horiz-adv-x="1300" d="M150 0V1400H715Q772 1400 837 1389T965 1352T1077 1280T1158 1162T1189 990Q1189 879 1155 804T1067 681T947 609T816 576T700 567H480V0H150ZM863 0L621 653L944 687L1213 0H863ZM480 797H645Q709 797 757 815T832
873T860 980Q860 1051 833 1089T756 1143T643 1159H480V797Z" />
<glyph unicode="S" horiz-adv-x="1300" d="M643 -22Q505 -22 389 20T192 138T84 315L398 446Q414 391 450 342T541 260T667 227Q729 227 771 243T836 293T859 375Q859 411 836 441T773 496T679 543T563 585Q471 614 391 650T251 736T156 857T122 1025Q122 1106
152 1168T236 1277T359 1353T505 1397T660 1412Q791 1412 900 1373T1082 1268T1181 1119L871 986Q855 1038 824 1078T749 1140T647 1163Q609 1163 577 1155T519 1131T481 1091T467 1035Q467 992 494 959T575 899T702 848Q766 828 835 802T970 741T1088 658T1172
547T1203 399Q1203 305 1171 235T1084 116T956 37T804 -8T643 -22Z" />
<glyph unicode="T" horiz-adv-x="1300" d="M484 0V1159H115V1400H1185V1159H814V0H484Z" />
<glyph unicode="U" horiz-adv-x="1300" d="M652 -22Q545 -22 450 6T280 97T163 264T120 520V1400H450V534Q450 423 473 357T542 261T652 231Q717 231 761 260T829 356T852 534V1400H1182V520Q1182 368 1140 264T1025 97T856 6T652 -22Z" />
<glyph unicode="V" horiz-adv-x="1300" d="M378 0L53 1400H388L636 241H649L895 1400H1231L905 0H378Z" />
<glyph unicode="W" horiz-adv-x="1700" d="M1022 0L846 965L809 1398H989L1231 199L1178 0H1022ZM261 0L44 1400H392L502 210L532 0H261ZM508 0L464 199L709 1398H891L862 965L676 0H508ZM1154 0L1193 210L1308 1400H1656L1437 0H1154Z" />
<glyph unicode="X" horiz-adv-x="1300" d="M46 0L333 690L46 1400H405L625 811H655L879 1400H1238L948 690L1238 0H879L655 573H626L405 0H46Z" />
<glyph unicode="Y" horiz-adv-x="1300" d="M476 0V451L63 1400H402L640 753L878 1400H1217L806 451V0H476Z" />
<glyph unicode="Z" horiz-adv-x="1300" d="M183 0V241L767 1159H199V1400H1095V1159L507 241H1114V0H183Z" />
<glyph unicode="[" horiz-adv-x="1300" d="M418 -422V1622H1005V1359H748V-159H1005V-422H418Z" />
<glyph unicode="\" horiz-adv-x="920" d="M559 -284L61 1600H364L862 -284H559Z" />
<glyph unicode="]" horiz-adv-x="1300" d="M868 -422H281V-159H538V1359H281V1622H868V-422Z" />
<glyph unicode="^" horiz-adv-x="1300" d="M268 1120L474 1600H818L1024 1120H759L651 1379H641L533 1120H268Z" />
<glyph unicode="_" horiz-adv-x="1300" d="M-7 -329V-67H1307V-329H-7Z" />
<glyph unicode="`" horiz-adv-x="1300" d="M598 1117L238 1424H572L890 1117H598Z" />
<glyph unicode="a" horiz-adv-x="1300" d="M505 -22Q423 -22 353 -1T229 63T146 168T116 313Q116 382 141 435T209 525T308 587T423 621T543 632Q606 632 656 621T741 593T790 560V641Q790 674 776 698T735 739T672 764T594 773Q545 773 500 766T417 747T347 723T293
697L156 936Q194 958 265 977T425 1010T611 1024Q681 1024 753 1015T890 982T1007 920T1089 821T1119 679V241H1247V0H864L825 123Q810 91 769 58T662 1T505 -22ZM603 217Q649 217 688 231T753 265T790 303V365Q780 383 752 399T686 427T608 439Q566 439 527 430T462
397T437 330Q437 287 459 263T519 228T603 217Z" />
<glyph unicode="b" horiz-adv-x="1300" d="M155 0V1500H487V208L442 0H155ZM758 -22Q662 -22 589 21T465 130T390 267T364 396L482 437Q484 396 498 359T537 293T595 248T665 231Q726 231 771 263T842 356T867 502Q867 586 843 646T775 737T672 769Q633 769 601
754T544 713T502 654T476 587L369 629Q369 686 394 753T470 882T595 983T768 1022Q882 1022 980 967T1137 796T1197 502Q1197 368 1161 270T1063 107T923 10T758 -22Z" />
<glyph unicode="c" horiz-adv-x="1300" d="M701 -22Q621 -22 544 -3T399 55T279 157T198 304T168 502Q168 615 197 701T279 848T399 948T544 1005T701 1024Q785 1024 859 1006T994 953T1101 868T1174 755L887 623Q878 659 857 696T800 759T710 785Q670 785 634
770T570 722T526 635T509 502Q509 425 525 371T570 283T634 233T710 217Q764 217 800 239T857 296T887 365L1173 233Q1145 175 1100 128T994 47T860 -4T701 -22Z" />
<glyph unicode="d" horiz-adv-x="1300" d="M519 -22Q434 -22 356 10T215 106T116 269T80 502Q80 680 140 795T297 966T509 1022Q607 1022 682 983T807 883T883 754T909 629L801 587Q792 621 775 654T733 712T676 753T606 769Q547 769 503 738T435 646T410 502Q410
417 435 357T505 264T612 231Q650 231 682 247T740 292T779 358T795 437L913 396Q913 339 888 268T813 130T690 21T519 -22ZM1122 1500V92L974 241H1259V0H835L791 204V1500H1122Z" />
<glyph unicode="e" horiz-adv-x="1300" d="M654 -22Q549 -22 453 12T283 112T165 276T121 502Q121 630 163 727T280 890T451 990T657 1024Q765 1024 862 994T1034 901T1151 745T1194 525Q1194 501 1191 474T1184 426H387V617H854Q854 619 854 620T854 624Q854
666 831 703T765 763T664 787Q622 787 584 771T517 720T472 633T456 505Q456 414 482 350T558 251T674 217Q730 217 767 237T826 284T857 333L1151 191Q1121 142 1075 103T968 36T828 -7T654 -22Z" />
<glyph unicode="f" horiz-adv-x="1000" d="M268 0V1124Q268 1240 311 1316T425 1437T580 1500T748 1519Q818 1519 871 1508T951 1481V1238Q926 1253 890 1265T796 1278Q756 1278 720 1270T656 1241T614 1180T598 1080V0H268ZM42 759V1000H932V759H42Z" />
<glyph unicode="g" horiz-adv-x="1300" d="M632 -429Q535 -429 448 -405T293 -336T187 -224T148 -73H478Q478 -93 489 -112T521 -148T572 -174T641 -184Q693 -184 734 -160T799 -83T823 53V803L840 1000H1153V58Q1153 -42 1127 -120T1052 -256T938 -352T796 -410T632
-429ZM553 -22Q468 -22 390 10T249 106T150 269T114 502Q114 680 174 795T331 966T543 1022Q641 1022 716 983T841 883T917 754T943 629L835 587Q826 621 809 654T767 712T710 753T640 769Q581 769 537 738T469 646T444 502Q444 417 469 357T539 264T646 231Q684
231 716 247T774 292T813 358T829 437L947 396Q947 339 922 268T847 130T724 21T553 -22Z" />
<glyph unicode="h" horiz-adv-x="1300" d="M175 0V1500H505V0H175ZM821 0V555Q821 631 806 678T759 746T678 768Q641 768 610 754T554 717T516 664T498 604L433 640Q433 707 455 774T522 897T636 988T798 1022Q876 1022 940 998T1052 924T1125 795T1151 606V0H821Z" />
<glyph unicode="i" horiz-adv-x="1000" d="M61 0V241H348V759H102V1000H678V241H942V0H61ZM345 1434H679V1136H345V1434Z" />
<glyph unicode="j" horiz-adv-x="1000" d="M69 -400V-147H149Q210 -147 256 -134T336 -92T386 -21T403 81V759H91V1000H733V23Q733 -85 692 -164T577 -296T400 -374T170 -400H69ZM399 1434H733V1136H399V1434Z" />
<glyph unicode="k" horiz-adv-x="1300" d="M165 0V1500H497V649H636V410H497V0H165ZM857 0L382 557L732 571L1244 0H857ZM735 501L420 560L845 1000H1231L735 501Z" />
<glyph unicode="l" horiz-adv-x="1000" d="M63 0V241H330V1259H101V1500H662V241H930V0H63Z" />
<glyph unicode="m" horiz-adv-x="1700" d="M1283 0V601Q1283 686 1255 727T1159 768Q1116 768 1083 744T1029 686T1006 621L912 652Q912 724 943 790T1027 908T1150 991T1296 1022Q1403 1022 1473 980T1578 850T1613 628V0H1283ZM74 0V1000H370L404 811V0H74ZM679
0V601Q679 686 651 727T555 768Q512 768 478 744T424 686T402 621L308 652Q308 724 339 790T423 908T546 991T692 1022Q853 1022 931 929T1009 651V0H679Z" />
<glyph unicode="n" horiz-adv-x="1300" d="M166 0V1000H455L497 787V0H166ZM811 0V555Q811 631 796 678T749 746T668 768Q631 768 600 754T544 717T506 664T488 604L423 640Q423 707 445 774T512 897T626 988T788 1022Q866 1022 930 998T1043 924T1117 795T1143
606V0H811Z" />
<glyph unicode="o" horiz-adv-x="1300" d="M654 -22Q583 -22 508 -5T364 51T239 150T152 299T119 502Q119 617 151 704T239 852T363 951T508 1006T654 1024Q726 1024 801 1007T945 951T1069 852T1157 704T1189 502Q1189 386 1157 299T1070 151T945 51T801 -4T654
-22ZM654 217Q695 217 731 233T795 284T839 372T855 502Q855 577 839 631T795 719T731 769T654 785Q614 785 578 769T514 719T470 631T453 502Q453 426 469 372T513 284T577 234T654 217Z" />
<glyph unicode="p" horiz-adv-x="1300" d="M148 -400V1000H437L478 807V-400H148ZM751 -22Q654 -22 581 21T457 130T382 267T357 396L475 437Q477 396 491 359T530 293T587 248T658 231Q719 231 764 263T835 356T860 502Q860 586 836 646T767 737T664 769Q626
769 594 754T537 713T495 654T469 587L361 629Q361 686 387 753T463 882T588 983T761 1022Q875 1022 973 967T1130 796T1190 502Q1190 368 1154 270T1056 107T915 10T751 -22Z" />
<glyph unicode="q" horiz-adv-x="1300" d="M1126 -400H796V807L837 1000H1126V-400ZM523 -22Q438 -22 360 10T219 106T120 269T84 502Q84 680 144 795T301 966T513 1022Q611 1022 686 983T811 883T887 754T913 629L805 587Q796 621 779 654T737 712T680 753T610
769Q551 769 507 738T439 646T414 502Q414 417 439 357T509 264T616 231Q654 231 686 247T744 292T783 358T799 437L917 396Q917 339 892 268T817 130T694 21T523 -22Z" />
<glyph unicode="r" horiz-adv-x="1300" d="M221 0V241H409V759H221V1000H663L739 764V241H958V0H221ZM733 577L628 633Q628 702 652 762T718 870T811 952T921 1005T1034 1024Q1112 1024 1147 1012T1190 992L1124 721Q1117 728 1085 737T997 747Q952 747 910 734T832
697T769 643T733 577Z" />
<glyph unicode="s" horiz-adv-x="1300" d="M651 -22Q531 -22 435 -2T267 59T148 160L404 325Q423 298 449 278T507 245T579 225T662 219Q699 219 733 224T793 238T834 262T849 297Q849 323 817 341T720 374T560 403Q487 414 418 435T295 492T208 583T176 717Q176
782 203 832T278 918T389 978T522 1013T663 1024Q782 1024 874 998T1029 931T1124 848L877 690Q864 711 841 728T787 759T719 779T643 787Q611 787 581 783T526 770T486 748T471 715Q471 690 500 675T581 648T706 625Q759 617 820 605T941 572T1048 518T1125 436T1155
318Q1155 247 1127 192T1051 97T938 30T800 -9T651 -22Z" />
<glyph unicode="t" horiz-adv-x="1300" d="M327 312V1317H655V321Q655 271 666 244T696 206T741 195Q767 195 789 204T824 242T838 330H1094Q1094 229 1062 161T973 54T847 -3T699 -21Q622 -21 555 -5T437 48T356 150T327 312ZM112 759V1000H1112V759H112Z" />
<glyph unicode="u" horiz-adv-x="1300" d="M493 -22Q416 -22 351 2T239 76T166 205T140 394V1000H470V445Q470 369 485 322T532 254T613 232Q650 232 681 246T737 283T775 336T793 396L858 360Q858 293 836 226T769 103T655 12T493 -22ZM863 0L790 247V1000H1120V176L1072
241H1232V0H863Z" />
<glyph unicode="v" horiz-adv-x="1300" d="M398 0L93 1000H440L637 263H651L848 1000H1195L890 0H398Z" />
<glyph unicode="w" horiz-adv-x="1700" d="M1020 0L797 1000H1024L1248 0H1020ZM255 0L65 1000H394L527 0H255ZM452 0L674 1000H902L680 0H452ZM1171 0L1305 1000H1634L1443 0H1171Z" />
<glyph unicode="x" horiz-adv-x="1300" d="M56 0L386 501L56 1000H419L655 622H644L880 1000H1243L913 501L1243 0H880L644 383H655L419 0H56Z" />
<glyph unicode="y" horiz-adv-x="1300" d="M410 -400L592 65L705 -2H445L105 1000H443L686 168H634L881 1000H1213L735 -400H410Z" />
<glyph unicode="z" horiz-adv-x="1300" d="M193 0V241L691 759H209V1000H1062V759L570 241H1071V0H193Z" />
<glyph unicode="{" horiz-adv-x="1300" d="M300 583V718H327Q372 718 399 738T439 799T452 905V1272Q452 1361 485 1428T577 1542T713 1612T877 1636H979V1394H918Q864 1394 829 1380T777 1322T760 1196V823Q760 735 732 686T656 615T554 588T446 583H300ZM877
-465Q790 -465 713 -442T578 -372T486 -257T452 -101V267Q452 331 440 372T400 433T327 453H300V589H446Q499 589 554 584T656 558T731 487T760 349V-24Q760 -108 777 -150T829 -207T918 -222H979V-465H877Z" />
<glyph unicode="|" horiz-adv-x="1300" d="M519 -360V1600H787V-360H519Z" />
<glyph unicode="}" horiz-adv-x="1300" d="M976 583H829Q776 583 721 588T620 614T544 685T515 823V1196Q515 1279 498 1322T446 1379T357 1394H297V1636H399Q486 1636 563 1613T698 1543T789 1429T823 1272V905Q823 841 835 800T876 738T948 718H976V583ZM399
-465H297V-222H357Q411 -222 446 -208T498 -151T515 -24V349Q515 438 544 487T619 557T721 584T829 589H976V453H948Q904 453 876 433T836 372T823 267V-101Q823 -189 790 -257T698 -371T563 -441T399 -465Z" />
<glyph unicode="~" horiz-adv-x="1300" d="M749 623Q680 623 638 643T565 689T506 736T439 757Q381 757 338 719T275 643L118 777Q123 790 144 820T204 882T297 937T421 960Q490 960 532 940T605 893T664 845T731 824Q789 824 831 862T891 938L1048 802Q1042 787
1020 758T961 698T872 645T749 623Z" />
<glyph unicode="&#xa0;" horiz-adv-x="1000" />
<glyph unicode="&#xa1;" horiz-adv-x="1000" d="M628 543L679 -400H311L363 543H628ZM667 702H330V1000H667V702Z" />
<glyph unicode="&#xa2;" horiz-adv-x="1300" d="M671 170Q558 170 457 198T279 289T156 451T111 694Q111 839 156 939T278 1100T457 1188T671 1216Q826 1216 944 1152T1136 950L864 811Q845 852 816 886T747 942T657 963Q614 963 574 951T503 907T453 824T434
694Q434 617 452 565T502 482T574 437T657 423Q709 423 749 444T818 497T868 563L1139 423Q1090 339 1021 283T864 199T671 170ZM517 0V242H786V0H517ZM517 1160V1400H786V1160H517Z" />
<glyph unicode="&#xa3;" horiz-adv-x="1300" d="M65 577V815H915V577H65ZM378 185L73 165Q103 189 135 224T196 302T242 396T260 499Q260 555 246 615T215 739Q195 805 180 873T165 1010Q165 1101 209 1175T327 1302T496 1383T690 1412Q813 1412 899 1379T1040
1295T1121 1194L880 1048Q864 1082 836 1104T771 1137T690 1148Q655 1148 623 1139T565 1108T524 1055T508 976Q508 929 519 876T545 768Q561 711 573 653T586 543Q586 446 562 381T490 269T378 185ZM191 -43L73 165Q75 165 107 168T188 177T292 188T391 201Q404
211 434 226T507 254T605 266Q641 266 667 261T717 248Q744 240 771 234T837 228Q897 228 941 240T1018 265L1097 11Q1066 1 994 -12T837 -26Q783 -26 734 -18T640 0Q602 10 566 15T493 21Q429 21 364 8T250 -20T191 -43Z" />
<glyph unicode="&#xa4;" horiz-adv-x="1300" d="M652 338Q559 338 474 361T323 434T218 559T180 740Q180 845 218 921T322 1045T474 1117T652 1140Q745 1140 829 1117T980 1046T1084 921T1123 740Q1123 635 1085 559T980 434T830 362T652 338ZM259 190L105 349L317
557L471 402L259 190ZM1043 195L832 407L985 560L1197 354L1043 195ZM652 585Q683 585 714 592T771 616T813 663T829 740Q829 786 813 815T772 862T715 886T652 893Q620 893 589 886T532 862T490 816T474 740Q474 694 489 664T531 616T589 592T652 585ZM317 924L105
1130L259 1289L471 1077L317 924ZM985 919L832 1073L1043 1283L1197 1127L985 919Z" />
<glyph unicode="&#xa5;" horiz-adv-x="1300" d="M205 463V669H1075V463H205ZM205 155V361H1075V155H205ZM476 0V451L63 1400H402L640 753L878 1400H1217L806 451V0H476Z" />
<glyph unicode="&#xa6;" horiz-adv-x="1300" d="M461 906V1600H729V906H461ZM461 -360V326H729V-360H461Z" />
<glyph unicode="&#xa7;" horiz-adv-x="1300" d="M582 -218Q463 -218 360 -186T182 -93T77 54L336 180Q348 147 377 110T456 46T582 19Q636 19 676 25T743 46T783 80T796 125Q796 145 786 160T757 189T712 214T654 233T585 247Q536 254 475 269T353 311T239 376T154
470T122 599Q122 672 165 729T277 828T419 896T556 931L739 785Q727 787 713 787T685 788Q654 788 620 782T551 761T490 727T447 680T430 620Q430 596 444 574T485 532T544 499T616 480Q652 474 711 460T836 420T963 353T1060 252T1098 111Q1098 33 1066 -23T981
-117T860 -177T721 -209T582 -218ZM801 263L574 365Q611 369 643 382T704 416T753 463T784 518T796 576Q796 610 786 634T758 675T713 703T653 722T582 735Q542 741 486 756T371 798T260 866T177 967T145 1108Q145 1178 177 1229T261 1316T377 1372T503 1402T618
1412Q720 1412 816 1385T984 1303T1079 1164L823 1031Q804 1076 772 1108T698 1156T610 1173Q578 1173 547 1169T492 1156T453 1132T438 1093Q438 1072 452 1055T492 1024T550 1001T620 985Q657 980 716 966T842 926T967 856T1063 749T1100 598Q1100 547 1085 501T1043
417T979 349T896 297T801 263Z" />
<glyph unicode="&#xa8;" horiz-adv-x="1300" d="M201 1422H535V1124H201V1422ZM721 1422H1056V1124H721V1422Z" />
<glyph unicode="&#xa9;" horiz-adv-x="1300" d="M651 93Q575 93 492 111T332 172T191 284T91 457T54 698Q54 837 91 938T191 1110T331 1222T492 1282T651 1301Q726 1301 808 1283T969 1222T1109 1110T1209 939T1247 698Q1247 559 1210 457T1110 285T969 172T809
112T651 93ZM660 388Q586 388 517 418T404 515T359 696Q359 810 403 877T517 974T660 1004Q731 1004 784 976T870 904T918 815L760 755Q749 783 725 809T656 835Q620 835 594 818T554 770T539 696Q539 654 553 623T594 575T656 557Q702 557 727 583T764 628L921
569Q907 529 874 487T787 417T660 388ZM651 269Q697 269 750 279T856 315T952 389T1021 513T1047 698Q1047 807 1021 882T952 1005T857 1079T751 1115T651 1125Q604 1125 550 1115T444 1079T348 1005T278 882T251 698Q251 589 277 514T347 390T443 315T550 279T651
269Z" />
<glyph unicode="&#xaa;" horiz-adv-x="1000" d="M414 1023Q329 1023 272 1071T214 1201Q214 1242 234 1273T287 1324T360 1353T440 1362Q494 1361 527 1345T570 1317V1350Q570 1377 542 1395T470 1413Q420 1413 373 1403T302 1383L245 1510Q274 1523 339 1534T480
1546Q548 1546 609 1526T708 1466T747 1369V1161H808V1035H609L586 1099Q580 1085 558 1067T500 1036T414 1023ZM476 1152Q505 1152 528 1165T559 1186V1233Q552 1239 530 1246T480 1253Q443 1253 423 1239T403 1201Q403 1178 421 1165T476 1152Z" />
<glyph unicode="&#xab;" horiz-adv-x="1300" d="M509 165L59 501L164 659L634 323L509 165ZM59 501V673H143V501H59ZM164 517L59 673L509 1009L634 851L164 517ZM1092 165L642 501L747 659L1217 323L1092 165ZM642 501V673H726V501H642ZM747 517L642 673L1092
1009L1217 851L747 517Z" />
<glyph unicode="&#xac;" horiz-adv-x="1300" d="M807 198V740H1064V198H807ZM268 477V739H913V477H268Z" />
<glyph unicode="&#xad;" horiz-adv-x="1300" d="M389 477V739H886V477H389Z" />
<glyph unicode="&#xae;" horiz-adv-x="1300" d="M636 384Q545 384 453 411T284 497T160 655T113 894Q113 1035 160 1132T284 1288T453 1374T636 1401Q725 1401 817 1375T986 1289T1109 1132T1156 894Q1156 753 1110 655T986 498T817 411T636 384ZM709 650L626
881L742 883L848 650H709ZM636 529Q686 529 746 542T863 594T954 704T990 894Q990 1011 955 1083T863 1192T747 1243T636 1256Q586 1256 525 1243T407 1193T315 1083T278 894Q278 776 313 704T405 594T522 543T636 529ZM456 650V1139H668Q712 1139 747 1125T804
1079T825 992Q825 929 802 896T742 851T668 839H588V650H456ZM588 944H648Q675 944 689 956T703 990Q703 1012 690 1024T648 1037H588V944Z" />
<glyph unicode="&#xaf;" horiz-adv-x="1300" d="M233 1254V1467H965V1254H233Z" />
<glyph unicode="&#xb0;" horiz-adv-x="1000" d="M529 1028Q458 1028 399 1063T304 1158T269 1288Q269 1358 304 1416T398 1510T529 1546Q599 1546 657 1511T751 1417T786 1288Q786 1217 751 1158T658 1064T529 1028ZM529 1209Q561 1209 583 1232T606 1288Q606
1320 584 1342T529 1365Q496 1365 473 1343T449 1288Q449 1255 472 1232T529 1209Z" />
<glyph unicode="&#xb1;" horiz-adv-x="1300" d="M198 636V856H1012V636H198ZM198 140V360H1012V140H198ZM474 438V1052H738V438H474Z" />
<glyph unicode="&#xb2;" horiz-adv-x="779" d="M48 560V737Q70 749 106 770T187 822T275 888T355 964T414 1045T437 1125Q437 1158 429 1178T406 1208T367 1218Q318 1218 291 1174T253 1084L37 1175Q53 1245 100 1297T217 1378T366 1407Q460 1407 533 1382T647
1299T688 1137Q688 1081 661 1025T593 920T507 832T427 770T375 741H681V560H48Z" />
<glyph unicode="&#xb3;" horiz-adv-x="780" d="M383 547Q295 547 227 571T114 638T49 738L261 843Q274 810 291 787T331 751T386 738Q415 738 436 751T469 789T480 844Q480 877 470 899T439 934T387 947Q371 947 353 942T321 929L188 1076L379 1218H78V1400H677V1218L468
1070Q471 1072 481 1074T503 1077T525 1079Q570 1079 615 1055T692 979T724 843Q724 770 699 715T627 623T518 566T383 547Z" />
<glyph unicode="&#xb4;" horiz-adv-x="1300" d="M546 1117H255L573 1424H907L546 1117Z" />
<glyph unicode="&#xb5;" horiz-adv-x="1300" d="M139 -400V1000H466V-400H139ZM493 -22Q416 -22 351 2T239 76T166 205T140 394V1000H470V445Q470 369 485 322T532 254T613 232Q650 232 681 246T737 283T775 336T793 396L858 360Q858 293 836 226T769 103T655
12T493 -22ZM863 0L790 247V1000H1120V176L1072 241H1232V0H863Z" />
<glyph unicode="&#xb6;" horiz-adv-x="1300" d="M507 -240V548H463Q408 548 343 570T220 642T124 775T87 981Q87 1097 125 1177T224 1306T359 1377T503 1400H1142V-240H896V1159H753V-240H507Z" />
<glyph unicode="&#xb7;" horiz-adv-x="1000" d="M337 816H674V518H337V816Z" />
<glyph unicode="&#xb8;" horiz-adv-x="1300" d="M589 -417Q557 -417 522 -415T450 -407T383 -395T328 -380L399 -234Q439 -246 474 -254T544 -266T615 -271Q656 -271 686 -264T732 -242T748 -205Q748 -183 734 -174T689 -165Q675 -165 655 -169T616 -182T584 -203L426
-163L499 0H684L611 -153L598 -129Q609 -109 633 -93T692 -68T768 -59Q813 -59 851 -72T912 -117T936 -200Q936 -272 893 -321T771 -393T589 -417Z" />
<glyph unicode="&#xb9;" horiz-adv-x="781" d="M86 560V742H248V1179L92 1124V1333L282 1400H502V742H664V560H86Z" />
<glyph unicode="&#xba;" horiz-adv-x="1000" d="M746 1028Q675 1028 616 1063T521 1158T486 1288Q486 1358 521 1416T615 1510T746 1546Q816 1546 874 1511T968 1417T1003 1288Q1003 1217 968 1158T875 1064T746 1028ZM746 1209Q778 1209 800 1232T823 1288Q823
1320 801 1342T746 1365Q713 1365 690 1343T666 1288Q666 1255 689 1232T746 1209Z" />
<glyph unicode="&#xbb;" horiz-adv-x="1300" d="M793 165L668 323L1137 659L1242 501L793 165ZM1242 501H1159V673H1242V501ZM1137 517L668 851L793 1009L1242 673L1137 517ZM210 165L85 323L554 659L659 501L210 165ZM659 501H576V673H659V501ZM554 517L85 851L210
1009L659 673L554 517Z" />
<glyph unicode="&#xbc;" horiz-adv-x="1822" d="M86 560V742H248V1179L92 1124V1333L282 1400H502V742H664V560H86ZM560 0L1087 1400H1262L738 0H560ZM1460 0V150H1090V332L1320 840H1693V332H1796V150H1693V0H1460ZM1334 332H1460V708H1484L1334 332Z" />
<glyph unicode="&#xbd;" horiz-adv-x="1820" d="M86 560V742H248V1179L92 1124V1333L282 1400H502V742H664V560H86ZM560 0L1087 1400H1262L738 0H560ZM1089 0V177Q1111 189 1147 210T1228 262T1316 328T1396 404T1455 485T1478 565Q1478 598 1470 618T1447 648T1408
658Q1359 658 1332 614T1294 524L1078 615Q1094 685 1141 737T1258 818T1407 847Q1501 847 1574 822T1688 739T1729 577Q1729 521 1702 465T1634 360T1548 272T1468 210T1416 181H1722V0H1089Z" />
<glyph unicode="&#xbe;" horiz-adv-x="1821" d="M383 547Q295 547 227 571T114 638T49 738L261 843Q274 810 291 787T331 751T386 738Q415 738 436 751T469 789T480 844Q480 877 470 899T439 934T387 947Q371 947 353 942T321 929L188 1076L379 1218H78V1400H677V1218L468
1070Q471 1072 481 1074T503 1077T525 1079Q570 1079 615 1055T692 979T724 843Q724 770 699 715T627 623T518 566T383 547ZM559 0L1086 1400H1261L737 0H559ZM1459 0V150H1089V332L1319 840H1692V332H1795V150H1692V0H1459ZM1333 332H1459V708H1483L1333 332Z"
/>
<glyph unicode="&#xbf;" horiz-adv-x="1300" d="M819 555V518Q819 452 799 398T745 300T671 218T591 148Q554 117 524 88T474 30T455 -33Q455 -65 466 -87T499 -123T551 -143T617 -150Q660 -150 702 -136T783 -96T850 -34T895 44L1146 -100Q1120 -178 1048 -249T867
-366T626 -412Q523 -412 434 -392T277 -328T172 -215T134 -47Q134 27 166 85T249 191T353 281Q399 319 439 356T504 436T529 527V555H819ZM842 702H504V1000H842V702Z" />
<glyph unicode="&#xc0;" horiz-adv-x="1300" d="M1231 0H897L837 300H467L407 0H73L393 1400H911L1231 0ZM641 1159L514 541H790L663 1159H641ZM505 1517L145 1824H479L797 1517H505Z" />
<glyph unicode="&#xc1;" horiz-adv-x="1300" d="M1231 0H897L837 300H467L407 0H73L393 1400H911L1231 0ZM641 1159L514 541H790L663 1159H641ZM767 1517H476L794 1824H1128L767 1517Z" />
<glyph unicode="&#xc2;" horiz-adv-x="1300" d="M1231 0H897L837 300H467L407 0H73L393 1400H911L1231 0ZM641 1159L514 541H790L663 1159H641ZM247 1525L550 1811H755L1058 1525H800L653 1679L505 1525H247Z" />
<glyph unicode="&#xc3;" horiz-adv-x="1300" d="M1231 0H897L837 300H467L407 0H73L393 1400H911L1231 0ZM641 1159L514 541H790L663 1159H641ZM760 1490Q712 1490 681 1509T624 1551Q604 1569 584 1582T539 1595Q493 1595 467 1558T433 1490L315 1590Q321 1619
347 1662T417 1739T522 1773Q569 1773 601 1754T660 1712Q683 1693 703 1680T750 1666Q792 1666 818 1703T854 1770L970 1669Q963 1638 938 1596T868 1522T760 1490Z" />
<glyph unicode="&#xc4;" horiz-adv-x="1300" d="M1231 0H897L837 300H467L407 0H73L393 1400H911L1231 0ZM641 1159L514 541H790L663 1159H641ZM226 1822H560V1524H226V1822ZM746 1822H1081V1524H746V1822Z" />
<glyph unicode="&#xc5;" horiz-adv-x="1300" d="M1231 0H897L837 300H467L407 0H73L393 1400H911L1231 0ZM641 1159L514 541H790L663 1159H641ZM655 1462Q589 1462 535 1493T449 1577T416 1698Q416 1762 448 1815T535 1899T655 1931Q718 1931 771 1900T856 1815T888
1698Q888 1630 856 1577T771 1493T655 1462ZM655 1619Q685 1619 706 1641T728 1699Q728 1729 707 1749T655 1770Q620 1770 599 1750T578 1699Q578 1664 599 1642T655 1619Z" />
<glyph unicode="&#xc6;" horiz-adv-x="1700" d="M842 0V1159H634L668 1400H1593V1159H1172V807H1539V569H1172V241H1593V0H842ZM463 194L497 418H959L923 194H463ZM77 0L588 1400H900L433 0H77Z" />
<glyph unicode="&#xc7;" horiz-adv-x="1300" d="M691 -417Q660 -417 624 -415T553 -407T486 -395T430 -380L501 -234Q542 -246 577 -254T647 -266T717 -271Q759 -271 788 -264T834 -242T851 -205Q851 -183 836 -174T791 -165Q777 -165 758 -169T719 -182T686 -203L528
-163L601 0H787L713 -153L701 -129Q712 -109 736 -93T795 -68T871 -59Q916 -59 954 -72T1015 -117T1039 -200Q1039 -272 995 -321T873 -393T691 -417ZM692 -22Q607 -22 520 -1T355 70T215 203T118 407T82 696Q82 863 117 984T214 1188T355 1320T521 1390T693 1412Q784
1412 863 1388T1009 1318T1125 1206T1207 1053L920 909Q908 949 890 993T846 1078T782 1143T693 1168Q640 1168 591 1142T502 1060T441 914T418 696Q418 568 440 478T502 331T590 248T692 222Q743 222 780 247T845 312T890 396T920 479L1207 336Q1175 251 1125
185T1009 72T864 2T692 -22Z" />
<glyph unicode="&#xc8;" horiz-adv-x="1300" d="M187 0V1400H1139V1159H517V807H1069V569H517V241H1139V0H187ZM536 1517L176 1824H510L828 1517H536Z" />
<glyph unicode="&#xc9;" horiz-adv-x="1300" d="M187 0V1400H1139V1159H517V807H1069V569H517V241H1139V0H187ZM798 1517H507L825 1824H1159L798 1517Z" />
<glyph unicode="&#xca;" horiz-adv-x="1300" d="M187 0V1400H1139V1159H517V807H1069V569H517V241H1139V0H187ZM277 1525L580 1811H785L1088 1525H830L683 1679L535 1525H277Z" />
<glyph unicode="&#xcb;" horiz-adv-x="1300" d="M187 0V1400H1139V1159H517V807H1069V569H517V241H1139V0H187ZM257 1822H591V1524H257V1822ZM777 1822H1112V1524H777V1822Z" />
<glyph unicode="&#xcc;" horiz-adv-x="1300" d="M205 0V241H484V1159H205V1400H1095V1159H814V241H1095V0H205ZM505 1517L145 1824H479L797 1517H505Z" />
<glyph unicode="&#xcd;" horiz-adv-x="1300" d="M205 0V241H484V1159H205V1400H1095V1159H814V241H1095V0H205ZM767 1517H476L794 1824H1128L767 1517Z" />
<glyph unicode="&#xce;" horiz-adv-x="1300" d="M205 0V241H484V1159H205V1400H1095V1159H814V241H1095V0H205ZM247 1525L550 1811H755L1058 1525H800L653 1679L505 1525H247Z" />
<glyph unicode="&#xcf;" horiz-adv-x="1300" d="M205 0V241H484V1159H205V1400H1095V1159H814V241H1095V0H205ZM226 1822H560V1524H226V1822ZM746 1822H1081V1524H746V1822Z" />
<glyph unicode="&#xd0;" horiz-adv-x="1300" d="M128 0V593H13V807H128V1400H575Q648 1400 723 1390T868 1353T1000 1277T1107 1150T1180 962T1206 700Q1206 550 1180 439T1108 250T1000 124T869 48T723 11T575 0H128ZM458 241H549Q625 241 684 265T784 342T846
484T867 700Q867 828 846 916T785 1057T685 1135T549 1159H458V807H665V593H458V241Z" />
<glyph unicode="&#xd1;" horiz-adv-x="1300" d="M97 0V1400H586L935 272H872V1400H1202V0H786L414 1124H427V0H97ZM757 1490Q709 1490 678 1509T621 1551Q601 1569 581 1582T536 1595Q490 1595 464 1558T430 1490L312 1590Q318 1619 344 1662T414 1739T519 1773Q566
1773 598 1754T657 1712Q680 1693 700 1680T747 1666Q789 1666 815 1703T851 1770L967 1669Q960 1638 935 1596T865 1522T757 1490Z" />
<glyph unicode="&#xd2;" horiz-adv-x="1300" d="M647 -22Q556 -22 469 3T307 81T173 219T83 422T50 696Q50 850 82 968T173 1171T306 1308T469 1387T647 1412Q736 1412 822 1387T985 1309T1118 1171T1208 969T1241 696Q1241 541 1209 423T1119 220T985 82T823
3T647 -22ZM647 222Q698 222 745 248T828 331T886 478T907 696Q907 822 886 912T829 1058T745 1141T647 1168Q595 1168 548 1142T464 1059T406 912T384 696Q384 569 405 479T463 332T547 249T647 222ZM495 1517L135 1824H469L787 1517H495Z" />
<glyph unicode="&#xd3;" horiz-adv-x="1300" d="M647 -22Q556 -22 469 3T307 81T173 219T83 422T50 696Q50 850 82 968T173 1171T306 1308T469 1387T647 1412Q736 1412 822 1387T985 1309T1118 1171T1208 969T1241 696Q1241 541 1209 423T1119 220T985 82T823
3T647 -22ZM647 222Q698 222 745 248T828 331T886 478T907 696Q907 822 886 912T829 1058T745 1141T647 1168Q595 1168 548 1142T464 1059T406 912T384 696Q384 569 405 479T463 332T547 249T647 222ZM757 1517H466L784 1824H1118L757 1517Z" />
<glyph unicode="&#xd4;" horiz-adv-x="1300" d="M647 -22Q556 -22 469 3T307 81T173 219T83 422T50 696Q50 850 82 968T173 1171T306 1308T469 1387T647 1412Q736 1412 822 1387T985 1309T1118 1171T1208 969T1241 696Q1241 541 1209 423T1119 220T985 82T823
3T647 -22ZM647 222Q698 222 745 248T828 331T886 478T907 696Q907 822 886 912T829 1058T745 1141T647 1168Q595 1168 548 1142T464 1059T406 912T384 696Q384 569 405 479T463 332T547 249T647 222ZM236 1525L539 1811H744L1047 1525H789L642 1679L494 1525H236Z"
/>
<glyph unicode="&#xd5;" horiz-adv-x="1300" d="M647 -22Q556 -22 469 3T307 81T173 219T83 422T50 696Q50 850 82 968T173 1171T306 1308T469 1387T647 1412Q736 1412 822 1387T985 1309T1118 1171T1208 969T1241 696Q1241 541 1209 423T1119 220T985 82T823
3T647 -22ZM647 222Q698 222 745 248T828 331T886 478T907 696Q907 822 886 912T829 1058T745 1141T647 1168Q595 1168 548 1142T464 1059T406 912T384 696Q384 569 405 479T463 332T547 249T647 222ZM750 1490Q702 1490 671 1509T614 1551Q594 1569 574 1582T529
1595Q483 1595 457 1558T423 1490L305 1590Q311 1619 337 1662T407 1739T512 1773Q559 1773 591 1754T650 1712Q673 1693 693 1680T740 1666Q782 1666 808 1703T844 1770L960 1669Q953 1638 928 1596T858 1522T750 1490Z" />
<glyph unicode="&#xd6;" horiz-adv-x="1300" d="M647 -22Q556 -22 469 3T307 81T173 219T83 422T50 696Q50 850 82 968T173 1171T306 1308T469 1387T647 1412Q736 1412 822 1387T985 1309T1118 1171T1208 969T1241 696Q1241 541 1209 423T1119 220T985 82T823
3T647 -22ZM647 222Q698 222 745 248T828 331T886 478T907 696Q907 822 886 912T829 1058T745 1141T647 1168Q595 1168 548 1142T464 1059T406 912T384 696Q384 569 405 479T463 332T547 249T647 222ZM215 1822H549V1524H215V1822ZM735 1822H1070V1524H735V1822Z"
/>
<glyph unicode="&#xd7;" horiz-adv-x="1300" d="M803 225L221 806L407 991L989 409L803 225ZM406 225L221 409L802 991L987 806L406 225Z" />
<glyph unicode="&#xd8;" horiz-adv-x="1300" d="M59 88L1038 1439L1241 1299L262 -52L59 88ZM647 -22Q556 -22 469 3T307 81T173 219T83 422T50 696Q50 850 82 968T173 1171T306 1308T469 1387T647 1412Q736 1412 822 1387T985 1309T1118 1171T1208 969T1241 696Q1241
541 1209 423T1119 220T985 82T823 3T647 -22ZM647 222Q698 222 745 248T828 331T886 478T907 696Q907 822 886 912T829 1058T745 1141T647 1168Q595 1168 548 1142T464 1059T406 912T384 696Q384 569 405 479T463 332T547 249T647 222Z" />
<glyph unicode="&#xd9;" horiz-adv-x="1300" d="M652 -22Q545 -22 450 6T280 97T163 264T120 520V1400H450V534Q450 423 473 357T542 261T652 231Q717 231 761 260T829 356T852 534V1400H1182V520Q1182 368 1140 264T1025 97T856 6T652 -22ZM503 1517L143 1824H477L795
1517H503Z" />
<glyph unicode="&#xda;" horiz-adv-x="1300" d="M652 -22Q545 -22 450 6T280 97T163 264T120 520V1400H450V534Q450 423 473 357T542 261T652 231Q717 231 761 260T829 356T852 534V1400H1182V520Q1182 368 1140 264T1025 97T856 6T652 -22ZM765 1517H474L792
1824H1126L765 1517Z" />
<glyph unicode="&#xdb;" horiz-adv-x="1300" d="M652 -22Q545 -22 450 6T280 97T163 264T120 520V1400H450V534Q450 423 473 357T542 261T652 231Q717 231 761 260T829 356T852 534V1400H1182V520Q1182 368 1140 264T1025 97T856 6T652 -22ZM245 1525L548 1811H753L1056
1525H798L651 1679L503 1525H245Z" />
<glyph unicode="&#xdc;" horiz-adv-x="1300" d="M652 -22Q545 -22 450 6T280 97T163 264T120 520V1400H450V534Q450 423 473 357T542 261T652 231Q717 231 761 260T829 356T852 534V1400H1182V520Q1182 368 1140 264T1025 97T856 6T652 -22ZM224 1822H558V1524H224V1822ZM744
1822H1079V1524H744V1822Z" />
<glyph unicode="&#xdd;" horiz-adv-x="1300" d="M476 0V451L63 1400H402L640 753L878 1400H1217L806 451V0H476ZM753 1517H462L780 1824H1114L753 1517Z" />
<glyph unicode="&#xde;" horiz-adv-x="1300" d="M158 0V1400H488V1176H643Q692 1176 756 1168T887 1135T1008 1059T1098 925T1133 714Q1133 587 1099 504T1009 371T887 296T757 264T643 256H488V0H158ZM488 497H620Q646 497 672 501T721 518T762 555T790 617T801
714Q801 772 791 811T762 874T721 912T672 930T620 935H488V497Z" />
<glyph unicode="&#xdf;" horiz-adv-x="1300" d="M740 -22Q693 -22 647 -17T563 -3T501 12L561 267Q591 258 623 251T700 243Q747 243 786 253T855 285T900 337T916 407Q916 450 895 483T842 543T773 595Q738 621 705 647T652 706T631 782Q631 825 645 855T680
909T724 952Q745 970 762 988T790 1030T801 1083Q801 1111 790 1136T758 1181T706 1213T637 1224Q596 1224 557 1212T485 1172T433 1101T413 995V0H83V1008Q83 1138 130 1228T258 1373T436 1455T634 1481Q759 1481 867 1439T1041 1312T1108 1103Q1108 1036 1091
989T1048 912T998 859Q977 840 964 824T950 789Q950 776 967 763T1011 733Q1042 715 1078 688T1148 623T1203 529T1225 398Q1225 285 1182 205T1068 74T912 1T740 -22Z" />
<glyph unicode="&#xe0;" horiz-adv-x="1300" d="M505 -22Q423 -22 353 -1T229 63T146 168T116 313Q116 382 141 435T209 525T308 587T423 621T543 632Q606 632 656 621T741 593T790 560V641Q790 674 776 698T735 739T672 764T594 773Q545 773 500 766T417 747T347
723T293 697L156 936Q194 958 265 977T425 1010T611 1024Q681 1024 753 1015T890 982T1007 920T1089 821T1119 679V241H1247V0H864L825 123Q810 91 769 58T662 1T505 -22ZM603 217Q649 217 688 231T753 265T790 303V365Q780 383 752 399T686 427T608 439Q566 439
527 430T462 397T437 330Q437 287 459 263T519 228T603 217ZM732 1117L372 1424H706L1024 1117H732Z" />
<glyph unicode="&#xe1;" horiz-adv-x="1300" d="M505 -22Q423 -22 353 -1T229 63T146 168T116 313Q116 382 141 435T209 525T308 587T423 621T543 632Q606 632 656 621T741 593T790 560V641Q790 674 776 698T735 739T672 764T594 773Q545 773 500 766T417 747T347
723T293 697L156 936Q194 958 265 977T425 1010T611 1024Q681 1024 753 1015T890 982T1007 920T1089 821T1119 679V241H1247V0H864L825 123Q810 91 769 58T662 1T505 -22ZM603 217Q649 217 688 231T753 265T790 303V365Q780 383 752 399T686 427T608 439Q566 439
527 430T462 397T437 330Q437 287 459 263T519 228T603 217ZM738 1117H447L765 1424H1099L738 1117Z" />
<glyph unicode="&#xe2;" horiz-adv-x="1300" d="M505 -22Q423 -22 353 -1T229 63T146 168T116 313Q116 382 141 435T209 525T308 587T423 621T543 632Q606 632 656 621T741 593T790 560V641Q790 674 776 698T735 739T672 764T594 773Q545 773 500 766T417 747T347
723T293 697L156 936Q194 958 265 977T425 1010T611 1024Q681 1024 753 1015T890 982T1007 920T1089 821T1119 679V241H1247V0H864L825 123Q810 91 769 58T662 1T505 -22ZM603 217Q649 217 688 231T753 265T790 303V365Q780 383 752 399T686 427T608 439Q566 439
527 430T462 397T437 330Q437 287 459 263T519 228T603 217ZM474 1125L777 1411H982L1285 1125H1027L880 1279L732 1125H474Z" />
<glyph unicode="&#xe3;" horiz-adv-x="1300" d="M505 -22Q423 -22 353 -1T229 63T146 168T116 313Q116 382 141 435T209 525T308 587T423 621T543 632Q606 632 656 621T741 593T790 560V641Q790 674 776 698T735 739T672 764T594 773Q545 773 500 766T417 747T347
723T293 697L156 936Q194 958 265 977T425 1010T611 1024Q681 1024 753 1015T890 982T1007 920T1089 821T1119 679V241H1247V0H864L825 123Q810 91 769 58T662 1T505 -22ZM603 217Q649 217 688 231T753 265T790 303V365Q780 383 752 399T686 427T608 439Q566 439
527 430T462 397T437 330Q437 287 459 263T519 228T603 217ZM987 1090Q939 1090 908 1109T851 1151Q831 1169 811 1182T766 1195Q720 1195 694 1158T660 1090L542 1190Q548 1219 574 1262T644 1339T749 1373Q796 1373 828 1354T887 1312Q910 1293 930 1280T977
1266Q1019 1266 1045 1303T1081 1370L1197 1269Q1190 1238 1165 1196T1095 1122T987 1090Z" />
<glyph unicode="&#xe4;" horiz-adv-x="1300" d="M505 -22Q423 -22 353 -1T229 63T146 168T116 313Q116 382 141 435T209 525T308 587T423 621T543 632Q606 632 656 621T741 593T790 560V641Q790 674 776 698T735 739T672 764T594 773Q545 773 500 766T417 747T347
723T293 697L156 936Q194 958 265 977T425 1010T611 1024Q681 1024 753 1015T890 982T1007 920T1089 821T1119 679V241H1247V0H864L825 123Q810 91 769 58T662 1T505 -22ZM603 217Q649 217 688 231T753 265T790 303V365Q780 383 752 399T686 427T608 439Q566 439
527 430T462 397T437 330Q437 287 459 263T519 228T603 217ZM453 1422H787V1124H453V1422ZM973 1422H1308V1124H973V1422Z" />
<glyph unicode="&#xe5;" horiz-adv-x="1300" d="M505 -22Q423 -22 353 -1T229 63T146 168T116 313Q116 382 141 435T209 525T308 587T423 621T543 632Q606 632 656 621T741 593T790 560V641Q790 674 776 698T735 739T672 764T594 773Q545 773 500 766T417 747T347
723T293 697L156 936Q194 958 265 977T425 1010T611 1024Q681 1024 753 1015T890 982T1007 920T1089 821T1119 679V241H1247V0H864L825 123Q810 91 769 58T662 1T505 -22ZM603 217Q649 217 688 231T753 265T790 303V365Q780 383 752 399T686 427T608 439Q566 439
527 430T462 397T437 330Q437 287 459 263T519 228T603 217ZM882 1062Q816 1062 762 1093T676 1177T643 1298Q643 1362 675 1415T762 1499T882 1531Q945 1531 998 1500T1083 1415T1115 1298Q1115 1230 1083 1177T998 1093T882 1062ZM882 1219Q912 1219 933 1241T955
1299Q955 1329 934 1349T882 1370Q847 1370 826 1350T805 1299Q805 1264 826 1242T882 1219Z" />
<glyph unicode="&#xe6;" horiz-adv-x="1700" d="M440 -22Q336 -22 259 0T130 67T54 175T28 321Q28 387 47 440T103 533T189 600T300 640T432 653Q489 653 531 643T600 618T638 592V648Q638 675 630 697T605 737T558 763T487 773Q422 773 365 763T259 737T177 709L67
949Q105 966 175 983T336 1012T522 1024Q590 1024 648 1013T752 978T830 919Q873 955 923 978T1031 1012T1149 1024Q1252 1024 1344 993T1506 900T1616 744T1656 525Q1656 501 1654 474T1647 426H973Q980 361 1003 315T1065 243T1158 217Q1206 217 1238 237T1291
285T1320 333L1605 191Q1575 142 1534 104T1436 37T1309 -7T1146 -22Q1080 -22 1018 -8T901 36T802 107Q764 71 711 42T591 -5T440 -22ZM499 208Q545 208 575 227T622 276T638 340V392Q630 404 618 416T589 438T552 454T506 461Q452 461 418 445T367 399T350 332Q350
295 366 268T415 224T499 208ZM977 617H1316V624Q1316 654 1306 683T1274 735T1224 773T1157 787Q1108 787 1071 769T1011 713T977 617Z" />
<glyph unicode="&#xe7;" horiz-adv-x="1300" d="M701 -22Q621 -22 544 -3T399 55T279 157T198 304T168 502Q168 615 197 701T279 848T399 948T544 1005T701 1024Q785 1024 859 1006T994 953T1101 868T1174 755L887 623Q878 659 857 696T800 759T710 785Q670 785
634 770T570 722T526 635T509 502Q509 425 525 371T570 283T634 233T710 217Q764 217 800 239T857 296T887 365L1173 233Q1145 175 1100 128T994 47T860 -4T701 -22ZM696 -417Q664 -417 629 -415T557 -407T490 -395T435 -380L506 -234Q546 -246 581 -254T651 -266T722
-271Q763 -271 793 -264T839 -242T855 -205Q855 -183 841 -174T796 -165Q782 -165 762 -169T723 -182T691 -203L533 -163L606 0H791L718 -153L705 -129Q716 -109 740 -93T799 -68T875 -59Q920 -59 958 -72T1019 -117T1043 -200Q1043 -272 1000 -321T878 -393T696
-417Z" />
<glyph unicode="&#xe8;" horiz-adv-x="1300" d="M654 -22Q549 -22 453 12T283 112T165 276T121 502Q121 630 163 727T280 890T451 990T657 1024Q765 1024 862 994T1034 901T1151 745T1194 525Q1194 501 1191 474T1184 426H387V617H854Q854 619 854 620T854 624Q854
666 831 703T765 763T664 787Q622 787 584 771T517 720T472 633T456 505Q456 414 482 350T558 251T674 217Q730 217 767 237T826 284T857 333L1151 191Q1121 142 1075 103T968 36T828 -7T654 -22ZM772 1117L412 1424H746L1064 1117H772Z" />
<glyph unicode="&#xe9;" horiz-adv-x="1300" d="M654 -22Q549 -22 453 12T283 112T165 276T121 502Q121 630 163 727T280 890T451 990T657 1024Q765 1024 862 994T1034 901T1151 745T1194 525Q1194 501 1191 474T1184 426H387V617H854Q854 619 854 620T854 624Q854
666 831 703T765 763T664 787Q622 787 584 771T517 720T472 633T456 505Q456 414 482 350T558 251T674 217Q730 217 767 237T826 284T857 333L1151 191Q1121 142 1075 103T968 36T828 -7T654 -22ZM778 1117H487L805 1424H1139L778 1117Z" />
<glyph unicode="&#xea;" horiz-adv-x="1300" d="M654 -22Q549 -22 453 12T283 112T165 276T121 502Q121 630 163 727T280 890T451 990T657 1024Q765 1024 862 994T1034 901T1151 745T1194 525Q1194 501 1191 474T1184 426H387V617H854Q854 619 854 620T854 624Q854
666 831 703T765 763T664 787Q622 787 584 771T517 720T472 633T456 505Q456 414 482 350T558 251T674 217Q730 217 767 237T826 284T857 333L1151 191Q1121 142 1075 103T968 36T828 -7T654 -22ZM513 1125L816 1411H1021L1324 1125H1066L919 1279L771 1125H513Z"
/>
<glyph unicode="&#xeb;" horiz-adv-x="1300" d="M654 -22Q549 -22 453 12T283 112T165 276T121 502Q121 630 163 727T280 890T451 990T657 1024Q765 1024 862 994T1034 901T1151 745T1194 525Q1194 501 1191 474T1184 426H387V617H854Q854 619 854 620T854 624Q854
666 831 703T765 763T664 787Q622 787 584 771T517 720T472 633T456 505Q456 414 482 350T558 251T674 217Q730 217 767 237T826 284T857 333L1151 191Q1121 142 1075 103T968 36T828 -7T654 -22ZM236 1422H570V1124H236V1422ZM756 1422H1091V1124H756V1422Z" />
<glyph unicode="&#xec;" horiz-adv-x="1000" d="M103 0V241H382V759H103V1000H712V241H956V0H103ZM370 1117L10 1424H344L662 1117H370Z" />
<glyph unicode="&#xed;" horiz-adv-x="1000" d="M103 0V241H382V759H103V1000H712V241H956V0H103ZM632 1117H341L659 1424H993L632 1117Z" />
<glyph unicode="&#xee;" horiz-adv-x="1000" d="M103 0V241H382V759H103V1000H712V241H956V0H103ZM112 1125L415 1411H620L923 1125H665L518 1279L370 1125H112Z" />
<glyph unicode="&#xef;" horiz-adv-x="1000" d="M103 0V241H382V759H103V1000H712V241H956V0H103ZM347 1422H681V1124H347V1422ZM867 1422H1202V1124H867V1422Z" />
<glyph unicode="&#xf0;" horiz-adv-x="1300" d="M634 -20Q531 -20 434 10T260 103T138 266T93 504Q93 640 133 739T243 901T404 995T597 1026Q668 1026 740 1001T876 932T984 826T1042 691L857 559Q853 613 839 652T799 719T736 759T651 773Q603 773 563 754T495
700T451 615T435 504Q435 444 451 395T495 309T561 253T646 233Q698 233 737 255T801 323T839 437T852 598Q852 706 829 814T759 1022T645 1205T487 1344T287 1425L397 1617Q498 1595 610 1543T828 1409T1019 1217T1156 966T1207 658Q1207 463 1159 333T1030 125T846
14T634 -20ZM490 1131L343 1271L796 1619L917 1478L490 1131Z" />
<glyph unicode="&#xf1;" horiz-adv-x="1300" d="M166 0V1000H455L497 787V0H166ZM811 0V555Q811 631 796 678T749 746T668 768Q631 768 600 754T544 717T506 664T488 604L423 640Q423 707 445 774T512 897T626 988T788 1022Q866 1022 930 998T1043 924T1117 795T1143
606V0H811ZM1014 1090Q966 1090 935 1109T878 1151Q858 1169 838 1182T793 1195Q747 1195 721 1158T687 1090L569 1190Q575 1219 601 1262T671 1339T776 1373Q823 1373 855 1354T914 1312Q937 1293 957 1280T1004 1266Q1046 1266 1072 1303T1108 1370L1224 1269Q1217
1238 1192 1196T1122 1122T1014 1090Z" />
<glyph unicode="&#xf2;" horiz-adv-x="1300" d="M654 -22Q583 -22 508 -5T364 51T239 150T152 299T119 502Q119 617 151 704T239 852T363 951T508 1006T654 1024Q726 1024 801 1007T945 951T1069 852T1157 704T1189 502Q1189 386 1157 299T1070 151T945 51T801
-4T654 -22ZM654 217Q695 217 731 233T795 284T839 372T855 502Q855 577 839 631T795 719T731 769T654 785Q614 785 578 769T514 719T470 631T453 502Q453 426 469 372T513 284T577 234T654 217ZM763 1117L403 1424H737L1055 1117H763Z" />
<glyph unicode="&#xf3;" horiz-adv-x="1300" d="M654 -22Q583 -22 508 -5T364 51T239 150T152 299T119 502Q119 617 151 704T239 852T363 951T508 1006T654 1024Q726 1024 801 1007T945 951T1069 852T1157 704T1189 502Q1189 386 1157 299T1070 151T945 51T801
-4T654 -22ZM654 217Q695 217 731 233T795 284T839 372T855 502Q855 577 839 631T795 719T731 769T654 785Q614 785 578 769T514 719T470 631T453 502Q453 426 469 372T513 284T577 234T654 217ZM769 1117H478L796 1424H1130L769 1117Z" />
<glyph unicode="&#xf4;" horiz-adv-x="1300" d="M654 -22Q583 -22 508 -5T364 51T239 150T152 299T119 502Q119 617 151 704T239 852T363 951T508 1006T654 1024Q726 1024 801 1007T945 951T1069 852T1157 704T1189 502Q1189 386 1157 299T1070 151T945 51T801
-4T654 -22ZM654 217Q695 217 731 233T795 284T839 372T855 502Q855 577 839 631T795 719T731 769T654 785Q614 785 578 769T514 719T470 631T453 502Q453 426 469 372T513 284T577 234T654 217ZM505 1125L808 1411H1013L1316 1125H1058L911 1279L763 1125H505Z"
/>
<glyph unicode="&#xf5;" horiz-adv-x="1300" d="M654 -22Q583 -22 508 -5T364 51T239 150T152 299T119 502Q119 617 151 704T239 852T363 951T508 1006T654 1024Q726 1024 801 1007T945 951T1069 852T1157 704T1189 502Q1189 386 1157 299T1070 151T945 51T801
-4T654 -22ZM654 217Q695 217 731 233T795 284T839 372T855 502Q855 577 839 631T795 719T731 769T654 785Q614 785 578 769T514 719T470 631T453 502Q453 426 469 372T513 284T577 234T654 217ZM1019 1090Q971 1090 940 1109T883 1151Q863 1169 843 1182T798 1195Q752
1195 726 1158T692 1090L574 1190Q580 1219 606 1262T676 1339T781 1373Q828 1373 860 1354T919 1312Q942 1293 962 1280T1009 1266Q1051 1266 1077 1303T1113 1370L1229 1269Q1222 1238 1197 1196T1127 1122T1019 1090Z" />
<glyph unicode="&#xf6;" horiz-adv-x="1300" d="M654 -22Q583 -22 508 -5T364 51T239 150T152 299T119 502Q119 617 151 704T239 852T363 951T508 1006T654 1024Q726 1024 801 1007T945 951T1069 852T1157 704T1189 502Q1189 386 1157 299T1070 151T945 51T801
-4T654 -22ZM654 217Q695 217 731 233T795 284T839 372T855 502Q855 577 839 631T795 719T731 769T654 785Q614 785 578 769T514 719T470 631T453 502Q453 426 469 372T513 284T577 234T654 217ZM228 1422H562V1124H228V1422ZM748 1422H1083V1124H748V1422Z" />
<glyph unicode="&#xf7;" horiz-adv-x="1300" d="M193 477V739H1017V477H193ZM596 83Q529 83 482 131T435 249Q435 315 482 362T596 410Q664 410 710 363T757 249Q757 180 711 132T596 83ZM596 812Q529 812 482 860T435 975Q435 1043 482 1091T596 1139Q664 1139
710 1091T757 975Q757 908 711 860T596 812Z" />
<glyph unicode="&#xf8;" horiz-adv-x="1300" d="M191 44L1001 1046L1119 960L308 -42L191 44ZM654 -22Q583 -22 508 -5T364 51T239 150T152 299T119 502Q119 617 151 704T239 852T363 951T508 1006T654 1024Q726 1024 801 1007T945 951T1069 852T1157 704T1189
502Q1189 386 1157 299T1070 151T945 51T801 -4T654 -22ZM654 217Q695 217 731 233T795 284T839 372T855 502Q855 577 839 631T795 719T731 769T654 785Q614 785 578 769T514 719T470 631T453 502Q453 426 469 372T513 284T577 234T654 217Z" />
<glyph unicode="&#xf9;" horiz-adv-x="1300" d="M493 -22Q416 -22 351 2T239 76T166 205T140 394V1000H470V445Q470 369 485 322T532 254T613 232Q650 232 681 246T737 283T775 336T793 396L858 360Q858 293 836 226T769 103T655 12T493 -22ZM863 0L790 247V1000H1120V176L1072
241H1232V0H863ZM748 1117L388 1424H722L1040 1117H748Z" />
<glyph unicode="&#xfa;" horiz-adv-x="1300" d="M493 -22Q416 -22 351 2T239 76T166 205T140 394V1000H470V445Q470 369 485 322T532 254T613 232Q650 232 681 246T737 283T775 336T793 396L858 360Q858 293 836 226T769 103T655 12T493 -22ZM863 0L790 247V1000H1120V176L1072
241H1232V0H863ZM754 1117H463L781 1424H1115L754 1117Z" />
<glyph unicode="&#xfb;" horiz-adv-x="1300" d="M493 -22Q416 -22 351 2T239 76T166 205T140 394V1000H470V445Q470 369 485 322T532 254T613 232Q650 232 681 246T737 283T775 336T793 396L858 360Q858 293 836 226T769 103T655 12T493 -22ZM863 0L790 247V1000H1120V176L1072
241H1232V0H863ZM489 1125L792 1411H997L1300 1125H1042L895 1279L747 1125H489Z" />
<glyph unicode="&#xfc;" horiz-adv-x="1300" d="M493 -22Q416 -22 351 2T239 76T166 205T140 394V1000H470V445Q470 369 485 322T532 254T613 232Q650 232 681 246T737 283T775 336T793 396L858 360Q858 293 836 226T769 103T655 12T493 -22ZM863 0L790 247V1000H1120V176L1072
241H1232V0H863ZM212 1422H546V1124H212V1422ZM732 1422H1067V1124H732V1422Z" />
<glyph unicode="&#xfd;" horiz-adv-x="1300" d="M410 -400L592 65L705 -2H445L105 1000H443L686 168H634L881 1000H1213L735 -400H410ZM767 1117H476L794 1424H1128L767 1117Z" />
<glyph unicode="&#xfe;" horiz-adv-x="1300" d="M148 -400V1500H478V-400H148ZM751 -22Q654 -22 581 21T457 130T382 267T357 396L475 437Q477 396 491 359T530 293T587 248T658 231Q719 231 764 263T835 356T860 502Q860 586 836 646T767 737T664 769Q626 769
594 754T537 713T495 654T469 587L361 629Q361 686 387 753T463 882T588 983T761 1022Q875 1022 973 967T1130 796T1190 502Q1190 368 1154 270T1056 107T915 10T751 -22Z" />
<glyph unicode="&#xff;" horiz-adv-x="1300" d="M410 -400L592 65L705 -2H445L105 1000H443L686 168H634L881 1000H1213L735 -400H410ZM225 1422H559V1124H225V1422ZM745 1422H1080V1124H745V1422Z" />
<glyph unicode="&#x2013;" horiz-adv-x="1300" d="M185 477V739H995V477H185Z" />
<glyph unicode="&#x2014;" horiz-adv-x="1300" d="M27 477V739H1169V477H27Z" />
<glyph unicode="&#x2018;" horiz-adv-x="1000" d="M534 1519L665 1358Q627 1341 598 1319T552 1264T535 1177L316 1182Q316 1280 352 1347T438 1457T534 1519ZM657 1182V883H316V1182H657Z" />
<glyph unicode="&#x2019;" horiz-adv-x="1000" d="M453 764L322 925Q360 944 389 965T435 1019T451 1107L670 1102Q670 1003 635 936T549 827T453 764ZM330 1102V1400H670V1102H330Z" />
<glyph unicode="&#x201a;" horiz-adv-x="1000" d="M423 -337L292 -177Q331 -158 360 -137T405 -82T422 5L641 0Q641 -99 605 -166T519 -275T423 -337ZM300 0V298H641V0H300Z" />
<glyph unicode="&#x201c;" horiz-adv-x="1300" d="M487 1501L618 1340Q580 1323 551 1301T505 1246T489 1159L270 1164Q270 1262 305 1329T391 1439T487 1501ZM610 1164V865H270V1164H610ZM940 1501L1071 1340Q1034 1323 1004 1301T958 1246T942 1159L723 1164Q723
1262 758 1329T844 1439T940 1501ZM1063 1164V865H723V1164H1063Z" />
<glyph unicode="&#x201d;" horiz-adv-x="1300" d="M829 764L698 925Q736 944 765 965T810 1019T827 1107L1046 1102Q1046 1003 1011 936T924 827T829 764ZM706 1102V1400H1046V1102H706ZM376 764L245 925Q283 944 312 965T357 1019T374 1107L593 1102Q593 1003
557 936T471 827T376 764ZM253 1102V1400H593V1102H253Z" />
<glyph unicode="&#x201e;" horiz-adv-x="1300" d="M281 -337L150 -177Q189 -158 218 -137T263 -82T280 5L499 0Q499 -99 463 -166T377 -275T281 -337ZM158 0V298H499V0H158ZM774 -337L643 -177Q682 -158 711 -137T756 -82T773 5L992 0Q992 -99 956 -166T870 -275T774
-337ZM651 0V298H992V0H651Z" />
<glyph unicode="&#x2022;" horiz-adv-x="1300" d="M592 347Q502 347 429 390T312 506T269 670Q269 761 312 835T428 952T592 995Q682 995 755 952T872 835T915 670Q915 580 872 507T756 390T592 347Z" />
<glyph unicode="&#x2039;" horiz-adv-x="1300" d="M736 165L286 501L391 659L861 323L736 165ZM286 501V673H370V501H286ZM391 517L286 673L736 1009L861 851L391 517Z" />
<glyph unicode="&#x203a;" horiz-adv-x="1300" d="M487 165L362 323L831 659L936 501L487 165ZM936 501H853V673H936V501ZM831 517L362 851L487 1009L936 673L831 517Z" />
</font>
</defs>
</svg>
